osu file format v14

[General]
AudioFilename: 02 Needles.mp3
AudioLeadIn: 0
PreviewTime: 55810
Countdown: 0
SampleSet: Soft
StackLeniency: 0.7
Mode: 0
LetterboxInBreaks: 1
WidescreenStoryboard: 0

[Editor]
DistanceSpacing: 0.9
BeatDivisor: 4
GridSize: 4
TimelineZoom: 1.32

[Metadata]
Title:Needles
TitleUnicode:Needles
Artist:System Of A Down
ArtistUnicode:System Of A Down
Creator:jawns
Version:Pain in the A**
Source:
Tags:
BeatmapID:789079
BeatmapSetID:358872

[Difficulty]
HPDrainRate:5
CircleSize:4
OverallDifficulty:8
ApproachRate:9.5
SliderMultiplier:2.6
SliderTickRate:1

[Events]
//Background and Video events
0,0,"doctor_needle1024.jpg",0,0
//Break Periods
//Storyboard Layer 0 (Background)
//Storyboard Layer 1 (Fail)
//Storyboard Layer 2 (Pass)
//Storyboard Layer 3 (Foreground)
//Storyboard Sound Samples

[TimingPoints]
195,329.139999999999,4,2,0,100,1,0
2836,324.239999999998,4,2,0,100,1,0
4132,320.239999999998,4,2,0,100,1,0
5425,316.209999999999,4,2,0,100,1,0
7968,317.369999999999,4,2,0,100,1,0
10480,328.919999999998,4,2,0,100,1,0
15742,317.309896129728,4,2,0,100,1,0
20818,325.420319052709,4,2,0,100,1,0
26026,315.520319052707,4,2,0,100,1,0
31088,313.520319052706,4,2,0,100,1,0
36104,314.260319052706,4,2,0,100,1,0
37361,322.260319052707,4,2,0,100,1,0
38651,324.520319052706,4,2,0,100,1,0
39955,305.520319052706,4,2,0,100,1,0
41198,310.920319052706,4,2,0,100,1,0
43685,316.320319052707,4,2,0,100,1,0
46226,306.320319052707,4,2,0,100,1,0
48689,315.020319052707,4,1,0,100,1,0
51210,315.420319052707,4,2,0,100,1,0
53733,306.020319052707,4,1,0,100,1,0
56181,313.420319052707,4,1,0,100,1,1
61195,308.120319052707,4,1,0,100,1,1
63659,308.620319052707,4,1,0,100,1,1
66127,309.020319052707,4,2,0,100,1,0
68623,321.320319052707,4,2,0,100,1,0
76334,309.620319052707,4,2,0,100,1,0
81287,325.920319052707,4,2,0,100,1,0
86501,320.920319052707,4,2,0,100,1,0
89068,311.920319052707,4,2,0,100,1,0
91563,313.320319052707,4,2,0,100,1,0
94085,306.310319052707,4,1,0,100,1,0
95292,308.330319052707,4,1,0,100,1,0
96525,321.830319052707,4,2,0,100,1,0
99099,303.830319052707,4,1,0,100,1,0
101529,311.830319052707,4,1,0,100,1,1
111507,323.830319052707,4,2,0,100,1,0
116686,324.830319052707,4,2,0,100,1,0
121889,327.830319052707,4,2,0,100,1,0
127132,323.830319052707,4,2,0,100,1,0
137496,326.830319052707,4,2,0,100,1,0
153195,315.830319052707,4,2,0,100,1,0
155721,317.830319052707,4,2,0,100,1,0
158263,326.830319052707,4,2,0,100,1,0
160880,319.830319052707,4,2,0,100,1,0
162159,317.830319052707,4,2,0,100,1,0
163430,313.730319052707,4,2,0,100,1,0
165964,310.830319052707,4,1,0,100,1,0
168450,316.830319052707,4,2,0,100,1,0
170984,306.830319052707,4,1,0,100,1,0
173442,306.830319052707,4,1,0,100,1,1
178365,305.830319052707,4,1,0,100,1,1
180833,299.830319052707,4,1,0,100,1,1
183231,304.830319052707,4,2,0,100,1,0

[HitObjects]
132,164,195,5,8,0:0:0:0:
124,144,277,1,0,0:0:0:0:
124,120,359,1,0,0:0:0:0:
208,128,524,1,0,0:0:0:0:
200,108,606,1,0,0:0:0:0:
200,84,688,1,0,0:0:0:0:
292,112,853,1,0,0:0:0:0:
284,92,935,1,0,0:0:0:0:
284,68,1017,1,0,0:0:0:0:
384,112,1182,1,0,0:0:0:0:
376,92,1264,1,0,0:0:0:0:
376,68,1346,1,0,0:0:0:0:
460,96,1511,5,8,0:0:0:0:
468,116,1593,1,0,0:0:0:0:
468,140,1676,1,0,0:0:0:0:
456,208,1840,1,0,0:0:0:0:
445,226,1922,1,0,0:0:0:0:
429,243,2005,1,0,0:0:0:0:
364,272,2169,1,0,0:0:0:0:
341,275,2252,1,0,0:0:0:0:
319,274,2334,1,0,0:0:0:0:
264,232,2498,1,0,0:0:0:0:
250,213,2581,1,0,0:0:0:0:
241,192,2663,1,0,0:0:0:0:
308,172,2828,5,8,0:0:0:0:
300,190,2917,1,0,0:0:0:0:
286,210,2998,1,0,0:0:0:0:
216,224,3160,1,0,0:0:0:0:
200,213,3241,1,0,0:0:0:0:
182,195,3322,1,0,0:0:0:0:
176,124,3484,1,8,0:0:0:0:
179,102,3565,1,0,0:0:0:0:
192,82,3646,1,0,0:0:0:0:
260,60,3808,1,0,0:0:0:0:
281,60,3889,1,0,0:0:0:0:
302,72,3970,1,0,0:0:0:0:
356,120,4132,5,8,0:0:0:0:
375,135,4212,1,0,0:0:0:0:
396,139,4292,1,0,0:0:0:0:
396,212,4452,1,8,0:0:0:0:
372,211,4532,1,0,0:0:0:0:
352,220,4612,1,0,0:0:0:0:
292,256,4772,1,8,0:0:0:0:
271,264,4852,1,0,0:0:0:0:
247,263,4932,1,0,0:0:0:0:
204,208,5092,1,8,0:0:0:0:
180,213,5172,1,0,0:0:0:0:
163,227,5252,1,0,0:0:0:0:
104,264,5412,5,8,0:0:0:0:
104,236,5504,1,0,0:0:0:0:
104,208,5583,1,0,0:0:0:0:
104,116,5741,2,0,P|148:60|204:36,1,130
324,0,6057,1,8,0:0:0:0:
512,116,6215,1,0,0:0:0:0:
408,316,6373,2,0,P|288:316|272:308,1,130
172,284,6689,5,8,0:0:0:0:
160,72,6847,1,0,0:0:0:0:
472,200,7006,1,8,0:0:0:0:
368,344,7164,1,0,0:0:0:0:
236,64,7322,1,8,0:0:0:0:
460,108,7480,1,0,0:0:0:0:
192,288,7638,2,0,P|104:200|104:184,1,130
88,132,7954,5,8,0:0:0:0:
100,112,8047,1,0,0:0:0:0:
128,96,8126,1,0,0:0:0:0:
216,40,8285,1,0,0:0:0:0:
488,40,8444,1,0,0:0:0:0:
344,312,8602,2,8,P|215:275|192:236,1,130,8|0,0:0|0:0,0:0:0:0:
152,40,8920,1,0,0:0:0:0:
8,216,9078,1,0,0:0:0:0:
232,368,9237,5,8,0:0:0:0:
240,192,9396,1,0,0:0:0:0:
408,0,9554,1,8,0:0:0:0:
504,192,9713,1,0,0:0:0:0:
240,192,9872,1,8,0:0:0:0:
60,44,10030,1,0,0:0:0:0:
56,340,10189,1,0,0:0:0:0:
240,192,10348,1,8,0:0:0:0:
292,140,10506,5,8,0:0:0:0:
304,124,10562,1,0,0:0:0:0:
316,108,10644,1,0,0:0:0:0:
356,48,10808,2,0,P|464:120|472:148,1,130
448,240,11137,2,0,P|356:312|340:312,1,130
152,316,11466,1,0,0:0:0:0:
144,72,11631,1,0,0:0:0:0:
348,72,11795,6,8,P|316:196|296:216,1,130,8|0,0:0|0:0,0:0:0:0:
200,316,12124,1,0,0:0:0:0:
60,184,12289,1,0,0:0:0:0:
52,156,12371,1,0,0:0:0:0:
52,128,12453,1,0,0:0:0:0:
196,0,12617,1,0,0:0:0:0:
412,72,12782,1,0,0:0:0:0:
456,312,12946,1,0,0:0:0:0:
292,320,13111,5,8,0:0:0:0:
260,320,13193,1,0,0:0:0:0:
228,320,13275,1,0,0:0:0:0:
64,228,13440,1,0,0:0:0:0:
148,108,13604,2,8,P|244:112|304:156,1,130,0|8,0:0|0:0,0:0:0:0:
280,136,13851,1,0,0:0:0:0:
288,144,13933,1,0,0:0:0:0:
460,324,14098,1,0,0:0:0:0:
196,260,14262,1,0,0:0:0:0:
468,72,14427,5,8,0:0:0:0:
284,72,14591,1,0,0:0:0:0:
260,88,14673,1,0,0:0:0:0:
236,104,14755,1,8,0:0:0:0:
36,232,14920,1,0,0:0:0:0:
104,24,15084,1,8,0:0:0:0:
232,364,15249,1,0,0:0:0:0:
124,360,15413,1,8,0:0:0:0:
360,64,15578,1,0,0:0:0:0:
188,204,15742,5,8,0:0:0:0:
208,224,15821,1,0,0:0:0:0:
228,244,15900,1,0,0:0:0:0:
432,332,16059,1,0,0:0:0:0:
432,40,16217,1,0,0:0:0:0:
292,160,16376,1,8,0:0:0:0:
272,180,16455,1,0,0:0:0:0:
252,200,16535,1,0,0:0:0:0:
120,352,16693,1,0,0:0:0:0:
8,136,16852,1,0,0:0:0:0:
192,32,17011,6,8,P|272:36|320:92,1,130,8|0,0:0|0:0,0:0:0:0:
364,228,17328,2,8,P|316:276|228:272,1,130,8|0,0:0|0:0,0:0:0:0:
52,248,17645,1,8,0:0:0:0:
192,376,17804,1,0,0:0:0:0:
196,8,17963,1,0,0:0:0:0:
64,84,18121,1,0,0:0:0:0:
268,88,18280,6,8,P|336:84|388:52,1,130,8|0,0:0|0:0,0:0:0:0:
396,44,18518,1,0,0:0:0:0:
400,32,18597,1,0,0:0:0:0:
208,48,18756,1,0,0:0:0:0:
472,196,18915,1,8,0:0:0:0:
472,0,19073,1,0,0:0:0:0:
232,200,19232,1,0,0:0:0:0:
488,372,19391,1,0,0:0:0:0:
436,168,19549,6,8,P|340:92|324:88,1,130,8|0,0:0|0:0,0:0:0:0:
244,96,19867,1,8,0:0:0:0:
216,100,19946,1,0,0:0:0:0:
188,112,20025,1,0,0:0:0:0:
24,212,20184,1,8,0:0:0:0:
224,384,20342,1,0,0:0:0:0:
344,208,20501,1,0,0:0:0:0:
144,40,20660,1,8,0:0:0:0:
340,40,20818,5,8,0:0:0:0:
404,160,20980,1,0,0:0:0:0:
416,188,21062,1,0,0:0:0:0:
424,216,21143,2,0,P|356:328|328:336,1,130
240,336,21468,1,0,0:0:0:0:
96,232,21631,1,0,0:0:0:0:
100,80,21794,1,0,0:0:0:0:
256,0,21956,1,0,0:0:0:0:
364,76,22119,5,8,0:0:0:0:
364,236,22282,1,0,0:0:0:0:
340,252,22363,1,0,0:0:0:0:
316,264,22445,2,0,P|260:276|188:264,1,130
76,236,22770,1,0,0:0:0:0:
384,96,22933,1,0,0:0:0:0:
152,52,23095,1,0,0:0:0:0:
416,260,23258,1,8,0:0:0:0:
300,308,23421,5,8,0:0:0:0:
272,308,23502,1,0,0:0:0:0:
244,308,23584,1,0,0:0:0:0:
88,284,23746,2,0,P|52:160|56:148,1,130
96,80,24072,1,8,0:0:0:0:
116,60,24153,1,0,0:0:0:0:
136,40,24234,1,0,0:0:0:0:
256,0,24397,2,0,P|376:24|392:40,1,130
416,116,24723,5,8,0:0:0:0:
160,252,24885,1,0,0:0:0:0:
416,248,25048,1,8,0:0:0:0:
160,120,25211,1,0,0:0:0:0:
428,0,25373,1,8,0:0:0:0:
160,384,25536,1,0,0:0:0:0:
424,384,25699,1,8,0:0:0:0:
160,0,25862,1,0,0:0:0:0:
296,20,26024,5,12,0:0:0:0:
72,336,26341,1,0,0:0:0:0:
504,156,26657,1,0,0:0:0:0:
40,148,26972,1,0,0:0:0:0:
472,348,27288,1,0,0:0:0:0:
184,4,27603,1,0,0:0:0:0:
240,360,27919,1,0,0:0:0:0:
448,24,28234,1,0,0:0:0:0:
376,336,28550,5,0,0:0:0:0:
32,200,28865,1,0,0:0:0:0:
252,0,29181,1,0,0:0:0:0:
500,268,29496,1,0,0:0:0:0:
156,8,29812,1,0,0:0:0:0:
12,256,30127,1,0,0:0:0:0:
348,380,30443,1,0,0:0:0:0:
296,160,30758,1,0,0:0:0:0:
296,160,30916,1,0,0:0:0:0:
296,160,31074,5,4,0:0:0:0:
0,0,31401,1,0,0:0:0:0:
256,192,31715,1,0,0:0:0:0:
4,384,32028,1,0,0:0:0:0:
256,192,32342,1,0,0:0:0:0:
512,376,32655,1,0,0:0:0:0:
256,192,32969,1,0,0:0:0:0:
512,0,33282,1,0,0:0:0:0:
260,360,33596,5,0,0:0:0:0:
256,32,33909,1,0,0:0:0:0:
28,192,34223,1,0,0:0:0:0:
472,192,34536,1,0,0:0:0:0:
76,28,34850,1,4,0:0:0:0:
72,344,35163,1,4,0:0:0:0:
448,28,35477,1,4,0:0:0:0:
452,348,35790,1,4,0:0:0:0:
328,232,36104,5,8,0:0:0:0:
308,212,36182,1,0,0:0:0:0:
288,192,36261,1,0,0:0:0:0:
164,12,36418,1,0,0:0:0:0:
4,208,36575,2,8,P|116:276|136:276,1,130,0|8,0:0|0:0,0:0:0:0:
368,284,36889,2,0,P|456:200|456:176,1,130
380,28,37203,1,0,0:0:0:0:
356,44,37282,1,0,0:0:0:0:
328,64,37361,6,8,P|264:104|220:160,1,130,8|0,0:0|0:0,0:0:0:0:
108,328,37683,1,8,0:0:0:0:
436,348,37844,1,0,0:0:0:0:
372,204,38005,2,8,P|328:148|280:112,1,130,8|0,0:0|0:0,0:0:0:0:
104,108,38327,2,0,P|48:164|32:248,1,130
36,220,38569,1,0,0:0:0:0:
40,228,38650,5,8,0:0:0:0:
184,364,38813,1,0,0:0:0:0:
448,340,38975,1,0,0:0:0:0:
424,128,39137,1,8,0:0:0:0:
236,24,39300,2,8,P|112:88|96:108,1,130,8|0,0:0|0:0,0:0:0:0:
128,240,39624,2,0,P|228:280|264:276,1,130,0|8,0:0|0:0,0:0:0:0:
408,164,39949,5,8,0:0:0:0:
232,4,40107,1,0,0:0:0:0:
48,224,40260,1,8,0:0:0:0:
292,348,40413,1,0,0:0:0:0:
468,229,40566,2,8,P|416:121|404:112,1,130,8|0,0:0|0:0,0:0:0:0:
160,24,40871,1,8,0:0:0:0:
156,300,41024,1,0,0:0:0:0:
252,192,41177,5,4,0:0:0:0:
504,0,41508,1,0,0:0:0:0:
496,352,41819,1,0,0:0:0:0:
32,8,42130,1,0,0:0:0:0:
36,348,42441,1,0,0:0:0:0:
320,20,42752,1,0,0:0:0:0:
324,360,43063,1,0,0:0:0:0:
200,24,43374,1,0,0:0:0:0:
180,368,43685,5,4,0:0:0:0:
432,232,44001,1,0,0:0:0:0:
292,24,44317,1,0,0:0:0:0:
76,156,44633,1,0,0:0:0:0:
184,344,44950,2,4,P|128:312|104:220,1,130
96,140,45266,2,4,P|128:84|220:56,1,130
312,48,45582,2,4,P|368:80|392:172,1,130
396,236,45899,2,4,P|364:292|276:312,1,130
76,272,46215,5,4,0:0:0:0:
268,48,46685,1,0,0:0:0:0:
392,56,46838,2,0,B|368:132|456:180|418:214|316:304,1,260,8|0,0:0|0:0,0:0:0:0:
200,344,47451,1,4,0:0:0:0:
120,104,47910,1,0,0:0:0:0:
264,80,48063,2,0,B|236:160|244:244|416:156|308:364,1,260,8|0,0:0|0:0,0:0:0:0:
248,368,48523,1,0,0:0:0:0:
48,276,48676,5,0,0:0:0:0:
420,80,49004,1,8,0:0:0:0:
420,80,49082,1,8,0:0:0:0:
420,80,49161,1,8,0:0:0:0:
92,56,49319,1,0,0:0:0:0:
388,284,49634,1,8,0:0:0:0:
388,284,49712,1,8,0:0:0:0:
388,284,49791,1,8,0:0:0:0:
456,32,49949,5,0,0:0:0:0:
104,264,50264,1,8,0:0:0:0:
104,264,50342,1,8,0:0:0:0:
104,264,50421,1,8,0:0:0:0:
56,352,50579,1,0,0:0:0:0:
392,216,50894,1,8,0:0:0:0:
104,44,51210,5,4,0:0:0:0:
328,356,51683,1,0,0:0:0:0:
416,172,51840,2,0,P|372:56|248:24,1,260,8|0,0:0|0:0,0:0:0:0:
56,236,52471,1,4,0:0:0:0:
320,356,52944,1,0,0:0:0:0:
356,208,53102,2,0,P|304:96|176:72,1,260,8|0,0:0|0:0,0:0:0:0:
20,160,53575,1,0,0:0:0:0:
164,340,53733,5,0,0:0:0:0:
332,28,54039,1,8,0:0:0:0:
332,28,54115,1,8,0:0:0:0:
332,28,54192,1,8,0:0:0:0:
72,64,54345,1,0,0:0:0:0:
424,328,54651,1,8,0:0:0:0:
424,328,54727,1,8,0:0:0:0:
424,328,54804,1,8,0:0:0:0:
456,152,54957,5,0,0:0:0:0:
92,296,55263,1,8,0:0:0:0:
92,296,55339,1,8,0:0:0:0:
92,296,55416,1,8,0:0:0:0:
104,148,55569,2,0,B|168:16|236:208|304:16,1,260,0|8,0:0|0:0,0:0:0:0:
396,4,56181,6,0,P|444:36|464:124,1,130
312,352,56494,1,8,0:0:0:0:
40,176,56651,1,0,0:0:0:0:
180,32,56807,1,0,0:0:0:0:
164,332,56964,1,0,0:0:0:0:
72,48,57121,1,8,0:0:0:0:
444,56,57277,1,0,0:0:0:0:
448,340,57434,5,0,0:0:0:0:
144,136,57591,1,0,0:0:0:0:
356,160,57748,1,8,0:0:0:0:
92,304,57904,1,8,0:0:0:0:
92,304,57983,1,8,0:0:0:0:
92,304,58061,1,8,0:0:0:0:
88,192,58218,1,0,0:0:0:0:
172,88,58374,2,8,P|224:64|300:68,1,130,8|0,0:0|0:0,0:0:0:0:
408,160,58688,6,0,P|400:236|332:292,1,130
224,340,59001,1,8,0:0:0:0:
56,188,59158,1,0,0:0:0:0:
100,332,59315,1,0,0:0:0:0:
392,40,59471,1,0,0:0:0:0:
388,308,59628,1,8,0:0:0:0:
68,40,59785,1,0,0:0:0:0:
56,324,59942,5,0,0:0:0:0:
448,228,60098,1,0,0:0:0:0:
64,112,60255,1,8,0:0:0:0:
432,44,60412,1,8,0:0:0:0:
432,44,60490,1,8,0:0:0:0:
432,44,60568,1,8,0:0:0:0:
376,228,60725,1,0,0:0:0:0:
192,328,60882,2,8,B|172:272|104:340|96:232,1,130,8|0,0:0|0:0,0:0:0:0:
116,88,61195,6,0,B|176:60|192:140|252:104,1,130
428,328,61503,1,8,0:0:0:0:
440,196,61657,1,0,0:0:0:0:
296,336,61811,1,0,0:0:0:0:
416,56,61965,1,0,0:0:0:0:
116,52,62119,1,8,0:0:0:0:
104,312,62273,1,0,0:0:0:0:
424,316,62427,5,0,0:0:0:0:
272,56,62581,1,0,0:0:0:0:
72,192,62735,1,8,0:0:0:0:
316,340,62889,1,8,0:0:0:0:
316,340,62966,1,8,0:0:0:0:
316,340,63043,1,8,0:0:0:0:
192,216,63197,1,0,0:0:0:0:
180,76,63351,2,8,B|160:28|104:60|60:28,1,130,8|0,0:0|0:0,0:0:0:0:
24,40,63813,5,8,0:0:0:0:
76,296,64121,1,8,0:0:0:0:
232,288,64276,2,8,P|336:232|356:92,1,260
236,44,64893,1,8,0:0:0:0:
76,296,65047,1,8,0:0:0:0:
432,296,65202,1,8,0:0:0:0:
236,44,65356,2,8,L|236:188,1,130
256,192,65973,1,8,0:0:0:0:
328,248,66127,5,8,0:0:0:0:
352,264,66204,1,0,0:0:0:0:
376,280,66281,1,0,0:0:0:0:
456,328,66436,2,0,P|484:268|484:200,1,130
448,44,66745,1,8,0:0:0:0:
244,0,66899,1,0,0:0:0:0:
48,96,67054,2,0,P|24:156|40:220,1,130
162,270,67363,5,8,0:0:0:0:
411,46,67517,1,0,0:0:0:0:
342,374,67672,1,8,0:0:0:0:
205,68,67826,1,0,0:0:0:0:
495,235,67981,1,8,0:0:0:0:
162,270,68135,1,0,0:0:0:0:
44,184,68290,2,0,P|32:136|72:56,1,130
144,24,68599,5,8,0:0:0:0:
172,16,68703,1,0,0:0:0:0:
200,20,68783,1,0,0:0:0:0:
364,20,68944,2,0,P|416:48|444:112,1,130
444,236,69265,1,8,0:0:0:0:
428,260,69345,1,0,0:0:0:0:
412,284,69426,1,0,0:0:0:0:
396,308,69506,1,0,0:0:0:0:
380,332,69586,2,0,L|220:332,1,130
88,288,69908,5,8,0:0:0:0:
200,40,70068,1,0,0:0:0:0:
444,128,70229,1,8,0:0:0:0:
320,352,70390,1,0,0:0:0:0:
160,336,70550,1,8,0:0:0:0:
148,308,70631,1,0,0:0:0:0:
140,280,70711,1,0,0:0:0:0:
128,252,70791,1,0,0:0:0:0:
120,224,70872,1,8,0:0:0:0:
112,196,70952,1,0,0:0:0:0:
100,168,71032,1,0,0:0:0:0:
88,140,71113,1,0,0:0:0:0:
76,112,71193,5,4,0:0:0:0:
472,192,71514,1,0,0:0:0:0:
60,104,71836,1,0,0:0:0:0:
416,340,72157,1,0,0:0:0:0:
412,44,72478,1,0,0:0:0:0:
88,344,72800,1,0,0:0:0:0:
320,12,73121,1,0,0:0:0:0:
328,364,73442,1,0,0:0:0:0:
224,12,73764,5,0,0:0:0:0:
224,364,74085,1,0,0:0:0:0:
128,16,74406,1,0,0:0:0:0:
448,20,74728,1,0,0:0:0:0:
52,20,75049,1,0,0:0:0:0:
48,344,75370,1,0,0:0:0:0:
52,20,75692,1,0,0:0:0:0:
444,24,76013,1,0,0:0:0:0:
444,24,76174,1,0,0:0:0:0:
444,24,76334,5,4,0:0:0:0:
256,192,76643,1,0,0:0:0:0:
64,356,76953,1,0,0:0:0:0:
64,192,77262,1,0,0:0:0:0:
64,24,77572,1,0,0:0:0:0:
256,192,77882,1,0,0:0:0:0:
460,352,78191,1,0,0:0:0:0:
456,184,78501,1,0,0:0:0:0:
252,0,78810,5,0,0:0:0:0:
0,192,79120,1,0,0:0:0:0:
252,380,79430,1,0,0:0:0:0:
488,192,79739,1,0,0:0:0:0:
476,128,80049,2,4,L|476:260,1,130
320,368,80359,2,4,L|184:368,1,130
40,244,80668,2,4,L|40:112,1,130
200,32,80978,2,4,L|332:32,1,130
508,160,81287,5,8,0:0:0:0:
496,168,81368,1,0,0:0:0:0:
484,176,81449,1,0,0:0:0:0:
388,224,81612,2,0,B|360:224|344:268|272:200,1,130
196,152,81938,1,8,0:0:0:0:
184,140,82020,1,0,0:0:0:0:
172,128,82101,1,0,0:0:0:0:
44,20,82264,2,0,B|28:28|20:40|12:52|48:136,1,130
128,272,82590,6,0,P|184:292|248:264,1,130,8|0,0:0|0:0,0:0:0:0:
264,36,82916,1,8,0:0:0:0:
36,160,83079,1,0,0:0:0:0:
200,328,83242,2,8,P|268:344|328:324,1,130,8|0,0:0|0:0,0:0:0:0:
388,216,83568,1,0,0:0:0:0:
464,24,83731,1,0,0:0:0:0:
468,292,83894,5,8,0:0:0:0:
260,292,84057,1,0,0:0:0:0:
260,28,84220,1,0,0:0:0:0:
48,28,84383,1,0,0:0:0:0:
48,176,84546,2,8,B|40:268|120:304,1,130,8|0,0:0|0:0,0:0:0:0:
320,288,84872,2,0,P|340:264|344:168,1,130
220,24,85198,5,8,0:0:0:0:
40,208,85361,1,0,0:0:0:0:
308,376,85523,1,8,0:0:0:0:
488,204,85686,1,0,0:0:0:0:
416,16,85849,2,8,P|344:16|296:68,1,130,8|0,0:0|0:0,0:0:0:0:
204,280,86175,1,8,0:0:0:0:
24,28,86338,2,4,L|24:160,1,130,8|4,0:0|0:0,0:0:0:0:
436,52,86821,5,0,0:0:0:0:
40,192,87142,1,0,0:0:0:0:
456,344,87463,1,0,0:0:0:0:
40,192,87784,1,0,0:0:0:0:
256,32,88105,1,0,0:0:0:0:
40,192,88426,1,0,0:0:0:0:
256,352,88747,1,0,0:0:0:0:
160,36,89068,5,4,0:0:0:0:
252,348,89379,1,0,0:0:0:0:
368,36,89691,1,0,0:0:0:0:
252,348,90003,1,0,0:0:0:0:
160,36,90315,2,4,L|196:164,1,130
219,237,90627,2,4,L|256:364,1,130
255,361,90939,2,4,L|312:224,1,130
336,152,91251,2,4,L|384:24,1,130
460,40,91563,5,4,0:0:0:0:
472,264,92032,1,0,0:0:0:0:
396,328,92189,2,0,P|284:336|136:320,1,260,8|0,0:0|0:0,0:0:0:0:
40,216,92816,1,4,0:0:0:0:
84,44,93286,1,0,0:0:0:0:
212,36,93442,2,0,P|328:36|472:56,1,260,8|0,0:0|0:0,0:0:0:0:
476,108,93912,1,0,0:0:0:0:
480,176,94069,5,0,0:0:0:0:
56,168,94391,1,8,0:0:0:0:
56,168,94467,1,8,0:0:0:0:
56,168,94544,1,8,0:0:0:0:
464,280,94697,1,0,0:0:0:0:
56,168,95003,1,8,0:0:0:0:
56,168,95080,1,8,0:0:0:0:
56,168,95157,1,8,0:0:0:0:
480,176,95310,5,0,0:0:0:0:
56,168,95600,1,8,0:0:0:0:
56,168,95677,1,8,0:0:0:0:
56,168,95754,1,8,0:0:0:0:
460,68,95908,1,0,0:0:0:0:
464,280,96216,1,8,0:0:0:0:
364,320,96525,6,12,P|256:344|112:304,1,260,4|0,0:0|0:0,0:0:0:0:
40,168,97007,1,0,0:0:0:0:
52,92,97168,2,0,B|76:20|128:100|148:124|272:4,1,260,8|0,0:0|0:0,0:0:0:0:
368,116,97812,1,4,0:0:0:0:
468,316,98134,1,0,0:0:0:0:
260,320,98295,1,0,0:0:0:0:
160,276,98455,2,0,B|116:240|144:188|244:84|268:68,1,260,8|0,0:0|0:0,0:0:0:0:
372,24,98938,1,0,0:0:0:0:
496,144,99099,5,0,0:0:0:0:
96,28,99402,1,8,0:0:0:0:
96,28,99478,1,8,0:0:0:0:
96,28,99554,1,8,0:0:0:0:
100,328,99706,1,0,0:0:0:0:
396,24,100010,1,8,0:0:0:0:
396,24,100086,1,8,0:0:0:0:
396,24,100162,1,8,0:0:0:0:
408,332,100314,5,0,0:0:0:0:
256,192,100618,1,8,0:0:0:0:
256,192,100694,1,8,0:0:0:0:
256,192,100770,1,8,0:0:0:0:
256,192,100921,2,12,B|144:104|360:148|344:0,1,260,0|12,0:0|0:0,0:0:0:0:
440,44,101529,6,0,P|448:108|440:180,1,130
336,336,101840,1,8,0:0:0:0:
56,264,101996,1,0,0:0:0:0:
452,208,102152,1,0,0:0:0:0:
72,72,102308,1,0,0:0:0:0:
440,32,102464,1,8,0:0:0:0:
72,72,102620,1,0,0:0:0:0:
452,208,102776,5,0,0:0:0:0:
264,20,102932,1,0,0:0:0:0:
88,304,103088,1,8,0:0:0:0:
320,200,103244,1,8,0:0:0:0:
320,200,103322,1,8,0:0:0:0:
320,200,103399,2,8,L|392:80,1,130,8|0,0:0|0:0,0:0:0:0:
416,28,103711,2,8,L|276:28,1,130,8|0,0:0|0:0,0:0:0:0:
228,32,104023,6,0,L|160:148,1,130
88,304,104335,1,8,0:0:0:0:
336,40,104491,1,0,0:0:0:0:
472,192,104647,1,0,0:0:0:0:
112,48,104803,1,0,0:0:0:0:
260,344,104959,1,8,0:0:0:0:
336,40,105115,1,0,0:0:0:0:
60,136,105270,5,0,0:0:0:0:
432,320,105426,1,0,0:0:0:0:
452,64,105582,1,8,0:0:0:0:
292,352,105738,1,8,0:0:0:0:
292,352,105816,1,8,0:0:0:0:
292,352,105894,1,8,0:0:0:0:
292,352,106050,1,0,0:0:0:0:
292,192,106206,2,8,L|292:56,1,130,8|0,0:0|0:0,0:0:0:0:
292,62,106518,5,0,0:0:0:0:
292,352,106674,1,0,0:0:0:0:
292,62,106830,1,8,0:0:0:0:
80,328,106986,1,0,0:0:0:0:
456,148,107141,1,0,0:0:0:0:
80,328,107297,1,0,0:0:0:0:
100,56,107453,1,8,0:0:0:0:
456,148,107609,1,0,0:0:0:0:
436,36,107765,5,0,0:0:0:0:
96,316,107921,1,0,0:0:0:0:
432,316,108077,1,8,0:0:0:0:
256,192,108233,1,8,0:0:0:0:
256,192,108311,1,8,0:0:0:0:
256,192,108389,1,8,0:0:0:0:
156,112,108545,1,0,0:0:0:0:
256,96,108701,2,8,P|296:96|384:124,1,130,8|0,0:0|0:0,0:0:0:0:
432,192,109168,5,0,0:0:0:0:
384,272,109480,1,0,0:0:0:0:
308,312,109636,2,0,P|260:324|80:232,1,260
68,152,110260,1,0,0:0:0:0:
72,56,110416,1,0,0:0:0:0:
132,108,110727,2,0,B|200:8|172:312|256:276|312:-8|368:272|456:328|400:8|500:112,1,455
489,103,111507,5,4,0:0:0:0:
156,272,112802,1,0,0:0:0:0:
200,100,114097,1,0,0:0:0:0:
424,292,115392,1,0,0:0:0:0:
84,152,116686,5,0,0:0:0:0:
460,108,117985,1,0,0:0:0:0:
136,324,119284,1,0,0:0:0:0:
88,104,120583,1,0,0:0:0:0:
200,88,121883,5,4,0:0:0:0:
276,96,122216,2,0,P|252:152|184:160,1,130
124,128,122708,1,8,0:0:0:0:
128,56,122872,2,0,P|68:80|56:156,1,130
88,204,123200,1,4,0:0:0:0:
168,208,123528,1,0,0:0:0:0:
252,204,123692,2,0,P|236:156|164:132,1,130
168,208,124019,1,8,0:0:0:0:
165,131,124183,2,0,P|105:152|80:224,1,130
152,208,124511,5,4,0:0:0:0:
75,203,124839,2,0,P|100:264|160:280,1,130
228,280,125331,1,8,0:0:0:0:
304,280,125495,2,0,P|288:328|212:352,1,130
228,280,125822,1,4,0:0:0:0:
264,212,126150,1,0,0:0:0:0:
300,148,126314,1,0,0:0:0:0:
344,84,126478,1,0,0:0:0:0:
384,16,126642,1,8,0:0:0:0:
456,20,126806,2,0,P|432:76|368:88,1,130
300,76,127132,5,4,0:0:0:0:
300,4,127455,2,0,P|240:36|232:104,1,130
244,156,127941,1,8,0:0:0:0:
316,156,128103,2,0,P|292:212|224:232,1,130
232,304,128427,1,4,0:0:0:0:
312,308,128751,2,0,L|452:308,1,130
512,304,129236,1,8,0:0:0:0:
512,220,129398,2,0,L|512:88,1,130
500,16,129722,5,4,0:0:0:0:
500,16,130046,2,0,P|452:40|432:120,1,130
500,108,130532,1,8,0:0:0:0:
500,184,130694,2,0,L|368:184,1,130
296,180,131017,1,4,0:0:0:0:
300,100,131341,2,0,L|432:100,1,130
428,28,131827,1,8,0:0:0:0:
348,28,131989,2,0,L|216:28,1,130
64,252,132313,6,4,B|96:308|148:320|168:324,1,130,4|0,0:0|0:0,0:0:0:0:
232,96,132637,2,0,P|180:76|160:8,1,130
88,16,133122,1,8,0:0:0:0:
92,92,133284,2,0,P|116:156|180:168,1,130
28,332,133608,1,4,0:0:0:0:
328,248,133770,1,0,0:0:0:0:
448,68,134094,2,8,P|472:184|276:336,1,390
328,196,134903,5,4,0:0:0:0:
168,100,135227,2,0,P|211:124|224:208,1,130
156,172,135713,1,8,0:0:0:0:
72,316,135875,1,0,0:0:0:0:
308,332,136037,1,0,0:0:0:0:
472,172,136199,1,4,0:0:0:0:
340,0,136361,1,0,0:0:0:0:
212,36,136684,2,8,B|232:164|324:232|508:216,1,390
356,68,137494,5,4,0:0:0:0:
84,172,137822,2,0,P|104:224|176:244,1,130
156,172,138313,1,8,0:0:0:0:
240,168,138476,2,0,L|240:304,1,130
376,384,138803,1,4,0:0:0:0:
428,156,138966,1,0,0:0:0:0:
272,0,139293,1,8,0:0:0:0:
72,0,139783,1,8,0:0:0:0:
0,184,140110,5,4,0:0:0:0:
300,284,140437,2,0,L|300:152,1,130
376,156,140927,1,8,0:0:0:0:
376,228,141091,2,0,L|376:364,1,130
264,368,141417,1,4,0:0:0:0:
96,288,141581,1,0,0:0:0:0:
20,88,141908,1,8,0:0:0:0:
240,0,142398,1,8,0:0:0:0:
480,32,142725,5,4,0:0:0:0:
448,360,143052,2,0,P|424:308|356:292,1,130
368,364,143542,1,8,0:0:0:0:
288,364,143705,2,0,L|144:364,1,130
16,200,144032,2,4,P|24:132|64:88,1,130,4|0,0:0|0:0,0:0:0:0:
268,32,144522,1,8,0:0:0:0:
512,152,145013,1,8,0:0:0:0:
288,216,145339,5,4,0:0:0:0:
232,364,145666,2,0,P|264:308|328:296,1,130
312,368,146157,1,8,0:0:0:0:
112,280,146320,1,0,0:0:0:0:
428,216,146483,1,0,0:0:0:0:
388,52,146647,2,4,P|328:8|264:4,1,130,4|0,0:0|0:0,0:0:0:0:
172,44,147137,2,8,P|96:168|188:376,1,390
448,340,147954,5,4,0:0:0:0:
308,292,148281,2,0,L|440:292,1,130
440,368,148771,1,8,0:0:0:0:
512,368,148935,2,0,L|512:232,1,130
512,124,149261,1,4,0:0:0:0:
352,32,149425,1,0,0:0:0:0:
168,36,149752,1,8,0:0:0:0:
16,124,150242,1,8,0:0:0:0:
256,336,150569,5,4,0:0:0:0:
428,256,150896,2,0,L|428:108,1,130
500,140,151386,1,8,0:0:0:0:
496,68,151549,2,0,L|360:68,1,130
260,24,151876,1,4,0:0:0:0:
24,160,152039,1,0,0:0:0:0:
200,168,152366,2,12,B|204:272|204:272|348:224|348:224|332:336|392:332,1,390,8|12,0:0|0:0,0:0:0:0:
424,336,153195,6,4,P|464:276|468:180,1,130
100,48,153510,2,12,P|60:108|40:164,1,130,12|4,0:0|0:0,0:0:0:0:
472,152,153826,2,4,P|464:108|420:36,1,130
43,236,154142,2,12,P|59:276|104:352,1,130,12|4,0:0|0:0,0:0:0:0:
424,48,154458,6,4,P|464:108|464:200,1,130
100,336,154774,2,12,P|60:276|40:216,1,130,12|4,0:0|0:0,0:0:0:0:
472,232,155089,2,4,P|464:276|420:348,1,130
44,148,155405,2,12,P|60:108|108:32,1,130,12|4,0:0|0:0,0:0:0:0:
296,0,155721,5,12,0:0:0:0:
456,240,155879,1,4,0:0:0:0:
220,384,156038,1,12,0:0:0:0:
44,148,156197,1,4,0:0:0:0:
216,0,156356,1,12,0:0:0:0:
56,240,156515,1,4,0:0:0:0:
292,384,156674,1,12,0:0:0:0:
464,148,156833,1,4,0:0:0:0:
376,4,156992,6,12,L|376:140,1,130
292,384,157310,2,12,L|292:252,1,130
216,0,157627,2,12,L|216:136,1,130
136,380,157945,2,12,L|136:244,1,130
32,148,158263,5,8,0:0:0:0:
44,132,158344,1,0,0:0:0:0:
56,116,158426,1,0,0:0:0:0:
180,12,158589,2,0,P|248:12|304:36,1,130
464,104,158916,2,8,P|485:150|488:232,1,130,8|0,0:0|0:0,0:0:0:0:
272,380,159243,1,0,0:0:0:0:
236,36,159406,1,0,0:0:0:0:
68,16,159570,6,0,P|28:76|24:132,1,130,8|0,0:0|0:0,0:0:0:0:
116,328,159897,2,0,P|176:360|236:348,1,130,8|0,0:0|0:0,0:0:0:0:
340,200,160223,1,8,0:0:0:0:
348,184,160305,1,0,0:0:0:0:
356,168,160387,1,0,0:0:0:0:
440,32,160550,2,0,P|488:76|508:156,1,130
508,312,160877,6,0,P|460:352|384:364,1,130,8|0,0:0|0:0,0:0:0:0:
168,360,161199,2,0,P|144:292|160:232,1,130
204,136,161519,1,8,0:0:0:0:
212,120,161599,1,0,0:0:0:0:
220,104,161679,1,0,0:0:0:0:
228,88,161759,1,0,0:0:0:0:
236,72,161839,2,0,P|192:20|128:8,1,130
56,40,162159,6,12,L|56:172,1,130,12|4,0:0|0:0,0:0:0:0:
456,40,162476,2,0,L|456:172,1,130,12|4,0:0|0:0,0:0:0:0:
56,228,162794,2,4,L|56:372,1,130,12|4,0:0|0:0,0:0:0:0:
456,228,163112,2,4,L|456:372,1,130,12|4,0:0|0:0,0:0:0:0:
304,344,163430,6,4,B|304:296|260:268|400:240|372:152|264:152|264:152|328:36,1,390,4|0,0:0|0:0,0:0:0:0:
444,68,164057,2,0,P|468:172|436:344,1,260,8|0,0:0|0:0,0:0:0:0:
356,332,164684,1,4,0:0:0:0:
104,312,164998,1,0,0:0:0:0:
88,188,165155,1,0,0:0:0:0:
60,48,165312,2,0,P|169:34|320:56,1,260,8|0,0:0|0:0,0:0:0:0:
416,96,165782,1,0,0:0:0:0:
460,192,165939,5,0,0:0:0:0:
208,68,166274,1,8,0:0:0:0:
208,68,166352,1,8,0:0:0:0:
208,68,166430,1,8,0:0:0:0:
384,304,166585,1,0,0:0:0:0:
208,68,166896,1,8,0:0:0:0:
208,68,166974,1,8,0:0:0:0:
208,68,167051,1,8,0:0:0:0:
260,348,167207,5,0,0:0:0:0:
208,68,167518,1,8,0:0:0:0:
208,68,167595,1,8,0:0:0:0:
208,68,167673,1,8,0:0:0:0:
120,348,167828,1,0,0:0:0:0:
208,68,168139,1,8,0:0:0:0:
16,196,168450,6,0,B|76:196|96:164|96:164|104:232|104:232|144:172|144:172|160:244|160:244|188:136|188:136|360:264|360:52|360:52|500:216,1,910,12|0,0:0|0:0,0:0:0:0:
504,368,169717,2,0,B|452:287|320:288|320:288|332:388|332:388|256:280|256:280|228:392|228:392|144:56|156:400|33:326|8:228,1,910,12|0,0:0|0:0,0:0:0:0:
48,200,170984,5,0,0:0:0:0:
208,56,171290,1,8,0:0:0:0:
208,56,171367,1,8,0:0:0:0:
208,56,171444,1,8,0:0:0:0:
100,72,171597,1,0,0:0:0:0:
384,64,171904,1,8,0:0:0:0:
384,64,171981,1,8,0:0:0:0:
384,64,172057,1,8,0:0:0:0:
292,56,172211,5,0,0:0:0:0:
460,140,172518,1,8,0:0:0:0:
460,140,172594,1,8,0:0:0:0:
460,140,172671,1,8,0:0:0:0:
468,232,172824,2,0,P|344:224|248:132,1,260,0|8,0:0|0:0,0:0:0:0:
204,72,173442,6,0,P|140:48|76:48,1,130
56,332,173748,1,8,0:0:0:0:
256,12,173902,1,0,0:0:0:0:
460,336,174055,1,0,0:0:0:0:
396,8,174209,1,0,0:0:0:0:
264,348,174362,1,8,0:0:0:0:
104,20,174515,1,0,0:0:0:0:
100,192,174669,5,0,0:0:0:0:
396,192,174822,1,0,0:0:0:0:
100,192,174976,1,8,0:0:0:0:
256,192,175129,1,8,0:0:0:0:
256,192,175206,1,8,0:0:0:0:
256,192,175282,1,8,0:0:0:0:
396,192,175436,1,0,0:0:0:0:
484,192,175589,2,8,L|484:60,1,130,8|0,0:0|0:0,0:0:0:0:
416,36,175896,6,0,L|312:136,1,130
256,192,176203,1,8,0:0:0:0:
16,360,176356,1,0,0:0:0:0:
24,16,176510,1,0,0:0:0:0:
256,192,176663,1,0,0:0:0:0:
16,196,176817,1,8,0:0:0:0:
420,344,176970,1,0,0:0:0:0:
416,40,177123,5,0,0:0:0:0:
12,280,177277,1,0,0:0:0:0:
20,104,177430,1,8,0:0:0:0:
16,196,177584,1,8,0:0:0:0:
16,196,177660,1,8,0:0:0:0:
16,196,177737,1,8,0:0:0:0:
104,192,177891,1,0,0:0:0:0:
196,192,178044,2,8,L|340:192,1,130,8|0,0:0|0:0,0:0:0:0:
464,192,178351,5,0,0:0:0:0:
76,52,178517,1,0,0:0:0:0:
464,192,178670,1,8,0:0:0:0:
68,324,178823,1,0,0:0:0:0:
464,192,178976,1,0,0:0:0:0:
460,44,179129,1,0,0:0:0:0:
56,248,179282,1,8,0:0:0:0:
156,344,179435,1,0,0:0:0:0:
464,256,179588,5,0,0:0:0:0:
356,344,179741,1,0,0:0:0:0:
364,252,179894,2,8,L|268:164,1,130
268,164,180123,1,8,0:0:0:0:
268,164,180199,1,8,0:0:0:0:
188,88,180352,1,0,0:0:0:0:
116,28,180505,2,0,P|240:12|368:48,1,260,8|0,0:0|0:0,0:0:0:0:
452,132,180982,5,8,0:0:0:0:
408,248,181282,1,8,0:0:0:0:
320,300,181432,2,8,P|196:312|76:252,1,260
60,120,182032,1,8,0:0:0:0:
320,40,182182,1,8,0:0:0:0:
472,260,182332,1,8,0:0:0:0:
288,308,182482,1,8,0:0:0:0:
288,308,182557,1,8,0:0:0:0:
288,308,182631,1,8,0:0:0:0:
80,288,182781,1,0,0:0:0:0:
184,200,182931,2,8,B|200:180|200:180|208:152|208:152|240:168|240:168|252:136|252:136|280:108,1,130
452,252,183231,5,0,0:0:0:0:
396,324,183383,1,0,0:0:0:0:
328,252,183535,1,8,0:0:0:0:
248,324,183688,1,0,0:0:0:0:
184,248,183840,1,0,0:0:0:0:
96,320,183993,1,0,0:0:0:0:
184,248,184145,1,8,0:0:0:0:
248,324,184297,1,0,0:0:0:0:
248,324,184450,6,0,L|412:324,1,130
304,252,184755,2,0,L|440:252,1,130,8|0,0:0|0:0,0:0:0:0:
432,320,185059,1,0,0:0:0:0:
504,264,185212,1,0,0:0:0:0:
432,320,185364,1,8,0:0:0:0:
160,60,185517,1,8,0:0:0:0:
48,332,185669,5,0,0:0:0:0:
144,332,185822,1,0,0:0:0:0:
40,244,185974,1,8,0:0:0:0:
144,240,186126,1,0,0:0:0:0:
236,336,186279,1,0,0:0:0:0:
236,240,186431,1,0,0:0:0:0:
324,340,186584,1,8,0:0:0:0:
320,240,186736,1,0,0:0:0:0:
400,344,186888,6,0,L|400:208,1,130
480,348,187193,2,0,L|480:216,1,130,8|0,0:0|0:0,0:0:0:0:
480,218,187498,1,0,0:0:0:0:
400,344,187651,1,0,0:0:0:0:
320,240,187803,1,8,0:0:0:0:
476,40,187955,1,8,0:0:0:0:
480,233,188108,6,0,L|396:352,1,130
276,220,188413,2,8,L|396:276,1,130,8|0,0:0|0:0,0:0:0:0:
320,348,188717,2,0,L|180:348,1,130
200,200,189022,2,0,L|200:340,1,130,8|0,0:0|0:0,0:0:0:0:
112,336,189327,5,0,0:0:0:0:
80,244,189480,1,0,0:0:0:0:
204,312,189632,2,0,L|112:208,1,130,8|0,0:0|0:0,0:0:0:0:
56,336,189937,2,0,L|192:272,1,130
276,344,190242,1,8,0:0:0:0:
280,16,190394,1,8,0:0:0:0:
460,92,190546,6,0,L|376:192,1,130,8|0,0:0|0:0,0:0:0:0:
132,192,190851,2,0,L|44:80,1,130,8|0,0:0|0:0,0:0:0:0:
184,80,191156,2,0,L|324:80,1,130,8|0,0:0|0:0,0:0:0:0:
304,192,191461,2,0,L|436:232,1,130,8|0,0:0|0:0,0:0:0:0:
472,16,191766,5,8,0:0:0:0:
160,200,191918,1,8,0:0:0:0:
40,28,192071,1,8,0:0:0:0:
108,372,192223,1,8,0:0:0:0:
512,132,192375,1,8,0:0:0:0:
316,364,192528,1,8,0:0:0:0:
500,308,192680,1,8,0:0:0:0:
156,32,192833,1,12,0:0:0:0:
