osu file format v14

[General]
AudioFilename: 02 Needles.mp3
AudioLeadIn: 0
PreviewTime: 55810
Countdown: 0
SampleSet: Soft
StackLeniency: 0.7
Mode: 0
LetterboxInBreaks: 1
WidescreenStoryboard: 1

[Editor]
DistanceSpacing: 1.1
BeatDivisor: 4
GridSize: 4
TimelineZoom: 1.32

[Metadata]
Title:Needles
TitleUnicode:Needles
Artist:System Of A Down
ArtistUnicode:System Of A Down
Creator:jawns
Version:Hard
Source:
Tags:
BeatmapID:840423
BeatmapSetID:358872

[Difficulty]
HPDrainRate:5
CircleSize:3
OverallDifficulty:5
ApproachRate:8
SliderMultiplier:1.59999990463257
SliderTickRate:1

[Events]
//Background and Video events
0,0,"doctor_needle1024.jpg",0,0
//Break Periods
2,26224,34100
2,41398,44200
2,71393,79299
2,86701,89565
2,111083,121151
//Storyboard Layer 0 (Background)
//Storyboard Layer 1 (Fail)
//Storyboard Layer 2 (Pass)
//Storyboard Layer 3 (Foreground)
//Storyboard Sound Samples

[TimingPoints]
195,329.139999999999,4,2,0,100,1,0
2836,324.239999999998,4,2,0,100,1,0
4132,320.239999999998,4,2,0,100,1,0
5425,316.209999999999,4,2,0,100,1,0
7968,317.369999999999,4,2,0,100,1,0
10480,328.919999999998,4,2,0,100,1,0
15742,317.309896129728,4,2,0,100,1,0
20818,325.420319052709,4,2,0,100,1,0
26026,315.520319052707,4,2,0,100,1,0
31088,313.520319052706,4,2,0,100,1,0
36104,314.260319052706,4,2,0,100,1,0
37361,322.260319052706,4,2,0,100,1,0
38651,324.520319052706,4,2,0,100,1,0
39955,305.520319052706,4,2,0,100,1,0
41198,310.920319052706,4,2,0,100,1,0
43685,316.320319052707,4,2,0,100,1,0
46226,306.320319052707,4,2,0,100,1,0
48689,315.020319052707,4,1,0,100,1,0
51210,315.420319052707,4,2,0,100,1,0
53733,306.020319052707,4,1,0,100,1,0
56181,313.420319052707,4,1,0,100,1,1
61195,308.120319052707,4,1,0,100,1,1
63659,308.620319052707,4,1,0,100,1,1
66127,309.020319052707,4,2,0,100,1,0
68623,321.320319052707,4,2,0,100,1,0
76334,309.620319052707,4,2,0,100,1,0
81287,325.920319052707,4,2,0,100,1,0
86501,320.920319052707,4,2,0,100,1,0
89068,311.920319052707,4,2,0,100,1,0
91563,313.320319052707,4,2,0,100,1,0
94085,306.310319052707,4,1,0,100,1,0
95292,308.330319052707,4,1,0,100,1,0
96525,321.830319052707,4,2,0,100,1,0
99099,303.830319052707,4,1,0,100,1,0
101529,311.830319052707,4,1,0,100,1,1
111507,323.830319052707,4,2,0,100,1,0
116686,324.830319052707,4,2,0,100,1,0
116686,-200,4,2,0,100,0,0
121901,327.830319052707,4,2,0,100,1,0
127146,323.830319052707,4,2,0,100,1,0
137508,326.830319052707,4,2,0,100,1,0
153195,315.830319052707,4,2,0,100,1,0
155721,317.830319052707,4,2,0,100,1,0
158263,326.830319052707,4,2,0,100,1,0
160880,319.830319052707,4,2,0,100,1,0
162159,317.830319052707,4,2,0,100,1,0
163430,313.730319052707,4,2,0,100,1,0
165964,310.830319052707,4,1,0,100,1,0
168450,316.830319052707,4,2,0,100,1,0
170984,306.830319052707,4,1,0,100,1,0
173442,306.830319052707,4,1,0,100,1,1
178365,305.830319052707,4,1,0,100,1,1
180833,299.830319052707,4,1,0,100,1,1
183231,304.830319052707,4,2,0,100,1,0

[HitObjects]
128,140,195,6,0,L|128:212,2,39.9999976158143,8|0|0,0:0|0:0|0:0,0:0:0:0:
192,80,524,2,0,L|192:144,2,39.9999976158143,0|0|0,0:0|0:0|0:0,0:0:0:0:
256,140,853,2,0,L|256:212,2,39.9999976158143,0|0|0,0:0|0:0|0:0,0:0:0:0:
312,88,1182,1,0,0:0:0:0:
312,88,1264,1,0,0:0:0:0:
312,88,1346,1,0,0:0:0:0:
376,148,1511,6,0,L|412:111,2,39.9999976158142,8|0|0,0:0|0:0|0:0,0:0:0:0:
300,192,1840,2,0,L|263:155,2,39.9999976158142,0|0|0,0:0|0:0|0:0,0:0:0:0:
376,236,2169,2,0,L|412:199,2,39.9999976158142,0|0|0,0:0|0:0|0:0,0:0:0:0:
300,280,2498,1,0,0:0:0:0:
300,280,2581,1,0,0:0:0:0:
300,280,2663,1,0,0:0:0:0:
300,192,2836,6,0,L|328:163,2,39.9999976158142,8|0|0,0:0|0:0|0:0,0:0:0:0:
232,136,3160,2,0,L|203:107,2,39.9999976158142,0|0|0,0:0|0:0|0:0,0:0:0:0:
172,200,3484,2,0,L|143:228,2,39.9999976158142,8|0|0,0:0|0:0|0:0,0:0:0:0:
240,256,3808,1,0,0:0:0:0:
240,256,3889,1,0,0:0:0:0:
240,256,3970,1,0,0:0:0:0:
328,248,4132,6,0,L|328:300,2,39.9999976158142,8|0|0,0:0|0:0|0:0,0:0:0:0:
416,256,4452,1,8,0:0:0:0:
416,256,4532,1,0,0:0:0:0:
416,256,4612,1,0,0:0:0:0:
408,168,4772,2,0,L|460:168,2,39.9999976158142,8|0|0,0:0|0:0|0:0,0:0:0:0:
416,80,5092,1,8,0:0:0:0:
416,80,5172,1,0,0:0:0:0:
416,80,5252,1,0,0:0:0:0:
328,40,5425,6,0,P|256:48|224:72,1,79.9999952316285,8|0,0:0|0:0,0:0:0:0:
304,120,5741,1,0,0:0:0:0:
220,144,5899,1,0,0:0:0:0:
164,76,6057,2,0,P|132:116|128:164,1,79.9999952316285,8|0,0:0|0:0,0:0:0:0:
136,232,6373,2,0,P|136:292|112:328,1,79.9999952316285,0|0,0:0|0:0,0:0:0:0:
64,372,6689,5,8,0:0:0:0:
24,292,6847,1,0,0:0:0:0:
52,208,7006,1,8,0:0:0:0:
124,48,7322,2,0,P|176:56|204:84,1,79.9999952316285,8|0,0:0|0:0,0:0:0:0:
248,144,7638,2,0,P|292:172|340:168,1,79.9999952316285,0|0,0:0|0:0,0:0:0:0:
408,136,7968,6,0,P|456:160|480:204,1,79.9999952316285,8|0,0:0|0:0,0:0:0:0:
500,264,8285,1,0,0:0:0:0:
416,240,8444,2,0,P|372:220|352:184,1,79.9999952316285,0|8,0:0|0:0,0:0:0:0:
296,28,8920,2,0,P|244:12|192:24,1,79.9999952316285,0|0,0:0|0:0,0:0:0:0:
144,60,9237,6,0,P|124:96|136:160,1,79.9999952316285,8|0,0:0|0:0,0:0:0:0:
208,112,9554,2,0,P|208:168|168:212,1,79.9999952316285,8|0,0:0|0:0,0:0:0:0:
128,244,9872,2,0,P|124:288|152:336,1,79.9999952316285,8|0,0:0|0:0,0:0:0:0:
208,376,10189,2,0,P|272:364|304:336,1,79.9999952316285,0|0,0:0|0:0,0:0:0:0:
324,296,10480,6,0,L|364:216,1,79.9999952316285,8|0,0:0|0:0,0:0:0:0:
448,220,10808,2,0,L|404:312,1,79.9999952316285,0|0,0:0|0:0,0:0:0:0:
500,296,11137,2,0,L|408:252,1,79.9999952316285,0|0,0:0|0:0,0:0:0:0:
348,224,11466,2,0,L|256:180,1,79.9999952316285,0|0,0:0|0:0,0:0:0:0:
196,152,11795,6,0,L|196:264,1,79.9999952316285,8|0,0:0|0:0,0:0:0:0:
200,320,12124,1,0,0:0:0:0:
336,212,12453,2,0,L|409:138,1,79.9999952316285,0|0,0:0|0:0,0:0:0:0:
448,88,12782,2,0,L|374:14,1,79.9999952316285,0|0,0:0|0:0,0:0:0:0:
304,32,13111,6,0,L|247:88,1,79.9999952316285,8|0,0:0|0:0,0:0:0:0:
308,152,13440,1,0,0:0:0:0:
344,232,13604,1,0,0:0:0:0:
356,320,13769,2,0,L|276:320,1,79.9999952316285,8|0,0:0|0:0,0:0:0:0:
188,320,14098,2,0,L|96:280,1,79.9999952316285,0|0,0:0|0:0,0:0:0:0:
32,252,14427,6,0,L|128:184,1,79.9999952316285,8|0,0:0|0:0,0:0:0:0:
168,152,14755,1,8,0:0:0:0:
312,48,15084,2,0,L|344:128,1,79.9999952316285,8|0,0:0|0:0,0:0:0:0:
376,204,15413,1,8,0:0:0:0:
248,336,15742,6,0,P|200:336|160:296,1,79.9999952316285,8|0,0:0|0:0,0:0:0:0:
132,240,16059,2,0,P|184:208|200:160,1,79.9999952316285,0|0,0:0|0:0,0:0:0:0:
120,140,16376,2,0,P|152:104|204:100,1,79.9999952316285,8|0,0:0|0:0,0:0:0:0:
268,96,16693,2,0,P|308:88|344:56,1,79.9999952316285,0|0,0:0|0:0,0:0:0:0:
400,0,17011,6,0,P|444:4|476:44,1,79.9999952316285,8|0,0:0|0:0,0:0:0:0:
504,108,17328,1,8,0:0:0:0:
476,192,17487,2,0,P|424:236|392:232,1,79.9999952316285,0|8,0:0|0:0,0:0:0:0:
328,236,17804,2,0,P|340:280|380:312,1,79.9999952316285,0|0,0:0|0:0,0:0:0:0:
444,340,18121,1,0,0:0:0:0:
476,260,18280,6,0,P|480:208|456:152,1,79.9999952316285,8|0,0:0|0:0,0:0:0:0:
424,108,18597,2,0,P|440:72|472:36,2,79.9999952316285,0|0|8,0:0|0:0|0:0,0:0:0:0:
400,192,19073,1,0,0:0:0:0:
372,276,19232,2,0,P|340:308|280:332,1,79.9999952316285,0|0,0:0|0:0,0:0:0:0:
224,344,19549,6,0,P|184:340|144:296,1,79.9999952316285,8|0,0:0|0:0,0:0:0:0:
108,240,19867,1,8,0:0:0:0:
156,72,20184,1,8,0:0:0:0:
208,144,20342,1,0,0:0:0:0:
260,72,20501,2,0,P|300:100|320:136,1,79.9999952316285,0|0,0:0|0:0,0:0:0:0:
324,212,20818,6,0,L|356:312,1,79.9999952316285,8|0,0:0|0:0,0:0:0:0:
264,312,21143,2,0,L|328:244,1,79.9999952316285,0|0,0:0|0:0,0:0:0:0:
408,256,21468,2,0,L|468:320,1,79.9999952316285,0|0,0:0|0:0,0:0:0:0:
376,328,21794,1,0,0:0:0:0:
324,260,21956,1,0,0:0:0:0:
276,184,22119,6,0,L|224:112,1,79.9999952316285,8|0,0:0|0:0,0:0:0:0:
176,48,22445,1,0,0:0:0:0:
348,76,22770,2,0,L|408:152,1,79.9999952316285,0|0,0:0|0:0,0:0:0:0:
448,212,23095,2,0,L|424:312,1,79.9999952316285,0|0,0:0|0:0,0:0:0:0:
412,376,23421,5,8,0:0:0:0:
248,316,23746,1,0,0:0:0:0:
348,168,24072,1,8,0:0:0:0:
288,4,24397,2,0,L|200:52,1,79.9999952316285,0|0,0:0|0:0,0:0:0:0:
140,84,24723,6,0,L|100:156,1,79.9999952316285,8|0,0:0|0:0,0:0:0:0:
108,240,25048,2,0,L|208:200,1,79.9999952316285,8|0,0:0|0:0,0:0:0:0:
260,172,25373,2,0,L|260:280,1,79.9999952316285,8|0,0:0|0:0,0:0:0:0:
260,340,25699,1,8,0:0:0:0:
332,292,25862,1,0,0:0:0:0:
332,204,26024,5,12,0:0:0:0:
156,104,34850,6,4,P|116:184|156:248,1,159.999990463257,4|4,0:0|0:0,0:0:0:0:
316,292,35477,2,4,P|380:300|456:244,1,159.999990463257,4|4,0:0|0:0,0:0:0:0:
512,84,36104,6,0,P|464:56|432:52,1,79.9999952316285,8|0,0:0|0:0,0:0:0:0:
352,52,36418,2,0,L|264:88,1,79.9999952316285,0|0,0:0|0:0,0:0:0:0:
192,84,36732,2,0,L|168:172,1,79.9999952316285,0|0,0:0|0:0,0:0:0:0:
164,248,37046,1,0,0:0:0:0:
232,304,37203,1,0,0:0:0:0:
312,336,37361,6,0,L|384:268,1,79.9999952316285,8|0,0:0|0:0,0:0:0:0:
460,284,37683,2,0,L|444:192,1,79.9999952316285,0|0,0:0|0:0,0:0:0:0:
372,160,38005,2,0,L|404:68,1,79.9999952316285,0|0,0:0|0:0,0:0:0:0:
428,0,38327,1,0,0:0:0:0:
344,28,38488,1,0,0:0:0:0:
260,0,38651,6,0,P|216:16|188:60,1,79.9999952316285,8|0,0:0|0:0,0:0:0:0:
164,124,38975,2,0,P|132:160|92:176,1,79.9999952316285,0|0,0:0|0:0,0:0:0:0:
16,188,39300,2,0,B|16:92|116:68,1,159.999990463257,8|0,0:0|0:0,0:0:0:0:
280,72,39949,5,8,0:0:0:0:
340,140,40107,1,0,0:0:0:0:
396,72,40260,2,0,P|432:108|432:160,1,79.9999952316285,8|0,0:0|0:0,0:0:0:0:
432,224,40566,2,0,B|412:276|408:312|330:324|304:324,1,159.999990463257,8|8,0:0|0:0,0:0:0:0:
136,332,41198,5,12,0:0:0:0:
208,92,44950,6,4,P|152:124|208:208,1,159.999990463257,4|4,0:0|0:0,0:0:0:0:
332,284,45582,2,4,B|388:264|356:196|416:244|396:204|448:216|460:172,1,159.999990463257,4|4,0:0|0:0,0:0:0:0:
512,20,46226,6,0,L|296:144,1,239.999985694885,4|0,0:0|0:0,0:0:0:0:
260,64,46838,2,0,B|192:96|192:160|260:212,1,159.999990463257,8|0,0:0|0:0,0:0:0:0:
412,164,47451,2,0,L|180:280,1,239.999985694885,4|0,0:0|0:0,0:0:0:0:
116,308,48063,2,0,B|80:316|76:284|76:284|80:224|164:196,1,159.999990463257,8|0,0:0|0:0,0:0:0:0:
236,56,48689,6,0,P|320:32|384:68,1,159.999990463257,0|8,0:0|0:0,0:0:0:0:
380,64,49082,1,8,0:0:0:0:
380,64,49161,1,8,0:0:0:0:
412,148,49319,2,0,P|420:224|344:292,1,159.999990463257,0|8,0:0|0:0,0:0:0:0:
368,284,49712,1,8,0:0:0:0:
368,284,49791,1,8,0:0:0:0:
280,300,49949,6,0,P|192:260|168:184,1,159.999990463257,0|8,0:0|0:0,0:0:0:0:
168,205,50342,1,8,0:0:0:0:
168,205,50421,1,8,0:0:0:0:
128,128,50579,2,0,B|60:176|64:244|112:280,1,159.999990463257,0|8,0:0|0:0,0:0:0:0:
228,380,51210,6,0,B|280:308|344:336|316:264|408:204,1,239.999985694885,4|0,0:0|0:0,0:0:0:0:
456,276,51840,2,0,B|520:228|512:192|480:160|472:112,1,159.999990463257,8|0,0:0|0:0,0:0:0:0:
364,4,52471,2,0,B|172:4|148:8|132:40|120:64,1,239.999985694885,4|0,0:0|0:0,0:0:0:0:
204,92,53102,2,0,B|160:132|108:124|108:124|120:208,1,159.999990463257,8|0,0:0|0:0,0:0:0:0:
152,356,53733,6,0,P|184:296|280:260,1,159.999990463257,0|8,0:0|0:0,0:0:0:0:
265,259,54115,1,8,0:0:0:0:
265,259,54192,1,8,0:0:0:0:
348,296,54345,2,0,B|360:240|336:220|312:200|312:200|360:156,1,159.999990463257,0|8,0:0|0:0,0:0:0:0:
348,166,54727,1,8,0:0:0:0:
348,166,54804,1,8,0:0:0:0:
404,96,54957,6,0,B|364:68|320:88|308:64|316:24|244:36,1,159.999990463257,0|8,0:0|0:0,0:0:0:0:
260,34,55339,1,8,0:0:0:0:
260,34,55416,1,8,0:0:0:0:
184,76,55569,2,0,B|144:108|180:156|224:232,1,159.999990463257,0|8,0:0|0:0,0:0:0:0:
340,380,56181,6,0,P|372:336|376:280,1,79.9999952316285,0|0,0:0|0:0,0:0:0:0:
380,216,56494,2,0,P|376:168|340:132,1,79.9999952316285,8|0,0:0|0:0,0:0:0:0:
276,92,56807,1,0,0:0:0:0:
188,132,56964,1,0,0:0:0:0:
96,100,57121,2,0,P|80:144|92:200,1,79.9999952316285,8|0,0:0|0:0,0:0:0:0:
128,260,57434,5,0,0:0:0:0:
204,316,57591,1,0,0:0:0:0:
284,260,57748,2,0,P|336:304|380:300,1,79.9999952316285,8|8,0:0|0:0,0:0:0:0:
436,280,58061,1,8,0:0:0:0:
432,88,58374,2,8,P|384:60|352:60,1,79.9999952316285,8|8,0:0|0:0,0:0:0:0:
264,60,58688,6,0,P|224:88|176:96,1,79.9999952316285,0|0,0:0|0:0,0:0:0:0:
100,96,59001,2,0,P|64:136|60:192,1,79.9999952316285,8|0,0:0|0:0,0:0:0:0:
52,256,59315,2,0,P|72:296|120:304,1,79.9999952316285,0|0,0:0|0:0,0:0:0:0:
200,308,59628,1,8,0:0:0:0:
368,216,59942,5,0,0:0:0:0:
440,280,60098,1,0,0:0:0:0:
468,188,60255,1,8,0:0:0:0:
340,48,60568,1,8,0:0:0:0:
196,176,60882,2,8,P|140:156|120:132,1,79.9999952316285,8|8,0:0|0:0,0:0:0:0:
60,68,61195,6,0,P|32:120|32:164,1,79.9999952316285,0|0,0:0|0:0,0:0:0:0:
36,236,61503,1,8,0:0:0:0:
112,296,61657,1,0,0:0:0:0:
144,208,61811,2,0,P|172:168|216:148,1,79.9999952316285,0|0,0:0|0:0,0:0:0:0:
288,120,62119,1,8,0:0:0:0:
340,200,62273,1,0,0:0:0:0:
388,284,62427,6,0,P|344:324|296:332,1,79.9999952316285,0|0,0:0|0:0,0:0:0:0:
228,336,62735,1,8,0:0:0:0:
112,184,63043,1,8,0:0:0:0:
240,40,63351,2,8,P|308:32|344:44,1,79.9999952316285,8|8,0:0|0:0,0:0:0:0:
428,192,63813,5,8,0:0:0:0:
260,284,64121,1,8,0:0:0:0:
176,236,64276,1,8,0:0:0:0:
252,60,64584,1,8,0:0:0:0:
432,124,64893,6,8,P|444:180|424:224,1,79.9999952316285,8|8,0:0|0:0,0:0:0:0:
376,276,65202,1,8,0:0:0:0:
284,300,65356,1,8,0:0:0:0:
80,136,65973,1,8,0:0:0:0:
152,88,66127,6,0,P|204:80|244:96,1,79.9999952316285,8|0,0:0|0:0,0:0:0:0:
300,140,66436,2,0,P|320:184|372:220,1,79.9999952316285,0|0,0:0|0:0,0:0:0:0:
420,244,66745,2,0,P|404:292|364:320,1,79.9999952316285,8|0,0:0|0:0,0:0:0:0:
304,348,67054,2,0,P|260:336|196:348,1,79.9999952316285,0|0,0:0|0:0,0:0:0:0:
140,364,67363,6,0,P|112:336|96:296,1,79.9999952316285,8|0,0:0|0:0,0:0:0:0:
68,216,67672,1,8,0:0:0:0:
156,64,67981,2,0,P|112:32|76:24,2,79.9999952316285,8|0|0,0:0|0:0|0:0,0:0:0:0:
200,140,68444,1,0,0:0:0:0:
248,228,68623,6,0,L|344:228,1,79.9999952316285,8|0,0:0|0:0,0:0:0:0:
396,172,68944,2,0,L|456:240,1,79.9999952316285,0|0,0:0|0:0,0:0:0:0:
372,276,69265,2,0,L|296:240,1,79.9999952316285,8|0,0:0|0:0,0:0:0:0:
232,184,69586,2,0,L|268:92,1,79.9999952316285,0|0,0:0|0:0,0:0:0:0:
280,24,69908,6,0,L|360:60,1,79.9999952316285,8|0,0:0|0:0,0:0:0:0:
440,40,70229,1,8,0:0:0:0:
396,116,70390,1,0,0:0:0:0:
480,140,70550,2,0,L|444:216,1,79.9999952316285,8|0,0:0|0:0,0:0:0:0:
416,296,70872,1,8,0:0:0:0:
368,224,71032,1,0,0:0:0:0:
292,264,71193,5,12,0:0:0:0:
176,60,80049,6,4,L|176:224,1,159.999990463257,4|4,0:0|0:0,0:0:0:0:
68,360,80668,2,4,B|136:384|216:364|244:312,1,159.999990463257,4|4,0:0|0:0,0:0:0:0:
336,220,81287,6,0,P|368:184|360:124,1,79.9999952316285,8|0,0:0|0:0,0:0:0:0:
372,64,81612,2,0,L|288:24,1,79.9999952316285,0|0,0:0|0:0,0:0:0:0:
264,112,81938,2,0,L|164:76,1,79.9999952316285,0|0,0:0|0:0,0:0:0:0:
100,84,82264,1,0,0:0:0:0:
52,156,82427,1,0,0:0:0:0:
80,240,82590,6,0,P|132:280|176:280,1,79.9999952316285,8|0,0:0|0:0,0:0:0:0:
232,272,82916,2,0,L|180:176,1,79.9999952316285,0|0,0:0|0:0,0:0:0:0:
196,112,83242,2,0,L|288:120,1,79.9999952316285,0|0,0:0|0:0,0:0:0:0:
360,96,83568,1,0,0:0:0:0:
404,172,83731,1,0,0:0:0:0:
432,256,83894,6,0,P|480:240|508:188,1,79.9999952316285,8|0,0:0|0:0,0:0:0:0:
504,132,84220,2,0,P|448:88|404:92,1,79.9999952316285,0|0,0:0|0:0,0:0:0:0:
352,88,84546,2,0,B|328:132|368:164|272:228,1,159.999990463257,8|0,0:0|0:0,0:0:0:0:
124,304,85198,5,8,0:0:0:0:
68,236,85361,1,0,0:0:0:0:
152,204,85523,2,0,P|160:152|136:112,1,79.9999952316285,8|0,0:0|0:0,0:0:0:0:
80,72,85849,2,8,P|140:16|220:24,1,159.999990463257,8|8,0:0|0:0,0:0:0:0:
368,112,86501,5,12,0:0:0:0:
224,100,90315,6,4,P|168:172|180:268,1,159.999990463257,4|4,0:0|0:0,0:0:0:0:
328,308,90939,2,4,P|292:252|184:228,1,159.999990463257,4|4,0:0|0:0,0:0:0:0:
56,204,91563,6,0,L|276:96,1,239.999985694885,4|0,0:0|0:0,0:0:0:0:
216,28,92189,2,0,B|256:0|324:12|360:36|376:84,1,159.999990463257,8|0,0:0|0:0,0:0:0:0:
424,220,92816,2,0,L|192:292,1,239.999985694885,4|0,0:0|0:0,0:0:0:0:
108,268,93442,2,0,B|104:348|132:376|216:368,1,159.999990463257,8|0,0:0|0:0,0:0:0:0:
384,336,94085,6,0,P|432:284|440:184,1,159.999990463257,0|8,0:0|0:0,0:0:0:0:
443,198,94467,1,8,0:0:0:0:
443,198,94544,1,8,0:0:0:0:
428,112,94697,2,0,P|336:104|280:52,1,159.999990463257,0|8,0:0|0:0,0:0:0:0:
286,62,95080,1,8,0:0:0:0:
286,62,95157,1,8,0:0:0:0:
212,48,95292,6,0,P|112:64|72:104,1,159.999990463257,0|8,0:0|0:0,0:0:0:0:
72,103,95677,1,8,0:0:0:0:
72,103,95754,1,8,0:0:0:0:
100,188,95908,2,0,B|160:232|104:264|76:332,1,159.999990463257,0|8,0:0|0:0,0:0:0:0:
248,344,96525,6,0,L|464:236,1,239.999985694885,4|0,0:0|0:0,0:0:0:0:
456,148,97168,2,0,B|400:96|384:124|384:124|352:104|328:160,1,159.999990463257,8|0,0:0|0:0,0:0:0:0:
244,312,97812,2,0,L|68:108,1,239.999985694885,4|0,0:0|0:0,0:0:0:0:
32,64,98455,2,0,B|84:40|84:40|140:64|140:64|160:68|196:56,1,159.999990463257,8|0,0:0|0:0,0:0:0:0:
368,48,99099,6,0,B|376:120|408:144|444:200,1,159.999990463257,0|8,0:0|0:0,0:0:0:0:
437,189,99478,1,8,0:0:0:0:
437,189,99554,1,8,0:0:0:0:
440,276,99706,2,0,P|380:332|288:320,1,159.999990463257,0|8,0:0|0:0,0:0:0:0:
306,329,100086,1,8,0:0:0:0:
306,329,100162,1,8,0:0:0:0:
220,316,100314,6,0,P|256:256|208:172,1,159.999990463257,0|8,0:0|0:0,0:0:0:0:
221,179,100694,1,8,0:0:0:0:
221,179,100770,1,8,0:0:0:0:
132,180,100921,2,0,B|144:128|184:120|256:72,1,159.999990463257,0|8,0:0|0:0,0:0:0:0:
400,0,101529,6,0,P|428:32|440:80,1,79.9999952316285,0|0,0:0|0:0,0:0:0:0:
444,164,101840,2,0,P|432:212|392:248,1,79.9999952316285,8|0,0:0|0:0,0:0:0:0:
316,232,102152,1,0,0:0:0:0:
284,324,102308,1,0,0:0:0:0:
192,352,102464,2,0,P|160:336|140:284,1,79.9999952316285,8|0,0:0|0:0,0:0:0:0:
128,200,102776,5,0,0:0:0:0:
68,128,102932,1,0,0:0:0:0:
156,88,103088,1,8,0:0:0:0:
332,164,103399,1,8,0:0:0:0:
448,12,103711,2,8,P|472:52|472:88,1,79.9999952316285,8|8,0:0|0:0,0:0:0:0:
460,180,104023,6,0,P|448:224|408:256,1,79.9999952316285,0|0,0:0|0:0,0:0:0:0:
336,288,104335,1,8,0:0:0:0:
260,228,104491,1,0,0:0:0:0:
192,292,104647,2,0,P|124:280|104:256,1,79.9999952316285,0|0,0:0|0:0,0:0:0:0:
56,200,104959,1,8,0:0:0:0:
112,16,105270,6,0,P|168:28|192:56,1,79.9999952316285,0|0,0:0|0:0,0:0:0:0:
196,140,105582,1,8,0:0:0:0:
372,220,105894,1,8,0:0:0:0:
452,44,106206,2,8,P|484:96|480:140,1,79.9999952316285,8|0,0:0|0:0,0:0:0:0:
484,212,106518,6,0,B|480:272|424:284,1,79.9999952316285,0|0,0:0|0:0,0:0:0:0:
348,280,106830,1,8,0:0:0:0:
272,340,106986,1,0,0:0:0:0:
244,248,107141,2,0,P|196:216|148:208,1,79.9999952316285,0|0,0:0|0:0,0:0:0:0:
84,244,107453,1,8,0:0:0:0:
36,160,107609,1,0,0:0:0:0:
124,120,107765,5,0,0:0:0:0:
144,28,107921,2,0,P|216:28|248:48,1,79.9999952316285,0|8,0:0|0:0,0:0:0:0:
388,128,108389,1,8,0:0:0:0:
480,296,108701,2,8,P|448:332|392:348,1,79.9999952316285,8|0,0:0|0:0,0:0:0:0:
228,360,109168,5,0,0:0:0:0:
124,284,109480,1,0,0:0:0:0:
100,224,109636,1,0,0:0:0:0:
96,96,109948,1,0,0:0:0:0:
276,24,110260,5,0,0:0:0:0:
324,68,110416,1,0,0:0:0:0:
380,252,110883,1,0,0:0:0:0:
64,168,121901,5,4,0:0:0:0:
240,108,122228,1,0,0:0:0:0:
324,84,122392,1,0,0:0:0:0:
324,84,122720,2,0,L|420:44,2,79.9999952316285,8|0|0,0:0|0:0|0:0,0:0:0:0:
240,108,123212,5,4,0:0:0:0:
100,216,123540,1,0,0:0:0:0:
84,304,123704,1,0,0:0:0:0:
84,304,124031,2,0,P|80:336|104:384,2,79.9999952316285,8|0|0,0:0|0:0|0:0,0:0:0:0:
100,216,124523,5,4,0:0:0:0:
252,124,124851,1,0,0:0:0:0:
328,76,125015,1,0,0:0:0:0:
328,76,125343,2,0,P|376:60|412:64,2,79.9999952316285,8|0|0,0:0|0:0|0:0,0:0:0:0:
252,124,125834,5,4,0:0:0:0:
284,296,126162,1,0,0:0:0:0:
364,332,126326,1,0,0:0:0:0:
364,332,126654,2,0,L|448:372,2,79.9999952316285,8|0|0,0:0|0:0|0:0,0:0:0:0:
284,296,127146,5,4,0:0:0:0:
152,180,127469,1,0,0:0:0:0:
88,120,127631,1,0,0:0:0:0:
88,120,127955,2,0,L|32:52,2,79.9999952316285,8|0|0,0:0|0:0|0:0,0:0:0:0:
152,180,128441,5,4,0:0:0:0:
284,60,128765,1,0,0:0:0:0:
372,44,128927,1,0,0:0:0:0:
372,44,129250,2,0,P|400:84|404:124,2,79.9999952316285,8|0|0,0:0|0:0|0:0,0:0:0:0:
284,60,129736,5,4,0:0:0:0:
132,152,130060,1,0,0:0:0:0:
100,232,130222,1,0,0:0:0:0:
100,232,130546,2,0,P|92:288|112:328,2,79.9999952316285,8|0|0,0:0|0:0|0:0,0:0:0:0:
132,152,131031,5,4,0:0:0:0:
284,64,131355,1,0,0:0:0:0:
368,96,131517,1,0,0:0:0:0:
368,96,131841,2,0,P|424:136|432:152,1,79.9999952316285,8|0,0:0|0:0,0:0:0:0:
468,224,132165,1,0,0:0:0:0:
420,296,132327,6,0,P|380:332|328:336,1,79.9999952316285,4|0,0:0|0:0,0:0:0:0:
268,336,132651,1,0,0:0:0:0:
200,276,132813,1,0,0:0:0:0:
200,276,133136,2,0,P|156:232|152:192,2,79.9999952316285,8|0|0,0:0|0:0|0:0,0:0:0:0:
284,296,133622,5,4,0:0:0:0:
368,276,133784,1,0,0:0:0:0:
464,128,134108,1,8,0:0:0:0:
464,128,134432,2,0,L|488:28,2,79.9999952316285,0|8|0,0:0|0:0|0:0,0:0:0:0:
436,212,134917,6,0,P|404:248|360:268,1,79.9999952316285,4|0,0:0|0:0,0:0:0:0:
288,268,135241,1,0,0:0:0:0:
200,276,135403,1,0,0:0:0:0:
200,276,135727,2,0,P|132:272|96:240,2,79.9999952316285,8|0|0,0:0|0:0|0:0,0:0:0:0:
288,268,136213,5,4,0:0:0:0:
344,200,136375,1,0,0:0:0:0:
364,24,136698,1,8,0:0:0:0:
364,24,137022,2,0,P|424:28|456:52,2,79.9999952316285,0|8|0,0:0|0:0|0:0,0:0:0:0:
276,40,137508,6,0,P|228:68|204:96,1,79.9999952316285,4|0,0:0|0:0,0:0:0:0:
172,164,137834,1,0,0:0:0:0:
128,240,137998,1,0,0:0:0:0:
128,240,138325,2,0,L|76:308,2,79.9999952316285,8|0|0,0:0|0:0|0:0,0:0:0:0:
172,164,138815,5,4,0:0:0:0:
256,132,138978,1,0,0:0:0:0:
428,176,139305,1,8,0:0:0:0:
428,176,139632,2,0,P|460:208|476:256,2,79.9999952316285,0|8|0,0:0|0:0|0:0,0:0:0:0:
348,136,140122,6,0,P|280:120|240:124,1,79.9999952316285,4|0,0:0|0:0,0:0:0:0:
184,128,140449,1,0,0:0:0:0:
100,152,140612,1,0,0:0:0:0:
100,152,140939,2,0,P|56:168|16:200,2,79.9999952316285,8|0|0,0:0|0:0|0:0,0:0:0:0:
184,128,141429,5,4,0:0:0:0:
256,176,141593,1,0,0:0:0:0:
340,328,141920,1,8,0:0:0:0:
340,328,142247,2,0,P|368:356|420:364,2,79.9999952316285,0|8|0,0:0|0:0|0:0,0:0:0:0:
304,248,142737,6,0,P|284:208|232:176,1,79.9999952316285,4|0,0:0|0:0,0:0:0:0:
180,140,143064,1,0,0:0:0:0:
104,100,143227,1,0,0:0:0:0:
104,100,143554,2,0,P|40:96|8:100,2,79.9999952316285,8|0|0,0:0|0:0|0:0,0:0:0:0:
192,112,144044,5,4,0:0:0:0:
168,196,144208,1,0,0:0:0:0:
104,360,144534,1,8,0:0:0:0:
104,360,144861,2,0,P|64:356|24:344,2,79.9999952316285,0|8|0,0:0|0:0|0:0,0:0:0:0:
192,360,145351,6,0,P|236:352|276:308,1,79.9999952316285,4|0,0:0|0:0,0:0:0:0:
320,264,145678,1,0,0:0:0:0:
400,296,145842,1,0,0:0:0:0:
400,296,146169,2,0,P|416:336|452:360,2,79.9999952316285,8|0|0,0:0|0:0|0:0,0:0:0:0:
384,208,146659,5,4,0:0:0:0:
332,136,146822,1,0,0:0:0:0:
180,48,147149,1,8,0:0:0:0:
180,48,147476,2,0,P|128:48|88:28,2,79.9999952316285,0|8|0,0:0|0:0|0:0,0:0:0:0:
260,8,147966,6,0,P|304:0|356:16,1,79.9999952316285,4|0,0:0|0:0,0:0:0:0:
412,56,148293,1,0,0:0:0:0:
464,128,148456,1,0,0:0:0:0:
464,128,148783,2,0,P|464:80|488:32,2,79.9999952316285,8|0|0,0:0|0:0|0:0,0:0:0:0:
504,208,149273,5,4,0:0:0:0:
452,280,149437,1,0,0:0:0:0:
288,344,149764,1,8,0:0:0:0:
288,344,150090,2,0,P|236:352|196:344,2,79.9999952316285,0|8|0,0:0|0:0|0:0,0:0:0:0:
348,280,150581,5,4,0:0:0:0:
320,196,150744,1,0,0:0:0:0:
376,128,150908,1,0,0:0:0:0:
308,72,151071,1,0,0:0:0:0:
308,72,151398,2,0,P|252:60|216:68,1,79.9999952316285,8|0,0:0|0:0,0:0:0:0:
152,104,151725,1,0,0:0:0:0:
128,188,151888,5,4,0:0:0:0:
212,216,152051,1,0,0:0:0:0:
52,288,152378,2,0,P|128:336|296:336,1,239.999985694885,8|8,0:0|0:0,0:0:0:0:
440,268,153195,6,0,P|448:224|428:168,1,79.9999952316285,4|4,0:0|0:0,0:0:0:0:
456,96,153510,2,0,P|408:72|372:72,1,79.9999952316285,12|4,0:0|0:0,0:0:0:0:
300,20,153826,2,0,P|256:52|240:88,1,79.9999952316285,4|4,0:0|0:0,0:0:0:0:
156,112,154142,2,0,P|180:168|208:184,1,79.9999952316285,12|4,0:0|0:0,0:0:0:0:
288,156,154458,6,0,P|288:204|264:248,1,79.9999952316285,4|4,0:0|0:0,0:0:0:0:
248,324,154774,2,0,P|200:324|164:300,1,79.9999952316285,12|4,0:0|0:0,0:0:0:0:
76,316,155089,2,0,P|52:264|64:224,1,79.9999952316285,4|4,0:0|0:0,0:0:0:0:
28,152,155405,2,0,P|72:96|100:96,1,79.9999952316285,12|4,0:0|0:0,0:0:0:0:
172,88,155721,6,0,L|232:152,1,79.9999952316285,12|4,0:0|0:0,0:0:0:0:
320,168,156038,1,12,0:0:0:0:
312,264,156197,1,4,0:0:0:0:
400,228,156356,2,0,P|452:192|456:144,1,79.9999952316285,12|4,0:0|0:0,0:0:0:0:
464,84,156674,2,0,P|428:56|372:52,1,79.9999952316285,12|4,0:0|0:0,0:0:0:0:
300,64,156992,6,0,P|240:96|224:120,1,79.9999952316285,12|12,0:0|0:0,0:0:0:0:
224,200,157310,2,0,P|148:200|132:188,1,79.9999952316285,12|12,0:0|0:0,0:0:0:0:
120,108,157627,1,12,0:0:0:0:
44,48,157786,1,12,0:0:0:0:
16,140,157945,1,12,0:0:0:0:
84,208,158104,1,12,0:0:0:0:
44,292,158263,6,0,L|132:348,1,79.9999952316285,8|0,0:0|0:0,0:0:0:0:
200,328,158589,2,0,L|232:236,1,79.9999952316285,0|0,0:0|0:0,0:0:0:0:
312,264,158916,1,0,0:0:0:0:
292,348,159080,1,0,0:0:0:0:
208,332,159243,2,0,L|180:240,1,79.9999952316285,0|0,0:0|0:0,0:0:0:0:
140,180,159570,6,0,L|188:112,1,79.9999952316285,8|0,0:0|0:0,0:0:0:0:
164,28,159897,2,0,L|272:48,1,79.9999952316285,0|0,0:0|0:0,0:0:0:0:
300,108,160223,2,0,L|260:196,1,79.9999952316285,0|0,0:0|0:0,0:0:0:0:
196,232,160550,2,0,L|272:280,1,79.9999952316285,0|0,0:0|0:0,0:0:0:0:
348,296,160877,6,0,L|396:228,1,79.9999952316285,8|0,0:0|0:0,0:0:0:0:
460,172,161199,1,0,0:0:0:0:
392,120,161359,1,0,0:0:0:0:
324,68,161519,2,0,L|252:104,1,79.9999952316285,8|0,0:0|0:0,0:0:0:0:
216,184,161839,1,0,0:0:0:0:
144,136,161999,1,0,0:0:0:0:
56,156,162159,6,0,P|44:204|68:252,1,79.9999952316285,12|0,0:0|0:0,0:0:0:0:
88,312,162476,2,0,P|136:328|180:324,1,79.9999952316285,12|0,0:0|0:0,0:0:0:0:
248,296,162794,2,0,P|236:240|200:204,1,79.9999952316285,12|0,0:0|0:0,0:0:0:0:
136,232,163112,2,0,P|124:184|140:148,1,79.9999952316285,12|0,0:0|0:0,0:0:0:0:
188,84,163430,6,0,L|380:252,1,239.999985694885,4|0,0:0|0:0,0:0:0:0:
456,232,164057,2,0,P|432:308|352:332,1,159.999990463257,8|0,0:0|0:0,0:0:0:0:
184,324,164684,2,0,L|340:128,1,239.999985694885,4|0,0:0|0:0,0:0:0:0:
415,95,165312,2,0,B|423:103|431:115|431:115|419:151|399:183|415:211|451:203|459:243,1,159.999990463257,8|0,0:0|0:0,0:0:0:0:
336,360,165964,6,0,P|248:320|240:248,1,159.999990463257,0|8,0:0|0:0,0:0:0:0:
236,264,166352,1,8,0:0:0:0:
236,264,166430,1,8,0:0:0:0:
260,180,166585,2,0,B|220:144|264:120|152:56,1,159.999990463257,0|8,0:0|0:0,0:0:0:0:
160,60,166974,1,8,0:0:0:0:
160,60,167051,1,8,0:0:0:0:
72,44,167207,6,0,P|88:112|96:240,1,159.999990463257,0|8,0:0|0:0,0:0:0:0:
96,201,167595,1,8,0:0:0:0:
96,201,167673,1,8,0:0:0:0:
64,284,167828,2,0,B|92:292|92:316|92:316|108:288|108:288|120:320|180:324|212:308,1,159.999990463257,0|8,0:0|0:0,0:0:0:0:
352,324,168450,6,0,P|332:80|44:100,1,559.999966621399,12|0,0:0|0:0,0:0:0:0:
52,164,169717,2,0,B|184:92|76:292|132:252|276:140|320:168|336:332|336:332|396:300,1,479.999971389771,12|0,0:0|0:0,0:0:0:0:
496,148,170984,6,0,L|336:144,1,159.999990463257,0|8,0:0|0:0,0:0:0:0:
336,144,171367,1,8,0:0:0:0:
336,144,171444,1,8,0:0:0:0:
292,68,171597,2,0,L|136:148,1,159.999990463257,0|8,0:0|0:0,0:0:0:0:
149,141,171981,1,8,0:0:0:0:
149,141,172057,1,8,0:0:0:0:
72,180,172211,6,0,L|200:312,1,159.999990463257,0|8,0:0|0:0,0:0:0:0:
183,294,172594,1,8,0:0:0:0:
183,294,172671,1,8,0:0:0:0:
248,352,172824,2,0,P|356:316|380:264,1,159.999990463257,0|8,0:0|0:0,0:0:0:0:
416,92,173442,6,0,P|376:56|332:56,1,79.9999952316285
256,68,173748,2,0,P|192:72|152:100,1,79.9999952316285,8|0,0:0|0:0,0:0:0:0:
132,164,174055,2,0,P|120:208|92:252,1,79.9999952316285,0|0,0:0|0:0,0:0:0:0:
16,280,174362,2,0,P|32:324|76:344,1,79.9999952316285,8|0,0:0|0:0,0:0:0:0:
156,332,174669,5,0,0:0:0:0:
112,248,174822,1,0,0:0:0:0:
204,216,174976,1,8,0:0:0:0:
352,336,175282,1,8,0:0:0:0:
420,156,175589,2,0,P|392:116|360:100,1,79.9999952316285,8|8,0:0|0:0,0:0:0:0:
272,88,175896,6,0,P|204:88|172:112,1,79.9999952316285,0|0,0:0|0:0,0:0:0:0:
124,156,176203,2,0,P|128:200|156:236,1,79.9999952316285,8|0,0:0|0:0,0:0:0:0:
232,280,176510,1,0,0:0:0:0:
160,344,176663,1,0,0:0:0:0:
64,336,176817,2,0,P|36:300|44:248,1,79.9999952316285,8|0,0:0|0:0,0:0:0:0:
104,200,177123,5,0,0:0:0:0:
36,132,177277,1,0,0:0:0:0:
116,84,177430,1,8,0:0:0:0:
304,52,177737,1,8,0:0:0:0:
464,160,178044,2,0,P|464:224|444:268,1,79.9999952316285,8|8,0:0|0:0,0:0:0:0:
388,300,178365,6,0,P|332:320|288:312,1,79.9999952316285
220,268,178670,2,0,P|208:224|164:196,1,79.9999952316285,8|0,0:0|0:0,0:0:0:0:
104,256,178976,2,0,P|60:236|40:196,1,79.9999952316285,0|0,0:0|0:0,0:0:0:0:
100,132,179282,1,8,0:0:0:0:
56,48,179435,1,0,0:0:0:0:
152,32,179588,5,0,0:0:0:0:
196,116,179741,1,0,0:0:0:0:
260,44,179894,1,8,0:0:0:0:
316,228,180199,1,8,0:0:0:0:
444,368,180505,2,0,P|480:300|476:264,1,79.9999952316285,8|8,0:0|0:0,0:0:0:0:
464,92,180982,6,0,P|396:40|292:48,1,159.999990463257,8|8,0:0|0:0,0:0:0:0:
256,104,181432,2,0,P|216:164|108:200,1,159.999990463257,8|8,0:0|0:0,0:0:0:0:
40,32,182032,2,0,L|40:116,1,79.9999952316285,8|8,0:0|0:0,0:0:0:0:
36,208,182332,1,8,0:0:0:0:
104,276,182482,1,8,0:0:0:0:
480,344,183081,1,8,0:0:0:0:
460,252,183231,6,0,L|352:212,1,79.9999952316285,0|0,0:0|0:0,0:0:0:0:
312,160,183535,2,0,L|412:148,1,79.9999952316285,8|0,0:0|0:0,0:0:0:0:
428,60,183840,2,0,L|336:88,1,79.9999952316285,0|0,0:0|0:0,0:0:0:0:
288,156,184145,2,0,L|280:76,1,79.9999952316285,8|0,0:0|0:0,0:0:0:0:
220,0,184450,6,0,L|316:28,1,79.9999952316285,0|0,0:0|0:0,0:0:0:0:
392,32,184755,2,0,L|332:96,1,79.9999952316285,8|0,0:0|0:0,0:0:0:0:
276,164,185059,2,0,L|252:72,1,79.9999952316285,0|0,0:0|0:0,0:0:0:0:
232,4,185364,1,8,0:0:0:0:
184,88,185517,1,8,0:0:0:0:
188,184,185669,6,0,L|112:152,1,79.9999952316285,0|0,0:0|0:0,0:0:0:0:
36,96,185974,2,0,L|144:60,1,79.9999952316285,8|0,0:0|0:0,0:0:0:0:
208,76,186279,2,0,L|144:156,1,79.9999952316285,0|0,0:0|0:0,0:0:0:0:
104,216,186584,2,0,L|200:212,1,79.9999952316285,8|0,0:0|0:0,0:0:0:0:
276,196,186888,6,0,L|216:128,1,79.9999952316285,0|0,0:0|0:0,0:0:0:0:
204,40,187193,2,0,L|316:60,1,79.9999952316285,8|0,0:0|0:0,0:0:0:0:
292,148,187498,2,0,L|200:180,1,79.9999952316285,0|0,0:0|0:0,0:0:0:0:
120,156,187803,1,8,0:0:0:0:
124,252,187955,1,8,0:0:0:0:
220,236,188108,5,0,0:0:0:0:
288,304,188260,1,0,0:0:0:0:
376,132,188565,1,0,0:0:0:0:
444,312,188870,1,0,0:0:0:0:
288,204,189175,5,0,0:0:0:0:
388,40,189480,1,0,0:0:0:0:
212,116,189784,1,0,0:0:0:0:
28,56,190089,1,0,0:0:0:0:
120,28,190242,1,8,0:0:0:0:
104,124,190394,1,8,0:0:0:0:
60,208,190546,5,8,0:0:0:0:
128,276,190699,1,0,0:0:0:0:
264,140,191004,1,0,0:0:0:0:
344,316,191309,1,0,0:0:0:0:
432,144,191613,1,0,0:0:0:0:
460,52,191766,6,0,P|408:36|360:48,1,79.9999952316285,8|8,0:0|0:0,0:0:0:0:
288,56,192071,2,0,P|244:40|196:52,1,79.9999952316285,8|8,0:0|0:0,0:0:0:0:
120,72,192375,2,0,P|72:56|32:72,1,79.9999952316285,8|8,0:0|0:0,0:0:0:0:
72,156,192680,1,8,0:0:0:0:
116,240,192833,1,8,0:0:0:0:
