osu file format v14

[General]
AudioFilename: 02 Needles.mp3
AudioLeadIn: 0
PreviewTime: 55810
Countdown: 0
SampleSet: Soft
StackLeniency: 0.7
Mode: 0
LetterboxInBreaks: 1
WidescreenStoryboard: 0

[Editor]
DistanceSpacing: 1.8
BeatDivisor: 4
GridSize: 4
TimelineZoom: 1.32

[Metadata]
Title:Needles
TitleUnicode:Needles
Artist:System Of A Down
ArtistUnicode:System Of A Down
Creator:jawns
Version:Extra
Source:
Tags:
BeatmapID:804545
BeatmapSetID:358872

[Difficulty]
HPDrainRate:5
CircleSize:4
OverallDifficulty:7
ApproachRate:9
SliderMultiplier:2.4
SliderTickRate:1

[Events]
//Background and Video events
0,0,"doctor_needle1024.jpg",0,0
//Break Periods
//Storyboard Layer 0 (Background)
//Storyboard Layer 1 (Fail)
//Storyboard Layer 2 (Pass)
//Storyboard Layer 3 (Foreground)
//Storyboard Sound Samples

[TimingPoints]
195,329.139999999999,4,2,0,100,1,0
2836,324.239999999998,4,2,0,100,1,0
4132,320.239999999998,4,2,0,100,1,0
5425,316.209999999999,4,2,0,100,1,0
7968,317.369999999999,4,2,0,100,1,0
10480,328.919999999998,4,2,0,100,1,0
15742,317.309896129728,4,2,0,100,1,0
20818,325.420319052709,4,2,0,100,1,0
26026,315.520319052707,4,2,0,100,1,0
31088,313.520319052706,4,2,0,100,1,0
36104,314.260319052706,4,2,0,100,1,0
37361,322.260319052706,4,2,0,100,1,0
38651,324.520319052706,4,2,0,100,1,0
39955,305.520319052706,4,2,0,100,1,0
41198,310.920319052706,4,2,0,100,1,0
43685,316.320319052707,4,2,0,100,1,0
46226,306.320319052707,4,2,0,100,1,0
48689,315.020319052707,4,1,0,100,1,0
51210,315.420319052707,4,2,0,100,1,0
53733,306.020319052707,4,1,0,100,1,0
56181,313.420319052707,4,1,0,100,1,1
61195,308.120319052707,4,1,0,100,1,1
63659,308.620319052707,4,1,0,100,1,1
66127,309.020319052707,4,2,0,100,1,0
68623,321.320319052707,4,2,0,100,1,0
76334,309.620319052707,4,2,0,100,1,0
81287,325.920319052707,4,2,0,100,1,0
86501,320.920319052707,4,2,0,100,1,0
89068,311.920319052707,4,2,0,100,1,0
91563,313.320319052707,4,2,0,100,1,0
94085,306.310319052707,4,1,0,100,1,0
95292,308.330319052707,4,1,0,100,1,0
96525,321.830319052707,4,2,0,100,1,0
99099,303.830319052707,4,1,0,100,1,0
101529,311.830319052707,4,1,0,100,1,1
111507,323.830319052707,4,2,0,100,1,0
116686,324.830319052707,4,2,0,100,1,0
121901,327.830319052707,4,2,0,100,1,0
127146,323.830319052707,4,2,0,100,1,0
137508,326.830319052707,4,2,0,100,1,0
153195,315.830319052707,4,2,0,100,1,0
155721,317.830319052707,4,2,0,100,1,0
158263,326.830319052707,4,2,0,100,1,0
160880,319.830319052707,4,2,0,100,1,0
162159,317.830319052707,4,2,0,100,1,0
163430,313.730319052707,4,2,0,100,1,0
165964,310.830319052707,4,1,0,100,1,0
168450,316.830319052707,4,2,0,100,1,0
170984,306.830319052707,4,1,0,100,1,0
173442,306.830319052707,4,1,0,100,1,1
178365,305.830319052707,4,1,0,100,1,1
180833,299.830319052707,4,1,0,100,1,1
183231,304.830319052707,4,2,0,100,1,0

[HitObjects]
212,216,195,6,0,L|136:284,2,60,8|0|0,0:0|0:0|0:0,0:0:0:0:
264,160,524,1,0,0:0:0:0:
276,148,606,1,0,0:0:0:0:
288,136,688,1,0,0:0:0:0:
344,76,853,1,0,0:0:0:0:
356,64,935,1,0,0:0:0:0:
368,52,1017,1,0,0:0:0:0:
452,108,1182,1,0,0:0:0:0:
440,120,1264,1,0,0:0:0:0:
428,132,1346,1,0,0:0:0:0:
372,188,1511,6,0,L|320:236,2,60,8|0|0,0:0|0:0|0:0,0:0:0:0:
428,132,1840,1,0,0:0:0:0:
440,144,1922,1,0,0:0:0:0:
452,156,2005,1,0,0:0:0:0:
512,208,2169,1,0,0:0:0:0:
500,220,2252,1,0,0:0:0:0:
488,232,2334,1,0,0:0:0:0:
432,276,2498,1,0,0:0:0:0:
420,264,2581,1,0,0:0:0:0:
408,252,2663,1,0,0:0:0:0:
360,196,2836,6,0,L|416:136,2,60,8|0|0,0:0|0:0|0:0,0:0:0:0:
308,248,3160,1,0,0:0:0:0:
296,260,3241,1,0,0:0:0:0:
284,272,3322,1,0,0:0:0:0:
224,320,3484,2,0,L|288:376,2,60,8|0|0,0:0|0:0|0:0,0:0:0:0:
168,268,3808,1,0,0:0:0:0:
156,256,3889,1,0,0:0:0:0:
144,244,3970,1,0,0:0:0:0:
88,144,4132,6,0,L|48:88,2,60,8|0|0,0:0|0:0|0:0,0:0:0:0:
188,84,4452,2,0,L|168:24,2,60,8|0|0,0:0|0:0|0:0,0:0:0:0:
320,80,4772,2,0,L|336:20,2,60,8|0|0,0:0|0:0|0:0,0:0:0:0:
428,120,5092,2,0,L|472:64,2,60,8|0|0,0:0|0:0|0:0,0:0:0:0:
456,280,5425,6,0,P|423:327|356:360,1,120,8|0,0:0|0:0,0:0:0:0:
208,292,5741,1,0,0:0:0:0:
244,136,5899,1,0,0:0:0:0:
352,256,6057,2,8,P|327:334|260:372,1,120,8|0,0:0|0:0,0:0:0:0:
144,352,6373,2,0,P|88:296|76:224,1,120
92,104,6689,5,8,0:0:0:0:
244,48,6847,1,0,0:0:0:0:
396,100,7006,1,8,0:0:0:0:
244,48,7164,1,0,0:0:0:0:
244,208,7322,2,0,L|248:356,1,120,8|0,0:0|0:0,0:0:0:0:
404,324,7638,2,0,P|416:256|392:200,1,120
268,128,7954,5,8,0:0:0:0:
96,160,8126,1,0,0:0:0:0:
96,320,8285,2,0,P|160:336|228:304,1,120
308,320,8602,2,0,P|372:336|440:304,1,120,8|0,0:0|0:0,0:0:0:0:
464,168,8920,1,0,0:0:0:0:
384,28,9078,1,0,0:0:0:0:
280,148,9237,5,8,0:0:0:0:
384,28,9396,1,0,0:0:0:0:
288,156,9554,1,8,0:0:0:0:
188,28,9713,1,0,0:0:0:0:
288,156,9872,1,8,0:0:0:0:
288,316,10030,1,0,0:0:0:0:
144,240,10189,1,0,0:0:0:0:
80,92,10348,1,0,0:0:0:0:
204,60,10480,5,8,0:0:0:0:
204,60,10562,1,0,0:0:0:0:
204,60,10644,1,0,0:0:0:0:
364,60,10808,2,0,P|424:92|456:144,1,120
452,288,11137,2,0,P|408:336|304:340,1,120
200,344,11466,2,0,P|132:328|84:256,1,120
88,136,11795,5,8,0:0:0:0:
196,256,11960,1,0,0:0:0:0:
300,136,12124,1,0,0:0:0:0:
400,260,12289,1,0,0:0:0:0:
300,136,12453,1,0,0:0:0:0:
196,260,12617,1,0,0:0:0:0:
88,136,12782,2,0,P|132:84|188:56,1,120
332,64,13111,5,8,0:0:0:0:
332,64,13193,1,0,0:0:0:0:
332,64,13275,1,0,0:0:0:0:
452,172,13440,2,0,P|444:248|404:288,1,120
272,336,13769,2,0,P|188:336|136:296,1,120,8|0,0:0|0:0,0:0:0:0:
80,184,14098,1,0,0:0:0:0:
188,64,14262,1,0,0:0:0:0:
336,128,14427,5,8,0:0:0:0:
188,192,14591,1,0,0:0:0:0:
336,260,14755,1,8,0:0:0:0:
252,124,14920,1,0,0:0:0:0:
388,40,15084,1,8,0:0:0:0:
456,188,15249,1,0,0:0:0:0:
296,188,15413,1,8,0:0:0:0:
388,320,15578,1,0,0:0:0:0:
220,320,15742,6,0,P|216:248|248:196,1,120,8|0,0:0|0:0,0:0:0:0:
336,84,16059,1,0,0:0:0:0:
492,124,16217,1,0,0:0:0:0:
404,260,16376,2,0,P|348:212|340:152,1,120,8|0,0:0|0:0,0:0:0:0:
424,36,16693,1,0,0:0:0:0:
264,36,16852,1,0,0:0:0:0:
104,60,17011,6,0,P|48:120|40:176,1,120,8|0,0:0|0:0,0:0:0:0:
48,312,17328,2,0,P|112:344|176:344,1,120,8|0,0:0|0:0,0:0:0:0:
316,340,17645,2,0,P|360:284|360:212,1,120,8|0,0:0|0:0,0:0:0:0:
320,88,17963,1,0,0:0:0:0:
224,216,18121,1,0,0:0:0:0:
320,344,18280,5,8,0:0:0:0:
484,256,18439,1,0,0:0:0:0:
468,96,18597,2,0,P|416:52|344:40,1,120
212,68,18915,2,0,P|268:128|320:144,1,120,8|0,0:0|0:0,0:0:0:0:
432,52,19232,1,0,0:0:0:0:
464,212,19391,1,0,0:0:0:0:
328,124,19549,5,8,0:0:0:0:
208,16,19708,1,0,0:0:0:0:
240,176,19867,1,8,0:0:0:0:
376,260,20025,1,0,0:0:0:0:
236,340,20184,1,8,0:0:0:0:
240,176,20342,1,0,0:0:0:0:
60,96,20501,1,0,0:0:0:0:
96,252,20660,1,0,0:0:0:0:
240,176,20818,5,8,0:0:0:0:
240,176,20899,1,0,0:0:0:0:
240,176,20980,1,0,0:0:0:0:
356,64,21143,1,0,0:0:0:0:
356,224,21306,1,0,0:0:0:0:
356,64,21468,2,0,L|356:216,1,120
348,340,21794,1,0,0:0:0:0:
188,340,21956,1,0,0:0:0:0:
76,224,22119,5,8,0:0:0:0:
76,224,22201,1,0,0:0:0:0:
76,224,22282,1,0,0:0:0:0:
76,64,22445,1,0,0:0:0:0:
76,224,22607,1,0,0:0:0:0:
76,64,22770,2,0,L|76:208,1,120
188,340,23095,1,0,0:0:0:0:
348,340,23258,1,0,0:0:0:0:
256,208,23421,5,8,0:0:0:0:
256,208,23502,1,0,0:0:0:0:
256,208,23584,1,0,0:0:0:0:
352,80,23746,1,0,0:0:0:0:
376,240,23909,2,0,P|304:284|236:292,1,120,0|8,0:0|0:0,0:0:0:0:
136,208,24234,1,0,0:0:0:0:
228,76,24397,1,0,0:0:0:0:
256,208,24560,1,0,0:0:0:0:
376,100,24723,5,8,0:0:0:0:
396,260,24885,1,0,0:0:0:0:
296,136,25048,1,8,0:0:0:0:
204,268,25211,1,0,0:0:0:0:
72,172,25373,1,8,0:0:0:0:
84,148,25455,1,0,0:0:0:0:
96,128,25536,1,0,0:0:0:0:
111,108,25617,1,0,0:0:0:0:
129,90,25699,1,8,0:0:0:0:
148,74,25780,1,0,0:0:0:0:
168,60,25862,1,0,0:0:0:0:
190,48,25943,1,0,0:0:0:0:
213,38,26024,5,12,0:0:0:0:
448,280,26341,1,0,0:0:0:0:
124,188,26657,1,0,0:0:0:0:
452,112,26972,1,0,0:0:0:0:
216,352,27288,1,0,0:0:0:0:
60,56,27603,1,0,0:0:0:0:
280,308,27919,1,0,0:0:0:0:
416,0,28234,1,0,0:0:0:0:
432,336,28550,5,0,0:0:0:0:
300,28,28865,1,0,0:0:0:0:
168,340,29181,1,0,0:0:0:0:
40,28,29496,1,0,0:0:0:0:
356,148,29812,1,0,0:0:0:0:
40,256,30127,1,0,0:0:0:0:
352,380,30443,1,0,0:0:0:0:
468,64,30758,1,0,0:0:0:0:
468,64,30916,1,0,0:0:0:0:
468,64,31074,5,4,0:0:0:0:
256,324,31401,1,0,0:0:0:0:
388,16,31715,1,0,0:0:0:0:
472,340,32028,1,0,0:0:0:0:
228,108,32342,1,0,0:0:0:0:
12,364,32655,1,0,0:0:0:0:
60,32,32969,1,0,0:0:0:0:
396,28,33282,1,0,0:0:0:0:
248,328,33596,5,0,0:0:0:0:
492,96,33909,1,0,0:0:0:0:
288,364,34223,1,0,0:0:0:0:
24,156,34536,1,0,0:0:0:0:
324,8,34850,1,4,0:0:0:0:
144,292,35163,1,4,0:0:0:0:
476,344,35477,1,4,0:0:0:0:
456,8,35790,1,4,0:0:0:0:
212,240,36104,5,8,0:0:0:0:
212,240,36182,1,0,0:0:0:0:
212,240,36261,1,0,0:0:0:0:
108,108,36418,2,0,P|168:60|216:56,1,120
348,152,36732,2,0,P|352:212|288:272,1,120
180,164,37046,2,0,P|144:232|168:288,1,120
312,328,37361,5,8,0:0:0:0:
312,328,37441,1,0,0:0:0:0:
312,328,37522,1,0,0:0:0:0:
480,308,37683,2,0,P|500:232|480:184,1,120
392,56,38005,2,0,P|312:32|260:56,1,120
128,112,38327,1,0,0:0:0:0:
292,156,38488,1,0,0:0:0:0:
228,12,38651,5,8,0:0:0:0:
208,180,38813,1,0,0:0:0:0:
316,52,38975,1,0,0:0:0:0:
388,204,39137,1,0,0:0:0:0:
440,44,39300,2,0,P|484:120|488:172,1,120,8|0,0:0|0:0,0:0:0:0:
448,312,39624,2,0,P|360:332|312:320,1,120
312,160,39955,5,8,0:0:0:0:
228,304,40107,1,0,0:0:0:0:
144,156,40260,1,8,0:0:0:0:
288,244,40413,1,0,0:0:0:0:
456,244,40566,2,0,P|456:160|432:120,1,120,8|0,0:0|0:0,0:0:0:0:
296,40,40871,2,0,P|216:36|168:72,1,120,8|0,0:0|0:0,0:0:0:0:
96,192,41198,5,4,0:0:0:0:
380,368,41508,1,0,0:0:0:0:
148,124,41819,1,0,0:0:0:0:
476,44,42130,1,0,0:0:0:0:
240,284,42441,1,0,0:0:0:0:
28,24,42752,1,0,0:0:0:0:
72,356,43063,1,0,0:0:0:0:
288,96,43374,1,0,0:0:0:0:
480,364,43685,5,4,0:0:0:0:
160,256,44001,1,0,0:0:0:0:
480,156,44317,1,0,0:0:0:0:
164,44,44633,1,0,0:0:0:0:
40,356,44950,1,4,0:0:0:0:
164,44,45266,1,4,0:0:0:0:
284,356,45582,1,4,0:0:0:0:
416,48,45899,1,4,0:0:0:0:
452,164,46226,6,0,B|424:160|396:236|396:236|356:152|356:152|348:208|316:208|156:200,1,360,4|0,0:0|0:0,0:0:0:0:
68,124,46838,2,0,P|168:64|296:72,1,240,8|0,0:0|0:0,0:0:0:0:
464,84,47451,2,0,B|464:116|464:116|504:172|504:172|424:180|424:180|472:236|476:280|460:312|426:325|352:324,1,360,4|0,0:0|0:0,0:0:0:0:
272,320,48063,2,0,P|184:228|56:228,1,240,8|0,0:0|0:0,0:0:0:0:
72,112,48523,1,0,0:0:0:0:
152,52,48676,5,0,0:0:0:0:
472,192,49004,1,8,0:0:0:0:
472,192,49082,1,8,0:0:0:0:
472,192,49161,1,8,0:0:0:0:
468,24,49319,1,0,0:0:0:0:
472,360,49634,1,8,0:0:0:0:
472,360,49712,1,8,0:0:0:0:
472,360,49791,1,8,0:0:0:0:
304,356,49949,5,0,0:0:0:0:
80,108,50264,1,8,0:0:0:0:
80,108,50342,1,8,0:0:0:0:
80,108,50421,1,8,0:0:0:0:
76,276,50579,1,0,0:0:0:0:
368,108,50894,1,8,0:0:0:0:
372,284,51210,6,4,B|356:208|280:216|280:216|316:120|316:120|220:140|200:20,1,360,4|0,0:0|0:0,0:0:0:0:
380,36,51840,2,0,P|472:132|472:244,1,240,8|0,0:0|0:0,0:0:0:0:
372,284,52471,2,0,B|351:213|316:172|224:136|224:136|296:96|296:96|240:80|240:48,1,360,4|0,0:0|0:0,0:0:0:0:
160,64,53102,2,0,B|172:112|32:184|280:164|144:232|152:292,1,240,8|0,0:0|0:0,0:0:0:0:
224,344,53575,1,0,0:0:0:0:
52,340,53733,5,0,0:0:0:0:
60,4,54039,1,8,0:0:0:0:
60,4,54115,1,8,0:0:0:0:
60,4,54192,1,8,0:0:0:0:
56,172,54345,1,0,0:0:0:0:
392,176,54651,1,8,0:0:0:0:
392,176,54727,1,8,0:0:0:0:
392,176,54804,1,8,0:0:0:0:
488,40,54957,5,0,0:0:0:0:
256,284,55263,1,8,0:0:0:0:
256,284,55339,1,8,0:0:0:0:
256,284,55416,1,8,0:0:0:0:
256,376,55569,1,0,0:0:0:0:
256,40,55875,1,8,0:0:0:0:
352,40,56181,6,0,P|332:92|268:136,1,120
76,196,56494,1,8,0:0:0:0:
212,28,56651,1,0,0:0:0:0:
212,244,56807,1,0,0:0:0:0:
52,96,56964,1,0,0:0:0:0:
40,312,57121,2,0,P|100:332|160:312,1,120,8|0,0:0|0:0,0:0:0:0:
368,336,57434,5,0,0:0:0:0:
228,172,57591,1,0,0:0:0:0:
444,176,57748,1,8,0:0:0:0:
260,288,57904,1,8,0:0:0:0:
260,288,57983,1,8,0:0:0:0:
260,288,58061,1,8,0:0:0:0:
84,164,58218,1,0,0:0:0:0:
244,20,58374,2,0,P|304:64|320:120,1,120,8|0,0:0|0:0,0:0:0:0:
392,60,58688,6,0,P|404:140|360:192,1,120
204,284,59001,1,8,0:0:0:0:
412,340,59158,1,0,0:0:0:0:
324,144,59315,1,0,0:0:0:0:
268,352,59471,1,0,0:0:0:0:
116,196,59628,2,0,P|80:272|84:320,1,120,8|0,0:0|0:0,0:0:0:0:
232,148,59942,5,0,0:0:0:0:
212,364,60098,1,0,0:0:0:0:
376,224,60255,1,8,0:0:0:0:
252,44,60412,1,8,0:0:0:0:
252,44,60490,1,8,0:0:0:0:
252,44,60568,1,8,0:0:0:0:
48,112,60725,1,0,0:0:0:0:
104,320,60882,2,0,P|164:296|196:228,1,120,8|0,0:0|0:0,0:0:0:0:
156,188,61195,6,0,P|232:192|272:240,1,120
444,336,61503,1,8,0:0:0:0:
476,124,61657,1,0,0:0:0:0:
364,308,61811,1,0,0:0:0:0:
204,164,61965,1,0,0:0:0:0:
416,204,62119,1,8,0:0:0:0:
280,36,62273,1,0,0:0:0:0:
496,20,62427,5,0,0:0:0:0:
320,148,62581,1,0,0:0:0:0:
248,352,62735,1,8,0:0:0:0:
72,224,62889,1,8,0:0:0:0:
72,224,62966,1,8,0:0:0:0:
72,224,63043,1,8,0:0:0:0:
184,40,63197,1,0,0:0:0:0:
296,224,63351,2,0,P|360:184|384:136,1,120,8|0,0:0|0:0,0:0:0:0:
164,156,63659,6,0,P|92:116|76:64,1,120
128,32,63967,2,0,B|188:4|228:68|300:20,1,120,8|0,0:0|0:0,0:0:0:0:
356,36,64276,2,0,P|324:96|272:128,1,120,8|0,0:0|0:0,0:0:0:0:
208,124,64584,2,0,B|232:180|192:184|216:248,1,120,8|0,0:0|0:0,0:0:0:0:
400,356,64893,1,8,0:0:0:0:
188,324,65047,1,8,0:0:0:0:
376,216,65202,2,8,B|396:232|396:232|348:244|348:244|384:260|384:292,1,120
228,28,65973,2,8,P|260:20|292:32,1,60
368,28,66127,6,8,P|392:96|376:144,1,120
260,260,66436,1,0,0:0:0:0:
248,92,66590,1,0,0:0:0:0:
136,220,66745,2,8,P|72:192|48:136,1,120
192,148,67054,2,0,P|128:120|104:64,1,120
268,28,67363,5,8,0:0:0:0:
248,196,67517,1,0,0:0:0:0:
388,104,67672,1,8,0:0:0:0:
224,80,67826,1,0,0:0:0:0:
164,236,67981,2,0,P|165:292|220:332,1,120,8|0,0:0|0:0,0:0:0:0:
380,324,68290,2,0,P|428:292|416:196,1,120
264,168,68623,5,8,0:0:0:0:
264,168,68703,1,0,0:0:0:0:
264,168,68783,1,0,0:0:0:0:
420,104,68944,2,0,P|464:168|468:220,1,120
324,296,69265,1,0,0:0:0:0:
324,296,69345,1,0,0:0:0:0:
324,296,69426,1,0,0:0:0:0:
176,216,69586,2,0,P|184:152|224:104,1,120
360,200,69908,5,8,0:0:0:0:
284,52,70068,1,0,0:0:0:0:
244,216,70229,1,8,0:0:0:0:
368,104,70390,1,0,0:0:0:0:
440,256,70550,1,8,0:0:0:0:
421,277,70630,1,0,0:0:0:0:
400,297,70710,1,0,0:0:0:0:
376,314,70790,1,0,0:0:0:0:
351,328,70871,1,8,0:0:0:0:
325,340,70951,1,0,0:0:0:0:
298,348,71031,1,0,0:0:0:0:
269,353,71112,1,0,0:0:0:0:
241,356,71192,5,4,0:0:0:0:
241,356,71514,1,0,0:0:0:0:
104,352,71836,1,0,0:0:0:0:
104,352,72157,1,0,0:0:0:0:
108,16,72478,1,0,0:0:0:0:
108,16,72800,1,0,0:0:0:0:
244,20,73121,1,0,0:0:0:0:
244,20,73442,1,0,0:0:0:0:
420,100,73764,5,0,0:0:0:0:
248,184,74085,1,0,0:0:0:0:
424,256,74406,1,0,0:0:0:0:
252,344,74728,1,0,0:0:0:0:
60,340,75049,1,0,0:0:0:0:
64,148,75370,1,0,0:0:0:0:
192,4,75692,1,0,0:0:0:0:
384,4,76013,1,0,0:0:0:0:
472,148,76174,1,0,0:0:0:0:
400,304,76334,5,4,0:0:0:0:
64,304,76643,1,0,0:0:0:0:
256,28,76953,1,0,0:0:0:0:
264,364,77262,1,0,0:0:0:0:
96,72,77572,1,0,0:0:0:0:
432,68,77882,1,0,0:0:0:0:
432,356,78191,1,0,0:0:0:0:
260,68,78501,1,0,0:0:0:0:
76,348,78810,5,0,0:0:0:0:
388,224,79120,1,0,0:0:0:0:
64,136,79430,1,0,0:0:0:0:
316,356,79739,1,0,0:0:0:0:
152,72,80049,1,4,0:0:0:0:
488,72,80359,1,4,0:0:0:0:
152,72,80668,1,4,0:0:0:0:
420,276,80978,1,4,0:0:0:0:
256,188,81287,5,8,0:0:0:0:
256,188,81368,1,0,0:0:0:0:
256,188,81449,1,0,0:0:0:0:
144,64,81612,2,0,P|80:96|84:168,1,120
216,228,81938,2,0,P|184:300|100:292,1,120
8,220,82264,2,0,P|24:284|76:336,1,120
228,332,82590,5,8,0:0:0:0:
228,332,82672,1,0,0:0:0:0:
228,332,82753,1,0,0:0:0:0:
396,344,82916,2,0,P|448:292|448:232,1,120
452,80,83242,2,0,P|380:24|328:32,1,120
188,48,83568,1,0,0:0:0:0:
56,152,83731,1,0,0:0:0:0:
212,212,83894,5,8,0:0:0:0:
336,96,84057,1,0,0:0:0:0:
372,260,84220,1,0,0:0:0:0:
256,136,84383,1,0,0:0:0:0:
424,156,84546,2,0,P|452:240|444:300,1,120,8|0,0:0|0:0,0:0:0:0:
316,372,84872,2,0,P|264:300|280:224,1,120
336,96,85198,5,8,0:0:0:0:
212,212,85361,1,0,0:0:0:0:
372,260,85524,1,8,0:0:0:0:
256,136,85687,1,0,0:0:0:0:
144,12,85849,2,0,P|52:56|36:112,1,120,8|0,0:0|0:0,0:0:0:0:
36,236,86175,2,0,P|92:308|128:316,1,120,8|0,0:0|0:0,0:0:0:0:
152,148,86501,5,4,0:0:0:0:
472,244,86821,1,0,0:0:0:0:
152,244,87142,1,0,0:0:0:0:
472,148,87463,1,0,0:0:0:0:
200,348,87784,1,0,0:0:0:0:
328,36,88105,1,0,0:0:0:0:
332,348,88426,1,0,0:0:0:0:
204,36,88747,1,0,0:0:0:0:
4,320,89068,5,4,0:0:0:0:
264,108,89379,1,0,0:0:0:0:
72,384,89691,1,0,0:0:0:0:
332,172,90003,1,0,0:0:0:0:
12,76,90315,1,4,0:0:0:0:
348,40,90627,1,4,0:0:0:0:
500,340,90939,1,4,0:0:0:0:
164,372,91251,1,4,0:0:0:0:
72,52,91563,6,0,P|248:16|424:64,1,360,4|0,0:0|0:0,0:0:0:0:
112,112,92189,2,0,B|280:36|248:192|384:68,1,240,8|0,0:0|0:0,0:0:0:0:
440,36,92816,2,0,P|496:212|448:376,1,360,4|0,0:0|0:0,0:0:0:0:
404,104,93442,2,0,B|372:200|472:224|380:356,1,240,8|0,0:0|0:0,0:0:0:0:
300,196,93912,1,0,0:0:0:0:
300,364,94069,5,0,0:0:0:0:
296,12,94391,1,8,0:0:0:0:
296,12,94467,1,8,0:0:0:0:
296,12,94544,1,8,0:0:0:0:
412,136,94697,1,0,0:0:0:0:
76,136,95003,1,8,0:0:0:0:
76,136,95080,1,8,0:0:0:0:
76,136,95157,1,8,0:0:0:0:
152,12,95292,5,0,0:0:0:0:
148,348,95600,1,8,0:0:0:0:
148,348,95677,1,8,0:0:0:0:
148,348,95754,1,8,0:0:0:0:
72,196,95908,1,0,0:0:0:0:
408,196,96216,1,8,0:0:0:0:
88,244,96525,6,0,B|60:292|116:348|116:348|136:360|152:348|152:348|184:292|148:112,1,360,4|0,0:0|0:0,0:0:0:0:
80,156,97168,2,0,B|84:116|100:92|100:92|144:56|276:88,1,240,8|0,0:0|0:0,0:0:0:0:
424,244,97812,2,0,B|452:292|396:348|396:348|376:360|360:348|360:348|328:292|364:112,1,360,4|0,0:0|0:0,0:0:0:0:
432,156,98455,2,0,B|428:116|412:92|412:92|368:56|236:88,1,240,8|0,0:0|0:0,0:0:0:0:
132,212,98938,1,0,0:0:0:0:
292,288,99099,5,0,0:0:0:0:
60,44,99402,1,8,0:0:0:0:
60,44,99478,1,8,0:0:0:0:
60,44,99554,1,8,0:0:0:0:
228,44,99706,1,0,0:0:0:0:
136,368,100010,1,8,0:0:0:0:
136,368,100086,1,8,0:0:0:0:
136,368,100162,1,8,0:0:0:0:
36,232,100314,5,0,0:0:0:0:
352,112,100618,1,8,0:0:0:0:
352,112,100694,1,8,0:0:0:0:
352,112,100770,1,8,0:0:0:0:
444,252,100921,2,0,P|320:232|220:156,1,240,0|8,0:0|0:0,0:0:0:0:
168,52,101529,6,0,P|108:44|80:112,1,120
76,304,101840,2,0,P|136:368|172:348,1,120,8|0,0:0|0:0,0:0:0:0:
260,176,102152,1,0,0:0:0:0:
392,4,102308,2,0,P|460:28|464:92,1,120,0|8,0:0|0:0,0:0:0:0:
272,152,102620,1,0,0:0:0:0:
448,276,102776,5,0,0:0:0:0:
232,248,102932,1,0,0:0:0:0:
276,36,103088,1,8,0:0:0:0:
72,104,103244,1,8,0:0:0:0:
72,104,103322,1,8,0:0:0:0:
72,104,103399,1,0,0:0:0:0:
64,320,103555,2,8,P|100:248|80:192,1,120,0|8,0:0|0:0,0:0:0:0:
204,24,103867,1,0,0:0:0:0:
420,44,104023,6,0,P|488:88|508:144,1,120
448,332,104335,1,8,0:0:0:0:
280,196,104491,1,0,0:0:0:0:
424,36,104647,2,0,P|368:8|296:12,1,120
96,28,104959,2,0,P|20:84|4:120,1,120,8|0,0:0|0:0,0:0:0:0:
156,264,105270,5,0,0:0:0:0:
256,72,105426,1,0,0:0:0:0:
472,72,105582,1,8,0:0:0:0:
476,288,105738,1,8,0:0:0:0:
476,288,105816,1,8,0:0:0:0:
476,288,105894,1,8,0:0:0:0:
260,288,106050,1,0,0:0:0:0:
60,204,106206,2,0,P|100:144|148:112,1,120,8|0,0:0|0:0,0:0:0:0:
352,76,106518,6,0,B|304:96|324:152|272:172,1,120
64,156,106830,1,8,0:0:0:0:
208,316,106986,1,0,0:0:0:0:
324,136,107141,1,0,0:0:0:0:
368,348,107297,1,0,0:0:0:0:
496,244,107453,1,8,0:0:0:0:
280,244,107609,1,0,0:0:0:0:
120,100,107765,5,0,0:0:0:0:
320,20,107921,1,0,0:0:0:0:
500,140,108077,1,8,0:0:0:0:
288,176,108233,1,8,0:0:0:0:
288,176,108311,1,8,0:0:0:0:
288,176,108389,1,8,0:0:0:0:
72,176,108545,1,0,0:0:0:0:
164,372,108701,2,0,P|224:388|284:376,1,120,8|0,0:0|0:0,0:0:0:0:
264,304,109168,6,0,B|244:216|112:224|160:92,1,240
208,20,109636,2,0,B|240:92|232:120|192:164|300:232|312:200,1,240
300,88,110260,2,0,P|368:112|404:164,1,120
336,192,110727,2,0,B|380:240|448:240|476:208|508:152|472:80|444:40|372:16|308:4|220:24,1,480
236,184,111507,5,4,0:0:0:0:
40,340,112802,1,0,0:0:0:0:
144,76,114097,1,0,0:0:0:0:
456,68,115392,1,0,0:0:0:0:
284,224,116686,5,0,0:0:0:0:
456,352,117985,1,0,0:0:0:0:
384,40,119284,1,0,0:0:0:0:
76,220,120583,1,0,0:0:0:0:
436,300,121901,5,4,0:0:0:0:
260,16,122228,2,0,L|340:144,1,120
436,300,122720,1,8,0:0:0:0:
296,208,122884,2,0,L|180:124,1,120
60,44,123212,1,4,0:0:0:0:
204,348,123540,2,0,L|136:208,1,120
60,44,124031,1,8,0:0:0:0:
228,44,124195,2,0,L|360:44,1,120
512,44,124523,5,4,0:0:0:0:
404,364,124851,2,0,L|272:384,1,120
128,300,125343,1,8,0:0:0:0:
296,300,125507,2,0,L|432:300,1,120
480,144,125834,1,4,0:0:0:0:
164,32,126162,2,0,L|292:32,2,120
64,168,126654,1,8,0:0:0:0:
196,272,126818,2,0,L|300:360,1,120
408,236,127146,5,4,0:0:0:0:
164,8,127469,2,0,L|264:100,1,120
320,332,127955,1,8,0:0:0:0:
168,180,128117,2,0,L|56:76,1,120
164,68,128441,1,4,0:0:0:0:
500,68,128765,2,0,L|360:68,1,120
500,180,129250,1,8,0:0:0:0:
336,180,129412,2,0,L|216:180,1,120
216,12,129736,5,4,0:0:0:0:
8,276,130060,2,0,L|92:164,1,120
100,0,130546,1,8,0:0:0:0:
240,92,130708,2,0,L|364:168,1,120
452,28,131031,1,4,0:0:0:0:
456,196,131193,2,0,L|456:332,2,120
452,28,131679,1,0,0:0:0:0:
284,28,131841,2,0,L|160:28,2,120,8|0|0,0:0|0:0|0:0,0:0:0:0:
440,96,132327,6,0,P|504:168|504:228,1,120,4|0,0:0|0:0,0:0:0:0:
416,328,132651,2,0,L|292:328,1,120
44,336,133136,1,8,0:0:0:0:
112,184,133298,2,0,L|172:60,1,120
332,44,133622,1,4,0:0:0:0:
264,196,133784,1,0,0:0:0:0:
340,156,134108,2,8,B|432:172|352:4|508:4,1,240,8|0,0:0|0:0,0:0:0:0:
504,172,134594,1,8,0:0:0:0:
216,340,134917,5,4,0:0:0:0:
44,52,135241,2,0,L|120:180,1,120
232,44,135727,1,8,0:0:0:0:
332,180,135889,1,0,0:0:0:0:
428,44,136051,1,0,0:0:0:0:
496,200,136213,2,0,P|464:284|396:304,1,120,4|0,0:0|0:0,0:0:0:0:
104,296,136698,2,0,P|60:244|80:80,1,240,8|0,0:0|0:0,0:0:0:0:
232,44,137184,1,8,0:0:0:0:
424,316,137508,5,4,0:0:0:0:
288,8,137834,2,0,L|340:128,1,120
168,124,138325,1,8,0:0:0:0:
320,56,138488,2,0,L|432:-4,1,120
496,152,138815,1,4,0:0:0:0:
416,300,138978,1,0,0:0:0:0:
364,132,139305,2,0,B|396:232|248:196|344:360,1,240,8|0,0:0|0:0,0:0:0:0:
508,352,139795,2,0,B|432:316|472:300|464:116,1,240,8|4,0:0|0:0,0:0:0:0:
132,80,140449,6,0,L|256:100,1,120
416,124,140939,1,8,0:0:0:0:
252,156,141103,2,0,L|128:184,1,120
24,308,141429,2,0,P|88:352|144:344,1,120,4|0,0:0|0:0,0:0:0:0:
212,344,141920,2,0,B|172:232|72:296|52:160,1,240,8|0,0:0|0:0,0:0:0:0:
220,204,142410,1,8,0:0:0:0:
500,20,142737,5,4,0:0:0:0:
504,356,143064,2,0,L|504:208,1,120
188,356,143554,1,8,0:0:0:0:
356,356,143717,2,0,L|496:356,1,120
476,188,144044,2,0,P|488:116|472:56,1,120,4|0,0:0|0:0,0:0:0:0:
144,72,144534,2,0,P|184:40|368:32,1,240,8|0,0:0|0:0,0:0:0:0:
308,192,145025,1,8,0:0:0:0:
468,44,145351,5,4,0:0:0:0:
328,348,145678,2,0,L|392:208,1,120
468,44,146169,1,8,0:0:0:0:
340,148,146332,1,0,0:0:0:0:
204,48,146495,1,0,0:0:0:0:
68,148,146659,2,0,P|136:176|192:152,1,120,4|0,0:0|0:0,0:0:0:0:
328,48,147149,2,0,B|192:128|316:224|296:272,1,240,8|0,0:0|0:0,0:0:0:0:
152,336,147639,1,8,0:0:0:0:
192,172,147966,5,4,0:0:0:0:
496,24,148293,2,0,L|384:80,1,120
388,372,148783,1,8,0:0:0:0:
268,252,148947,2,0,L|180:160,1,120
72,44,149273,1,4,0:0:0:0:
240,48,149437,1,0,0:0:0:0:
164,196,149764,2,0,B|88:176|44:224|80:364,1,240,8|0,0:0|0:0,0:0:0:0:
248,364,150254,1,8,0:0:0:0:
408,256,150581,5,4,0:0:0:0:
168,20,150908,2,0,L|276:124,1,120
408,256,151398,1,8,0:0:0:0:
203,77,151561,1,0,0:0:0:0:
265,343,151725,1,0,0:0:0:0:
371,92,151888,1,4,0:0:0:0:
138,232,152051,1,0,0:0:0:0:
464,148,152378,2,0,B|408:132|408:132|392:164|392:164|356:152|356:152|344:184|344:184|332:220|160:244,1,360,8|8,0:0|0:0,0:0:0:0:
52,72,153195,6,4,P|120:32|176:24,1,120
376,40,153510,1,12,0:0:0:0:
452,244,153668,1,4,0:0:0:0:
256,336,153826,2,4,P|176:320|132:280,1,120
28,116,154142,1,12,0:0:0:0:
224,24,154300,1,4,0:0:0:0:
436,56,154458,6,4,P|384:96|360:152,1,120
416,356,154774,1,12,0:0:0:0:
272,196,154932,1,4,0:0:0:0:
120,44,155089,2,4,P|132:116|96:176,1,120
220,348,155405,1,12,0:0:0:0:
376,196,155563,1,4,0:0:0:0:
196,80,155721,6,4,P|144:152|144:200,1,120,12|4,0:0|0:0,0:0:0:0:
296,328,156038,2,4,P|368:292|408:244,1,120,12|4,0:0|0:0,0:0:0:0:
424,48,156356,2,4,B|364:32|312:56|304:68,1,120,12|4,0:0|0:0,0:0:0:0:
136,196,156674,2,4,P|100:264|104:328,1,120,12|4,0:0|0:0,0:0:0:0:
284,192,156992,5,12,0:0:0:0:
440,344,157151,1,12,0:0:0:0:
440,128,157310,1,12,0:0:0:0:
252,20,157469,1,12,0:0:0:0:
80,148,157627,1,12,0:0:0:0:
264,260,157786,1,12,0:0:0:0:
72,360,157945,1,12,0:0:0:0:
184,176,158104,1,12,0:0:0:0:
324,92,158263,5,8,0:0:0:0:
324,92,158344,1,0,0:0:0:0:
324,92,158426,1,0,0:0:0:0:
452,200,158589,2,0,P|440:272|392:316,1,120
240,316,158916,2,0,P|188:272|116:260,1,120
24,136,159243,2,0,P|64:56|100:32,1,120
256,36,159570,5,8,0:0:0:0:
256,36,159652,1,0,0:0:0:0:
256,36,159733,1,0,0:0:0:0:
420,68,159897,2,0,P|396:136|340:176,1,120
196,148,160223,2,0,P|128:176|96:216,1,120
240,300,160550,2,0,P|308:332|348:368,1,120
440,216,160880,5,8,0:0:0:0:
440,216,160959,1,0,0:0:0:0:
440,216,161039,1,0,0:0:0:0:
364,64,161199,2,0,P|308:32|248:24,1,120
88,64,161519,1,8,0:0:0:0:
88,64,161599,1,0,0:0:0:0:
88,64,161679,1,0,0:0:0:0:
52,228,161839,2,0,P|84:304|140:340,1,120
308,232,162159,5,12,0:0:0:0:
132,108,162317,1,4,0:0:0:0:
336,36,162476,1,12,0:0:0:0:
460,212,162635,1,4,0:0:0:0:
268,112,162794,1,12,0:0:0:0:
140,288,162953,1,4,0:0:0:0:
356,304,163112,1,12,0:0:0:0:
432,100,163271,1,4,0:0:0:0:
220,40,163430,6,0,P|92:72|48:284,1,360,4|0,0:0|0:0,0:0:0:0:
120,264,164057,2,0,B|88:180|124:112|168:88|288:128,1,240,8|0,0:0|0:0,0:0:0:0:
292,40,164684,2,0,P|420:72|464:284,1,360,4|0,0:0|0:0,0:0:0:0:
392,264,165312,2,0,B|424:180|388:112|344:88|224:128,1,240,8|0,0:0|0:0,0:0:0:0:
188,256,165782,1,0,0:0:0:0:
16,156,165964,5,0,0:0:0:0:
328,36,166274,1,8,0:0:0:0:
328,36,166352,1,8,0:0:0:0:
328,36,166430,1,8,0:0:0:0:
448,152,166585,1,0,0:0:0:0:
132,36,166896,1,8,0:0:0:0:
132,36,166974,1,8,0:0:0:0:
132,36,167051,1,8,0:0:0:0:
260,148,167207,5,0,0:0:0:0:
256,380,167517,1,8,0:0:0:0:
256,380,167595,1,8,0:0:0:0:
256,380,167673,1,8,0:0:0:0:
112,296,167828,2,0,P|180:192|280:108,1,240,0|8,0:0|0:0,0:0:0:0:
472,68,168450,6,0,B|472:248|472:248|384:220|399:111|399:111|348:72|348:72|336:136|336:136|308:44|308:44|284:136|284:136|240:112,1,720,12|0,0:0|0:0,0:0:0:0:
32,104,169717,2,0,B|48:44|60:28|60:28|84:4|148:20|148:20|252:124|144:148|144:148|212:208|212:208|72:260|148:300|280:340|324:316,1,720,12|0,0:0|0:0,0:0:0:0:
440,216,170826,1,0,0:0:0:0:
444,44,170984,5,0,0:0:0:0:
108,44,171290,1,8,0:0:0:0:
108,44,171367,1,8,0:0:0:0:
108,44,171444,1,8,0:0:0:0:
100,212,171597,1,0,0:0:0:0:
388,384,171904,1,8,0:0:0:0:
388,384,171981,1,8,0:0:0:0:
388,384,172057,1,8,0:0:0:0:
496,252,172211,5,0,0:0:0:0:
260,12,172518,1,8,0:0:0:0:
260,12,172594,1,8,0:0:0:0:
260,12,172671,1,8,0:0:0:0:
192,164,172824,1,0,0:0:0:0:
496,24,173131,1,8,0:0:0:0:
156,36,173442,6,0,P|120:96|124:168,1,120
272,292,173748,2,0,P|344:316|384:368,1,120,8|0,0:0|0:0,0:0:0:0:
484,160,174055,1,0,0:0:0:0:
304,40,174209,1,0,0:0:0:0:
120,152,174362,1,8,0:0:0:0:
336,148,174515,1,0,0:0:0:0:
176,296,174669,5,0,0:0:0:0:
240,88,174822,1,0,0:0:0:0:
452,52,174976,1,8,0:0:0:0:
476,268,175129,1,8,0:0:0:0:
476,268,175206,1,8,0:0:0:0:
476,268,175282,1,8,0:0:0:0:
260,236,175436,1,0,0:0:0:0:
68,332,175589,2,0,P|32:264|36:200,1,120,8|0,0:0|0:0,0:0:0:0:
148,40,175896,6,0,P|152:132|184:164,1,120
260,348,176203,1,8,0:0:0:0:
320,140,176356,1,0,0:0:0:0:
412,336,176510,1,0,0:0:0:0:
472,128,176663,1,0,0:0:0:0:
284,24,176817,1,8,0:0:0:0:
104,140,176970,1,0,0:0:0:0:
292,248,177123,5,0,0:0:0:0:
88,320,177277,1,0,0:0:0:0:
228,156,177430,1,8,0:0:0:0:
416,48,177584,1,8,0:0:0:0:
416,48,177660,1,8,0:0:0:0:
416,48,177737,1,8,0:0:0:0:
468,260,177891,1,0,0:0:0:0:
312,112,178044,2,0,P|248:72|176:64,1,120,8|0,0:0|0:0,0:0:0:0:
72,236,178351,5,0,0:0:0:0:
128,8,178517,1,0,0:0:0:0:
280,164,178670,1,8,0:0:0:0:
156,340,178823,1,0,0:0:0:0:
372,352,178976,1,0,0:0:0:0:
460,152,179129,1,0,0:0:0:0:
276,40,179282,1,8,0:0:0:0:
160,224,179435,1,0,0:0:0:0:
372,256,179588,5,0,0:0:0:0:
208,112,179741,1,0,0:0:0:0:
420,76,179894,1,8,0:0:0:0:
480,284,180047,1,8,0:0:0:0:
480,284,180123,1,8,0:0:0:0:
480,284,180199,1,8,0:0:0:0:
272,336,180352,1,0,0:0:0:0:
252,120,180505,2,0,P|192:64|128:48,1,120,8|0,0:0|0:0,0:0:0:0:
72,288,180982,6,8,P|156:312|224:288,1,120,8|0,0:0|0:0,0:0:0:0:
372,256,181282,1,8,0:0:0:0:
428,48,181432,2,8,B|368:140|276:-64|180:100,1,240
112,344,182032,1,8,0:0:0:0:
328,348,182182,1,8,0:0:0:0:
252,144,182332,1,8,0:0:0:0:
232,360,182482,1,8,0:0:0:0:
232,360,182557,1,8,0:0:0:0:
232,360,182631,1,8,0:0:0:0:
108,184,182781,1,0,0:0:0:0:
264,36,182931,2,0,P|348:60|380:92,1,120,8|0,0:0|0:0,0:0:0:0:
448,172,183231,6,0,P|440:100|404:52,1,120
296,52,183535,1,8,0:0:0:0:
176,60,183688,1,0,0:0:0:0:
80,132,183840,2,0,P|148:192|164:240,1,120
144,336,184145,1,8,0:0:0:0:
264,332,184297,1,0,0:0:0:0:
364,264,184450,6,0,P|344:196|308:156,1,120
200,112,184755,2,0,P|228:48|280:16,1,120,8|0,0:0|0:0,0:0:0:0:
384,44,185059,1,0,0:0:0:0:
480,116,185212,1,0,0:0:0:0:
488,236,185364,1,8,0:0:0:0:
276,200,185517,1,8,0:0:0:0:
432,352,185669,6,0,P|372:316|344:264,1,120
376,156,185974,1,8,0:0:0:0:
288,76,186126,1,0,0:0:0:0:
200,160,186279,2,0,P|228:232|288:264,1,120
380,252,186584,1,8,0:0:0:0:
284,320,186736,1,0,0:0:0:0:
164,312,186888,6,0,P|104:268|92:200,1,120
104,108,187193,2,0,P|156:48|208:36,1,120,8|0,0:0|0:0,0:0:0:0:
312,36,187498,1,0,0:0:0:0:
420,92,187651,1,0,0:0:0:0:
308,128,187803,1,8,0:0:0:0:
456,284,187955,1,8,0:0:0:0:
244,332,188108,6,0,P|304:272|304:232,1,120
212,44,188413,2,0,P|184:120|216:188,1,120,8|0,0:0|0:0,0:0:0:0:
408,164,188717,2,0,P|360:120|296:124,1,120
116,224,189022,2,0,P|104:288|140:348,1,120,8|0,0:0|0:0,0:0:0:0:
344,340,189327,5,0,0:0:0:0:
224,160,189480,1,0,0:0:0:0:
400,32,189632,2,0,B|472:48|496:140|496:144,1,120,8|0,0:0|0:0,0:0:0:0:
432,320,189937,2,0,P|408:244|364:212,1,120
256,40,190242,1,8,0:0:0:0:
40,36,190394,1,0,0:0:0:0:
64,252,190546,6,0,P|120:304|172:320,1,120,8|0,0:0|0:0,0:0:0:0:
272,132,190851,2,0,P|224:196|168:224,1,120,8|0,0:0|0:0,0:0:0:0:
36,64,191156,2,0,P|96:12|152:12,1,120,8|0,0:0|0:0,0:0:0:0:
280,168,191461,2,0,P|208:160|152:100,1,120,8|0,0:0|0:0,0:0:0:0:
364,36,191766,5,8,0:0:0:0:
452,232,191918,1,8,0:0:0:0:
280,100,192071,1,8,0:0:0:0:
340,308,192223,1,8,0:0:0:0:
148,208,192375,1,8,0:0:0:0:
304,360,192528,1,8,0:0:0:0:
372,156,192680,1,8,0:0:0:0:
192,36,192833,1,12,0:0:0:0:
