osu file format v14

[General]
AudioFilename: audio.mp3
AudioLeadIn: 0
PreviewTime: 173202
Countdown: 0
SampleSet: Soft
StackLeniency: 0.7
Mode: 0
LetterboxInBreaks: 0
WidescreenStoryboard: 1

[Editor]
DistanceSpacing: 1
BeatDivisor: 4
GridSize: 32
TimelineZoom: 1

[Metadata]
Title:Needles
TitleUnicode:Needles
Artist:System Of A Down
ArtistUnicode:System Of A Down
Creator:AdeAAa
Version:Insane
Source:
Tags:zelq lasse soad toxicity alternative progressive heavy metal rock english male vocalist vocals Serj Tankian Daron Malakian Shavo Odadjian John Dolmayan
BeatmapID:4022519
BeatmapSetID:1940683

[Difficulty]
HPDrainRate:4.8
CircleSize:3.9
OverallDifficulty:7.5
ApproachRate:8.8
SliderMultiplier:1.54
SliderTickRate:1

[Events]
//Background and Video events
0,0,"81268191_p0.jpg",0,0
//Break Periods
//Storyboard Layer 0 (Background)
//Storyboard Layer 1 (Fail)
//Storyboard Layer 2 (Pass)
//Storyboard Layer 3 (Foreground)
//Storyboard Layer 4 (Overlay)
//Storyboard Sound Samples

[TimingPoints]
133,329.218106995885,4,2,1,72,1,0
1449,319.148936170213,4,2,1,72,1,0
1768,342.857142857143,4,2,1,72,1,0
2453,324.324324324324,4,2,1,72,1,0
3101,319.148936170213,4,2,1,72,1,0
3739,314.13612565445,4,2,1,72,1,0
4367,327.868852459016,4,2,1,72,1,0
5022,315.789473684211,4,2,1,72,1,0
5179,292.682926829268,4,2,1,72,1,0
5325,317.460317460317,4,2,1,72,1,0
6594,315.457413249211,4,2,1,72,1,0
7855,321.199143468951,4,2,1,72,1,0
9139,317.460317460317,4,2,1,72,1,0
9773,310.880829015544,4,2,1,72,1,0
10394,337.078651685393,4,2,1,72,1,0
10394,-111.111111111111,4,2,1,72,0,0
11068,328.767123287671,4,2,1,72,1,0
11068,-111.111111111111,4,2,1,72,0,0
11725,328.767123287671,4,2,1,72,1,0
11725,-111.111111111111,4,2,1,72,0,0
13040,325.20325203252,4,2,1,72,1,0
13040,-111.111111111111,4,2,1,72,0,0
14991,320.855614973262,4,2,1,72,1,0
14991,-111.111111111111,4,2,1,72,0,0
15632,321.285140562249,4,2,1,72,1,0
16917,316.205533596838,4,2,1,72,1,0
19446,314.96062992126,4,2,1,72,1,0
20705,337.078651685393,4,2,1,72,1,0
20705,-111.111111111111,4,2,1,72,0,0
21379,326.975476839237,4,2,1,72,1,0
21379,-111.111111111111,4,2,1,72,0,0
22032,333.333333333333,4,2,1,72,1,0
22032,-111.111111111111,4,2,1,72,0,0
22698,320.855614973262,4,2,1,72,1,0
22698,-111.111111111111,4,2,1,72,0,0
23339,330.578512396694,4,2,1,72,1,0
23339,-111.111111111111,4,2,1,72,0,0
24000,322.58064516129,4,2,1,72,1,0
24000,-111.111111111111,4,2,1,72,0,0
24645,323.886639676113,4,2,1,72,1,0
24645,-111.111111111111,4,2,1,72,0,0
25940,320,4,2,1,60,1,0
25940,-111.111111111111,4,2,1,60,0,0
27220,318.302387267905,4,2,1,60,1,0
27220,-111.111111111111,4,2,1,60,0,0
29766,314.13612565445,4,2,1,60,1,0
29766,-111.111111111111,4,2,1,60,0,0
30394,304.568527918782,4,2,1,60,1,0
30394,-111.111111111111,4,2,1,60,0,0
31003,316.622691292876,4,2,1,60,1,0
31003,-111.111111111111,4,2,1,60,0,0
32269,315.374507227332,4,2,1,60,1,0
32269,-111.111111111111,4,2,1,60,0,0
33530,312.907431551499,4,2,1,60,1,0
33530,-111.111111111111,4,2,1,60,0,0
34781,307.692307692308,4,2,1,60,1,0
35396,304.568527918782,4,2,1,60,1,0
36005,321.71581769437,4,2,1,65,1,0
37291,324.324324324324,4,2,1,65,1,0
38263,311.688311688312,4,2,1,65,1,0
38574,317.460317460317,4,2,1,65,1,0
39208,314.13612565445,4,2,1,65,1,0
39836,316.622691292876,4,2,1,65,1,0
41102,323.450134770889,4,2,1,60,1,0
41102,-111.111111111111,4,2,1,60,0,0
41748,312.5,4,2,1,60,1,0
42060,-111.111111111111,4,2,1,60,0,0
42373,314.96062992126,4,2,1,60,1,0
42373,-111.111111111111,4,2,1,60,0,0
44262,304.568527918782,4,2,1,60,1,0
44262,-111.111111111111,4,2,1,60,0,0
44871,312.5,4,2,1,60,1,0
45496,306.122448979592,4,2,1,60,1,0
45725,-100,4,2,1,5,0,0
45802,-100,4,2,1,60,0,0
46108,317.460317460317,4,2,1,65,1,0
46108,-83.3333333333333,4,2,1,65,0,0
46742,306.122448979592,4,2,1,65,1,0
46742,-125,4,2,1,65,0,0
47354,326.086956521739,4,2,1,65,1,0
48006,301.507537688442,4,2,1,65,1,0
48006,-125,4,2,1,65,0,0
48609,319.148936170213,4,2,1,65,1,0
49885,309.278350515464,4,2,1,65,1,0
50734,-100,4,2,1,5,0,0
50812,-100,4,2,1,65,0,0
51122,317.460317460317,4,2,1,65,1,0
51122,-83.3333333333333,4,2,1,65,0,0
51756,307.692307692308,4,2,1,65,1,0
52063,331.491712707182,4,2,1,65,1,0
52394,314.13612565445,4,2,1,65,1,0
53022,300,4,2,1,65,1,0
53022,-125,4,2,1,65,0,0
53622,314.13612565445,4,2,1,65,1,0
54878,307.692307692308,4,2,1,65,1,0
56108,314.13612565445,4,2,1,75,1,1
56108,-90.9090909090909,4,2,1,75,0,1
58306,-83.3333333333333,4,2,1,75,0,1
58541,-83.3333333333333,4,2,1,5,0,1
58621,310.478654592497,4,2,1,75,1,1
58621,-90.9090909090909,4,2,1,75,0,1
59862,311.688311688312,4,2,1,75,1,1
60797,-83.3333333333333,4,2,1,75,0,1
61030,-83.3333333333333,4,2,1,5,0,1
61108,-90.9090909090909,4,2,1,75,0,1
62667,302.267002518892,4,2,1,75,1,1
63271,-83.3333333333333,4,2,1,75,0,1
63497,-83.3333333333333,4,2,1,5,0,1
63573,306.122448979592,4,2,1,75,1,1
63726,-90.9090909090909,4,2,1,75,0,1
65409,310.077519379845,4,2,1,75,1,0
65874,352.941176470588,4,2,1,75,1,0
66050,312.825860271116,4,2,1,75,1,0
67301,310.880829015544,4,2,1,75,1,0
68544,323.450134770889,4,2,1,72,1,0
68544,-111.111111111111,4,2,1,72,0,0
70808,332.409972299169,4,2,1,72,1,0
71140,320.855614973262,4,2,1,60,1,0
71140,-111.111111111111,4,2,1,60,0,0
71781,324.324324324324,4,2,1,60,1,0
72105,-111.111111111111,4,2,1,60,0,0
72429,320.855614973262,4,2,1,60,1,0
72429,-111.111111111111,4,2,1,60,0,0
73712,314.13612565445,4,2,1,60,1,0
74026,-111.111111111111,4,2,1,60,0,0
74968,319.148936170213,4,2,1,60,1,0
74968,-111.111111111111,4,2,1,60,0,0
75606,303.030303030303,4,2,1,60,1,0
75606,-111.111111111111,4,2,1,60,0,0
76212,320.855614973262,4,2,1,60,1,0
76212,-111.111111111111,4,2,1,60,0,0
76853,310.077519379845,4,2,1,60,1,0
77473,316.622691292876,4,2,1,60,1,0
77473,-111.111111111111,4,2,1,60,0,0
78106,309.278350515464,4,2,1,60,1,0
78106,-111.111111111111,4,2,1,60,0,0
78724,317.460317460317,4,2,1,60,1,0
78724,-111.111111111111,4,2,1,60,0,0
79993,310.880829015544,4,2,1,60,1,0
80847,-100,4,2,1,5,0,0
80925,-100,4,2,1,60,0,0
81236,324.324324324324,4,2,1,65,1,0
81884,319.148936170213,4,2,1,65,1,0
82522,333.333333333333,4,2,1,65,1,0
83188,320.855614973262,4,2,1,65,1,0
83829,320.855614973262,4,2,1,65,1,0
84470,324.324324324324,4,2,1,65,1,0
85118,325.909831613254,4,2,1,65,1,0
86421,321.71581769437,4,2,1,60,1,0
86421,-111.111111111111,4,2,1,60,0,0
87707,319.148936170213,4,2,1,60,1,0
87707,-111.111111111111,4,2,1,60,0,0
88983,309.278350515464,4,2,1,60,1,0
89601,314.96062992126,4,2,1,60,1,0
90230,310.880829015544,4,2,1,60,1,0
91084,-100,4,2,1,5,0,0
91162,-100,4,2,1,60,0,0
91473,-83.3333333333333,4,2,1,65,0,0
92095,-125,4,2,1,65,0,0
92406,318.302387267905,4,2,1,65,1,0
92724,318.302387267905,4,2,1,65,1,0
93360,309.278350515464,4,2,1,65,1,0
93360,-125,4,2,1,65,0,0
93978,309.278350515464,4,2,1,65,1,0
94596,320.855614973262,4,2,1,65,1,0
95237,307.692307692308,4,2,1,65,1,0
96082,-100,4,2,1,5,0,0
96160,-100,4,2,1,65,0,0
96467,324.324324324324,4,2,1,65,1,0
96467,-83.3333333333333,4,2,1,65,0,0
97115,314.13612565445,4,2,1,65,1,0
97115,-125,4,2,1,65,0,0
97743,327.868852459016,4,2,1,65,1,0
98234,-100,4,2,1,5,0,0
98398,306.122448979592,4,2,1,65,1,0
98398,-125,4,2,1,65,0,0
99010,297.029702970297,4,2,1,65,1,0
99604,303.79746835443,4,2,1,65,1,0
100211,306.122448979592,4,2,1,65,1,0
101052,-100,4,2,1,5,0,0
101129,-100,4,2,1,65,0,0
101435,313.31592689295,4,2,1,75,1,1
101435,-90.9090909090909,4,2,1,75,0,1
103628,306.122448979592,4,2,1,75,1,1
103628,-83.3333333333333,4,2,1,75,0,1
103934,313.561536451529,4,2,1,75,1,1
103934,-90.9090909090909,4,2,1,75,0,1
106128,-83.3333333333333,4,2,1,75,0,1
106363,-83.3333333333333,4,2,1,5,0,1
106442,-90.9090909090909,4,2,1,75,0,1
107383,303.030303030303,4,2,1,75,1,1
107383,-90.9090909090909,4,2,1,75,0,1
107686,306.90537084399,4,2,1,75,1,1
108606,-83.3333333333333,4,2,1,75,0,1
108836,-83.3333333333333,4,2,1,5,0,1
108913,309.278350515464,4,2,1,75,1,1
110150,312.5,4,2,1,75,1,1
110462,-125,4,2,1,75,0,1
110775,326.975476839237,4,2,1,75,1,0
111428,317.460317460317,4,2,1,45,1,0
111428,-166.666666666667,4,2,1,45,0,0
112697,329.67032967033,4,2,1,45,1,0
112697,-166.666666666667,4,2,1,45,0,0
114015,325.644504748982,4,2,1,45,1,0
114015,-166.666666666667,4,2,1,45,0,0
116620,324.763193504736,4,2,1,45,1,0
116620,-166.666666666667,4,2,1,45,0,0
121816,325.20325203252,4,2,1,55,1,0
121816,-125,4,2,1,55,0,0
123116,332.963374028857,4,2,1,55,1,0
123116,-125,4,2,1,55,0,0
124447,327.868852459016,4,2,1,55,1,0
124447,-125,4,2,1,55,0,0
125758,324.324324324324,4,2,1,55,1,0
125758,-125,4,2,1,55,0,0
127055,322.58064516129,4,2,1,55,1,0
127055,-125,4,2,1,55,0,0
128345,325.644504748982,4,2,1,55,1,0
128345,-125,4,2,1,55,0,0
129647,322.58064516129,4,2,1,55,1,0
129647,-125,4,2,1,55,0,0
132227,323.886639676113,4,2,1,60,1,0
132227,-125,4,2,1,60,0,0
133522,326.086956521739,4,2,1,60,1,0
133685,-125,4,2,1,60,0,0
134826,332.409972299169,4,2,1,60,1,0
134826,-125,4,2,1,60,0,0
135490,324.324324324324,4,2,1,60,1,0
135814,-125,4,2,1,60,0,0
136138,323.450134770889,4,2,1,60,1,0
136299,-125,4,2,1,60,0,0
137431,332.871012482663,4,2,1,60,1,0
137431,-125,4,2,1,60,0,0
138096,322.58064516129,4,2,1,60,1,0
138418,-125,4,2,1,60,0,0
138741,322.58064516129,4,2,1,60,1,0
138902,-125,4,2,1,60,0,0
139386,326.975476839237,4,2,1,60,1,0
140039,326.975476839237,4,2,1,60,1,0
140039,-125,4,2,1,60,0,0
141346,320.855614973262,4,2,1,60,1,0
141506,-125,4,2,1,60,0,0
141987,331.491712707182,4,2,1,60,1,0
142649,330.578512396694,4,2,1,60,1,0
142649,-125,4,2,1,60,0,0
143971,325.20325203252,4,2,1,60,1,0
144133,-125,4,2,1,60,0,0
145271,326.975476839237,4,2,1,60,1,0
145271,-125,4,2,1,60,0,0
146578,323.450134770889,4,2,1,60,1,0
146739,-125,4,2,1,60,0,0
147871,326.086956521739,4,2,1,60,1,0
147871,-125,4,2,1,60,0,0
149175,328.767123287671,4,2,1,60,1,0
149339,-125,4,2,1,60,0,0
151805,320.512820512821,4,2,1,60,1,0
151965,-125,4,2,1,60,0,0
153087,319.573901464714,4,2,1,65,1,0
154365,317.460317460317,4,2,1,65,1,0
155634,321.71581769437,4,2,1,65,1,0
156920,315.374507227332,4,2,1,65,1,0
158023,352.941176470588,4,2,1,65,1,0
158199,329.67032967033,4,2,1,65,1,0
158858,321.71581769437,4,2,1,65,1,0
159501,323.450134770889,4,2,1,65,1,0
160147,318.302387267905,4,2,1,65,1,0
160783,319.148936170213,4,2,1,65,1,0
161421,317.460317460317,4,2,1,65,1,0
162055,317.460317460317,4,2,1,65,1,0
162689,312.5,4,2,1,65,1,0
163314,323.450134770889,4,2,1,65,1,0
163314,-83.3333333333333,4,2,1,65,0,0
163960,309.278350515464,4,2,1,65,1,0
163960,-125,4,2,1,65,0,0
164269,322.58064516129,4,2,1,65,1,0
164591,324.324324324324,4,2,1,65,1,0
165239,307.692307692308,4,2,1,65,1,0
165239,-125,4,2,1,65,0,0
165854,307.692307692308,4,2,1,65,1,0
166469,326.086956521739,4,2,1,65,1,0
167121,312.907431551499,4,2,1,65,1,0
167980,-100,4,2,1,5,0,0
168059,-100,4,2,1,65,0,0
168372,325.20325203252,4,2,1,65,1,0
168372,-76.9230769230769,4,2,1,65,0,0
169022,309.278350515464,4,2,1,65,1,0
169022,-125,4,2,1,65,0,0
169640,320,4,2,1,65,1,0
169640,-90.9090909090909,4,2,1,65,0,0
170280,300,4,2,1,65,1,0
170280,-125,4,2,1,65,0,0
170880,309.278350515464,4,2,1,65,1,0
171498,315.789473684211,4,2,1,65,1,0
172129,304.568527918782,4,2,1,65,1,0
172966,-100,4,2,1,5,0,0
173042,315.789473684211,4,2,1,65,1,0
173357,308.483290488432,4,2,1,75,1,1
173357,-90.9090909090909,4,2,1,75,0,1
174590,313.31592689295,4,2,1,75,1,1
175529,301.507537688442,4,2,1,75,1,1
175529,-83.3333333333333,4,2,1,75,0,1
175755,-83.3333333333333,4,2,1,5,0,1
175830,310.077519379845,4,2,1,75,1,1
175830,-90.9090909090909,4,2,1,75,0,1
177070,306.122448979592,4,2,1,75,1,1
177988,-83.3333333333333,4,2,1,75,0,1
178217,-83.3333333333333,4,2,1,5,0,1
178294,-90.9090909090909,4,2,1,75,0,1
179518,309.278350515464,4,2,1,75,1,1
180445,-83.3333333333333,4,2,1,75,0,1
180676,-83.3333333333333,4,2,1,5,0,1
180755,297.029702970297,4,2,1,75,1,1
180903,-90.9090909090909,4,2,1,75,0,1
182240,-100,4,2,1,75,0,1
182537,306.122448979592,4,2,1,75,1,1
182843,-100,4,2,1,75,0,0
183149,306.90537084399,4,2,1,75,1,1
184376,303.79746835443,4,2,1,75,1,1
185591,307.692307692308,4,2,1,75,1,1
186821,299.25187032419,4,2,1,75,1,1
188018,303.79746835443,4,2,1,75,1,1
189233,306.513409961686,4,2,1,75,1,1
190459,304.568527918782,4,2,1,75,1,1
192438,-100,4,2,1,80,0,1
192743,-100,4,2,1,80,0,0

[Colours]
Combo1 : 117,182,213
Combo2 : 240,207,108
Combo3 : 237,102,99
Combo4 : 133,201,169

[HitObjects]
108,292,5325,5,4,3:2:0:0:
108,292,5404,1,0,3:0:0:0:
108,292,5483,2,0,P|143:280|260:258,1,154,8|10,3:2|2:0,2:0:0:0:
306,197,5959,1,0,3:0:0:0:
203,84,6118,2,0,P|185:122|152:153,1,77,10|0,2:0|3:0,2:0:0:0:
300,104,6436,1,10,2:0:0:0:
424,0,6594,5,2,3:1:0:0:
424,0,6672,1,0,3:0:0:0:
424,0,6751,2,0,P|425:29|441:84,1,77,8|0,3:2|3:0,2:0:0:0:
394,219,7067,2,0,P|430:225|471:234,1,77,10|0,2:0|3:0,2:0:0:0:
300,104,7382,2,0,P|337:112|375:118,1,77,10|0,2:0|3:0,2:0:0:0:
255,233,7698,1,10,2:0:0:0:
164,103,7855,5,2,3:1:0:0:
164,103,7935,1,0,3:0:0:0:
164,103,8015,2,0,P|133:119|58:37,1,154,8|10,3:2|2:0,2:0:0:0:
114,0,8497,1,0,3:0:0:0:
22,184,8657,2,0,P|36:167|89:135,1,77,10|0,2:0|3:0,2:0:0:0:
110,305,8979,2,0,P|143:286|169:258,1,77.0112933333333,10|2,2:0|3:1,2:0:0:0:
185,225,9218,1,0,3:0:0:0:
185,225,9297,6,0,L|178:142,1,77,8|0,3:2|3:0,2:0:0:0:
260,291,9615,1,10,2:0:0:0:
296,221,9773,1,0,3:0:0:0:
412,307,9928,2,0,L|419:390,1,77,10|0,2:0|3:0,2:0:0:0:
289,204,10239,1,10,2:0:0:0:
485,223,10394,6,0,B|430:209|430:209|414:185|414:185|358:169,1,138.6,4|2,3:2|3:1,2:0:0:0:
344,141,10815,1,0,3:0:0:0:
344,141,10899,1,0,3:0:0:0:
239,49,11068,2,0,P|229:85|254:126,1,69.3000000000001,8|0,3:2|3:0,2:0:0:0:
358,36,11396,1,2,3:1:0:0:
358,36,11478,1,0,3:0:0:0:
358,36,11561,1,0,3:0:0:0:
271,201,11725,6,0,L|125:167,1,138.6,4|2,3:2|3:1,2:0:0:0:
119,144,12135,1,0,3:0:0:0:
119,144,12218,1,0,3:0:0:0:
12,227,12382,2,0,P|4:259|40:302,1,69.3000000000001,8|0,3:2|3:0,2:0:0:0:
99,251,12711,1,2,3:1:0:0:
99,251,12793,1,0,3:0:0:0:
99,251,12875,1,0,3:0:0:0:
176,384,13040,6,0,P|202:358|194:254,1,138.6,4|2,3:2|3:1,2:0:0:0:
180,239,13446,1,0,3:0:0:0:
180,239,13527,1,0,3:0:0:0:
249,130,13690,2,0,L|260:55,1,69.3000000000001,8|0,3:2|3:0,2:0:0:0:
173,86,14015,1,2,3:1:0:0:
173,86,14096,1,0,3:0:0:0:
173,86,14178,1,0,3:0:0:0:
261,214,14340,6,0,B|306:205|306:205|328:161|328:161|376:150,1,138.6,4|2,3:2|3:1,2:0:0:0:
406,169,14747,1,0,3:0:0:0:
406,169,14828,1,0,3:0:0:0:
499,254,14991,2,0,L|488:331,1,69.3000000000001,8|0,3:2|3:0,2:0:0:0:
419,375,15311,1,2,3:1:0:0:
419,375,15392,1,0,3:0:0:0:
419,375,15472,1,0,3:0:0:0:
298,286,15632,5,4,3:2:0:0:
180,377,15792,2,0,P|188:345|198:213,1,154,8|10,3:2|2:0,2:0:0:0:
138,176,16274,1,0,3:0:0:0:
16,281,16435,2,0,P|53:286|106:302,1,77,10|0,2:0|3:0,2:0:0:0:
23,158,16756,1,10,2:0:0:0:
104,42,16917,5,2,3:1:0:0:
104,42,16996,1,0,3:0:0:0:
104,42,17075,2,0,L|86:129,1,77,8|0,3:2|3:0,2:0:0:0:
249,71,17391,2,0,L|231:158,1,77,10|0,2:0|3:0,2:0:0:0:
85,216,17707,2,0,B|116:193|116:193|160:209,1,77,10|0,2:0|3:0,2:0:0:0:
271,261,18023,1,10,2:0:0:0:
383,133,18181,5,2,3:1:0:0:
383,133,18260,1,0,3:0:0:0:
383,133,18339,2,0,L|230:163,1,154,8|10,3:2|2:0,2:0:0:0:
171,114,18814,1,0,3:0:0:0:
275,0,18972,2,0,P|295:36|286:87,1,77,10|0,2:0|3:0,2:0:0:0:
231,162,19288,2,0,P|211:198|220:249,1,77,10|2,2:0|3:1,2:0:0:0:
237,268,19524,1,0,3:0:0:0:
237,268,19603,6,0,L|314:284,1,77,8|0,3:2|3:0,2:0:0:0:
445,377,19918,1,10,2:0:0:0:
416,305,20075,1,0,3:0:0:0:
512,189,20233,2,0,P|502:230|495:281,1,77,10|0,2:0|3:0,2:0:0:0:
352,190,20548,1,10,2:0:0:0:
432,112,20705,6,0,B|369:100|369:100|366:95|366:95|291:81,1,138.6,4|2,3:2|3:1,2:0:0:0:
279,61,21126,1,0,3:0:0:0:
279,61,21210,1,0,3:0:0:0:
157,0,21379,2,0,L|172:77,1,69.3000000000001,8|0,3:2|3:0,2:0:0:0:
191,155,21705,1,2,3:1:0:0:
191,155,21787,1,0,3:0:0:0:
191,155,21869,1,0,3:0:0:0:
0,223,22032,6,0,B|53:266|53:266|130:229,1,138.6,4|2,3:2|3:1,2:0:0:0:
131,206,22448,1,0,3:0:0:0:
131,206,22532,1,0,3:0:0:0:
196,318,22698,2,0,L|272:335,1,69.3000000000001,8|0,3:2|3:0,2:0:0:0:
246,244,23018,1,2,3:1:0:0:
246,244,23099,1,0,3:0:0:0:
246,244,23179,1,0,3:0:0:0:
350,298,23339,6,0,L|321:156,1,138.6,4|2,3:2|3:1,2:0:0:0:
338,133,23752,1,0,3:0:0:0:
338,133,23834,1,0,3:0:0:0:
265,48,24000,2,0,P|289:27|336:24,1,69.3000000000001,8|0,3:2|3:0,2:0:0:0:
413,53,24322,1,2,3:1:0:0:
413,53,24403,1,0,3:0:0:0:
413,53,24483,1,0,3:0:0:0:
251,132,24645,6,0,P|209:107|118:121,1,138.6,4|2,3:2|3:1,2:0:0:0:
99,143,25049,1,0,3:0:0:0:
99,143,25130,1,0,3:0:0:0:
170,257,25292,2,0,P|175:223|184:180,1,69.3000000000001,8|0,3:2|3:0,2:0:0:0:
262,242,25616,1,2,3:1:0:0:
262,242,25697,1,0,3:0:0:0:
262,242,25778,1,0,3:0:0:0:
331,366,25940,6,0,P|271:336|196:343,2,138.6,2|2|2,3:1|3:1|3:1,2:0:0:0:
331,366,26740,1,2,2:0:0:0:
422,323,26900,2,0,P|413:297|424:255,1,69.3000000000001,2|2,3:1|2:0,2:0:0:0:
332,178,27220,6,0,P|374:189|446:104,1,138.6,2|2,3:1|3:1,2:0:0:0:
294,77,27856,2,0,P|339:27|405:33,1,138.6,2|2,3:1|3:1,2:0:0:0:
405,33,28493,5,2,3:1:0:0:
369,105,28652,1,2,2:0:0:0:
294,77,28811,2,0,P|287:44|283:1,1,69.3000000000001,2|2,3:1|2:0,2:0:0:0:
193,61,29129,2,0,P|156:64|57:95,1,138.6,2|2,3:1|3:1,2:0:0:0:
59,93,29607,1,2,2:0:0:0:
85,233,29766,6,0,P|65:218|52:164,1,69.3000000000001,2|2,3:1|2:0,2:0:0:0:
176,178,30080,2,0,P|166:145|141:122,1,69.3000000000001,2|2,3:1|2:0,2:0:0:0:
174,275,30394,2,0,L|315:258,1,138.6,2|2,3:1|3:1,2:0:0:0:
252,345,30850,1,4,3:0:0:0:
391,238,31003,6,0,P|400:266|335:340,2,138.6,2|2|2,3:1|3:1|3:1,2:0:0:0:
312,122,31952,2,0,P|315:153|363:194,1,69.3000000000001,2|2,3:1|2:0,2:0:0:0:
437,141,32269,2,0,P|442:79|456:-4,1,138.6,2|2,3:1|3:1,2:0:0:0:
221,18,32899,2,0,P|283:23|366:37,1,138.6,2|2,3:1|3:1,2:0:0:0:
358,35,33372,5,2,2:0:0:0:
280,101,33530,2,0,P|268:129|284:172,2,69.3000000000001,2|2|2,3:1|2:0|3:1,2:0:0:0:
352,137,33999,1,2,2:0:0:0:
303,246,34155,2,0,P|236:236|195:183,1,138.6,2|2,3:1|3:1,2:0:0:0:
195,183,34625,1,2,2:0:0:0:
101,328,34781,6,0,P|128:309|184:293,1,77,2|2,3:1|2:0,2:0:0:0:
251,342,35088,2,0,P|280:355|322:396,1,77,2|2,3:1|2:0,2:0:0:0:
433,240,35396,2,0,P|410:270|330:284,1,115.5,2|0,3:1|2:0,2:0:0:0:
303,268,35700,1,2,3:1:0:0:
336,47,36005,6,0,B|347:118|347:118|344:126|344:126|359:210,1,154,4|2,3:2|3:1,2:0:0:0:
356,198,36407,1,0,3:0:0:0:
356,198,36487,1,0,3:0:0:0:
225,148,36648,2,0,L|307:137,1,77,8|0,3:2|3:0,2:0:0:0:
203,21,36970,1,2,3:1:0:0:
145,88,37131,1,2,3:2:0:0:
14,48,37291,6,0,P|49:52|94:156,1,154,4|2,3:2|3:1,2:0:0:0:
96,147,37696,1,0,3:0:0:0:
96,147,37777,1,0,3:0:0:0:
14,288,37939,2,0,P|5:253|-1:200,1,77,8|0,3:2|3:0,2:0:0:0:
117,278,38263,1,2,3:1:0:0:
175,353,38418,1,2,3:2:0:0:
286,285,38574,6,0,P|245:284|126:325,1,154,4|2,3:2|3:1,2:0:0:0:
229,203,39050,1,2,3:2:0:0:
362,313,39208,2,0,P|368:286|342:230,1,77,10|0,3:2|3:0,2:0:0:0:
315,148,39522,2,0,P|309:121|335:65,1,77,2|0,3:1|3:0,2:0:0:0:
512,73,39836,5,4,3:2:0:0:
471,141,39994,1,2,3:2:0:0:
394,118,40152,1,2,3:1:0:0:
435,50,40310,1,2,3:2:0:0:
299,0,40469,2,0,P|220:15|140:26,1,154,8|2,3:2|3:1,2:0:0:0:
153,233,41102,6,0,P|99:191|32:196,2,138.463705770264,2|2|2,3:1|3:1|3:1,2:0:0:0:
153,233,41904,1,2,2:0:0:0:
98,343,42060,2,0,P|79:322|78:272,1,69.3000000000001,2|2,3:1|2:0,2:0:0:0:
207,332,42373,2,0,P|263:316|352:299,1,138.6,2|2,3:1|3:1,2:0:0:0:
460,186,43002,2,0,P|393:204|325:217,1,138.6,2|2,3:1|3:1,2:0:0:0:
325,217,43475,5,2,2:0:0:0:
264,174,43632,1,2,3:1:0:0:
264,174,43790,2,0,P|292:149|340:145,2,69.3000000000001,2|2|2,2:0|3:1|2:0,2:0:0:0:
178,87,44262,2,0,P|210:88|292:16,1,138.6,2|2,3:1|3:1,2:0:0:0:
289,24,44718,1,2,2:0:0:0:
429,82,44871,6,0,P|435:55|433:4,1,77.0000000000001,2|2,3:1|2:0,2:0:0:0:
339,196,45183,2,0,P|333:169|335:118,1,77.0000000000001,2|2,3:1|2:0,2:0:0:0:
511,236,45496,2,0,P|476:233|405:279,1,115.5,2|0,3:1|2:0,2:0:0:0:
393,307,45802,1,2,3:1:0:0:
123,331,46108,6,0,B|211:304|211:304|247:222|247:222|344:194,1,277.2,4|0,3:2|3:0,2:0:0:0:
419,113,46742,2,0,B|436:40|436:40|402:-12,1,123.2,10|0,2:0|3:0,2:0:0:0:
192,66,47354,6,0,L|427:114,1,231,4|0,3:2|3:0,2:0:0:0:
338,195,48006,2,0,L|218:219,1,123.2,10|0,2:0|3:0,2:0:0:0:
217,219,48458,1,2,2:0:0:0:
317,342,48609,6,0,B|390:367|390:367|444:304,1,154,4|10,3:2|2:0,2:0:0:0:
478,296,49007,1,8,2:0:0:0:
478,296,49087,2,0,L|469:253,1,38.5,8|8,2:0|2:0,2:0:0:0:
392,121,49247,6,0,B|381:196|381:196|378:198|378:198|366:276,1,154,4|10,3:2|2:0,2:0:0:0:
338,244,49646,1,8,2:0:0:0:
338,244,49726,2,0,L|297:237,1,38.5,8|8,2:0|2:0,2:0:0:0:
196,168,49885,6,0,P|160:177|116:220,1,77,4|0,3:2|2:0,2:0:0:0:
148,340,50194,1,10,2:0:0:0:
148,340,50271,1,8,2:0:0:0:
148,340,50348,2,0,P|152:320|154:287,1,38.5,8|8,2:0|2:0,2:0:0:0:
30,228,50503,6,0,P|18:194|16:99,1,115.5,4|0,3:2|2:0,2:0:0:0:
32,81,50812,1,8,2:0:0:0:
342,78,51122,6,0,B|217:11|217:11|126:120,1,277.2,4|0,3:2|3:0,2:0:0:0:
276,166,51756,1,10,2:0:0:0:
236,105,51909,1,0,3:0:0:0:
262,132,52063,1,8,3:0:0:0:
187,191,52228,1,4,3:0:0:0:
286,299,52394,6,0,B|365:286|365:286|427:325|427:325|526:309,1,231,4|0,3:2|3:0,2:0:0:0:
388,192,53022,2,0,L|368:324,1,123.2,10|0,2:0|3:0,2:0:0:0:
369,313,53472,1,2,2:0:0:0:
247,223,53622,6,0,P|207:235|138:141,1,154,4|10,3:2|2:0,2:0:0:0:
158,134,54014,1,8,2:0:0:0:
158,134,54093,2,0,P|160:115|160:86,1,38.5,8|8,2:0|2:0,2:0:0:0:
277,0,54250,6,0,P|279:47|297:160,1,154,4|10,3:2|2:0,2:0:0:0:
325,176,54642,1,8,2:0:0:0:
325,176,54721,2,0,P|343:185|357:208,1,38.5,8|8,2:0|2:0,2:0:0:0:
259,327,54878,6,0,P|261:297|294:249,1,77,4|0,3:2|2:0,2:0:0:0:
411,339,55185,1,10,2:0:0:0:
411,339,55262,1,8,2:0:0:0:
411,339,55339,2,0,P|421:322|423:304,1,38.5,8|8,2:0|2:0,2:0:0:0:
434,129,55493,6,0,P|426:161|476:226,1,115.5,4|0,3:2|2:0,2:0:0:0:
507,234,55801,1,8,2:0:0:0:
476,15,56108,6,0,P|441:38|308:67,1,169.4,4|8,3:2|2:0,2:0:0:0:
261,15,56579,1,2,2:0:0:0:
173,185,56736,2,0,P|201:171|228:111,1,84.7,2|0,3:1|3:0,2:0:0:0:
110,72,57050,2,0,P|76:52|26:39,1,84.7,10|2,2:0|2:0,2:0:0:0:
35,166,57364,5,4,3:2:0:0:
96,215,57521,1,2,3:2:0:0:
84,292,57678,1,10,2:0:0:0:
0,384,57835,5,8,2:3:0:0:
0,384,57914,1,4,2:3:0:0:
0,384,57992,1,2,3:1:0:0:
9,307,58149,1,4,3:0:0:0:
167,269,58306,6,0,B|230:300|230:300|278:243,1,138.6,12|0,2:0|2:0,2:0:0:0:
310,225,58621,6,0,L|276:39,1,169.4,4|8,3:2|2:0,2:0:0:0:
358,73,59086,1,2,2:0:0:0:
177,179,59241,2,0,P|201:168|270:148,1,84.7,2|0,3:1|3:0,2:0:0:0:
146,0,59552,2,0,P|152:38|122:88,1,84.7,10|2,2:0|2:0,2:0:0:0:
0,186,59862,5,4,3:2:0:0:
72,151,60017,1,2,3:2:0:0:
66,230,60173,1,10,2:0:0:0:
194,308,60329,5,8,2:3:0:0:
194,308,60407,1,4,2:3:0:0:
194,308,60485,1,2,3:1:0:0:
266,343,60641,1,4,3:0:0:0:
331,134,60797,6,0,L|359:288,1,138.6,12|0,2:0|2:0,2:0:0:0:
341,310,61108,6,0,B|380:283|431:314|408:327|462:359|500:330,1,169.4,4|8,3:2|2:0,2:0:0:0:
468,257,61576,1,2,2:0:0:0:
311,210,61732,2,0,P|280:220|238:264,1,84.7,2|0,3:1|3:0,2:0:0:0:
92,174,62043,2,0,L|199:199,1,84.7,10|2,2:0|2:0,2:0:0:0:
328,103,62355,5,4,3:2:0:0:
281,40,62511,1,2,3:2:0:0:
207,69,62667,1,10,2:0:0:0:
64,30,62818,5,8,2:3:0:0:
64,30,62893,1,4,2:3:0:0:
64,30,62969,1,2,3:1:0:0:
93,99,63120,1,4,3:0:0:0:
0,280,63271,6,0,P|13:248|106:224,1,138.6,12|0,2:0|2:0,2:0:0:0:
142,252,63573,5,4,3:2:0:0:
259,331,63726,2,0,P|225:352|187:396,1,84.7,2|8,3:2|2:0,2:0:0:0:
249,209,64032,1,2,2:0:0:0:
396,346,64185,2,0,P|400:319|375:264,1,84.7,2|0,3:1|3:0,2:0:0:0:
234,195,64491,2,0,P|230:168|255:113,1,84.7,10|0,2:0|2:0,2:0:0:0:
385,173,64797,5,4,3:2:0:0:
451,213,64950,1,2,3:2:0:0:
398,73,65103,5,10,2:0:0:0:
251,116,65256,1,2,2:0:0:0:
304,28,65409,1,2,3:1:0:0:
157,346,66050,5,4,3:2:0:0:
157,346,66128,1,0,3:0:0:0:
157,346,66206,2,0,L|135:189,1,154,8|10,3:2|2:0,2:0:0:0:
213,203,66675,1,0,3:0:0:0:
29,289,66832,2,0,L|118:276,1,77,10|0,2:0|3:0,2:0:0:0:
186,131,67144,1,10,2:0:0:0:
93,71,67301,5,2,3:1:0:0:
93,71,67378,1,0,3:0:0:0:
93,71,67456,2,0,P|73:103|76:155,1,77,8|0,3:2|3:0,2:0:0:0:
239,75,67767,2,0,P|244:35|252:-1,1,77,10|0,2:0|3:0,2:0:0:0:
422,71,68078,2,0,P|389:62|334:53,1,77,10|0,2:0|3:0,2:0:0:0:
321,193,68389,1,10,2:0:0:0:
474,260,68544,6,0,P|443:246|351:296,1,138.6,4|2,3:2|3:1,2:0:0:0:
343,322,68948,1,0,3:0:0:0:
343,322,69029,1,0,3:0:0:0:
192,366,69190,2,0,L|264:381,1,69.3000000000001,8|0,3:2|3:0,2:0:0:0:
246,286,69514,1,2,3:1:0:0:
246,286,69595,1,0,3:0:0:0:
246,286,69676,1,0,3:0:0:0:
91,384,69837,6,0,P|104:328|121:236,1,138.6,4|2,3:2|3:1,2:0:0:0:
114,218,70242,1,0,3:0:0:0:
114,218,70322,1,0,3:0:0:0:
199,129,70484,2,0,P|192:98|187:49,1,69.3000000000001,8|0,3:2|3:0,2:0:0:0:
122,16,70808,1,2,3:1:0:0:
122,16,70891,1,0,3:0:0:0:
122,16,70974,1,0,3:0:0:0:
270,52,71140,6,0,B|328:62|328:62|338:73|338:73|406:85,2,138.448690770264,2|2|2,3:1|3:1|3:1,2:0:0:0:
270,52,71943,1,2,2:0:0:0:
316,182,72105,2,0,P|331:152|328:104,1,69.3000000000001,2|2,3:1|2:0,2:0:0:0:
219,176,72429,2,0,P|231:226|241:325,1,138.6,2|2,3:1|3:1,2:0:0:0:
375,384,73070,2,0,P|381:315|396:247,1,138.6,2|2,3:1|3:1,2:0:0:0:
396,247,73712,5,2,3:1:0:0:
322,266,73869,1,2,2:0:0:0:
289,195,74026,2,0,P|324:183|367:165,1,69.3000000000001,2|2,3:1|2:0,2:0:0:0:
477,211,74340,2,0,P|460:181|491:85,1,138.6,2|2,3:1|3:1,2:0:0:0:
488,87,74811,1,2,2:0:0:0:
383,0,74968,6,0,L|399:85,1,69.3000000000001,2|2,3:1|2:0,2:0:0:0:
309,53,75287,1,2,3:1:0:0:
309,53,75446,1,2,2:0:0:0:
246,132,75606,2,0,L|101:103,1,138.6,2|2,3:1|3:1,2:0:0:0:
161,211,76060,5,4,3:0:0:0:
99,327,76212,2,0,B|90:264|90:264|85:259|85:259|75:182,2,138.522610770264,2|2|2,3:1|3:1|3:1,2:0:0:0:
99,327,77163,1,2,3:1:0:0:
171,373,77318,1,2,2:0:0:0:
307,306,77473,2,0,P|261:316|168:364,1,138.6,2|2,3:1|3:1,2:0:0:0:
275,205,78106,2,0,P|229:215|136:263,1,138.6,2|2,3:1|3:1,2:0:0:0:
147,254,78569,1,2,2:0:0:0:
172,119,78724,6,0,P|186:149|196:202,1,69.3000000000001,2|2,3:1|2:0,2:0:0:0:
246,91,79041,1,2,3:1:0:0:
246,91,79200,1,2,2:0:0:0:
337,152,79358,2,0,P|345:118|409:27,1,138.6,2|2,3:1|3:1,2:0:0:0:
402,33,79835,1,2,2:0:0:0:
512,164,79993,6,0,P|479:147|424:131,1,77,2|2,3:1|2:0,2:0:0:0:
470,315,80303,2,0,P|437:298|382:282,1,77,2|2,3:1|2:0,2:0:0:0:
272,196,80614,2,0,L|296:342,1,115.5,2|0,3:1|2:0,2:0:0:0:
318,336,80925,1,2,3:1:0:0:
12,346,81236,6,0,B|41:311|85:314|85:314|96:355|143:370,1,154,4|2,3:2|3:1,2:0:0:0:
130,365,81641,1,0,3:0:0:0:
130,365,81722,1,0,3:0:0:0:
180,206,81884,2,0,P|175:246|163:299,1,77,8|0,3:2|3:0,2:0:0:0:
40,214,82203,1,2,3:1:0:0:
99,134,82362,1,2,3:2:0:0:
4,13,82522,6,0,P|-7:56|76:104,1,154,4|2,3:2|3:1,2:0:0:0:
73,104,82938,1,0,3:0:0:0:
73,104,83022,1,0,3:0:0:0:
196,31,83188,2,0,L|285:16,1,77,8|0,3:2|3:0,2:0:0:0:
194,149,83508,1,2,3:1:0:0:
251,223,83669,1,2,3:2:0:0:
89,237,83829,6,0,L|246:212,1,154,4|2,3:2|3:1,2:0:0:0:
284,148,84310,1,2,3:2:0:0:
395,271,84470,2,0,P|383:237|371:185,1,77,10|0,3:2|3:0,2:0:0:0:
247,321,84794,2,0,P|284:328|336:349,1,77,2|0,3:1|3:0,2:0:0:0:
512,296,85118,5,4,3:2:0:0:
443,333,85280,1,2,3:2:0:0:
511,376,85443,1,2,3:1:0:0:
445,250,85606,1,2,3:2:0:0:
313,261,85769,2,0,L|342:97,1,154,8|2,3:2|3:1,2:0:0:0:
171,0,86421,6,0,B|151:75|196:64|172:148,2,138.6,2|2|2,3:1|3:1|3:1,2:0:0:0:
171,0,87225,1,2,2:0:0:0:
75,121,87386,2,0,P|84:89|130:58,1,69.3000000000001,2|2,3:1|2:0,2:0:0:0:
256,77,87707,2,0,P|317:97|401:114,1,138.6,2|2,3:1|3:1,2:0:0:0:
348,241,88345,2,0,P|287:221|203:204,1,138.6,2|2,3:1|3:1,2:0:0:0:
214,205,88824,5,2,2:0:0:0:
166,266,88983,1,2,3:1:0:0:
166,266,89137,2,0,L|181:345,2,77,2|2|2,2:0|3:1|2:0,2:0:0:0:
78,164,89601,2,0,L|43:328,1,154,2|2,3:1|3:1,2:0:0:0:
45,314,90073,1,2,2:0:0:0:
180,341,90230,2,0,P|217:347|266:370,1,77,2|2,3:1|2:0,2:0:0:0:
257,201,90540,2,0,P|280:230|325:260,1,77,2|2,3:1|2:0,2:0:0:0:
130,214,90851,2,0,P|121:160|99:70,1,115.5,2|0,3:1|2:0,2:0:0:0:
84,69,91162,1,2,3:1:0:0:
495,58,91473,6,0,B|429:12|343:64|384:90|303:147|228:91,1,277.2,4|0,3:2|3:0,2:0:0:0:
310,0,92095,2,0,P|334:9|368:104,1,123.596293333333,10|0,2:0|3:0,2:0:0:0:
284,252,92724,6,0,B|335:287|403:246|371:226|435:181|495:225,1,231,4|0,3:2|3:0,2:0:0:0:
442,323,93360,2,0,P|418:314|386:211,1,123.2,10|0,2:0|3:0,2:0:0:0:
379,231,93823,1,2,2:0:0:0:
285,346,93978,6,0,L|128:372,1,154,4|10,3:2|2:0,2:0:0:0:
101,348,94364,1,8,2:0:0:0:
101,348,94441,2,0,P|105:330|108:301,1,38.5,8|8,2:0|2:0,2:0:0:0:
240,162,94596,6,0,B|267:137|267:137|251:200|243:260,1,154,4|10,3:2|2:0,2:0:0:0:
219,282,94997,1,8,2:0:0:0:
219,282,95077,2,0,P|211:258|198:229,1,38.5,8|8,2:0|2:0,2:0:0:0:
33,163,95237,6,0,P|38:188|90:221,1,77,4|0,3:2|2:0,2:0:0:0:
166,101,95544,1,10,2:0:0:0:
166,101,95621,1,8,2:0:0:0:
166,101,95698,2,0,P|168:83|176:55,1,38.5,8|8,2:0|2:0,2:0:0:0:
285,114,95852,6,0,P|312:103|431:83,1,115.5,4|0,3:2|2:0,2:0:0:0:
434,92,96160,1,8,2:0:0:0:
461,286,96467,6,0,B|364:272|364:272|319:207|319:207|212:189,1,277.2,4|0,3:2|3:0,2:0:0:0:
290,345,97115,2,0,L|311:216,1,123.2,10|0,2:0|3:0,2:0:0:0:
243,90,97743,6,0,B|159:102|159:102|120:158|120:158|28:173,1,231,4|0,3:2|3:0,2:0:0:0:
113,39,98398,2,0,L|134:168,1,123.2,10|0,2:0|3:0,2:0:0:0:
132,160,98857,1,2,2:0:0:0:
69,296,99010,6,0,B|136:286|136:286|143:290|143:290|227:278,1,154,4|10,3:2|2:0,2:0:0:0:
256,292,99381,1,8,2:0:0:0:
256,292,99455,2,0,P|275:284|295:261,1,38.5,8|8,2:0|2:0,2:0:0:0:
339,99,99604,6,0,P|312:135|372:222,1,154,4|10,3:2|2:0,2:0:0:0:
400,218,99983,1,8,2:0:0:0:
400,218,100059,2,0,P|419:226|439:249,1,38.5,8|8,2:0|2:0,2:0:0:0:
361,384,100211,6,0,L|372:300,1,77,4|0,3:2|2:0,2:0:0:0:
247,209,100517,1,10,2:0:0:0:
247,209,100593,1,8,2:0:0:0:
247,209,100670,2,0,L|197:198,1,38.5,8|8,2:0|2:0,2:0:0:0:
281,92,100823,6,0,L|414:67,1,115.5,4|0,3:2|2:0,2:0:0:0:
424,45,101129,1,8,2:0:0:0:
90,0,101435,6,0,B|100:64|100:64|125:95|125:95|137:161,1,169.4,4|8,3:2|2:0,2:0:0:0:
207,121,101904,1,2,2:0:0:0:
85,227,102061,2,0,B|121:250|121:250|171:234,1,84.7,2|0,3:1|3:0,2:0:0:0:
293,173,102374,2,0,L|304:90,1,84.7,10|2,2:0|2:0,2:0:0:0:
249,252,102688,5,4,3:2:0:0:
321,277,102844,1,2,3:2:0:0:
394,299,103001,1,10,2:0:0:0:
391,168,103158,5,8,2:3:0:0:
391,168,103236,1,4,2:3:0:0:
391,168,103314,1,2,3:1:0:0:
446,113,103471,1,4,3:0:0:0:
357,2,103628,6,0,B|208:28,1,138.6,12|0,2:0|2:0,2:0:0:0:
196,61,103934,6,0,B|135:51|135:51|96:86|96:86|22:74,1,169.4,4|8,3:2|2:0,2:0:0:0:
70,5,104404,1,2,2:0:0:0:
165,142,104561,2,0,L|151:236,1,84.7,2|0,3:1|3:0,2:0:0:0:
0,303,104874,2,0,P|34:283|92:268,1,84.7,10|2,2:0|2:0,2:0:0:0:
203,384,105188,5,4,3:2:0:0:
255,326,105345,1,2,3:2:0:0:
226,254,105501,1,10,2:0:0:0:
373,175,105658,5,8,2:3:0:0:
373,175,105736,1,4,2:3:0:0:
373,175,105815,1,2,3:1:0:0:
441,212,105972,1,4,3:0:0:0:
351,384,106128,6,0,B|302:337|302:337|346:264,1,138.6,12|0,2:0|2:0,2:0:0:0:
375,254,106442,6,0,B|346:79,1,169.4,4|8,3:2|2:0,2:0:0:0:
409,36,106912,1,2,2:0:0:0:
505,161,107069,2,0,P|466:151|424:117,1,84.7,2|0,3:1|3:0,2:0:0:0:
318,0,107383,2,0,L|336:84,1,84.7,10|2,2:0|2:0,2:0:0:0:
340,212,107686,5,4,3:2:0:0:
293,275,107839,1,2,3:2:0:0:
224,234,107992,1,10,2:0:0:0:
260,121,108146,5,8,2:3:0:0:
260,121,108223,1,4,2:3:0:0:
260,121,108299,1,2,3:1:0:0:
212,56,108453,1,4,3:0:0:0:
18,186,108606,6,0,L|157:155,1,138.6,12|0,2:0|2:0,2:0:0:0:
178,125,108913,5,4,3:2:0:0:
54,3,109067,2,0,P|64:45|101:81,1,77,2|8,3:2|2:0,2:0:0:0:
258,73,109376,1,2,2:0:0:0:
258,73,109531,2,0,P|273:38|275:-20,1,77,2|0,3:1|3:0,2:0:0:0:
381,105,109840,2,0,P|385:66|400:31,1,77,10|0,2:0|2:0,2:0:0:0:
303,183,110150,1,2,3:1:0:0:
344,252,110306,1,0,3:0:0:0:
211,333,110462,2,0,L|309:354,1,92.4,10|0,2:0|0:0,2:0:0:0:
332,372,110775,5,4,3:2:0:0:
116,64,111428,6,0,P|96:78|73:86,2,46.1999999999999,2|0|0,3:2|2:0|3:0,2:0:0:0:
179,113,111904,2,0,P|210:118|283:152,1,92.3999999999998,2|0,2:0|2:0,2:0:0:0:
266,140,112380,1,2,3:2:0:0:
404,63,112697,6,0,P|389:43|381:20,2,46.1999999999999,2|0|0,3:2|2:0|3:0,2:0:0:0:
362,132,113191,2,0,P|402:148|445:192,1,92.3999999999998,2|0,2:0|2:0,2:0:0:0:
437,181,113686,1,2,3:2:0:0:
394,357,114015,6,0,P|386:335|381:304,2,46.1999999999999,2|0|0,3:2|2:0|3:0,2:0:0:0:
307,352,114503,2,0,P|301:318|278:258,1,92.3999999999998,2|0,2:0|2:0,2:0:0:0:
281,263,114991,1,2,3:2:0:0:
122,361,115317,6,0,P|101:369|70:386,2,46.1999999999999,2|0|0,3:2|2:0|3:0,2:0:0:0:
70,299,115806,2,0,P|58:281|66:208,1,92.3999999999998,2|0,2:0|2:0,2:0:0:0:
62,213,116294,1,2,3:2:0:0:
180,92,116620,6,0,P|186:72|179:43,2,46.1999999999999,2|0|0,3:2|2:0|3:0,2:0:0:0:
124,144,117107,2,0,P|101:117|45:95,1,92.3999999999998,2|0,2:0|2:0,2:0:0:0:
49,95,117594,1,2,3:2:0:0:
204,215,117919,6,0,P|198:195|205:166,2,46.1999999999999,2|0|0,3:2|2:0|3:0,2:0:0:0:
266,264,118406,2,0,P|275:286|235:349,1,92.3999999999998,2|0,2:0|2:0,2:0:0:0:
247,343,118893,1,2,3:2:0:0:
404,311,119218,6,0,P|430:306|456:295,2,46.1999999999999,2|0|0,3:2|2:0|3:0,2:0:0:0:
342,262,119705,2,0,L|352:160,1,92.3999999999998,2|0,2:0|2:0,2:0:0:0:
351,170,120192,1,2,3:2:0:0:
451,46,120517,6,0,L|445:-20,2,46.1999999999999,2|0|0,3:2|2:0|3:0,2:0:0:0:
389,98,121004,2,0,P|369:98|322:32,1,92.3999999999998,2|0,2:0|2:0,2:0:0:0:
321,49,121491,1,2,3:2:0:0:
159,0,121816,6,0,L|176:133,2,123.2,2|2|8,3:1|3:2|2:0,2:0:0:0:
159,0,122629,1,2,3:2:0:0:
94,76,122791,2,0,P|82:83|29:95,1,61.6,2|2,3:2|3:2,2:0:0:0:
96,173,123116,2,0,P|121:178|214:213,2,123.2,2|2|8,3:1|3:2|2:0,2:0:0:0:
96,173,124114,5,2,3:2:0:0:
49,237,124281,1,2,2:0:0:0:
119,276,124447,2,0,L|-10:305,2,123.2,2|2|8,3:1|3:2|2:0,2:0:0:0:
119,276,125266,1,2,3:2:0:0:
182,351,125430,2,0,P|212:350|241:323,1,61.6,2|2,3:2|3:2,2:0:0:0:
280,248,125758,2,0,P|291:226|391:185,2,123.2,2|2|8,3:1|3:2|2:0,2:0:0:0:
280,248,126730,5,2,3:2:0:0:
259,176,126893,1,2,3:2:0:0:
185,179,127055,2,0,P|190:144|196:50,2,123.2,2|2|8,3:1|3:2|2:0,2:0:0:0:
185,179,127861,1,2,3:2:0:0:
276,61,128022,2,0,P|272:91|270:122,1,61.6,2|2,3:2|3:2,2:0:0:0:
363,100,128345,2,0,P|381:88|485:74,2,123.2,2|2|8,3:1|3:2|2:0,2:0:0:0:
363,100,129321,5,2,3:2:0:0:
433,137,129484,1,2,3:2:0:0:
396,203,129647,2,0,P|351:212|268:242,2,123.2,2|2|8,3:1|3:2|2:0,2:0:0:0:
396,203,130453,1,2,3:2:0:0:
504,193,130614,2,0,P|497:225|494:258,1,61.6,2|2,3:2|3:2,2:0:0:0:
422,343,130937,2,0,B|368:336|360:313|292:303,2,123.2,2|2|8,3:1|3:2|2:0,2:0:0:0:
422,343,131905,6,0,P|431:317|417:279,1,61.6,2|2,3:2|3:2,2:0:0:0:
318,223,132227,2,0,P|294:210|289:114,2,123.2,2|0|8,3:1|3:0|2:0,2:0:0:0:
318,223,133036,1,0,3:0:0:0:
408,172,133198,2,0,P|435:161|468:152,1,61.6,0|0,2:0|3:0,2:0:0:0:
405,49,133522,1,2,3:1:0:0:
332,66,133685,2,0,P|272:49|215:26,1,123.2,2|2,2:0|2:0,2:0:0:0:
140,37,134174,1,10,2:0:0:0:
202,212,134500,2,0,P|209:189|195:144,1,61.6,2|0,3:2|2:0,2:0:0:0:
119,185,134826,6,0,P|59:201|2:224,2,123.057806666667,2|0|8,3:1|3:0|2:0,2:0:0:0:
119,185,135652,1,0,3:0:0:0:
181,307,135814,2,0,P|165:305|133:258,1,61.6,2|2,2:0|2:0,2:0:0:0:
275,243,136138,1,2,3:1:0:0:
320,308,136299,2,0,P|326:278|338:224,1,61.6,2|0,2:0|3:0,2:0:0:0:
242,157,136623,1,2,2:0:0:0:
197,222,136784,2,0,P|187:176|169:93,1,123.2,8|2,2:0|3:2,2:0:0:0:
401,61,137431,6,0,B|343:52|343:52|335:57|335:57|267:47,2,123.064993333333,2|0|8,3:1|3:0|2:0,2:0:0:0:
401,61,138257,1,0,3:0:0:0:
465,120,138418,2,0,P|459:150|454:191,1,61.6,0|2,2:0|3:2,2:0:0:0:
383,257,138741,1,2,3:1:0:0:
426,321,138902,2,0,P|436:297|418:248,1,61.6,2|0,2:0|3:0,2:0:0:0:
309,300,139224,2,0,P|274:306|194:369,1,124.349866666667,2|0,2:0|2:0,2:0:0:0:
203,355,139712,1,2,2:0:0:0:
0,279,140039,6,0,B|4:311|36:330|41:318|77:339|77:375,2,123.2,2|0|8,3:1|3:0|2:0,2:0:0:0:
0,279,140856,1,0,3:0:0:0:
47,197,141019,2,0,P|77:201|119:217,1,61.6,2|0,2:0|3:0,2:0:0:0:
175,308,141346,1,2,3:1:0:0:
229,257,141506,2,0,P|230:232|207:196,1,61.6,2|0,2:0|3:0,2:0:0:0:
152,128,141827,2,0,L|167:3,1,125.126026666667,2|0,2:0|2:0,2:0:0:0:
166,5,142318,1,2,3:2:0:0:
0,102,142649,6,0,P|17:79|117:63,2,123.2,2|0|8,3:1|3:0|2:0,2:0:0:0:
0,102,143475,1,0,3:0:0:0:
71,205,143640,2,0,P|77:179|83:138,1,61.6,0|0,2:0|3:0,2:0:0:0:
141,254,143971,1,2,3:1:0:0:
104,328,144133,2,0,P|110:302|116:261,1,61.6,2|0,2:0|3:0,2:0:0:0:
236,324,144458,1,2,2:0:0:0:
302,370,144621,2,0,P|317:339|274:255,1,123.2,10|2,2:0|3:2,2:0:0:0:
182,128,145271,6,0,L|321:156,2,123.2,2|0|8,3:1|3:0|2:0,2:0:0:0:
182,128,146088,1,0,3:0:0:0:
260,67,146251,2,0,L|329:57,1,61.6,2|2,2:0|2:0,2:0:0:0:
408,129,146578,1,2,3:1:0:0:
436,52,146739,2,0,P|438:88|446:123,1,61.6,2|0,2:0|3:0,2:0:0:0:
403,234,147063,2,0,P|454:200|512:179,1,123.2,2|0,2:0|2:0,2:0:0:0:
512,179,147548,1,2,3:2:0:0:
416,350,147871,6,0,P|364:316|306:295,2,123.2,2|0|8,3:1|3:0|2:0,2:0:0:0:
416,350,148686,1,0,3:0:0:0:
463,284,148849,2,0,P|438:269|388:274,1,61.6,0|2,2:0|3:2,2:0:0:0:
302,184,149175,1,2,3:1:0:0:
267,253,149339,2,0,P|280:280|313:297,1,61.6,2|0,2:0|3:0,2:0:0:0:
382,189,149668,2,0,P|372:140|361:55,1,123.2,2|0,2:0|2:0,2:0:0:0:
362,67,150161,1,2,2:0:0:0:
224,154,150490,6,0,B|152:164|186:195|102:206,2,123.2,2|0|8,3:1|3:0|2:0,2:0:0:0:
224,154,151311,1,0,3:0:0:0:
133,65,151476,2,0,P|148:90|139:132,1,61.6,2|0,2:0|3:0,2:0:0:0:
38,214,151805,1,2,3:1:0:0:
8,284,151965,2,0,P|34:294|72:317,2,61.6,2|2|2,2:0|3:1|2:0,2:0:0:0:
178,208,152446,6,0,P|167:246|157:289,1,61.6,8|0,2:0|2:0,2:0:0:0:
286,384,152766,2,0,P|293:354|302:324,1,61.6,2|0,3:1|2:0,2:0:0:0:
247,263,153087,5,4,3:2:0:0:
247,263,153166,1,0,3:0:0:0:
247,263,153246,1,8,3:2:0:0:
366,140,153406,2,0,B|422:153|422:153|440:186|440:186|502:200,1,154,0|0,3:0|3:0,2:0:0:0:
384,314,153885,2,0,L|371:236,1,77,10|0,2:0|3:0,2:0:0:0:
450,141,154205,2,0,L|463:63,1,77.4992166666667,10|2,2:0|3:1,2:0:0:0:
445,27,154444,5,0,3:0:0:0:
445,27,154523,1,8,3:2:0:0:
377,92,154682,1,0,3:0:0:0:
226,0,154841,2,0,P|264:10|306:19,1,77,10|0,2:0|3:0,2:0:0:0:
237,159,155158,2,0,P|199:167|162:177,1,77,10|0,2:0|3:0,2:0:0:0:
76,50,155476,1,10,2:0:0:0:
23,166,155634,5,2,3:1:0:0:
23,166,155714,1,0,3:0:0:0:
23,166,155794,1,8,3:2:0:0:
85,214,155955,1,0,3:0:0:0:
74,329,156116,2,0,L|0:347,1,77,10|0,2:0|3:0,2:0:0:0:
221,294,156438,2,0,L|301:275,1,77,10|0,2:0|3:0,2:0:0:0:
163,370,156760,1,10,2:0:0:0:
180,220,156920,5,2,3:1:0:0:
180,220,156998,1,0,3:0:0:0:
180,220,157077,1,8,3:2:0:0:
245,177,157235,1,0,3:0:0:0:
134,43,157393,2,0,P|131:79|157:120,1,77,10|0,2:0|3:0,2:0:0:0:
328,31,157708,2,0,P|292:28|251:54,1,77,10|0,2:0|3:0,2:0:0:0:
339,186,158023,1,10,2:0:0:0:
445,97,158199,6,0,L|421:263,1,154,4|2,3:2|3:1,2:0:0:0:
400,289,158611,1,0,3:0:0:0:
400,289,158693,1,0,3:0:0:0:
512,384,158858,2,0,P|509:350|472:316,1,77,8|0,3:2|3:0,2:0:0:0:
371,370,159179,1,2,3:1:0:0:
371,370,159260,1,0,3:0:0:0:
371,370,159340,1,0,3:0:0:0:
253,277,159501,6,0,P|210:290|142:195,1,154,4|2,3:2|3:1,2:0:0:0:
160,181,159905,1,0,3:0:0:0:
160,181,159986,1,0,3:0:0:0:
243,117,160147,2,0,L|257:201,1,77,8|0,3:2|3:0,2:0:0:0:
322,99,160465,1,2,3:1:0:0:
322,99,160544,1,0,3:0:0:0:
322,99,160624,1,0,3:0:0:0:
154,34,160783,6,0,P|226:26|315:7,1,154,4|2,3:2|3:1,2:0:0:0:
353,26,161181,1,0,3:0:0:0:
353,26,161261,1,0,3:0:0:0:
407,112,161421,2,0,P|400:146|358:172,1,77,8|0,3:2|3:0,2:0:0:0:
464,205,161738,1,2,3:1:0:0:
464,205,161817,1,0,3:0:0:0:
464,205,161897,1,0,3:0:0:0:
385,299,162055,6,0,P|341:285|288:272,1,77,4|0,3:2|2:0,2:0:0:0:
226,187,162372,2,0,P|182:173|129:160,1,77,2|0,3:1|2:0,2:0:0:0:
373,307,162689,2,0,P|320:290|257:274,1,115.5,2|0,3:1|2:0,2:0:0:0:
215,284,163001,1,2,3:1:0:0:
0,380,163314,6,0,B|88:274|88:274|204:372,1,277.2,4|0,3:2|3:0,2:0:0:0:
92,319,163960,2,0,B|110:229|110:229|94:189,1,123.24928,10|0,2:0|3:0,2:0:0:0:
272,73,164591,6,0,B|198:160|198:160|102:79,1,231,4|0,3:2|3:0,2:0:0:0:
195,115,165239,2,0,B|213:205|213:205|197:245,1,123.2,10|0,2:0|3:0,2:0:0:0:
201,234,165700,1,2,2:0:0:0:
335,383,165854,6,0,P|316:347|376:256,1,154,4|10,3:2|2:0,2:0:0:0:
408,234,166238,1,8,2:0:0:0:
408,234,166315,2,0,L|416:281,1,38.5,8|8,2:0|2:0,2:0:0:0:
295,179,166469,6,0,L|317:20,1,154,4|10,3:2|2:0,2:0:0:0:
361,10,166876,1,8,2:0:0:0:
361,10,166958,2,0,L|353:57,1,38.5,8|8,2:0|2:0,2:0:0:0:
222,95,167121,6,0,B|186:106|186:106|149:82,1,77,4|0,3:2|2:0,2:0:0:0:
166,229,167433,1,10,2:0:0:0:
166,229,167512,1,8,2:0:0:0:
166,229,167590,2,0,L|175:178,1,38.5,8|8,2:0|2:0,2:0:0:0:
34,47,167746,6,0,L|55:163,1,115.5,4|0,3:2|2:0,2:0:0:0:
64,206,168059,1,8,2:0:0:0:
173,353,168372,6,0,B|321:329|321:329|324:321|324:321|496:292,1,300.3,4|0,3:2|3:0,2:0:0:0:
352,366,169022,2,0,B|292:344|292:344|259:271,1,123.2,10|0,2:0|3:0,2:0:0:0:
382,189,169640,6,0,B|252:168|252:168|249:161|249:161|100:136,1,254.1,4|0,3:2|3:0,2:0:0:0:
223,200,170280,2,0,B|279:180|279:180|310:112,1,123.2,10|0,2:0|3:0,2:0:0:0:
306,121,170730,1,2,2:0:0:0:
127,16,170880,6,0,B|87:83|87:83|144:153,1,154,4|10,3:2|2:0,2:0:0:0:
149,190,171266,1,8,2:0:0:0:
149,190,171343,2,0,L|140:230,1,38.5,8|8,2:0|2:0,2:0:0:0:
4,354,171498,6,0,B|35:328|35:328|165:307,1,154,4|10,3:2|2:0,2:0:0:0:
190,293,171892,1,8,2:0:0:0:
190,293,171971,2,0,L|246:308,1,38.5,8|8,2:0|2:0,2:0:0:0:
333,384,172129,6,0,P|360:355|358:302,1,77,4|0,3:2|2:0,2:0:0:0:
301,186,172433,1,10,2:0:0:0:
301,186,172509,1,8,2:0:0:0:
301,186,172585,2,0,P|302:212|311:245,1,38.5,8|8,2:0|2:0,2:0:0:0:
453,293,172738,2,0,P|461:243|481:167,1,115.5,4|0,3:2|2:0,2:0:0:0:
508,145,173042,1,8,2:0:0:0:
297,7,173357,6,0,B|249:19|249:19|211:84|211:84|161:97,1,169.4,4|8,3:2|2:0,2:0:0:0:
162,17,173819,1,2,2:0:0:0:
21,0,173973,2,0,B|40:83,1,84.7,2|0,3:1|3:0,2:0:0:0:
148,187,174282,2,0,L|61:168,1,84.7,10|2,2:0|2:0,2:0:0:0:
175,280,174590,5,4,3:2:0:0:
126,340,174746,1,2,3:2:0:0:
191,383,174903,1,10,2:0:0:0:
297,235,175059,5,8,2:3:0:0:
297,235,175138,1,4,2:3:0:0:
297,235,175216,1,2,3:1:0:0:
253,300,175373,1,4,3:0:0:0:
229,81,175529,6,0,L|368:112,1,138.6,12|0,2:0|2:0,2:0:0:0:
394,153,175830,6,0,P|443:146|461:30,1,169.4,4|8,3:2|2:0,2:0:0:0:
497,146,176295,1,2,2:0:0:0:
361,0,176450,2,0,L|275:14,1,84.7,2|0,3:1|3:0,2:0:0:0:
247,194,176760,2,0,P|276:170|291:110,1,84.7,10|2,2:0|2:0,2:0:0:0:
143,77,177070,5,4,3:2:0:0:
109,147,177223,1,2,3:2:0:0:
32,157,177376,1,10,2:0:0:0:
131,266,177529,5,8,2:3:0:0:
131,266,177605,1,4,2:3:0:0:
131,266,177682,1,2,3:1:0:0:
92,335,177835,1,4,3:0:0:0:
207,195,177988,6,0,P|264:198|297:270,1,138.6,12|0,2:0|2:0,2:0:0:0:
272,308,178294,6,0,B|230:289|185:327|210:337|161:379|116:355,1,169.4,4|8,3:2|2:0,2:0:0:0:
212,374,178753,1,2,2:0:0:0:
65,274,178906,2,0,P|72:230|76:184,1,84.7,2|0,3:1|3:0,2:0:0:0:
211,107,179212,2,0,P|237:141|229:191,1,84.7,10|2,2:0|2:0,2:0:0:0:
47,72,179518,5,4,3:2:0:0:
125,80,179672,1,2,3:2:0:0:
183,25,179827,1,10,2:0:0:0:
328,121,179981,5,8,2:3:0:0:
328,121,180059,1,4,2:3:0:0:
328,121,180136,1,2,3:1:0:0:
391,167,180291,1,4,3:0:0:0:
447,26,180445,6,0,B|460:51|460:51|473:168,1,138.6,12|0,2:0|2:0,2:0:0:0:
502,199,180755,5,4,3:2:0:0:
383,267,180903,2,0,P|344:256|291:245,1,84.7,2|8,3:2|2:0,2:0:0:0:
476,293,181200,1,2,2:0:0:0:
335,107,181349,2,0,P|362:136|361:194,1,84.7,2|0,3:1|3:0,2:0:0:0:
186,167,181646,2,0,P|189:208|217:239,1,84.7,10|0,2:0|2:0,2:0:0:0:
329,337,181943,5,4,3:2:0:0:
267,179,182091,1,2,3:2:0:0:
107,307,182240,2,0,P|69:295|21:286,1,77,10|8,2:0|2:3,2:0:0:0:
4,325,182462,1,4,2:3:0:0:
4,325,182537,1,2,3:1:0:0:
96,216,182690,1,0,3:0:0:0:
210,383,182843,1,12,2:0:0:0:
251,126,183149,6,0,L|276:288,1,154,4|0,3:2|3:0,2:0:0:0:
379,209,183609,2,0,P|342:201|298:197,1,77,10|0,2:0|3:0,2:0:0:0:
354,384,183916,2,0,P|362:347|366:303,1,77,10|0,2:0|3:0,2:0:0:0:
218,352,184223,1,10,2:0:0:0:
189,234,184376,5,2,3:1:0:0:
189,234,184527,1,8,3:2:0:0:
99,269,184679,1,0,3:0:0:0:
99,269,184831,1,10,2:0:0:0:
166,138,184983,5,0,3:0:0:0:
188,64,185135,1,10,2:0:0:0:
112,54,185287,1,0,3:0:0:0:
87,127,185439,1,10,2:0:0:0:
189,234,185591,6,0,P|264:216|353:201,1,154,4|0,3:2|3:0,2:0:0:0:
304,39,186052,2,0,P|285:73|285:130,1,77,10|0,2:0|3:0,2:0:0:0:
452,88,186360,2,0,P|447:126|429:159,1,77,10|0,2:0|3:0,2:0:0:0:
367,98,186667,1,10,2:0:0:0:
419,246,186821,5,2,3:1:0:0:
419,246,186970,1,8,3:2:0:0:
358,305,187120,1,0,3:0:0:0:
358,305,187269,1,10,2:0:0:0:
512,384,187419,5,0,3:0:0:0:
476,318,187569,1,10,2:0:0:0:
437,382,187718,1,0,3:0:0:0:
481,304,187868,1,10,2:0:0:0:
337,220,188018,5,4,3:2:0:0:
337,220,188093,1,0,3:0:0:0:
337,220,188169,2,0,B|278:233|278:233|258:253|258:253|187:269,2,154,10|10|10,3:2|2:0|2:0,2:0:0:0:
296,152,188929,1,0,3:0:0:0:
157,79,189081,1,10,2:0:0:0:
286,0,189233,5,2,3:1:0:0:
286,0,189309,1,0,3:0:0:0:
286,0,189386,2,0,P|277:42|273:84,1,77,10|2,3:2|3:2,2:0:0:0:
181,191,189692,2,0,P|190:233|194:275,1,77,10|0,2:0|3:0,2:0:0:0:
36,166,189999,2,0,P|70:162|118:110,1,77,10|0,2:0|3:0,2:0:0:0:
193,266,190305,1,10,2:0:0:0:
87,384,190459,5,2,3:1:0:0:
87,384,190535,1,0,3:0:0:0:
87,384,190611,2,0,L|107:217,2,154,10|10|10,3:2|2:0|2:0,2:0:0:0:
17,350,191372,1,0,3:0:0:0:
193,266,191524,1,10,2:0:0:0:
121,156,191677,5,4,3:2:0:0:
121,156,191753,1,0,3:0:0:0:
121,156,191829,2,0,P|159:148|210:130,1,77,10|2,3:2|3:2,2:0:0:0:
295,234,192134,2,0,P|333:242|384:260,1,77,10|0,2:0|3:0,2:0:0:0:
512,130,192438,5,10,2:0:0:0:
374,244,192590,1,10,2:0:0:0:
332,45,192743,1,10,2:0:0:0:
