osu file format v14

[General]
AudioFilename: audio.ogg
AudioLeadIn: 0
PreviewTime: 17001
Countdown: 0
SampleSet: Normal
StackLeniency: 0.7
Mode: 1
LetterboxInBreaks: 0
WidescreenStoryboard: 0

[Editor]
DistanceSpacing: 3.6
BeatDivisor: 4
GridSize: 32
TimelineZoom: 1.600001

[Metadata]
Title:Cigaro
TitleUnicode:Cigaro
Artist:System Of A Down
ArtistUnicode:System Of A Down
Creator:trollocat
Version:My PP Is Much Bigger Than Yours!
Source:
Tags:english soad hard rock alternative metal serj tankian daron malakian mezmerize
BeatmapID:3506754
BeatmapSetID:1716205

[Difficulty]
HPDrainRate:6.6
CircleSize:4.2
OverallDifficulty:6
ApproachRate:6
SliderMultiplier:1.4
SliderTickRate:1

[Events]
//Background and Video events
0,0,"soad-mezmerize.jpg",0,-60
//Break Periods
//Storyboard Layer 0 (Background)
//Storyboard Layer 1 (Fail)
//Storyboard Layer 2 (Pass)
//Storyboard Layer 3 (Foreground)
//Storyboard Layer 4 (Overlay)
//Storyboard Sound Samples

[TimingPoints]
448,258.620689655172,4,1,0,100,1,0
448,-96.1538461538461,4,1,0,100,0,1
8723,259.740259740259,4,1,0,100,1,1
8723,-95.2381,4,1,0,100,0,1
8852,-95.16826,4,1,0,100,0,1
8982,-95.09794,4,1,0,100,0,1
9112,-95.027664,4,1,0,100,0,1
9242,-94.95744,4,1,0,100,0,1
9372,-94.887276,4,1,0,100,0,1
9502,-94.81716,4,1,0,100,0,1
9632,-94.74709,4,1,0,100,0,1
9761,-94.67761,4,1,0,100,0,1
9762,-94.67708,4,1,0,100,0,1
9891,-94.60765,4,1,0,100,0,1
10021,-94.53775,4,1,0,100,0,1
10151,-94.46789,4,1,0,100,0,1
10281,-94.39808,4,1,0,100,0,1
10411,-94.328316,4,1,0,100,0,1
10541,-94.25863,4,1,0,100,0,1
10671,-94.188965,4,1,0,100,0,1
10800,-94.119896,4,1,0,100,0,1
10801,-94.119354,4,1,0,100,0,1
10930,-94.05035,4,1,0,100,0,1
11060,-93.98086,4,1,0,100,0,1
11190,-93.91141,4,1,0,100,0,1
11320,-93.842,4,1,0,100,0,1
11450,-93.77267,4,1,0,100,0,1
11580,-93.70336,4,1,0,100,0,1
11710,-93.634125,4,1,0,100,0,1
11839,-93.56547,4,1,0,100,0,1
11840,-93.56494,4,1,0,100,0,1
11904,-93.53089,4,1,0,100,0,1
11969,-93.49632,4,1,0,100,0,1
12034,-93.46177,4,1,0,100,0,1
12099,-93.42723,4,1,0,100,0,1
12229,-93.35819,4,1,0,100,0,1
12359,-93.289215,4,1,0,100,0,1
12424,-93.25473,4,1,0,100,0,1
12489,-93.220276,4,1,0,100,0,1
12554,-93.18583,4,1,0,100,0,1
12619,-93.15139,4,1,0,100,0,1
12748,-93.08309,4,1,0,100,0,1
12878,-93.0143,4,1,0,100,0,1
12879,-93.01377,4,1,0,100,0,1
12943,-92.979935,4,1,0,100,0,1
13008,-92.94557,4,1,0,100,0,1
13138,-92.876884,4,1,0,100,0,1
13268,-92.80826,4,1,0,100,0,1
13398,-92.73968,4,1,0,100,0,1
13528,-92.67115,4,1,0,100,0,1
13658,-92.60265,4,1,0,100,0,1
13787,-92.53477,4,1,0,100,0,1
13917,-92.46638,4,1,0,100,0,1
13918,-92.46586,4,1,0,100,0,1
13982,-92.43221,4,1,0,100,0,1
14047,-92.398056,4,1,0,100,0,1
14177,-92.32977,4,1,0,100,0,1
14307,-92.26156,4,1,0,100,0,1
14437,-92.19337,4,1,0,100,0,1
14567,-92.125244,4,1,0,100,0,1
14697,-92.05717,4,1,0,100,0,1
14826,-91.98967,4,1,0,100,0,1
14956,-91.92169,4,1,0,100,0,1
14957,-91.921165,4,1,0,100,0,1
15021,-91.88772,4,1,0,100,0,1
15086,-91.85376,4,1,0,100,0,1
15216,-91.78589,4,1,0,100,0,1
15346,-91.71807,4,1,0,100,0,1
15476,-91.65029,4,1,0,100,0,1
15606,-91.58257,4,1,0,100,0,1
15735,-91.51541,4,1,0,100,0,1
15865,-91.447784,4,1,0,100,0,1
15995,-91.38021,4,1,0,100,0,1
15996,-91.37969,4,1,0,100,0,1
16060,-91.346436,4,1,0,100,0,1
16125,-91.312675,4,1,0,100,0,1
16190,-91.278946,4,1,0,100,0,1
16255,-91.24521,4,1,0,100,0,1
16385,-91.17778,4,1,0,100,0,1
16515,-91.110405,4,1,0,100,0,1
16580,-91.07674,4,1,0,100,0,1
16645,-91.043076,4,1,0,100,0,1
16710,-91.00942,4,1,0,100,0,1
16774,-90.97632,4,1,0,100,0,1
16904,-90.90909,4,1,0,100,0,1
17034,263.157894736841,4,1,0,100,1,0
17034,-83.3333333333333,4,1,0,100,0,0
18086,-44.4444444444445,4,1,0,100,0,0
19139,-97.0873786407767,4,1,0,100,0,0
19402,-100,4,1,0,100,0,1
21244,-90.9090909090909,4,1,0,100,0,0
22297,-40,4,1,0,100,0,0
23349,-97.0873786407767,4,1,0,100,0,0
23612,-100,4,1,0,100,0,1
25455,271.800679501698,4,1,0,100,1,1
25455,-80,4,1,0,100,0,1
25590,-100.3009027,4,1,0,100,0,1
28716,-90.90909,4,1,0,100,0,1
28717,-90.918205,4,1,0,100,0,1
28784,-91.530754,4,1,0,100,0,1
28852,-92.15667,4,1,0,100,0,1
28920,-92.786865,4,1,0,100,0,1
28988,-93.42138,4,1,0,100,0,1
29124,-94.70343,4,1,0,100,0,1
29192,-95.35104,4,1,0,100,0,1
29260,-96.00308,4,1,0,100,0,1
29328,-96.65958,4,1,0,100,0,1
29396,-97.320564,4,1,0,100,0,1
29532,-98.65613,4,1,0,100,0,1
29599,-99.320816,4,1,0,100,0,1
29667,-100,4,1,0,100,0,1
29803,-80,4,1,0,100,0,1
29939,-100,4,1,0,100,0,1
33065,-90.90909,4,1,0,100,0,1
33133,-91.530754,4,1,0,100,0,1
33201,-92.15667,4,1,0,100,0,1
33269,-92.786865,4,1,0,100,0,1
33337,-93.42138,4,1,0,100,0,1
33473,-94.70343,4,1,0,100,0,1
33541,-95.35104,4,1,0,100,0,1
33609,-96.00308,4,1,0,100,0,1
33676,-96.64989,4,1,0,100,0,1
33744,-97.310814,4,1,0,100,0,1
33880,-98.64624,4,1,0,100,0,1
33948,-99.320816,4,1,0,100,0,1
34016,-100,4,1,0,100,0,1
34152,266.666666666666,4,1,0,100,1,0
34152,-90.9090909090909,4,1,0,100,0,0
35218,-44.4444444444445,4,1,0,100,0,0
36285,-98.0392156862745,4,1,0,100,0,0
36551,-100,4,1,0,100,0,1
38418,283.018867924528,4,1,0,100,1,0
38418,-90.9090909090909,4,1,0,100,0,0
39485,-40,4,1,0,100,0,0
40523,269.662921348314,4,1,0,100,1,0
40523,-101.1122346,4,1,0,100,0,0
40792,-100,4,1,0,100,0,1
42680,273.348519362186,4,1,0,100,1,1
42680,-80,4,1,0,100,0,1
42816,-99.8003992,4,1,0,100,0,1
45960,-90.90909,4,1,0,100,0,1
46028,-91.51448,4,1,0,100,0,1
46096,-92.12391,4,1,0,100,0,1
46165,-92.746445,4,1,0,100,0,1
46233,-93.36408,4,1,0,100,0,1
46370,-94.62094,4,1,0,100,0,1
46438,-95.25105,4,1,0,100,0,1
46506,-95.88537,4,1,0,100,0,1
46575,-96.53332,4,1,0,100,0,1
46643,-97.17618,4,1,0,100,0,1
46780,-98.48436,4,1,0,100,0,1
46848,-99.1402,4,1,0,100,0,1
46916,-99.8004,4,1,0,100,0,1
47053,-80,4,1,0,100,0,1
47190,-99.8003992,4,1,0,100,0,1
50333,-90.90909,4,1,0,100,0,1
50334,-90.918144,4,1,0,100,0,1
50424,-91.73673,4,1,0,100,0,1
50515,-92.571915,4,1,0,100,0,1
50607,-93.42401,4,1,0,100,0,1
50698,-94.27455,4,1,0,100,0,1
50789,-95.132835,4,1,0,100,0,1
50880,-95.99894,4,1,0,100,0,1
50971,-96.872925,4,1,0,100,0,1
51062,-97.75487,4,1,0,100,0,1
51153,-98.64484,4,1,0,100,0,1
51290,-100,4,1,0,100,0,1
51427,276.179516685845,4,1,0,80,1,0
51427,-83.3333333333333,4,1,0,80,0,0
51703,-111.111111111111,4,1,0,80,0,0
55845,-83.3333333333333,4,1,0,80,0,0
56122,-111.111111111111,4,1,0,80,0,0
59021,-111.111115,4,1,0,80,0,0
59160,-108.83916,4,1,0,80,0,0
59298,-106.62948,4,1,0,80,0,0
59436,-104.46467,4,1,0,80,0,0
59574,-102.34383,4,1,0,80,0,0
59712,-100.26603,4,1,0,80,0,0
59850,-98.23042,4,1,0,80,0,0
59988,-96.23613,4,1,0,80,0,0
60126,-94.282326,4,1,0,80,0,0
60264,267.857142857142,4,1,0,100,1,0
60264,-90.9090909090909,4,1,0,100,0,0
62406,267.857142857142,4,1,0,100,1,8
62406,-95.2380952380952,4,1,0,100,0,8
62422,277.777777777777,4,1,0,100,1,0
62422,-95.2381,4,1,0,100,0,0
62559,-96.581436,4,1,0,100,0,0
62698,-97.953674,4,1,0,100,0,0
62837,-99.345406,4,1,0,100,0,0
62976,-100.75691,4,1,0,100,0,0
63115,-102.18848,4,1,0,100,0,0
63254,-103.64037,4,1,0,100,0,0
63393,-105.1129,4,1,0,100,0,0
63462,-105.85161,4,1,0,100,0,0
63532,-106.606346,4,1,0,100,0,0
63671,-108.12101,4,1,0,100,0,0
63809,-109.64607,4,1,0,100,0,0
63948,-111.203926,4,1,0,100,0,0
64087,-112.78392,4,1,0,100,0,0
64226,-114.38635,4,1,0,100,0,0
64365,-116.01156,4,1,0,100,0,0
64504,-117.65985,4,1,0,100,0,0
64644,267.857142857142,4,1,0,100,1,0
64644,-90.9090909090909,4,1,0,100,0,0
66786,276.497695852534,4,1,0,100,1,0
66786,-95.2381,4,1,0,100,0,0
66923,-96.58728,4,1,0,100,0,0
67061,-97.95555,4,1,0,100,0,0
67199,-99.343216,4,1,0,100,0,0
67337,-100.75054,4,1,0,100,0,0
67476,-102.18822,4,1,0,100,0,0
67614,-103.63585,4,1,0,100,0,0
67752,-105.10398,4,1,0,100,0,0
67821,-105.84583,4,1,0,100,0,0
67890,-106.59292,4,1,0,100,0,0
68029,-108.11397,4,1,0,100,0,0
68167,-109.65671,4,1,0,100,0,0
68305,-111.21014,4,1,0,100,0,0
68443,-112.78558,4,1,0,100,0,0
68720,-116.003716,4,1,0,100,0,0
68859,-117.647058823529,4,1,0,100,0,0
68997,271.186440677965,4,1,0,100,1,0
68997,-90.9090909090909,4,1,0,100,0,0
71166,276.816608996539,4,1,0,100,1,0
71166,-95.2381,4,1,0,100,0,0
71303,-96.033806,4,1,0,100,0,0
71441,-96.83615,4,1,0,100,0,0
71580,-97.65109,4,1,0,100,0,0
71718,-98.46696,4,1,0,100,0,0
71857,-99.29563,4,1,0,100,0,0
71995,-100.12523,4,1,0,100,0,0
72133,-100.96178,4,1,0,100,0,0
72272,-101.81143,4,1,0,100,0,0
72410,-102.662056,4,1,0,100,0,0
72549,-103.52603,4,1,0,100,0,0
72687,-104.39098,4,1,0,100,0,0
72825,-105.26317,4,1,0,100,0,0
73103,-99.009900990099,4,1,0,100,0,0
73242,-97.0873786407767,4,1,0,100,0,0
73379,-95.2381,4,1,0,100,0,0
73517,-96.03332,4,1,0,100,0,0
73656,-96.84102,4,1,0,100,0,0
73794,-97.64963,4,1,0,100,0,0
73933,-98.470924,4,1,0,100,0,0
74071,-99.29314,4,1,0,100,0,0
74209,-100.12222,4,1,0,100,0,0
74348,-100.96431,4,1,0,100,0,0
74486,-101.80734,4,1,0,100,0,0
74625,-102.663605,4,1,0,100,0,0
74763,-103.520836,4,1,0,100,0,0
74902,-104.39151,4,1,0,100,0,0
75040,-105.26317,4,1,0,100,0,0
75318,-99.009900990099,4,1,0,100,0,0
75456,-97.0873786407767,4,1,0,100,0,0
75594,-95.24849,4,1,0,100,0,0
75732,-96.69326,4,1,0,100,0,0
75870,-98.15995,4,1,0,100,0,0
76009,-99.659744,4,1,0,100,0,0
76147,-101.17143,4,1,0,100,0,0
76286,-102.71724,4,1,0,100,0,0
76424,-104.27531,4,1,0,100,0,0
76562,-105.857,4,1,0,100,0,0
76701,-107.4744,4,1,0,100,0,0
76839,-109.10463,4,1,0,100,0,0
76978,-110.77167,4,1,0,100,0,0
77116,-112.45189,4,1,0,100,0,0
77254,-114.15761,4,1,0,100,0,0
77531,-117.6599,4,1,0,100,0,0
77809,267.857142857142,4,1,0,100,1,1
77809,-95.2380952380952,4,1,0,100,0,1
86380,270.880361173814,4,1,0,100,1,1
86380,-90.9090909090909,4,1,0,100,0,1
90714,-89.2857142857143,4,1,0,100,0,1
92881,-86.9565217391304,4,1,0,100,0,1
93829,-86.95652,4,1,0,100,0,1
93964,-88.40765,4,1,0,100,0,1
94054,-89.38851,4,1,0,100,0,1
94145,-90.39133,4,1,0,100,0,1
94235,-91.39419,4,1,0,100,0,1
94325,-92.40817,4,1,0,100,0,1
94416,-93.44486,4,1,0,100,0,1
94506,-94.481606,4,1,0,100,0,1
94596,-95.52984,4,1,0,100,0,1
94686,-96.589714,4,1,0,100,0,1
94777,-97.673325,4,1,0,100,0,1
94867,-98.756966,4,1,0,100,0,1
94957,-99.852646,4,1,0,100,0,1
95048,275.545350172215,4,1,0,100,1,1
95048,-80,4,1,0,100,0,1
95185,-99.0099,4,1,0,100,0,1
98354,-90.09009,4,1,0,100,0,1
98355,-90.098915,4,1,0,100,0,1
98423,-90.70094,4,1,0,100,0,1
98492,-91.31594,4,1,0,100,0,1
98561,-91.93509,4,1,0,100,0,1
98630,-92.55846,4,1,0,100,0,1
98767,-93.80869,4,1,0,100,0,1
98836,-94.444756,4,1,0,100,0,1
98905,-95.08513,4,1,0,100,0,1
98974,-95.72985,4,1,0,100,0,1
99043,-96.37894,4,1,0,100,0,1
99181,-97.69035,4,1,0,100,0,1
99250,-98.35274,4,1,0,100,0,1
99318,-99.0099,4,1,0,100,0,1
99456,-79.3650793650794,4,1,0,100,0,1
99594,-99.009900990099,4,1,0,100,0,1
102763,-90.09009,4,1,0,100,0,1
102832,-90.70094,4,1,0,100,0,1
102901,-91.31594,4,1,0,100,0,1
102969,-91.926094,4,1,0,100,0,1
103038,-92.549385,4,1,0,100,0,1
103176,-93.80869,4,1,0,100,0,1
103245,-94.444756,4,1,0,100,0,1
103314,-95.08513,4,1,0,100,0,1
103383,-95.72985,4,1,0,100,0,1
103452,-96.37894,4,1,0,100,0,1
103589,-97.680786,4,1,0,100,0,1
103658,-98.343094,4,1,0,100,0,1
103727,-99.0099,4,1,0,100,0,1
103865,283.687943262411,4,1,0,100,1,0
103865,-96.15384615,4,1,0,100,0,0
106134,285.714285714285,4,1,0,100,1,0
106134,-95.41984733,4,1,0,100,0,0
108419,286.396181384248,4,1,0,100,1,0
108419,-95.23809524,4,1,0,100,0,0
109469,-95.2381,4,1,0,100,0,0
109564,-94.89955,4,1,0,100,0,0
109565,-94.89599,4,1,0,100,0,0
109660,-94.55865,4,1,0,100,0,0
109755,-94.2225,4,1,0,100,0,0
109850,-93.887566,4,1,0,100,0,0
109946,-93.5503,4,1,0,100,0,0
110041,-93.21776,4,1,0,100,0,0
110137,-92.8829,4,1,0,100,0,0
110232,-92.552704,4,1,0,100,0,0
110328,-92.22024,4,1,0,100,0,0
110423,-91.89241,4,1,0,100,0,0
110519,-91.56232,4,1,0,100,0,0
110614,-91.23683,4,1,0,100,0,0
110710,-90.90909,4,1,0,100,0,1
111187,-90.90909,4,1,0,100,0,1
111282,-90.063576,4,1,0,100,0,1
111378,-89.217155,4,1,0,100,0,1
111473,-88.38738,4,1,0,100,0,1
111569,-87.55671,4,1,0,100,0,1
111664,-86.742386,4,1,0,100,0,1
111760,-85.92717,4,1,0,100,0,1
111855,280.3738317757,4,1,0,100,1,1
111855,-83.333336,4,1,0,100,0,1
111948,-84.34612,4,1,0,100,0,1
112041,-85.371216,4,1,0,100,0,1
112135,-86.42,4,1,0,100,0,1
112228,-87.4703,4,1,0,100,0,1
112322,-88.54486,4,1,0,100,0,1
112415,-89.62099,4,1,0,100,0,1
112509,-90.72197,4,1,0,100,0,1
112602,-91.824554,4,1,0,100,0,1
112696,-92.952614,4,1,0,100,0,1
112789,-94.082306,4,1,0,100,0,1
112883,-95.2381,4,1,0,100,0,1
112976,274.914089347079,4,1,0,100,1,1
112976,-79.3650793650794,4,1,0,100,0,1
113113,-99.009900990099,4,1,0,100,0,1
116274,-90.09009,4,1,0,100,0,1
116275,-90.09892,4,1,0,100,0,1
116343,-90.70158,4,1,0,100,0,1
116412,-91.31721,4,1,0,100,0,1
116481,-91.93703,4,1,0,100,0,1
116549,-92.55197,4,1,0,100,0,1
116687,-93.81263,4,1,0,100,0,1
116756,-94.44939,4,1,0,100,0,1
116824,-95.08113,4,1,0,100,0,1
116893,-95.7265,4,1,0,100,0,1
116962,-96.376236,4,1,0,100,0,1
117099,-97.679405,4,1,0,100,0,1
117168,-98.342415,4,1,0,100,0,1
117237,-99.0099,4,1,0,100,0,1
117374,276.179516685846,4,1,0,100,1,1
117374,-79.3650793650794,4,1,0,100,0,1
117512,-99.009900990099,4,1,0,100,0,1
120688,-90.09009,4,1,0,100,0,1
120757,-90.69967,4,1,0,100,0,1
120826,-91.31337,4,1,0,100,0,1
120895,-91.93123,4,1,0,100,0,1
120964,-92.55327,4,1,0,100,0,1
121102,-93.81,4,1,0,100,0,1
121171,-94.44475,4,1,0,100,0,1
121240,-95.08379,4,1,0,100,0,1
121309,-95.727165,4,1,0,100,0,1
121378,-96.374886,4,1,0,100,0,1
121516,-97.68352,4,1,0,100,0,1
121585,-98.34447,4,1,0,100,0,1
121654,-99.0099,4,1,0,100,0,1
121777,280.373831775701,4,1,0,100,1,0
121777,-90.9090909090909,4,1,0,100,0,0
122898,280.373831775701,4,1,0,100,1,8
122919,283.687943262411,4,1,0,100,1,0
122919,-94.3396226415094,4,1,0,100,0,0
124053,-98.0392156862745,4,1,0,100,0,0
125188,-102.040816326531,4,1,0,100,0,0
125755,-99.009900990099,4,1,0,100,0,0
126323,-97.0873786407767,4,1,0,100,0,0
126890,-95.2381,4,1,0,100,0,0
127174,-94.82892,4,1,0,100,0,0
127457,-94.42291,4,1,0,100,0,0
127458,-94.421486,4,1,0,100,0,0
127599,-94.21986,4,1,0,100,0,0
127741,-94.01723,4,1,0,100,0,0
127883,-93.81503,4,1,0,100,0,0
128025,-93.61327,4,1,0,100,0,0
128166,-93.413376,4,1,0,100,0,0
128308,-93.212494,4,1,0,100,0,0
128497,-92.94578,4,1,0,100,0,0
128592,284.360189573459,4,1,0,100,1,0
128592,-92.59259,4,1,0,100,0,0
129729,-86.95651,4,1,0,100,0,1
129824,-85.99087,4,1,0,100,0,1
129919,-85.035965,4,1,0,100,0,1
130013,-84.101524,4,1,0,100,0,1
130108,-83.16758,4,1,0,100,0,1
130203,-82.24401,4,1,0,100,0,1
130298,-81.3307,4,1,0,100,0,1
130392,-80.437,4,1,0,100,0,1
130487,-79.54375,4,1,0,100,0,1
130582,-78.66041,4,1,0,100,0,1
130677,-77.786896,4,1,0,100,0,1
130772,-76.92308,4,1,0,100,0,1
130866,-66.6666666666667,4,1,0,100,0,1
131009,-50,4,1,0,100,0,1
132004,-66.6666666666667,4,1,0,100,0,0

[HitObjects]
331,265,448,5,8,0:0:0:0:
314,157,512,1,8,0:0:0:0:
314,157,577,1,0,0:0:0:0:
295,198,706,1,8,0:0:0:0:
244,243,835,1,8,0:0:0:0:
247,225,965,1,0,0:0:0:0:
300,146,1029,1,0,0:0:0:0:
263,204,1094,1,8,0:0:0:0:
279,221,1223,1,8,0:0:0:0:
279,221,1353,1,0,0:0:0:0:
271,237,1482,1,8,0:0:0:0:
314,157,1547,1,0,0:0:0:0:
271,237,1611,1,0,0:0:0:0:
277,236,1741,1,8,0:0:0:0:
279,232,1870,1,8,0:0:0:0:
246,258,1999,1,0,0:0:0:0:
248,129,2064,1,0,0:0:0:0:
246,258,2129,1,8,0:0:0:0:
239,258,2258,1,8,0:0:0:0:
239,258,2387,1,0,0:0:0:0:
255,256,2516,1,8,0:0:0:0:
314,157,2581,1,8,0:0:0:0:
252,250,2646,1,0,0:0:0:0:
252,250,2775,1,8,0:0:0:0:
255,250,2904,1,8,0:0:0:0:
255,250,3034,1,0,0:0:0:0:
314,157,3098,1,0,0:0:0:0:
255,250,3163,1,0,0:0:0:0:
255,250,3292,1,8,0:0:0:0:
255,250,3422,1,0,0:0:0:0:
255,250,3551,1,8,0:0:0:0:
314,157,3616,1,8,0:0:0:0:
270,260,3680,1,0,0:0:0:0:
270,260,3745,1,0,0:0:0:0:
270,260,3810,1,8,0:0:0:0:
284,224,3939,1,8,0:0:0:0:
261,262,4068,1,0,0:0:0:0:
314,157,4133,1,0,0:0:0:0:
256,258,4197,1,0,0:0:0:0:
256,258,4262,1,0,0:0:0:0:
256,258,4327,1,8,0:0:0:0:
283,240,4456,1,8,0:0:0:0:
287,227,4585,1,4,0:0:0:0:
277,223,4844,1,8,0:0:0:0:
277,223,4973,1,8,0:0:0:0:
277,223,5103,1,0,0:0:0:0:
273,144,5167,1,0,0:0:0:0:
281,227,5232,1,8,0:0:0:0:
281,227,5361,1,8,0:0:0:0:
281,227,5491,1,0,0:0:0:0:
281,227,5620,1,8,0:0:0:0:
272,144,5685,1,0,0:0:0:0:
281,227,5749,1,0,0:0:0:0:
286,225,5879,1,8,0:0:0:0:
289,228,6008,1,8,0:0:0:0:
289,228,6137,1,0,0:0:0:0:
276,146,6202,1,0,0:0:0:0:
289,228,6266,1,8,0:0:0:0:
289,228,6396,1,8,0:0:0:0:
289,228,6525,1,0,0:0:0:0:
311,235,6654,1,8,0:0:0:0:
270,157,6719,1,8,0:0:0:0:
304,236,6784,1,0,0:0:0:0:
292,236,6913,1,8,0:0:0:0:
292,236,7042,1,8,0:0:0:0:
292,236,7172,1,0,0:0:0:0:
270,157,7236,1,0,0:0:0:0:
286,238,7301,1,0,0:0:0:0:
286,238,7430,1,8,0:0:0:0:
286,238,7560,1,0,0:0:0:0:
286,238,7689,1,8,0:0:0:0:
265,158,7754,1,8,0:0:0:0:
168,170,7818,1,0,0:0:0:0:
199,147,7883,1,0,0:0:0:0:
298,169,7947,1,8,0:0:0:0:
336,178,8077,1,8,0:0:0:0:
276,223,8206,1,0,0:0:0:0:
271,179,8271,1,0,0:0:0:0:
257,209,8335,1,0,0:0:0:0:
221,172,8400,1,0,0:0:0:0:
277,221,8465,1,8,0:0:0:0:
295,244,8594,1,8,0:0:0:0:
295,237,8723,1,0,0:0:0:0:
295,237,8852,1,0,0:0:0:0:
282,177,8982,1,8,0:0:0:0:
295,237,9112,1,0,0:0:0:0:
255,185,9242,1,0,0:0:0:0:
313,243,9372,1,0,0:0:0:0:
279,180,9502,1,8,0:0:0:0:
295,237,9632,1,0,0:0:0:0:
263,183,9761,1,0,0:0:0:0:
313,243,9891,1,0,0:0:0:0:
278,187,10021,1,8,0:0:0:0:
313,243,10151,1,0,0:0:0:0:
313,243,10281,1,0,0:0:0:0:
313,243,10411,1,0,0:0:0:0:
251,193,10541,1,8,0:0:0:0:
313,243,10671,1,0,0:0:0:0:
312,150,10800,1,8,0:0:0:0:
305,125,10930,5,0,0:0:0:0:
318,248,11060,1,8,0:0:0:0:
256,243,11190,1,0,0:0:0:0:
256,243,11320,1,8,0:0:0:0:
256,243,11450,1,0,0:0:0:0:
318,248,11580,1,8,0:0:0:0:
270,238,11710,1,0,0:0:0:0:
301,242,11839,1,8,0:0:0:0:
270,238,11904,1,8,0:0:0:0:
237,212,11969,1,0,0:0:0:0:
219,257,12034,1,0,0:0:0:0:
257,161,12099,1,8,0:0:0:0:
309,232,12229,1,8,0:0:0:0:
309,232,12359,1,0,0:0:0:0:
270,237,12424,1,0,0:0:0:0:
218,239,12489,1,0,0:0:0:0:
218,239,12554,1,0,0:0:0:0:
318,248,12619,1,8,0:0:0:0:
318,248,12748,1,8,0:0:0:0:
325,214,12878,1,0,0:0:0:0:
302,160,12943,1,0,0:0:0:0:
213,223,13008,1,0,0:0:0:0:
230,214,13138,1,8,0:0:0:0:
182,181,13268,1,8,0:0:0:0:
289,285,13398,1,0,0:0:0:0:
303,223,13528,1,0,0:0:0:0:
336,213,13658,1,8,0:0:0:0:
293,246,13787,1,8,0:0:0:0:
272,161,13917,1,0,0:0:0:0:
308,154,13982,1,0,0:0:0:0:
293,240,14047,1,0,0:0:0:0:
299,250,14177,1,8,0:0:0:0:
300,241,14307,1,0,0:0:0:0:
295,241,14437,1,8,0:0:0:0:
295,241,14567,1,0,0:0:0:0:
311,236,14697,1,8,0:0:0:0:
311,236,14826,1,8,0:0:0:0:
284,287,14956,1,0,0:0:0:0:
244,155,15021,1,0,0:0:0:0:
284,287,15086,1,0,0:0:0:0:
287,279,15216,1,8,0:0:0:0:
288,271,15346,1,8,0:0:0:0:
281,263,15476,1,8,0:0:0:0:
281,263,15606,1,0,0:0:0:0:
304,260,15735,1,8,0:0:0:0:
296,257,15865,1,8,0:0:0:0:
275,260,15995,1,8,0:0:0:0:
266,231,16060,1,8,0:0:0:0:
277,232,16125,1,0,0:0:0:0:
264,222,16190,1,0,0:0:0:0:
282,207,16255,1,8,0:0:0:0:
261,233,16385,1,8,0:0:0:0:
266,231,16515,1,0,0:0:0:0:
311,185,16580,1,0,0:0:0:0:
266,231,16645,1,0,0:0:0:0:
261,245,16710,1,0,0:0:0:0:
266,231,16774,1,8,0:0:0:0:
257,232,16904,1,8,0:0:0:0:
261,234,17034,1,4,0:0:0:0:
261,234,17165,1,4,0:0:0:0:
261,234,17297,1,4,0:0:0:0:
261,229,19402,1,12,0:0:0:0:
229,108,19533,1,0,0:0:0:0:
329,223,19665,1,0,0:0:0:0:
301,236,19797,1,8,0:0:0:0:
261,229,19928,1,0,0:0:0:0:
261,229,20191,1,12,0:0:0:0:
322,195,20455,1,0,0:0:0:0:
333,194,20586,1,8,0:0:0:0:
328,183,20718,1,8,0:0:0:0:
329,189,20849,1,0,0:0:0:0:
329,189,20981,1,12,0:0:0:0:
335,259,21244,1,4,0:0:0:0:
290,248,21376,1,4,0:0:0:0:
290,248,21507,1,4,0:0:0:0:
262,229,23612,1,12,0:0:0:0:
325,238,23744,1,0,0:0:0:0:
255,231,23876,1,8,0:0:0:0:
320,239,24007,1,8,0:0:0:0:
255,231,24139,1,0,0:0:0:0:
255,231,24402,1,12,0:0:0:0:
315,242,24665,1,0,0:0:0:0:
315,242,24797,1,8,0:0:0:0:
255,231,24928,1,0,0:0:0:0:
311,234,25060,1,0,0:0:0:0:
257,227,25191,1,12,0:0:0:0:
257,227,25455,1,4,0:0:0:0:
242,279,25590,1,0,0:0:0:0:
255,268,25658,1,0,0:0:0:0:
266,212,25726,1,8,0:0:0:0:
243,201,25862,1,8,0:0:0:0:
255,199,25998,1,0,0:0:0:0:
255,199,26134,1,0,0:0:0:0:
256,200,26270,1,8,0:0:0:0:
249,179,26338,1,0,0:0:0:0:
260,172,26406,1,8,0:0:0:0:
403,237,26542,1,0,0:0:0:0:
331,190,26610,1,0,0:0:0:0:
403,237,26678,1,8,0:0:0:0:
354,253,26746,1,0,0:0:0:0:
266,227,26814,1,8,0:0:0:0:
285,233,26949,1,8,0:0:0:0:
281,247,27085,1,0,0:0:0:0:
281,247,27221,1,0,0:0:0:0:
278,224,27357,1,8,0:0:0:0:
274,210,27425,1,8,0:0:0:0:
285,199,27493,1,0,0:0:0:0:
275,216,27561,1,8,0:0:0:0:
449,262,27629,1,0,0:0:0:0:
406,290,27765,1,0,0:0:0:0:
310,192,27901,1,8,0:0:0:0:
310,192,27969,1,8,0:0:0:0:
310,192,28037,1,0,0:0:0:0:
360,295,28105,1,0,0:0:0:0:
299,193,28173,1,8,0:0:0:0:
299,193,28308,1,8,0:0:0:0:
301,217,28444,1,0,0:0:0:0:
290,211,28580,1,8,0:0:0:0:
288,202,28716,1,0,0:0:0:0:
285,203,28784,1,8,0:0:0:0:
288,202,28852,1,8,0:0:0:0:
368,283,28920,1,8,0:0:0:0:
285,203,28988,1,0,0:0:0:0:
281,203,29124,1,8,0:0:0:0:
279,170,29192,1,0,0:0:0:0:
313,219,29260,1,8,0:0:0:0:
287,182,29328,1,0,0:0:0:0:
282,184,29396,1,0,0:0:0:0:
287,182,29532,1,8,0:0:0:0:
282,184,29599,1,8,0:0:0:0:
296,238,29667,1,8,0:0:0:0:
288,239,29803,1,4,0:0:0:0:
291,267,29939,1,0,0:0:0:0:
296,286,30007,1,0,0:0:0:0:
309,292,30075,1,8,0:0:0:0:
315,275,30211,1,8,0:0:0:0:
306,279,30347,1,0,0:0:0:0:
304,289,30483,1,0,0:0:0:0:
304,289,30619,1,8,0:0:0:0:
243,254,30687,1,0,0:0:0:0:
252,271,30755,1,8,0:0:0:0:
256,275,30891,1,0,0:0:0:0:
252,271,30958,1,0,0:0:0:0:
256,275,31026,1,8,0:0:0:0:
363,205,31094,1,0,0:0:0:0:
290,266,31162,1,8,0:0:0:0:
287,273,31298,1,8,0:0:0:0:
275,268,31434,1,0,0:0:0:0:
286,273,31570,1,0,0:0:0:0:
286,273,31706,1,8,0:0:0:0:
379,226,31774,1,8,0:0:0:0:
241,191,31842,1,0,0:0:0:0:
237,230,31910,1,8,0:0:0:0:
379,226,31978,1,0,0:0:0:0:
281,243,32114,1,0,0:0:0:0:
287,252,32250,1,8,0:0:0:0:
373,232,32317,1,8,0:0:0:0:
288,253,32385,1,0,0:0:0:0:
242,167,32453,1,0,0:0:0:0:
343,242,32521,1,8,0:0:0:0:
362,244,32657,1,8,0:0:0:0:
362,244,32793,1,0,0:0:0:0:
373,229,32929,1,8,0:0:0:0:
373,229,33065,1,0,0:0:0:0:
336,255,33133,1,0,0:0:0:0:
362,242,33201,1,8,0:0:0:0:
361,248,33269,1,8,0:0:0:0:
361,243,33337,1,0,0:0:0:0:
219,284,33473,1,8,0:0:0:0:
219,284,33541,1,0,0:0:0:0:
236,295,33609,1,8,0:0:0:0:
250,273,33676,1,8,0:0:0:0:
258,268,33744,1,0,0:0:0:0:
265,283,33880,1,0,0:0:0:0:
266,283,33948,1,0,0:0:0:0:
301,225,34016,1,8,0:0:0:0:
301,237,34152,1,4,0:0:0:0:
301,237,34285,1,4,0:0:0:0:
301,237,34418,1,4,0:0:0:0:
239,263,36551,1,12,0:0:0:0:
254,258,36685,1,0,0:0:0:0:
254,258,36818,1,0,0:0:0:0:
254,258,36951,1,8,0:0:0:0:
238,261,37085,1,0,0:0:0:0:
231,262,37351,1,12,0:0:0:0:
252,267,37618,1,0,0:0:0:0:
338,249,37751,1,8,0:0:0:0:
276,265,37885,1,8,0:0:0:0:
334,242,38018,1,0,0:0:0:0:
231,262,38151,1,12,0:0:0:0:
225,260,38418,1,4,0:0:0:0:
225,260,38559,1,4,0:0:0:0:
225,260,38701,1,4,0:0:0:0:
306,245,40792,1,12,0:0:0:0:
298,254,40927,1,0,0:0:0:0:
298,254,41062,1,8,0:0:0:0:
302,223,41197,1,8,0:0:0:0:
293,221,41331,1,0,0:0:0:0:
293,234,41601,1,12,0:0:0:0:
281,242,41871,1,8,0:0:0:0:
312,233,42006,1,8,0:0:0:0:
320,230,42140,1,0,0:0:0:0:
320,230,42275,1,0,0:0:0:0:
320,243,42410,1,12,0:0:0:0:
257,227,42680,1,4,0:0:0:0:
242,279,42816,1,0,0:0:0:0:
255,268,42885,1,0,0:0:0:0:
266,212,42953,1,8,0:0:0:0:
243,201,43090,1,8,0:0:0:0:
255,199,43226,1,0,0:0:0:0:
255,199,43363,1,0,0:0:0:0:
256,200,43500,1,8,0:0:0:0:
249,179,43568,1,0,0:0:0:0:
260,172,43636,1,8,0:0:0:0:
403,237,43773,1,0,0:0:0:0:
331,190,43841,1,0,0:0:0:0:
403,237,43910,1,8,0:0:0:0:
354,253,43978,1,0,0:0:0:0:
266,227,44046,1,8,0:0:0:0:
285,233,44183,1,8,0:0:0:0:
281,247,44320,1,0,0:0:0:0:
281,247,44456,1,0,0:0:0:0:
278,224,44593,1,8,0:0:0:0:
274,210,44661,1,8,0:0:0:0:
285,199,44730,1,0,0:0:0:0:
275,216,44798,1,0,0:0:0:0:
449,262,44866,1,0,0:0:0:0:
406,290,45003,1,0,0:0:0:0:
310,192,45140,1,8,0:0:0:0:
310,192,45208,1,8,0:0:0:0:
310,192,45276,1,0,0:0:0:0:
360,295,45345,1,0,0:0:0:0:
299,193,45413,1,8,0:0:0:0:
299,193,45550,1,8,0:0:0:0:
301,217,45686,1,0,0:0:0:0:
290,211,45823,1,8,0:0:0:0:
288,202,45960,1,0,0:0:0:0:
285,203,46028,1,8,0:0:0:0:
288,202,46096,1,8,0:0:0:0:
368,283,46165,1,8,0:0:0:0:
285,203,46233,1,0,0:0:0:0:
281,203,46370,1,8,0:0:0:0:
279,170,46438,1,0,0:0:0:0:
313,219,46506,1,8,0:0:0:0:
287,182,46575,1,0,0:0:0:0:
282,184,46643,1,0,0:0:0:0:
287,182,46780,1,8,0:0:0:0:
282,184,46848,1,8,0:0:0:0:
296,238,46916,1,8,0:0:0:0:
288,239,47053,1,4,0:0:0:0:
291,267,47190,1,0,0:0:0:0:
296,286,47258,1,0,0:0:0:0:
309,292,47326,1,8,0:0:0:0:
315,275,47463,1,8,0:0:0:0:
306,279,47600,1,0,0:0:0:0:
304,289,47736,1,0,0:0:0:0:
304,289,47873,1,8,0:0:0:0:
243,254,47941,1,0,0:0:0:0:
252,271,48010,1,8,0:0:0:0:
256,275,48146,1,0,0:0:0:0:
252,271,48215,1,0,0:0:0:0:
256,275,48283,1,8,0:0:0:0:
363,205,48351,1,8,0:0:0:0:
290,266,48420,1,8,0:0:0:0:
287,273,48556,1,8,0:0:0:0:
275,268,48693,1,0,0:0:0:0:
286,273,48830,1,0,0:0:0:0:
286,273,48967,1,8,0:0:0:0:
379,226,49035,1,8,0:0:0:0:
241,191,49103,1,0,0:0:0:0:
237,230,49172,1,8,0:0:0:0:
379,226,49240,1,0,0:0:0:0:
281,243,49377,1,0,0:0:0:0:
287,252,49513,1,8,0:0:0:0:
373,232,49582,1,8,0:0:0:0:
288,253,49650,1,0,0:0:0:0:
242,167,49718,1,0,0:0:0:0:
343,242,49787,1,8,0:0:0:0:
362,244,49923,1,8,0:0:0:0:
362,244,50060,1,4,0:0:0:0:
322,220,50333,1,0,0:0:0:0:
295,224,50424,1,8,0:0:0:0:
295,224,50515,1,8,0:0:0:0:
295,224,50607,1,0,0:0:0:0:
287,221,50698,1,8,0:0:0:0:
283,220,50789,1,8,0:0:0:0:
298,226,50880,1,0,0:0:0:0:
298,226,50971,1,0,0:0:0:0:
301,222,51062,1,0,0:0:0:0:
295,241,51153,1,8,0:0:0:0:
298,226,51290,1,8,0:0:0:0:
391,253,51427,1,4,0:0:0:0:
276,248,51703,1,0,0:0:0:0:
291,246,51979,1,8,0:0:0:0:
286,258,52255,1,8,0:0:0:0:
286,258,52393,1,8,0:0:0:0:
288,249,52531,1,0,0:0:0:0:
315,237,52669,1,8,0:0:0:0:
316,214,52807,1,8,0:0:0:0:
329,235,52945,1,8,0:0:0:0:
332,278,53084,1,0,0:0:0:0:
330,237,53222,1,0,0:0:0:0:
332,278,53360,1,8,0:0:0:0:
308,233,53498,1,8,0:0:0:0:
308,233,53636,1,0,0:0:0:0:
317,235,53912,1,8,0:0:0:0:
310,238,54050,1,8,0:0:0:0:
320,232,54188,1,8,0:0:0:0:
320,232,54326,1,0,0:0:0:0:
239,278,54464,1,8,0:0:0:0:
320,255,54603,1,8,0:0:0:0:
308,253,54741,1,0,0:0:0:0:
312,248,54879,1,8,0:0:0:0:
312,248,55017,1,8,0:0:0:0:
312,248,55155,1,0,0:0:0:0:
298,245,55293,1,8,0:0:0:0:
308,248,55431,1,8,0:0:0:0:
308,248,55569,1,0,0:0:0:0:
308,248,55707,1,8,0:0:0:0:
324,250,55845,1,4,0:0:0:0:
371,240,56122,1,0,0:0:0:0:
296,231,56398,1,8,0:0:0:0:
306,267,56674,1,8,0:0:0:0:
319,334,56812,1,8,0:0:0:0:
331,303,56950,1,0,0:0:0:0:
314,270,57088,1,8,0:0:0:0:
314,270,57226,1,8,0:0:0:0:
305,326,57364,1,8,0:0:0:0:
283,235,57502,1,0,0:0:0:0:
283,235,57641,1,0,0:0:0:0:
272,233,57779,1,8,0:0:0:0:
272,233,57917,1,8,0:0:0:0:
272,233,58055,1,0,0:0:0:0:
286,242,58331,1,8,0:0:0:0:
279,242,58469,1,8,0:0:0:0:
279,242,58607,1,8,0:0:0:0:
276,249,58745,1,0,0:0:0:0:
278,222,58883,1,8,0:0:0:0:
261,248,59021,1,8,0:0:0:0:
292,221,59160,1,0,0:0:0:0:
292,221,59298,1,8,0:0:0:0:
292,221,59436,1,8,0:0:0:0:
297,221,59574,1,0,0:0:0:0:
289,221,59712,1,8,0:0:0:0:
298,231,59850,1,8,0:0:0:0:
309,234,59988,1,0,0:0:0:0:
295,234,60126,1,8,0:0:0:0:
295,234,60264,1,4,0:0:0:0:
292,241,60397,1,4,0:0:0:0:
292,241,60531,1,12,0:0:0:0:
290,242,60799,1,4,0:0:0:0:
290,242,60933,1,4,0:0:0:0:
300,241,61067,1,12,0:0:0:0:
305,251,61335,1,4,0:0:0:0:
305,251,61469,1,4,0:0:0:0:
305,251,61603,1,12,0:0:0:0:
296,252,61871,1,4,0:0:0:0:
296,252,62005,1,4,0:0:0:0:
296,252,62138,1,12,0:0:0:0:
212,239,62422,1,12,0:0:0:0:
248,122,62560,1,0,0:0:0:0:
248,213,62699,1,8,0:0:0:0:
311,292,62838,1,8,0:0:0:0:
311,292,62977,1,8,0:0:0:0:
316,289,63116,1,0,0:0:0:0:
317,283,63255,1,8,0:0:0:0:
332,248,63394,1,0,0:0:0:0:
472,155,63533,1,0,0:0:0:0:
320,257,63672,1,0,0:0:0:0:
320,263,63810,1,8,0:0:0:0:
335,241,63949,1,0,0:0:0:0:
249,207,64088,1,12,0:0:0:0:
299,140,64366,1,0,0:0:0:0:
316,256,64644,1,8,0:0:0:0:
284,244,64777,1,0,0:0:0:0:
291,226,64844,1,0,0:0:0:0:
284,244,64911,1,8,0:0:0:0:
285,249,65045,1,0,0:0:0:0:
285,249,65179,1,8,0:0:0:0:
411,252,65246,1,8,0:0:0:0:
285,231,65313,1,0,0:0:0:0:
272,246,65380,1,0,0:0:0:0:
264,249,65447,1,8,0:0:0:0:
264,249,65581,1,0,0:0:0:0:
264,249,65715,1,8,0:0:0:0:
271,245,65849,1,0,0:0:0:0:
266,233,65916,1,0,0:0:0:0:
264,249,65983,1,8,0:0:0:0:
264,249,66117,1,0,0:0:0:0:
410,252,66251,1,8,0:0:0:0:
399,255,66318,1,8,0:0:0:0:
247,248,66385,1,0,0:0:0:0:
256,219,66452,1,0,0:0:0:0:
257,240,66519,1,8,0:0:0:0:
292,241,66786,1,12,0:0:0:0:
394,163,66924,1,0,0:0:0:0:
261,207,67062,1,8,0:0:0:0:
256,208,67200,1,8,0:0:0:0:
251,222,67338,1,8,0:0:0:0:
335,194,67477,1,0,0:0:0:0:
246,219,67615,1,8,0:0:0:0:
232,219,67753,1,0,0:0:0:0:
238,219,67891,1,0,0:0:0:0:
318,225,68030,1,0,0:0:0:0:
326,227,68168,1,8,0:0:0:0:
209,186,68306,1,0,0:0:0:0:
326,160,68444,1,12,0:0:0:0:
357,255,68721,1,0,0:0:0:0:
279,312,68997,1,4,0:0:0:0:
279,312,69132,1,4,0:0:0:0:
286,306,69268,1,12,0:0:0:0:
286,306,69539,1,4,0:0:0:0:
286,306,69674,1,4,0:0:0:0:
295,285,69810,1,12,0:0:0:0:
295,285,70081,1,4,0:0:0:0:
290,285,70217,1,4,0:0:0:0:
287,277,70352,1,12,0:0:0:0:
303,269,70624,1,4,0:0:0:0:
303,269,70759,1,4,0:0:0:0:
293,264,70895,1,12,0:0:0:0:
292,241,71166,1,12,0:0:0:0:
389,136,71304,1,0,0:0:0:0:
261,207,71442,1,8,0:0:0:0:
329,136,71581,1,8,0:0:0:0:
251,222,71719,1,8,0:0:0:0:
306,147,71858,1,0,0:0:0:0:
246,219,71996,1,8,0:0:0:0:
232,219,72134,1,0,0:0:0:0:
238,219,72273,1,0,0:0:0:0:
347,172,72411,1,0,0:0:0:0:
351,183,72550,1,8,0:0:0:0:
351,183,72688,1,0,0:0:0:0:
326,160,72826,1,12,0:0:0:0:
357,255,73103,1,8,0:0:0:0:
357,255,73242,1,0,0:0:0:0:
292,241,73380,1,8,0:0:0:0:
292,241,73518,1,8,0:0:0:0:
261,207,73657,1,8,0:0:0:0:
256,208,73795,1,0,0:0:0:0:
251,222,73934,1,8,0:0:0:0:
315,240,74072,1,0,0:0:0:0:
246,219,74210,1,8,0:0:0:0:
232,219,74349,1,0,0:0:0:0:
238,219,74487,1,0,0:0:0:0:
301,138,74626,1,0,0:0:0:0:
264,203,74764,1,8,0:0:0:0:
351,183,74903,1,0,0:0:0:0:
326,160,75041,1,12,0:0:0:0:
361,171,75318,1,8,0:0:0:0:
359,189,75456,1,0,0:0:0:0:
292,241,75595,1,8,0:0:0:0:
264,253,75733,1,8,0:0:0:0:
295,177,75871,1,8,0:0:0:0:
262,190,76010,1,0,0:0:0:0:
251,222,76148,1,8,0:0:0:0:
261,191,76287,1,0,0:0:0:0:
246,219,76425,1,8,0:0:0:0:
232,219,76563,1,0,0:0:0:0:
238,219,76702,1,0,0:0:0:0:
311,178,76840,1,0,0:0:0:0:
311,172,76979,1,8,0:0:0:0:
351,183,77117,1,0,0:0:0:0:
326,160,77255,1,8,0:0:0:0:
298,263,77532,1,0,0:0:0:0:
318,288,77809,1,8,0:0:0:0:
401,143,77875,1,8,0:0:0:0:
303,296,77942,1,0,0:0:0:0:
228,257,78009,1,0,0:0:0:0:
261,261,78076,1,8,0:0:0:0:
328,282,78210,1,0,0:0:0:0:
328,282,78344,1,8,0:0:0:0:
247,233,78411,1,8,0:0:0:0:
223,299,78478,1,0,0:0:0:0:
247,233,78545,1,0,0:0:0:0:
299,313,78612,1,8,0:0:0:0:
300,142,78679,1,8,0:0:0:0:
221,293,78746,1,0,0:0:0:0:
300,313,78880,1,8,0:0:0:0:
228,327,79014,1,0,0:0:0:0:
281,266,79081,1,0,0:0:0:0:
300,313,79148,1,8,0:0:0:0:
284,246,79215,1,8,0:0:0:0:
228,327,79282,1,0,0:0:0:0:
300,313,79416,1,8,0:0:0:0:
284,260,79483,1,8,0:0:0:0:
224,322,79550,1,8,0:0:0:0:
276,253,79617,1,0,0:0:0:0:
300,313,79684,1,8,0:0:0:0:
224,321,79817,1,0,0:0:0:0:
300,313,79951,1,8,0:0:0:0:
329,185,80018,1,0,0:0:0:0:
311,182,80085,1,0,0:0:0:0:
281,245,80152,1,0,0:0:0:0:
320,311,80219,1,8,0:0:0:0:
224,321,80353,1,0,0:0:0:0:
320,311,80487,1,8,0:0:0:0:
270,177,80554,1,8,0:0:0:0:
224,321,80621,1,0,0:0:0:0:
274,202,80688,1,0,0:0:0:0:
320,311,80755,1,8,0:0:0:0:
312,165,80822,1,0,0:0:0:0:
311,293,80889,1,8,0:0:0:0:
320,311,81023,1,0,0:0:0:0:
250,288,81157,1,0,0:0:0:0:
319,311,81291,1,8,0:0:0:0:
279,301,81425,1,0,0:0:0:0:
319,310,81558,1,8,0:0:0:0:
450,279,81692,1,0,0:0:0:0:
319,310,81826,1,12,0:0:0:0:
199,195,81960,1,0,0:0:0:0:
319,310,82094,1,8,0:0:0:0:
247,182,82161,1,8,0:0:0:0:
290,251,82228,1,0,0:0:0:0:
277,248,82295,1,0,0:0:0:0:
319,310,82362,1,8,0:0:0:0:
290,251,82496,1,0,0:0:0:0:
229,213,82630,1,8,0:0:0:0:
269,220,82697,1,8,0:0:0:0:
274,220,82764,1,8,0:0:0:0:
278,215,82831,1,0,0:0:0:0:
285,210,82898,1,8,0:0:0:0:
282,213,82965,1,8,0:0:0:0:
278,215,83032,1,0,0:0:0:0:
340,308,83166,1,8,0:0:0:0:
216,209,83300,1,0,0:0:0:0:
216,209,83367,1,0,0:0:0:0:
340,308,83433,1,8,0:0:0:0:
277,243,83500,1,8,0:0:0:0:
248,212,83567,1,0,0:0:0:0:
340,308,83701,1,8,0:0:0:0:
242,213,83768,1,8,0:0:0:0:
236,208,83835,1,0,0:0:0:0:
236,205,83902,1,8,0:0:0:0:
340,308,83969,1,0,0:0:0:0:
257,212,84103,1,8,0:0:0:0:
339,313,84237,1,0,0:0:0:0:
244,275,84304,1,0,0:0:0:0:
244,275,84371,1,0,0:0:0:0:
274,238,84438,1,0,0:0:0:0:
288,274,84505,1,8,0:0:0:0:
288,274,84639,1,0,0:0:0:0:
338,313,84773,1,8,0:0:0:0:
283,266,84840,1,8,0:0:0:0:
287,272,84907,1,0,0:0:0:0:
270,292,84974,1,0,0:0:0:0:
339,308,85041,1,8,0:0:0:0:
272,271,85108,1,8,0:0:0:0:
281,259,85175,1,0,0:0:0:0:
338,308,85308,1,12,0:0:0:0:
407,265,85442,1,0,0:0:0:0:
338,308,85576,1,0,0:0:0:0:
305,196,85710,1,0,0:0:0:0:
346,297,85844,1,12,0:0:0:0:
407,264,85978,1,0,0:0:0:0:
349,222,86112,1,8,0:0:0:0:
304,219,86246,1,0,0:0:0:0:
339,305,86380,1,8,0:0:0:0:
384,260,86447,1,8,0:0:0:0:
237,232,86515,1,0,0:0:0:0:
254,229,86583,1,0,0:0:0:0:
339,305,86650,1,8,0:0:0:0:
395,261,86718,1,0,0:0:0:0:
328,193,86786,1,0,0:0:0:0:
328,204,86921,1,8,0:0:0:0:
395,261,86989,1,8,0:0:0:0:
386,254,87057,1,8,0:0:0:0:
390,269,87124,1,0,0:0:0:0:
351,295,87192,1,8,0:0:0:0:
286,237,87260,1,8,0:0:0:0:
290,239,87328,1,0,0:0:0:0:
304,279,87463,1,0,0:0:0:0:
397,201,87531,1,8,0:0:0:0:
416,223,87598,1,0,0:0:0:0:
403,229,87666,1,0,0:0:0:0:
337,204,87734,1,8,0:0:0:0:
300,202,87869,1,0,0:0:0:0:
351,295,88005,1,8,0:0:0:0:
276,222,88073,1,8,0:0:0:0:
350,143,88140,1,0,0:0:0:0:
253,204,88208,1,0,0:0:0:0:
247,203,88276,1,8,0:0:0:0:
352,300,88411,1,8,0:0:0:0:
371,294,88547,1,0,0:0:0:0:
334,230,88614,1,0,0:0:0:0:
281,218,88682,1,8,0:0:0:0:
317,156,88750,1,8,0:0:0:0:
295,213,88817,1,0,0:0:0:0:
330,255,88953,1,0,0:0:0:0:
342,301,89088,1,8,0:0:0:0:
330,255,89156,1,8,0:0:0:0:
342,301,89224,1,8,0:0:0:0:
330,255,89291,1,8,0:0:0:0:
302,139,89359,1,0,0:0:0:0:
301,222,89427,1,0,0:0:0:0:
342,301,89495,1,8,0:0:0:0:
342,301,89630,1,0,0:0:0:0:
342,301,89766,1,0,0:0:0:0:
361,288,89901,1,8,0:0:0:0:
342,301,90036,1,0,0:0:0:0:
342,301,90172,1,8,0:0:0:0:
342,301,90307,1,8,0:0:0:0:
350,303,90443,1,0,0:0:0:0:
293,205,90578,1,8,0:0:0:0:
375,294,90714,1,0,0:0:0:0:
293,248,90781,1,0,0:0:0:0:
375,294,90849,1,8,0:0:0:0:
285,266,90917,1,0,0:0:0:0:
375,294,90984,1,8,0:0:0:0:
369,194,91052,1,8,0:0:0:0:
311,273,91120,1,0,0:0:0:0:
311,273,91255,1,8,0:0:0:0:
300,266,91323,1,0,0:0:0:0:
299,263,91391,1,8,0:0:0:0:
293,261,91459,1,8,0:0:0:0:
292,263,91526,1,0,0:0:0:0:
300,199,91594,1,0,0:0:0:0:
375,294,91662,1,8,0:0:0:0:
316,277,91797,1,0,0:0:0:0:
306,278,91865,1,0,0:0:0:0:
316,277,91933,1,0,0:0:0:0:
299,304,92000,1,0,0:0:0:0:
375,294,92068,1,8,0:0:0:0:
420,282,92203,1,0,0:0:0:0:
420,282,92339,1,8,0:0:0:0:
324,265,92407,1,8,0:0:0:0:
420,282,92474,1,0,0:0:0:0:
226,197,92542,1,8,0:0:0:0:
420,282,92610,1,0,0:0:0:0:
245,269,92745,1,0,0:0:0:0:
263,357,92881,1,8,0:0:0:0:
298,248,92948,1,8,0:0:0:0:
289,323,93016,1,0,0:0:0:0:
298,248,93084,1,0,0:0:0:0:
316,229,93152,1,8,0:0:0:0:
315,234,93219,1,0,0:0:0:0:
289,323,93287,1,0,0:0:0:0:
307,231,93355,1,0,0:0:0:0:
306,323,93422,1,8,0:0:0:0:
321,242,93490,1,8,0:0:0:0:
306,323,93558,1,0,0:0:0:0:
323,233,93626,1,0,0:0:0:0:
302,330,93693,1,8,0:0:0:0:
302,330,93761,1,8,0:0:0:0:
301,329,93829,1,0,0:0:0:0:
302,330,93964,1,8,0:0:0:0:
196,235,94054,1,8,0:0:0:0:
185,256,94145,1,8,0:0:0:0:
323,209,94235,1,8,0:0:0:0:
307,211,94325,1,8,0:0:0:0:
315,209,94416,1,8,0:0:0:0:
299,244,94506,1,0,0:0:0:0:
211,260,94596,1,0,0:0:0:0:
217,254,94686,1,0,0:0:0:0:
321,223,94777,1,0,0:0:0:0:
208,254,94867,1,0,0:0:0:0:
204,254,94957,1,0,0:0:0:0:
257,227,95048,1,12,0:0:0:0:
242,279,95185,1,0,0:0:0:0:
255,268,95254,1,0,0:0:0:0:
266,212,95323,1,8,0:0:0:0:
243,201,95461,1,8,0:0:0:0:
255,199,95599,1,0,0:0:0:0:
255,199,95736,1,0,0:0:0:0:
256,200,95874,1,8,0:0:0:0:
249,179,95943,1,0,0:0:0:0:
260,172,96012,1,8,0:0:0:0:
403,237,96150,1,0,0:0:0:0:
331,190,96219,1,0,0:0:0:0:
403,237,96287,1,8,0:0:0:0:
354,253,96356,1,8,0:0:0:0:
266,227,96425,1,8,0:0:0:0:
285,233,96563,1,8,0:0:0:0:
281,247,96701,1,0,0:0:0:0:
281,247,96839,1,0,0:0:0:0:
278,224,96976,1,8,0:0:0:0:
274,210,97045,1,8,0:0:0:0:
285,199,97114,1,0,0:0:0:0:
275,216,97183,1,8,0:0:0:0:
449,262,97252,1,0,0:0:0:0:
406,290,97390,1,0,0:0:0:0:
310,192,97527,1,8,0:0:0:0:
310,192,97596,1,8,0:0:0:0:
310,192,97665,1,0,0:0:0:0:
360,295,97734,1,0,0:0:0:0:
299,193,97803,1,8,0:0:0:0:
299,193,97941,1,8,0:0:0:0:
301,217,98078,1,0,0:0:0:0:
290,211,98216,1,8,0:0:0:0:
288,202,98354,1,0,0:0:0:0:
285,203,98423,1,8,0:0:0:0:
288,202,98492,1,8,0:0:0:0:
368,283,98561,1,8,0:0:0:0:
285,203,98630,1,0,0:0:0:0:
281,203,98767,1,8,0:0:0:0:
279,170,98836,1,0,0:0:0:0:
313,219,98905,1,8,0:0:0:0:
287,182,98974,1,8,0:0:0:0:
282,184,99043,1,0,0:0:0:0:
287,182,99181,1,8,0:0:0:0:
282,184,99250,1,8,0:0:0:0:
296,238,99318,1,8,0:0:0:0:
288,239,99456,1,12,0:0:0:0:
242,279,99594,1,0,0:0:0:0:
255,268,99663,1,0,0:0:0:0:
266,212,99732,1,8,0:0:0:0:
243,201,99870,1,8,0:0:0:0:
255,199,100007,1,0,0:0:0:0:
255,199,100145,1,0,0:0:0:0:
256,200,100283,1,8,0:0:0:0:
249,179,100352,1,0,0:0:0:0:
260,172,100421,1,8,0:0:0:0:
403,237,100558,1,0,0:0:0:0:
331,190,100627,1,0,0:0:0:0:
403,237,100696,1,8,0:0:0:0:
354,253,100765,1,0,0:0:0:0:
266,227,100834,1,8,0:0:0:0:
285,233,100972,1,8,0:0:0:0:
281,247,101109,1,0,0:0:0:0:
281,247,101247,1,0,0:0:0:0:
278,224,101385,1,8,0:0:0:0:
274,210,101454,1,8,0:0:0:0:
285,199,101523,1,0,0:0:0:0:
275,216,101592,1,0,0:0:0:0:
449,262,101661,1,0,0:0:0:0:
406,290,101798,1,0,0:0:0:0:
310,192,101936,1,8,0:0:0:0:
310,192,102005,1,8,0:0:0:0:
310,192,102074,1,0,0:0:0:0:
360,295,102143,1,0,0:0:0:0:
299,193,102212,1,8,0:0:0:0:
299,193,102349,1,8,0:0:0:0:
301,217,102487,1,0,0:0:0:0:
290,211,102625,1,8,0:0:0:0:
288,202,102763,1,0,0:0:0:0:
285,203,102832,1,8,0:0:0:0:
288,202,102901,1,8,0:0:0:0:
368,283,102969,1,8,0:0:0:0:
285,203,103038,1,0,0:0:0:0:
281,203,103176,1,8,0:0:0:0:
279,170,103245,1,0,0:0:0:0:
313,219,103314,1,8,0:0:0:0:
287,182,103383,1,0,0:0:0:0:
282,184,103452,1,0,0:0:0:0:
287,182,103589,1,8,0:0:0:0:
282,184,103658,1,8,0:0:0:0:
296,238,103727,1,0,0:0:0:0:
288,239,103865,1,8,0:0:0:0:
288,239,103959,1,8,0:0:0:0:
288,239,104054,1,0,0:0:0:0:
288,239,104148,1,0,0:0:0:0:
288,239,104243,1,0,0:0:0:0:
288,239,104337,1,0,0:0:0:0:
288,239,104432,1,8,0:0:0:0:
290,162,104526,1,8,0:0:0:0:
274,158,104621,1,8,0:0:0:0:
266,147,104716,1,8,0:0:0:0:
266,179,104810,1,0,0:0:0:0:
259,172,104905,1,0,0:0:0:0:
251,223,104999,1,8,0:0:0:0:
249,231,105094,1,0,0:0:0:0:
245,221,105188,1,0,0:0:0:0:
237,227,105283,1,8,0:0:0:0:
338,217,105378,1,0,0:0:0:0:
253,224,105472,1,0,0:0:0:0:
249,226,105567,1,8,0:0:0:0:
260,227,105661,1,8,0:0:0:0:
340,219,105756,1,0,0:0:0:0:
340,219,105850,1,8,0:0:0:0:
264,227,105945,1,0,0:0:0:0:
260,227,106039,1,0,0:0:0:0:
340,217,106134,1,8,0:0:0:0:
309,248,106229,1,8,0:0:0:0:
319,252,106324,1,8,0:0:0:0:
309,248,106419,1,0,0:0:0:0:
306,248,106514,1,0,0:0:0:0:
310,239,106610,1,0,0:0:0:0:
280,234,106705,1,8,0:0:0:0:
317,246,106800,1,0,0:0:0:0:
291,232,106895,1,0,0:0:0:0:
271,229,106991,1,8,0:0:0:0:
302,245,107086,1,8,0:0:0:0:
315,246,107181,1,0,0:0:0:0:
284,236,107276,1,8,0:0:0:0:
256,192,107467,12,0,108229,0:0:0:0:
288,279,108419,5,8,0:0:0:0:
248,173,108514,1,8,0:0:0:0:
231,185,108609,1,0,0:0:0:0:
217,214,108705,1,0,0:0:0:0:
244,243,108800,1,0,0:0:0:0:
236,241,108896,1,0,0:0:0:0:
229,244,108991,1,8,0:0:0:0:
221,241,109087,1,8,0:0:0:0:
223,237,109182,1,8,0:0:0:0:
214,237,109278,1,8,0:0:0:0:
229,235,109373,1,0,0:0:0:0:
227,238,109469,1,0,0:0:0:0:
271,257,109564,1,8,0:0:0:0:
265,251,109660,1,8,0:0:0:0:
260,253,109755,1,0,0:0:0:0:
256,249,109850,1,8,0:0:0:0:
257,249,109946,1,0,0:0:0:0:
258,254,110041,1,0,0:0:0:0:
260,258,110137,1,8,0:0:0:0:
253,257,110232,1,8,0:0:0:0:
258,259,110328,1,8,0:0:0:0:
253,257,110423,1,0,0:0:0:0:
274,257,110519,1,0,0:0:0:0:
253,247,110614,1,0,0:0:0:0:
241,249,110710,1,8,0:0:0:0:
243,245,110805,1,8,0:0:0:0:
241,249,110901,1,0,0:0:0:0:
251,256,110996,1,8,0:0:0:0:
244,243,111092,1,8,0:0:0:0:
251,256,111187,1,0,0:0:0:0:
259,253,111282,1,8,0:0:0:0:
259,243,111378,1,8,0:0:0:0:
231,257,111473,1,8,0:0:0:0:
241,239,111569,1,0,0:0:0:0:
221,224,111664,1,0,0:0:0:0:
241,239,111760,1,0,0:0:0:0:
305,240,111855,1,8,0:0:0:0:
220,237,111948,1,8,0:0:0:0:
295,247,112041,1,8,0:0:0:0:
288,246,112135,1,8,0:0:0:0:
285,243,112228,1,8,0:0:0:0:
288,246,112322,1,8,0:0:0:0:
273,242,112415,1,0,0:0:0:0:
268,240,112509,1,0,0:0:0:0:
278,243,112602,1,0,0:0:0:0:
268,240,112696,1,0,0:0:0:0:
267,239,112789,1,0,0:0:0:0:
268,240,112883,1,0,0:0:0:0:
267,239,112976,1,12,0:0:0:0:
242,279,113113,1,0,0:0:0:0:
255,268,113182,1,0,0:0:0:0:
266,212,113250,1,8,0:0:0:0:
243,201,113388,1,8,0:0:0:0:
255,199,113525,1,0,0:0:0:0:
255,199,113663,1,0,0:0:0:0:
256,200,113800,1,8,0:0:0:0:
249,179,113869,1,0,0:0:0:0:
260,172,113938,1,8,0:0:0:0:
403,237,114075,1,0,0:0:0:0:
331,190,114144,1,0,0:0:0:0:
403,237,114213,1,8,0:0:0:0:
354,253,114281,1,0,0:0:0:0:
266,227,114350,1,8,0:0:0:0:
285,233,114488,1,8,0:0:0:0:
281,247,114625,1,0,0:0:0:0:
281,247,114762,1,0,0:0:0:0:
278,224,114900,1,8,0:0:0:0:
274,210,114969,1,0,0:0:0:0:
285,199,115037,1,8,0:0:0:0:
275,216,115106,1,8,0:0:0:0:
449,262,115175,1,0,0:0:0:0:
406,290,115312,1,0,0:0:0:0:
310,192,115450,1,8,0:0:0:0:
310,192,115518,1,8,0:0:0:0:
310,192,115587,1,0,0:0:0:0:
360,295,115656,1,0,0:0:0:0:
299,193,115725,1,8,0:0:0:0:
299,193,115862,1,8,0:0:0:0:
301,217,116000,1,0,0:0:0:0:
290,211,116137,1,8,0:0:0:0:
288,202,116274,1,0,0:0:0:0:
285,203,116343,1,0,0:0:0:0:
288,202,116412,1,8,0:0:0:0:
368,283,116481,1,8,0:0:0:0:
285,203,116549,1,0,0:0:0:0:
281,203,116687,1,8,0:0:0:0:
279,170,116756,1,0,0:0:0:0:
313,219,116824,1,8,0:0:0:0:
287,182,116893,1,0,0:0:0:0:
282,184,116962,1,0,0:0:0:0:
287,182,117099,1,8,0:0:0:0:
282,184,117168,1,8,0:0:0:0:
296,238,117237,1,0,0:0:0:0:
288,239,117374,1,12,0:0:0:0:
242,279,117512,1,0,0:0:0:0:
255,268,117581,1,0,0:0:0:0:
266,212,117650,1,8,0:0:0:0:
243,201,117788,1,8,0:0:0:0:
255,199,117926,1,0,0:0:0:0:
255,199,118064,1,0,0:0:0:0:
256,200,118202,1,8,0:0:0:0:
249,179,118271,1,0,0:0:0:0:
260,172,118340,1,8,0:0:0:0:
403,237,118478,1,0,0:0:0:0:
331,190,118547,1,0,0:0:0:0:
403,237,118616,1,8,0:0:0:0:
354,253,118685,1,0,0:0:0:0:
266,227,118754,1,8,0:0:0:0:
285,233,118892,1,8,0:0:0:0:
281,247,119031,1,0,0:0:0:0:
281,247,119169,1,0,0:0:0:0:
278,224,119307,1,8,0:0:0:0:
274,210,119376,1,8,0:0:0:0:
285,199,119445,1,0,0:0:0:0:
275,216,119514,1,8,0:0:0:0:
449,262,119583,1,0,0:0:0:0:
406,290,119721,1,0,0:0:0:0:
310,192,119859,1,8,0:0:0:0:
310,192,119928,1,8,0:0:0:0:
310,192,119997,1,0,0:0:0:0:
360,295,120066,1,0,0:0:0:0:
299,193,120135,1,8,0:0:0:0:
299,193,120273,1,8,0:0:0:0:
301,217,120411,1,0,0:0:0:0:
290,211,120550,1,8,0:0:0:0:
288,202,120688,1,0,0:0:0:0:
285,203,120757,1,0,0:0:0:0:
288,202,120826,1,8,0:0:0:0:
368,283,120895,1,8,0:0:0:0:
285,203,120964,1,0,0:0:0:0:
281,203,121102,1,8,0:0:0:0:
279,170,121171,1,0,0:0:0:0:
313,219,121240,1,8,0:0:0:0:
287,182,121309,1,8,0:0:0:0:
282,184,121378,1,0,0:0:0:0:
287,182,121516,1,8,0:0:0:0:
282,184,121585,1,0,0:0:0:0:
296,238,121654,1,8,0:0:0:0:
288,239,121777,1,4,0:0:0:0:
288,239,121917,1,4,0:0:0:0:
288,239,122057,1,4,0:0:0:0:
280,230,122919,1,4,0:0:0:0:
276,234,123060,1,4,0:0:0:0:
280,230,123202,1,4,0:0:0:0:
275,234,124053,1,4,0:0:0:0:
275,234,124195,1,4,0:0:0:0:
272,226,124337,1,4,0:0:0:0:
347,278,125188,1,4,0:0:0:0:
356,285,125330,1,4,0:0:0:0:
356,285,125472,1,4,0:0:0:0:
339,318,125755,1,4,0:0:0:0:
334,314,125897,1,4,0:0:0:0:
334,314,126039,1,4,0:0:0:0:
334,290,126323,1,12,0:0:0:0:
335,283,126465,1,12,0:0:0:0:
335,283,126606,1,12,0:0:0:0:
403,338,126890,1,12,0:0:0:0:
403,338,127174,1,12,0:0:0:0:
403,338,127458,1,8,0:0:0:0:
403,338,127599,1,8,0:0:0:0:
403,338,127741,1,8,0:0:0:0:
403,338,127883,1,8,0:0:0:0:
403,338,128025,1,0,0:0:0:0:
403,338,128167,1,0,0:0:0:0:
403,338,128309,1,8,0:0:0:0:
403,338,128498,1,0,0:0:0:0:
289,167,128592,1,8,0:0:0:0:
247,277,128686,1,0,0:0:0:0:
290,282,128781,1,0,0:0:0:0:
256,274,128876,1,8,0:0:0:0:
290,282,128971,1,8,0:0:0:0:
283,280,129065,1,0,0:0:0:0:
283,281,129160,1,8,0:0:0:0:
283,281,129255,1,0,0:0:0:0:
283,281,129350,1,0,0:0:0:0:
295,283,129445,1,8,0:0:0:0:
283,281,129539,1,8,0:0:0:0:
283,281,129634,1,0,0:0:0:0:
294,278,129729,1,8,0:0:0:0:
285,276,129824,1,8,0:0:0:0:
289,267,129919,1,8,0:0:0:0:
285,276,130013,1,0,0:0:0:0:
282,275,130108,1,0,0:0:0:0:
288,267,130203,1,0,0:0:0:0:
286,271,130298,1,8,0:0:0:0:
284,270,130392,1,8,0:0:0:0:
295,258,130487,1,8,0:0:0:0:
284,270,130582,1,8,0:0:0:0:
295,258,130677,1,8,0:0:0:0:
289,255,130772,1,8,0:0:0:0:
316,265,130866,1,4,0:0:0:0:
