osu file format v14

[General]
AudioFilename: audio.mp3
AudioLeadIn: 0
PreviewTime: 148400
Countdown: 0
SampleSet: Drum
StackLeniency: 0.7
Mode: 3
LetterboxInBreaks: 0
SpecialStyle: 0
WidescreenStoryboard: 1

[Editor]
Bookmarks: 16812,31531,46322,61588,76910,86100,101350,133584,155967,171048
DistanceSpacing: 1.1
BeatDivisor: 4
GridSize: 4
TimelineZoom: 2.2

[Metadata]
Title:Chop Suey!
TitleUnicode:Chop Suey!
Artist:System Of A Down
ArtistUnicode:System Of A Down
Creator:Bumpy Cone
Version:Judgement
Source:
Tags:SOAD Toxicity 2001 Alternative Progressive Heavy Nu NĂ¼ Nue Metal Rock English male vocalist vocals Serj Tankian Daron Malakian Shavo Odadjian John Dolmayan Geo_ooo Chandelure epic man 2 EM2 Herarudo HimitsuHiketsu Cyantifiction To_ofu vocal dump chord chords jack jacks chordjack chordjacks cj tech technical rice Self-Righteous Suicide
BeatmapID:4291255
BeatmapSetID:2021976

[Difficulty]
HPDrainRate:8.3
CircleSize:4
OverallDifficulty:8.3
ApproachRate:5
SliderMultiplier:1.4
SliderTickRate:1

[Events]
//Background and Video events
0,0,"chopsuey.jpg",0,0
//Break Periods
//Storyboard Layer 0 (Background)
//Storyboard Layer 1 (Fail)
//Storyboard Layer 2 (Pass)
//Storyboard Layer 3 (Foreground)
//Storyboard Layer 4 (Overlay)
//Storyboard Sound Samples
Sample,18684,0,"tom04.wav",40
Sample,20519,0,"tom04.wav",40
Sample,22365,0,"tom04.wav",40
Sample,26054,0,"tom04.wav",40
Sample,27885,0,"tom04.wav",40
Sample,29672,0,"tom04.wav",20
Sample,29908,0,"tom04.wav",23
Sample,30144,0,"tom04.wav",27
Sample,30377,0,"tom04.wav",30
Sample,30610,0,"tom04.wav",33
Sample,30844,0,"tom04.wav",37
Sample,31077,0,"tom04.wav",40
Sample,61588,0,"LR_Ride FInish.wav",40
Sample,63814,0,"LR_HiHat SClick 2.wav",50
Sample,101350,0,"LR_Ride FInish.wav",40
Sample,103566,0,"LR_HiHat SClick 2.wav",50
Sample,117428,0,"LR_HiHat SClick 2.wav",50
Sample,118820,0,"LR_HiHat SClick 2.wav",50
Sample,119295,0,"LR_HiHat SClick 2.wav",50
Sample,119775,0,"LR_HiHat SClick 2.wav",50
Sample,126255,0,"LR_HiHat SClick 2.wav",50
Sample,126734,0,"LR_HiHat SClick 2.wav",50
Sample,127212,0,"LR_HiHat SClick 2.wav",50
Sample,128149,0,"LR_HiHat SClick 2.wav",50
Sample,128618,0,"LR_HiHat SClick 2.wav",50
Sample,141013,0,"LR_Ride FInish.wav",40
Sample,142873,0,"LR_Ride FInish.wav",40
Sample,144726,0,"LR_Ride FInish.wav",40
Sample,146593,0,"LR_Ride FInish.wav",40
Sample,150291,0,"LR_Ride FInish.wav",40
Sample,154049,0,"LR_Ride FInish.wav",40
Sample,171048,0,"LR_Ride FInish.wav",40
Sample,181835,0,"LR_HiHat SClick 2.wav",50

[TimingPoints]
1660,491.803278688524,4,2,1,35,1,0
1660,-96.1538461538461,4,2,1,35,0,0
2397,476.190476190476,4,2,1,35,1,8
2397,-99.009900990099,4,2,1,35,0,8
3587,458.015267175572,4,2,1,35,1,0
3587,-103.092783505155,4,2,1,35,0,0
4274,465.116279069767,4,2,1,35,1,8
4274,-102.040816326531,4,2,1,35,0,8
5436,472.44094488189,4,2,1,35,1,0
9215,487.804878048781,4,2,1,35,1,0
9215,-97.0873786407767,4,2,1,35,0,0
9946,466.926070038911,4,2,1,35,1,8
9946,-101.010101010101,4,2,1,35,0,8
10879,540.540540540541,4,2,1,35,1,8
10879,-87.719298245614,4,2,1,35,0,8
11149,472.44094488189,4,2,1,35,1,0
13038,458.015267175573,4,2,1,35,1,0
13038,-103.092783505155,4,2,1,35,0,0
13725,451.127819548872,4,2,1,35,1,8
13725,-105.263157894737,4,2,1,35,0,8
14401,536.912751677852,4,2,1,35,1,8
14401,-87.719298245614,4,2,1,35,0,8
14936,444.444444444445,4,2,1,35,1,0
14936,-106.382978723404,4,2,1,35,0,0
15602,476.190476190476,4,2,1,35,1,8
15602,-99.009900990099,4,2,1,35,0,8
16812,447.761194029851,4,3,1,35,1,0
16812,-105.263157894737,4,3,1,35,0,0
17259,461.538461538462,4,3,1,35,1,8
17259,-102.040816326531,4,3,1,35,0,8
18182,502.092050209205,4,3,1,35,1,8
18182,-94.3396226415094,4,3,1,35,0,8
18684,444.444444444445,4,3,1,35,1,0
18684,-106.382978723404,4,3,1,35,0,0
19592,444.444444444445,4,3,1,35,1,8
19592,-106.382978723404,4,3,1,35,0,8
20036,483.870967741936,4,3,1,35,1,8
20036,-98.0392156862745,4,3,1,35,0,8
20519,458.015267175573,4,3,1,35,1,0
20519,-103.092783505155,4,3,1,35,0,0
21893,472.44094488189,4,3,1,35,1,8
22365,459.770114942529,4,3,1,35,1,0
22365,-103.092783505155,4,3,1,35,0,0
23744,472.44094488189,4,3,1,35,1,8
24216,458.015267175573,4,3,1,35,1,0
24216,-103.092783505155,4,3,1,35,0,0
25132,441.176470588235,4,3,1,35,1,8
25132,-107.52688172043,4,3,1,35,0,8
26054,447.761194029851,4,3,1,35,1,0
26054,-105.263157894737,4,3,1,35,0,0
26949,447.761194029851,4,3,1,35,1,8
26949,-105.263157894737,4,3,1,35,0,8
27885,442.804428044281,4,3,1,35,1,0
27885,-106.382978723404,4,3,1,35,0,0
29213,459.770114942529,4,3,1,35,1,8
29213,-103.092783505155,4,3,1,35,0,8
29672,472.44094488189,4,3,1,35,1,0
30144,466.926070038911,4,3,1,35,1,8
30144,-101.010101010101,4,3,1,35,0,8
31077,454.545454545455,4,3,1,35,1,8
31077,-104.166666666667,4,3,1,35,0,8
31531,461.538461538462,4,3,1,35,1,0
31531,-102.040816326531,4,3,1,35,0,0
32454,476.190476190477,4,3,1,35,1,8
32454,-99.009900990099,4,3,1,35,0,8
32930,461.538461538462,4,3,1,35,1,8
32930,-102.040816326531,4,3,1,35,0,8
33391,468.750000000001,4,3,1,35,1,0
33391,-101.010101010101,4,3,1,35,0,0
34797,454.545454545456,4,3,1,35,1,8
34797,-104.166666666667,4,3,1,35,0,8
35251,466.926070038912,4,3,1,35,1,0
35251,-101.010101010101,4,3,1,35,0,0
37584,459.77011494253,4,3,1,35,1,8
37584,-103.092783505155,4,3,1,35,0,8
38963,468.750000000001,4,3,1,35,1,0
38963,-101.010101010101,4,3,1,35,0,0
39431,461.538461538463,4,3,1,35,1,8
39431,-102.040816326531,4,3,1,35,0,8
40815,461.538461538463,4,3,1,35,1,0
40815,-102.040816326531,4,3,1,35,0,0
41738,466.926070038912,4,3,1,35,1,8
41738,-101.010101010101,4,3,1,35,0,8
42671,466.926070038912,4,3,1,35,1,0
42671,-101.010101010101,4,3,1,35,0,0
43137,451.127819548873,4,3,1,35,1,8
43137,-105.263157894737,4,3,1,35,0,8
43588,466.926070038912,4,3,1,35,1,8
43588,-101.010101010101,4,3,1,35,0,8
44054,458.015267175574,4,3,1,35,1,8
44054,-103.092783505155,4,3,1,35,0,8
44512,458.015267175574,4,3,1,35,1,0
44512,-103.092783505155,4,3,1,35,0,0
44970,452.830188679246,4,3,1,35,1,8
44970,-104.166666666667,4,3,1,35,0,8
45875,447.761194029852,4,3,1,35,1,8
45875,-105.263157894737,4,3,1,35,0,8
46322,441.176470588235,4,3,1,35,1,0
46322,-107.52688172043,4,3,1,35,0,0
46763,510.638297872342,4,3,1,35,1,8
46763,-92.5925925925926,4,3,1,35,0,8
47273,461.538461538463,4,3,1,35,1,8
47273,-102.040816326531,4,3,1,35,0,8
48196,461.538461538463,4,3,1,35,1,0
48196,-102.040816326531,4,3,1,35,0,0
49188,478.087649402392,4,3,1,35,1,8
49188,-99.009900990099,4,3,1,35,0,8
50144,478.087649402392,4,3,1,35,1,0
50144,-99.009900990099,4,3,1,35,0,0
51100,483.870967741937,4,3,1,35,1,8
51100,-98.0392156862745,4,3,1,35,0,8
51583,451.127819548874,4,3,1,35,1,8
51583,-105.263157894737,4,3,1,35,0,8
52034,451.127819548874,4,3,1,35,1,0
52034,-105.263157894737,4,3,1,35,0,0
52978,461.538461538463,4,3,1,35,1,8
52978,-102.040816326531,4,3,1,35,0,8
53901,487.804878048782,4,3,1,35,1,0
53901,-97.0873786407767,4,3,1,35,0,0
54876,480.000000000001,4,3,1,35,1,8
54876,-98.0392156862745,4,3,1,35,0,8
55356,470.588235294119,4,3,1,35,1,8
55826,487.804878048782,4,3,1,35,1,0
55826,-97.0873786407767,4,3,1,35,0,0
56313,470.588235294119,4,3,1,35,1,8
56783,491.803278688526,4,3,1,35,1,8
56783,-96.1538461538461,4,3,1,35,0,8
57274,469.667318982387,4,3,1,35,1,8
57274,-101.010101010101,4,3,1,35,0,8
57743,480.000000000001,4,3,1,35,1,0
57743,-98.0392156862745,4,3,1,35,0,0
58703,474.308300395258,4,3,1,35,1,8
59651,489.795918367348,4,3,1,35,1,0
59651,-96.1538461538461,4,3,1,35,0,0
60140,474.308300395258,4,3,1,35,1,8
60614,483.870967741937,4,3,1,35,1,8
60614,-98.0392156862745,4,3,1,35,0,8
61097,491.803278688526,4,3,1,35,1,8
61097,-96.1538461538461,4,3,1,35,0,8
61588,508.474576271188,4,2,1,35,1,0
61588,-92.5925925925926,4,2,1,35,0,0
62604,489.795918367348,4,2,1,35,1,8
62604,-96.1538461538461,4,2,1,35,0,8
63093,481.927710843375,4,2,1,35,1,8
63093,-98.0392156862745,4,2,1,35,0,8
63574,481.927710843375,4,2,1,35,1,0
63574,-98.0392156862745,4,2,1,35,0,0
64056,506.329113924051,4,2,1,35,1,8
64056,-93.4579439252336,4,2,1,35,0,8
64562,478.087649402391,4,2,1,35,1,8
64562,-99.009900990099,4,2,1,35,0,8
65040,444.444444444444,4,2,1,35,1,8
65040,-106.382978723404,4,2,1,35,0,8
65518,481.927710843375,4,2,1,35,1,0
65518,-98.0392156862745,4,2,1,35,0,0
66963,447.761194029852,4,2,1,35,1,8
66963,-105.263157894737,4,2,1,35,0,8
67445,472.440944881891,4,2,1,35,1,0
69334,481.927710843375,4,2,1,35,1,0
69334,-98.0392156862745,4,2,1,35,0,0
70297,463.320463320464,4,2,1,35,1,8
70297,-102.040816326531,4,2,1,35,0,8
70760,437.956204379563,4,2,1,35,1,8
70760,-107.52688172043,4,2,1,35,0,8
71223,483.870967741937,4,2,1,35,1,0
71223,-98.0392156862745,4,2,1,35,0,0
71706,491.803278688526,4,2,1,35,1,8
71706,-96.1538461538461,4,2,1,35,0,8
72197,483.870967741937,4,2,1,35,1,8
72197,-98.0392156862745,4,2,1,35,0,8
72680,431.654676258993,4,2,1,35,1,8
72680,-109.89010989011,4,2,1,35,0,8
73146,480.000000000001,4,2,1,35,1,0
73146,-98.0392156862745,4,2,1,35,0,0
74106,468.750000000001,4,2,1,35,1,8
74106,-101.010101010101,4,2,1,35,0,8
75043,472.440944881891,4,2,1,35,1,0
75987,461.538461538462,4,2,1,35,1,8
75987,-102.040816326531,4,2,1,35,0,8
76910,458.015267175573,4,3,1,35,1,0
76910,-103.092783505155,4,3,1,35,0,0
78742,472.44094488189,4,3,1,35,1,0
79214,459.770114942529,4,3,1,35,1,8
79214,-103.092783505155,4,3,1,35,0,8
79673,470.588235294118,4,3,1,35,1,8
80143,461.538461538462,4,3,1,35,1,8
80143,-102.040816326531,4,3,1,35,0,8
80604,472.44094488189,4,3,1,35,1,0
81548,461.538461538462,4,3,1,35,1,8
81548,-102.040816326531,4,3,1,35,0,8
82471,468.750000000001,4,3,1,35,1,0
82471,-101.010101010101,4,3,1,35,0,0
82939,451.127819548872,4,3,1,35,1,8
82939,-105.263157894737,4,3,1,35,0,8
83390,456.794822992006,4,3,1,35,1,8
83390,-103.092783505155,4,3,1,35,0,8
84303,449.438202247192,4,3,1,35,1,0
84303,-105.263157894737,4,3,1,35,0,0
86100,461.538461538462,4,3,1,35,1,0
86100,-102.040816326531,4,3,1,35,0,0
87023,480.000000000001,4,3,1,35,1,8
87023,-98.0392156862745,4,3,1,35,0,8
87983,480.000000000001,4,3,1,35,1,0
87983,-98.0392156862745,4,3,1,35,0,0
88943,476.190476190477,4,3,1,35,1,8
88943,-99.009900990099,4,3,1,35,0,8
89895,476.190476190477,4,3,1,35,1,0
89895,-99.009900990099,4,3,1,35,0,0
90847,481.927710843374,4,3,1,35,1,8
90847,-98.0392156862745,4,3,1,35,0,8
91810,481.927710843374,4,3,1,35,1,0
91810,-98.0392156862745,4,3,1,35,0,0
92754,447.761194029851,4,3,1,35,1,8
92754,-105.263157894737,4,3,1,35,0,8
93649,483.870967741936,4,3,1,35,1,0
93649,-98.0392156862745,4,3,1,35,0,0
94616,472.44094488189,4,3,1,35,1,8
95560,500.000000000001,4,3,1,35,1,0
95560,-94.3396226415094,4,3,1,35,0,0
96060,472.44094488189,4,3,1,35,1,8
96532,487.804878048781,4,3,1,35,1,8
96532,-97.0873786407767,4,3,1,35,0,8
97019,480.000000000001,4,3,1,35,1,8
97019,-98.0392156862745,4,3,1,35,0,8
97499,480.000000000001,4,3,1,35,1,0
97499,-98.0392156862745,4,3,1,35,0,0
97979,468.75,4,3,1,35,1,8
97979,-101.010101010101,4,3,1,35,0,8
98447,474.308300395257,4,3,1,35,1,8
98921,487.804878048782,4,3,1,35,1,8
98921,-97.0873786407767,4,3,1,35,0,8
99408,487.804878048782,4,3,1,35,1,0
99408,-97.0873786407767,4,3,1,35,0,0
99881,465.116279069767,4,3,1,35,1,8
99881,-102.040816326531,4,3,1,35,0,8
100346,502.092050209205,4,3,1,35,1,8
100346,-94.3396226415094,4,3,1,35,0,8
101350,506.32911392405,4,2,1,35,1,0
101350,-93.4579439252336,4,2,1,35,0,0
102362,480,4,2,1,35,1,8
102362,-98.0392156862745,4,2,1,35,0,8
102842,468.75,4,2,1,35,1,8
102842,-101.010101010101,4,2,1,35,0,8
103322,489.795918367347,4,2,1,35,1,0
103322,-96.1538461538461,4,2,1,35,0,0
104791,478.08764940239,4,2,1,35,1,8
104791,-99.009900990099,4,2,1,35,0,8
105269,478.08764940239,4,2,1,35,1,0
105269,-99.009900990099,4,2,1,35,0,0
106703,441.176470588235,4,2,1,35,1,8
106703,-107.52688172043,4,2,1,35,0,8
107169,483.870967741935,4,2,1,35,1,0
107169,-98.0392156862745,4,2,1,35,0,0
108620,468.75,4,2,1,35,1,8
108620,-101.010101010101,4,2,1,35,0,8
109088,485.82995951417,4,2,1,35,1,0
109088,-97.0873786407767,4,2,1,35,0,0
110545,431.654676258993,4,2,1,35,1,8
110545,-109.89010989011,4,2,1,35,0,8
111003,487.80487804878,4,2,1,35,1,0
111003,-97.0873786407767,4,2,1,35,0,0
112466,431.654676258993,4,2,1,35,1,8
112466,-109.89010989011,4,2,1,35,0,8
112918,483.870967741935,4,2,1,35,1,0
112918,-98.0392156862745,4,2,1,35,0,0
113885,466.92607003891,4,2,1,35,1,8
113885,-101.010101010101,4,2,1,35,0,8
114351,434.782608695652,4,2,1,35,1,8
114351,-108.695652173913,4,2,1,35,0,8
114818,487.80487804878,4,2,1,35,1,0
114818,-97.0873786407767,4,2,1,35,0,0
115793,465.116279069767,4,2,1,35,1,8
115793,-102.040816326531,4,2,1,35,0,8
116723,470.588235294117,4,2,1,35,1,0
118134,431.654676258993,4,2,1,35,1,8
118134,-109.89010989011,4,2,1,35,0,8
118585,470.588235294117,4,2,1,35,1,0
119055,479.999999999999,4,2,1,35,1,8
119055,-98.0392156862745,4,2,1,35,0,8
120015,451.127819548872,4,2,1,35,1,8
120015,-105.263157894737,4,2,1,35,0,8
120466,458.015267175572,4,2,1,35,1,0
120466,-103.092783505155,4,2,1,35,0,0
121840,441.176470588235,4,2,1,35,1,8
121840,-107.52688172043,4,2,1,35,0,8
122281,468.749999999999,4,2,1,35,1,0
122281,-101.010101010101,4,2,1,35,0,0
122749,487.80487804878,4,2,1,35,1,8
122749,-97.0873786407767,4,2,1,35,0,8
123236,466.92607003891,4,2,1,35,1,8
123236,-101.010101010101,4,2,1,35,0,8
124169,476.190476190476,4,2,1,35,1,0
124169,-99.009900990099,4,2,1,35,0,0
125121,449.438202247191,4,2,1,35,1,8
125121,-105.263157894737,4,2,1,35,0,8
126019,472.440944881889,4,2,1,35,1,0
126491,487.80487804878,4,2,1,35,1,8
126491,-97.0873786407767,4,2,1,35,0,8
126978,468.749999999999,4,2,1,35,1,8
126978,-101.010101010101,4,2,1,35,0,8
127915,468.749999999999,4,2,1,35,1,0
127915,-101.010101010101,4,2,1,35,0,0
128852,444.444444444444,4,2,1,35,1,8
128852,-106.382978723404,4,2,1,35,0,8
129740,508.474576271186,4,2,1,35,1,0
129740,-92.5925925925926,4,2,1,35,0,0
130756,487.80487804878,4,2,1,35,1,8
130756,-97.0873786407767,4,2,1,35,0,8
131731,463.320463320463,4,2,1,35,1,0
131731,-102.040816326531,4,2,1,35,0,0
133584,-102.040816326531,4,3,1,35,0,0
134510,468.75,4,3,1,35,1,8
134510,-101.010101010101,4,3,1,35,0,8
135447,449.438202247191,4,3,1,35,1,0
135447,-105.263157894737,4,3,1,35,0,0
136345,468.75,4,3,1,35,1,8
136345,-101.010101010101,4,3,1,35,0,8
137282,468.75,4,3,1,35,1,0
137282,-101.010101010101,4,3,1,35,0,0
139146,468.75,4,3,1,35,1,0
139146,-101.010101010101,4,3,1,35,0,0
140552,461.538461538461,4,3,1,35,1,8
140552,-102.040816326531,4,3,1,35,0,8
141013,465.116279069767,4,3,1,35,1,1
141013,-102.040816326531,4,3,1,35,0,1
142873,463.320463320463,4,3,1,35,1,1
142873,-102.040816326531,4,3,1,35,0,1
143336,447.76119402985,4,3,1,35,1,9
143336,-105.263157894737,4,3,1,35,0,9
143783,480,4,3,1,35,1,9
143783,-98.0392156862745,4,3,1,35,0,9
144262,463.320463320463,4,3,1,35,1,9
144262,-102.040816326531,4,3,1,35,0,9
144726,476.190476190476,4,3,1,35,1,1
144726,-99.009900990099,4,3,1,35,0,1
145202,457.142857142857,4,3,1,35,1,9
145202,-103.092783505155,4,3,1,35,0,9
145659,466.92607003891,4,3,1,35,1,9
145659,-101.010101010101,4,3,1,35,0,9
146593,472.440944881889,4,3,1,35,1,1
147065,450.281425891182,4,3,1,35,1,9
147065,-105.263157894737,4,3,1,35,0,9
147516,465.116279069767,4,3,1,35,1,9
147516,-102.040816326531,4,3,1,35,0,9
147981,458.015267175573,4,3,1,35,1,9
147981,-103.092783505155,4,3,1,35,0,9
148439,468.749999999999,4,3,1,35,1,0
148439,-101.010101010101,4,3,1,35,0,0
148907,461.538461538461,4,3,1,35,1,8
148907,-102.040816326531,4,3,1,35,0,8
149368,472.440944881889,4,3,1,35,1,8
149840,451.127819548872,4,3,1,35,1,8
149840,-105.263157894737,4,3,1,35,0,8
150291,481.927710843373,4,3,1,35,1,0
150291,-98.0392156862745,4,3,1,35,0,0
150772,468.749999999999,4,3,1,35,1,8
150772,-101.010101010101,4,3,1,35,0,8
151709,458.015267175572,4,3,1,35,1,8
151709,-103.092783505155,4,3,1,35,0,8
152167,491.803278688524,4,3,1,35,1,0
152167,-96.1538461538461,4,3,1,35,0,0
152658,463.678516228748,4,3,1,35,1,8
152658,-102.040816326531,4,3,1,35,0,8
154049,491.803278688524,4,3,1,35,1,0
154049,-96.1538461538461,4,3,1,35,0,0
154540,458.015267175572,4,3,1,35,1,8
154540,-103.092783505155,4,3,1,35,0,8
154998,489.795918367346,4,3,1,35,1,8
154998,-96.1538461538461,4,3,1,35,0,8
155487,458.015267175574,4,3,1,35,1,8
155487,-103.092783505155,4,3,1,35,0,8
155967,480.000000000001,4,2,1,35,1,0
155967,-98.0392156862745,4,2,1,35,0,0
157407,461.538461538463,4,2,1,35,1,8
157407,-102.040816326531,4,2,1,35,0,8
157868,474.308300395258,4,2,1,35,1,0
158342,487.804878048782,4,2,1,35,1,8
158342,-97.0873786407767,4,2,1,35,0,8
158829,468.384074941452,4,2,1,35,1,8
158829,-101.010101010101,4,2,1,35,0,8
159765,478.087649402392,4,2,1,35,1,0
159765,-99.009900990099,4,2,1,35,0,0
161677,470.588235294119,4,2,1,35,1,0
164971,461.538461538463,4,2,1,35,1,8
164971,-102.040816326531,4,2,1,35,0,8
165432,472.44094488189,4,2,1,35,1,0
166376,468.75,4,2,1,35,1,8
166376,-101.010101010101,4,2,1,35,0,8
167313,478.087649402392,4,2,1,35,1,0
167313,-99.009900990099,4,2,1,35,0,0
168269,463.320463320464,4,2,1,35,1,8
168269,-102.040816326531,4,2,1,35,0,8
169195,463.320463320464,4,2,1,35,1,0
169195,-102.040816326531,4,2,1,35,0,0
171048,480,4,2,1,35,1,0
171048,-98.0392156862745,4,2,1,35,0,0
171528,461.538461538462,4,2,1,35,1,8
171528,-102.040816326531,4,2,1,35,0,8
171989,470.588235294118,4,2,1,35,1,8
172459,425.531914893618,4,2,1,35,1,8
172459,-111.111111111111,4,2,1,35,0,8
172896,461.538461538462,4,2,1,35,1,0
172896,-102.040816326531,4,2,1,35,0,0
173819,468.750000000001,4,2,1,35,1,8
173819,-101.010101010101,4,2,1,35,0,8
174742,466.926070038911,4,2,1,35,1,0
174742,-101.010101010101,4,2,1,35,0,0
176142,422.535211267606,4,2,1,35,1,8
176142,-112.359550561798,4,2,1,35,0,8
176564,454.545454545456,4,2,1,35,1,0
176564,-104.166666666667,4,2,1,35,0,0
177927,487.804878048782,4,2,1,35,1,8
177927,-97.0873786407767,4,2,1,35,0,8
178414,458.015267175574,4,2,1,35,1,0
178414,-103.092783505155,4,2,1,35,0,0
179330,447.761194029852,4,2,1,35,1,8
179330,-105.263157894737,4,2,1,35,0,8
179777,441.176470588237,4,2,1,35,1,8
179777,-107.52688172043,4,2,1,35,0,8
180225,452.830188679246,4,2,1,35,1,0
180225,-104.166666666667,4,2,1,35,0,0
180677,463.320463320464,4,2,1,35,1,8
180677,-102.040816326531,4,2,1,35,0,8
182066,459.77011494253,4,2,1,35,1,0
182066,-103.092783505155,4,2,1,35,0,0
182985,444.444444444444,4,2,1,35,1,8
182985,-106.382978723404,4,2,1,35,0,8
183445,436.363636363637,4,2,1,35,1,8
183445,-108.695652173913,4,2,1,35,0,8
183881,449.438202247192,4,2,1,35,1,0
183881,-105.263157894737,4,2,1,35,0,0
185678,458.015267175574,4,2,1,35,1,0
185678,-103.092783505155,4,2,1,35,0,0
187510,449.438202247192,4,2,1,35,1,0
187510,-105.263157894737,4,2,1,35,0,0
188858,470.588235294119,4,2,1,35,1,8
189328,454.545454545456,4,2,1,35,1,0
189328,-104.166666666667,4,2,1,35,0,0
190691,458.015267175573,4,2,1,35,1,8
190691,-103.092783505155,4,2,1,35,0,8
191133,452.830188679247,4,2,1,35,1,0
191133,-104.166666666667,4,2,1,35,0,0
192038,456.273764258557,4,2,1,35,1,8
192038,-103.092783505155,4,2,1,35,0,8
192950,468.75,4,2,1,35,1,0
192950,-101.010101010101,4,2,1,35,0,0
193887,452.830188679245,4,2,1,35,1,8
193887,-104.166666666667,4,2,1,35,0,8
194793,452.830188679247,4,2,1,35,1,0
194793,-104.166666666667,4,2,1,35,0,0
196604,447.761194029852,4,2,1,35,1,0
196604,-105.263157894737,4,2,1,35,0,0
197051,458.015267175574,4,2,1,35,1,8
197051,-103.092783505155,4,2,1,35,0,8
197509,431.654676258994,4,2,1,35,1,8
197509,-109.89010989011,4,2,1,35,0,8
197956,438.59649122807,4,2,1,35,1,8
197956,-107.52688172043,4,2,1,35,0,8
198394,422.535211267607,4,2,1,35,1,0
198394,-112.359550561798,4,2,1,35,0,0
199027,500.000000000002,4,2,1,35,1,8
199027,-94.3396226415094,4,2,1,35,0,8
199777,530.973451327436,4,2,1,35,1,8
199777,-89.2857142857143,4,2,1,35,0,8
200307,512.820512820515,4,2,1,35,1,0
200307,-91.743119266055,4,2,1,35,0,0

[HitObjects]
448,192,184,5,0,0:0:0:0:
448,192,676,1,0,0:0:0:0:
448,192,1168,1,0,0:0:0:0:
192,192,1660,128,0,1741:0:0:0:0:
448,192,1660,128,0,1782:0:0:0:0:
64,192,1905,1,0,0:0:0:0:
64,192,1987,128,0,2069:0:0:0:0:
448,192,2028,128,0,2151:0:0:0:0:
320,192,2233,1,0,0:0:0:0:
64,192,2274,1,0,0:0:0:0:
192,192,2315,1,0,0:0:0:0:
320,192,2397,128,0,2476:0:0:0:0:
448,192,2397,128,0,2533:0:0:0:0:
64,192,2601,1,0,0:0:0:0:
192,192,2635,1,0,0:0:0:0:
192,192,2737,128,0,2805:0:0:0:0:
448,192,2805,128,0,2873:0:0:0:0:
320,192,2873,128,0,2941:0:0:0:0:
64,192,2941,128,0,3009:0:0:0:0:
192,192,3009,128,0,3111:0:0:0:0:
448,192,3077,128,0,3213:0:0:0:0:
320,192,3111,1,0,0:0:0:0:
64,192,3170,1,0,0:0:0:0:
192,192,3281,1,0,0:0:0:0:
64,192,3349,1,0,0:0:0:0:
320,192,3444,1,0,0:0:0:0:
320,192,3587,128,0,3678:0:0:0:0:
448,192,3587,128,0,3678:0:0:0:0:
64,192,3678,1,0,0:0:0:0:
192,192,3770,128,0,3861:0:0:0:0:
448,192,3770,128,0,3861:0:0:0:0:
64,192,3861,1,0,0:0:0:0:
448,192,3930,128,0,4006:0:0:0:0:
192,192,4045,128,0,4121:0:0:0:0:
320,192,4159,1,0,0:0:0:0:
192,192,4274,128,0,4406:0:0:0:0:
448,192,4274,128,0,4351:0:0:0:0:
320,192,4460,1,0,0:0:0:0:
64,192,4506,1,0,0:0:0:0:
192,192,4606,128,0,4672:0:0:0:0:
448,192,4672,128,0,4739:0:0:0:0:
192,192,4739,128,0,4805:0:0:0:0:
320,192,4805,128,0,4872:0:0:0:0:
64,192,4872,1,0,0:0:0:0:
320,192,4971,128,0,5049:0:0:0:0:
448,192,4971,128,0,5126:0:0:0:0:
64,192,5126,1,0,0:0:0:0:
192,192,5165,1,0,0:0:0:0:
320,192,5204,1,0,0:0:0:0:
448,192,5320,1,0,0:0:0:0:
64,192,5436,128,0,5495:0:0:0:0:
192,192,5436,128,0,5554:0:0:0:0:
448,192,5495,128,0,5672:0:0:0:0:
320,192,5672,1,0,0:0:0:0:
320,192,5829,128,0,5908:0:0:0:0:
64,192,5908,1,0,0:0:0:0:
320,192,6026,1,0,0:0:0:0:
192,192,6144,128,0,6262:0:0:0:0:
448,192,6144,128,0,6262:0:0:0:0:
64,192,6184,128,0,6380:0:0:0:0:
320,192,6380,1,0,0:0:0:0:
448,192,6459,1,0,0:0:0:0:
64,192,6498,128,0,6617:0:0:0:0:
192,192,6498,128,0,6695:0:0:0:0:
448,192,6617,128,0,6695:0:0:0:0:
448,192,6735,128,0,6853:0:0:0:0:
192,192,6853,128,0,7010:0:0:0:0:
320,192,6853,128,0,6958:0:0:0:0:
64,192,6905,128,0,7063:0:0:0:0:
448,192,7063,1,0,0:0:0:0:
192,192,7115,1,0,0:0:0:0:
320,192,7207,1,0,0:0:0:0:
64,192,7325,128,0,7404:0:0:0:0:
448,192,7325,128,0,7404:0:0:0:0:
320,192,7365,128,0,7443:0:0:0:0:
192,192,7443,1,0,0:0:0:0:
64,192,7561,1,0,0:0:0:0:
448,192,7680,1,0,0:0:0:0:
320,192,7719,128,0,7798:0:0:0:0:
64,192,7798,1,0,0:0:0:0:
448,192,7916,1,0,0:0:0:0:
320,192,7955,1,0,0:0:0:0:
64,192,8034,128,0,8113:0:0:0:0:
192,192,8034,128,0,8152:0:0:0:0:
448,192,8073,128,0,8191:0:0:0:0:
320,192,8231,1,0,0:0:0:0:
192,192,8375,1,0,0:0:0:0:
320,192,8428,128,0,8506:0:0:0:0:
448,192,8506,1,0,0:0:0:0:
64,192,8546,1,0,0:0:0:0:
192,192,8585,1,0,0:0:0:0:
448,192,8624,1,0,0:0:0:0:
64,192,8743,128,0,8900:0:0:0:0:
320,192,8743,128,0,8821:0:0:0:0:
320,192,8939,1,0,0:0:0:0:
192,192,9058,1,0,0:0:0:0:
64,192,9097,1,0,0:0:0:0:
192,192,9215,128,0,9296:0:0:0:70:cymbal01_short.wav
320,192,9215,128,0,9336:0:0:0:0:
448,192,9215,128,0,9377:0:0:0:0:
64,192,9458,1,0,0:0:0:0:
64,192,9540,1,0,0:0:0:0:
320,192,9580,128,0,9702:0:0:0:0:
192,192,9662,128,0,9784:0:0:0:0:
64,192,9784,1,0,0:0:0:0:
320,192,9824,1,0,0:0:0:0:
192,192,9865,1,0,0:0:0:0:
320,192,9946,128,0,10062:0:0:0:0:
448,192,9946,128,0,10101:0:0:0:0:
64,192,10153,1,0,0:0:0:0:
320,192,10205,1,0,0:0:0:0:
192,192,10296,128,0,10412:0:0:0:0:
448,192,10374,128,0,10490:0:0:0:0:
64,192,10479,128,0,10546:0:0:0:0:
192,192,10546,128,0,10646:0:0:0:0:
320,192,10646,128,0,10724:0:0:0:0:
448,192,10646,128,0,10763:0:0:0:0:
192,192,10821,1,0,0:0:0:0:
320,192,10879,128,0,11014:0:0:0:0:
64,192,10969,128,0,11104:0:0:0:0:
320,192,11149,128,0,11267:0:0:0:0:
448,192,11149,128,0,11227:0:0:0:0:
192,192,11306,1,0,0:0:0:0:
64,192,11424,1,0,0:0:0:0:
448,192,11503,128,0,11621:0:0:0:0:
192,192,11582,128,0,11700:0:0:0:0:
64,192,11621,1,0,0:0:0:0:
320,192,11756,1,0,0:0:0:0:
192,192,11857,128,0,11936:0:0:0:0:
448,192,11857,128,0,11975:0:0:0:0:
320,192,12015,1,0,0:0:0:0:
64,192,12093,1,0,0:0:0:0:
192,192,12161,1,0,0:0:0:0:
64,192,12211,128,0,12330:0:0:0:0:
320,192,12290,128,0,12408:0:0:0:0:
192,192,12448,1,0,0:0:0:0:
320,192,12566,128,0,12633:0:0:0:0:
448,192,12566,128,0,12701:0:0:0:0:
192,192,12723,1,0,0:0:0:0:
64,192,12802,128,0,12920:0:0:0:0:
192,192,12841,128,0,12960:0:0:0:0:
448,192,12920,128,0,13038:0:0:0:0:
64,192,13038,128,0,13152:0:0:0:0:
192,192,13038,128,0,13190:0:0:0:0:
448,192,13267,1,0,0:0:0:0:
320,192,13381,128,0,13496:0:0:0:0:
448,192,13457,128,0,13572:0:0:0:0:
64,192,13496,1,0,0:0:0:0:
192,192,13610,1,0,0:0:0:0:
320,192,13725,128,0,13837:0:0:0:0:
448,192,13725,128,0,13875:0:0:0:0:
64,192,13950,1,0,0:0:0:0:
192,192,14063,128,0,14176:0:0:0:0:
64,192,14138,128,0,14251:0:0:0:0:
448,192,14176,1,0,0:0:0:0:
192,192,14251,1,0,0:0:0:0:
64,192,14345,1,0,0:0:0:0:
320,192,14401,128,0,14535:0:0:0:0:
448,192,14401,128,0,14508:0:0:0:0:
192,192,14445,128,0,14624:0:0:0:0:
64,192,14624,128,0,14714:0:0:0:0:
448,192,14714,128,0,14803:0:0:0:0:
320,192,14803,128,0,14893:0:0:0:0:
192,192,14893,128,0,15010:0:0:0:0:
64,192,14936,128,0,15158:0:0:0:0:
448,192,14936,128,0,15047:0:0:0:0:
320,192,15047,1,0,0:0:0:0:
448,192,15158,1,0,0:0:0:0:
192,192,15269,128,0,15324:0:0:0:0:
320,192,15380,128,0,15436:0:0:0:0:
448,192,15491,128,0,15602:0:0:0:0:
64,192,15602,128,0,15760:0:0:0:0:
320,192,15602,128,0,15813:0:0:0:0:
448,192,15760,128,0,15813:0:0:0:0:
64,192,15866,1,0,0:0:0:0:
320,192,15919,128,0,15998:0:0:0:0:
192,192,15998,128,0,16078:0:0:0:0:
64,192,16078,128,0,16157:0:0:0:0:
448,192,16157,128,0,16236:0:0:0:0:
192,192,16236,128,0,16316:0:0:0:0:
64,192,16316,128,0,16395:0:0:0:0:
320,192,16316,128,0,16494:0:0:0:0:
448,192,16435,128,0,16554:0:0:0:0:
64,192,16554,128,0,16649:0:0:0:0:
192,192,16554,128,0,16744:0:0:0:0:
320,192,16649,128,0,16744:0:0:0:0:
448,192,16744,128,0,16812:0:0:0:0:
64,192,16812,1,0,0:0:0:60:Kick 2.wav
320,192,16812,1,0,0:0:0:40:tom03.wav
192,192,16923,1,0,0:0:0:0:
320,192,17035,1,0,0:0:0:0:
192,192,17147,1,0,0:0:0:40:tom01.wav
448,192,17147,1,0,0:0:0:0:
64,192,17259,1,0,0:0:0:60:Kick 2.wav
448,192,17259,1,0,0:0:0:40:tom01.wav
64,192,17374,1,0,0:0:0:40:tom01.wav
192,192,17374,1,0,0:0:0:0:
64,192,17489,1,0,0:0:0:40:tom03.wav
192,192,17489,1,0,0:0:0:0:
320,192,17605,1,0,0:0:0:0:
192,192,17720,1,0,0:0:0:60:Kick 2.wav
448,192,17720,1,0,0:0:0:40:tom03.wav
64,192,17835,1,0,0:0:0:40:tom03.wav
448,192,17835,1,0,0:0:0:0:
320,192,17951,1,0,0:0:0:40:tom03.wav
64,192,18066,1,0,0:0:0:40:tom03.wav
448,192,18066,1,0,0:0:0:0:
64,192,18182,1,0,0:0:0:60:Kick 2.wav
192,192,18182,1,0,0:0:0:40:tom04.wav
448,192,18307,1,0,0:0:0:0:
320,192,18433,1,0,0:0:0:40:tom04.wav
320,192,18558,1,0,0:0:0:0:
64,192,18684,1,0,0:0:0:60:Kick 2.wav
192,192,18684,1,0,0:0:0:40:tom03.wav
448,192,18795,1,0,0:0:0:0:
320,192,18906,1,0,0:0:0:0:
64,192,19017,1,0,0:0:0:40:tom01.wav
448,192,19017,1,0,0:0:0:0:
64,192,19128,1,0,0:0:0:60:Kick 2.wav
320,192,19128,1,0,0:0:0:40:tom01.wav
192,192,19239,1,0,0:0:0:40:tom01.wav
448,192,19239,1,0,0:0:0:0:
64,192,19350,1,0,0:0:0:40:tom03.wav
448,192,19350,1,0,0:0:0:0:
320,192,19461,1,0,0:0:0:0:
64,192,19592,1,0,0:0:0:60:Kick 2.wav
192,192,19592,1,0,0:0:0:40:tom03.wav
320,192,19703,1,0,0:0:0:40:tom03.wav
448,192,19703,1,0,0:0:0:0:
64,192,19814,1,0,0:0:0:40:tom03.wav
320,192,19925,1,0,0:0:0:40:tom03.wav
192,192,20036,1,0,0:0:0:60:Kick 2.wav
320,192,20036,1,0,0:0:0:40:tom04.wav
448,192,20156,1,0,0:0:0:0:
64,192,20277,1,0,0:0:0:40:tom04.wav
192,192,20398,1,0,0:0:0:0:
320,192,20519,1,0,0:0:0:60:Kick 2.wav
448,192,20519,1,0,0:0:0:40:tom03.wav
192,192,20633,1,0,0:0:0:0:
64,192,20748,1,0,0:0:0:40:tom03.wav
320,192,20862,1,0,0:0:0:40:tom01.wav
448,192,20862,1,0,0:0:0:0:
64,192,20977,1,0,0:0:0:60:Kick 2.wav
448,192,20977,1,0,0:0:0:40:tom01.wav
64,192,21091,1,0,0:0:0:40:tom01.wav
320,192,21091,1,0,0:0:0:0:
192,192,21206,1,0,0:0:0:40:tom03.wav
448,192,21206,1,0,0:0:0:0:
320,192,21320,1,0,0:0:0:0:
192,192,21435,1,0,0:0:0:60:Kick 2.wav
448,192,21435,1,0,0:0:0:40:tom03.wav
64,192,21549,1,0,0:0:0:40:tom03.wav
192,192,21549,1,0,0:0:0:0:
320,192,21664,1,0,0:0:0:40:tom03.wav
320,192,21778,1,0,0:0:0:40:tom03.wav
192,192,21893,1,0,0:0:0:60:Kick 2.wav
448,192,21893,1,0,0:0:0:40:tom04.wav
320,192,22011,1,0,0:0:0:0:
64,192,22129,1,0,0:0:0:40:tom04.wav
448,192,22247,1,0,0:0:0:0:
192,192,22365,1,0,0:0:0:60:Kick 2.wav
320,192,22365,1,0,0:0:0:40:tom03.wav
64,192,22479,1,0,0:0:0:0:
448,192,22594,1,0,0:0:0:40:tom03.wav
448,192,22709,1,0,0:0:0:40:tom01.wav
64,192,22824,1,0,0:0:0:60:Kick 2.wav
192,192,22824,1,0,0:0:0:40:tom01.wav
64,192,22939,1,0,0:0:0:40:tom01.wav
448,192,22939,1,0,0:0:0:0:
320,192,23054,1,0,0:0:0:40:tom03.wav
448,192,23054,1,0,0:0:0:0:
192,192,23169,1,0,0:0:0:0:
64,192,23284,1,0,0:0:0:60:Kick 2.wav
448,192,23284,1,0,0:0:0:40:tom03.wav
192,192,23399,1,0,0:0:0:40:tom03.wav
448,192,23399,1,0,0:0:0:0:
320,192,23514,1,0,0:0:0:40:tom03.wav
320,192,23629,1,0,0:0:0:40:tom03.wav
64,192,23744,1,0,0:0:0:60:Kick 2.wav
192,192,23744,1,0,0:0:0:40:tom04.wav
448,192,23862,1,0,0:0:0:0:
64,192,23980,1,0,0:0:0:40:tom04.wav
320,192,24098,1,0,0:0:0:0:
64,192,24216,1,0,0:0:0:60:Kick 2.wav
448,192,24216,1,0,0:0:0:40:tom03.wav
192,192,24330,1,0,0:0:0:0:
192,192,24445,1,0,0:0:0:40:tom03.wav
320,192,24445,1,0,0:0:0:0:
320,192,24559,1,0,0:0:0:40:tom01.wav
448,192,24559,1,0,0:0:0:0:
64,192,24674,1,0,0:0:0:60:Kick 2.wav
192,192,24674,1,0,0:0:0:40:tom01.wav
64,192,24788,1,0,0:0:0:40:tom01.wav
320,192,24788,1,0,0:0:0:0:
192,192,24903,1,0,0:0:0:40:tom03.wav
448,192,24903,1,0,0:0:0:0:
64,192,25017,1,0,0:0:0:0:
192,192,25132,1,0,0:0:0:60:Kick 2.wav
320,192,25132,1,0,0:0:0:40:tom03.wav
64,192,25242,1,0,0:0:0:40:tom03.wav
320,192,25242,1,0,0:0:0:0:
192,192,25352,1,0,0:0:0:40:tom03.wav
192,192,25462,1,0,0:0:0:40:tom03.wav
320,192,25573,1,0,0:0:0:60:Kick 2.wav
448,192,25573,1,0,0:0:0:40:tom04.wav
64,192,25683,1,0,0:0:0:0:
320,192,25793,1,0,0:0:0:40:tom04.wav
192,192,25904,1,0,0:0:0:0:
64,192,26054,1,0,0:0:0:60:Kick 2.wav
448,192,26054,1,0,0:0:0:40:tom03.wav
320,192,26165,1,0,0:0:0:0:
64,192,26277,1,0,0:0:0:40:tom03.wav
192,192,26389,1,0,0:0:0:40:tom01.wav
448,192,26389,1,0,0:0:0:0:
64,192,26501,1,0,0:0:0:60:Kick 2.wav
320,192,26501,1,0,0:0:0:40:tom01.wav
64,192,26613,1,0,0:0:0:40:tom01.wav
192,192,26613,1,0,0:0:0:0:
320,192,26725,1,0,0:0:0:40:tom03.wav
448,192,26725,1,0,0:0:0:0:
192,192,26837,1,0,0:0:0:0:
64,192,26949,1,0,0:0:0:60:Kick 2.wav
320,192,26949,1,0,0:0:0:40:tom03.wav
192,192,27060,1,0,0:0:0:40:tom03.wav
320,192,27060,1,0,0:0:0:0:
448,192,27172,1,0,0:0:0:40:tom03.wav
448,192,27284,1,0,0:0:0:40:tom03.wav
64,192,27396,1,0,0:0:0:60:Kick 2.wav
320,192,27396,1,0,0:0:0:40:tom04.wav
192,192,27508,1,0,0:0:0:0:
320,192,27620,1,0,0:0:0:40:tom04.wav
64,192,27732,1,0,0:0:0:0:
192,192,27885,1,0,0:0:0:60:Kick 2.wav
448,192,27885,1,0,0:0:0:40:tom03.wav
320,192,27995,1,0,0:0:0:0:
64,192,28106,1,0,0:0:0:40:tom03.wav
192,192,28106,1,0,0:0:0:0:
64,192,28217,1,0,0:0:0:40:tom01.wav
320,192,28217,1,0,0:0:0:0:
192,192,28327,1,0,0:0:0:60:Kick 2.wav
448,192,28327,1,0,0:0:0:40:tom01.wav
320,192,28438,1,0,0:0:0:40:tom01.wav
448,192,28438,1,0,0:0:0:0:
64,192,28549,1,0,0:0:0:40:tom03.wav
192,192,28549,1,0,0:0:0:0:
320,192,28659,1,0,0:0:0:0:
64,192,28770,1,0,0:0:0:60:Kick 2.wav
192,192,28770,1,0,0:0:0:40:tom03.wav
64,192,28881,1,0,0:0:0:40:tom03.wav
192,192,28881,1,0,0:0:0:0:
320,192,28992,1,0,0:0:0:40:tom03.wav
320,192,29102,1,0,0:0:0:40:tom03.wav
192,192,29213,1,0,0:0:0:60:Kick 2.wav
448,192,29213,1,0,0:0:0:40:tom04.wav
64,192,29327,1,0,0:0:0:0:
320,192,29442,1,0,0:0:0:40:tom04.wav
192,192,29557,1,0,0:0:0:0:
320,192,29672,128,0,29711:0:0:0:30:Kick 2.wav
448,192,29672,128,0,29711:0:0:0:20:tom03.wav
192,192,29790,1,0,0:0:0:0:
320,192,29908,128,0,29967:0:0:0:35:Kick 2.wav
448,192,29908,128,0,29967:0:0:0:23:tom03.wav
192,192,30026,1,0,0:0:0:0:
320,192,30144,128,0,30221:0:0:0:40:Kick 2.wav
448,192,30144,128,0,30221:0:0:0:27:tom03.wav
192,192,30260,1,0,0:0:0:0:
320,192,30377,128,0,30494:0:0:0:45:Kick 2.wav
448,192,30377,128,0,30494:0:0:0:30:tom03.wav
192,192,30494,1,0,0:0:0:0:
320,192,30610,128,0,30766:0:0:0:50:Kick 2.wav
448,192,30610,128,0,30766:0:0:0:33:tom03.wav
192,192,30727,1,0,0:0:0:0:
320,192,30844,128,0,31019:0:0:0:55:Kick 2.wav
448,192,30844,128,0,31019:0:0:0:37:tom03.wav
192,192,30961,1,0,0:0:0:0:
320,192,31077,128,0,31266:0:0:0:60:Kick 2.wav
448,192,31077,128,0,31266:0:0:0:40:tom03.wav
192,192,31190,1,0,0:0:0:0:
64,192,31304,1,0,0:0:0:40:snare_edited1.wav
320,192,31304,128,0,31503:0:0:0:0:
448,192,31304,128,0,31503:0:0:0:0:
192,192,31417,1,0,0:0:0:0:
64,192,31531,1,0,0:0:0:60:Kick 2.wav
192,192,31531,1,0,0:0:0:50:cymbal01_short.wav
320,192,31531,1,0,0:0:0:40:LR_Ride FInish.wav
448,192,31531,1,0,0:0:0:0:
320,192,31646,1,0,0:0:0:0:
320,192,31761,1,0,0:0:0:0:
64,192,31877,1,0,0:0:0:60:Kick 2.wav
448,192,31877,1,0,0:0:0:0:
64,192,31992,1,0,0:0:0:40:snare_edited1.wav
192,192,31992,1,0,0:0:0:50:cymbal01_short.wav
448,192,31992,1,0,0:0:0:0:
320,192,32050,1,0,0:0:0:0:
192,192,32107,1,0,0:0:0:0:
64,192,32165,1,0,0:0:0:0:
448,192,32223,1,0,0:0:0:0:
64,192,32338,1,0,0:0:0:40:snare_edited1.wav
192,192,32338,1,0,0:0:0:0:
320,192,32338,1,0,0:0:0:0:
64,192,32454,1,0,0:0:0:60:Kick 2.wav
448,192,32454,1,0,0:0:0:50:cymbal01_short.wav
448,192,32573,1,0,0:0:0:0:
320,192,32692,1,0,0:0:0:0:
192,192,32811,1,0,0:0:0:60:Kick 2.wav
320,192,32811,1,0,0:0:0:0:
64,192,32930,1,0,0:0:0:40:snare_edited1.wav
192,192,32930,1,0,0:0:0:50:cymbal01_short.wav
448,192,32930,1,0,0:0:0:0:
320,192,32987,1,0,0:0:0:0:
64,192,33045,1,0,0:0:0:0:
192,192,33103,1,0,0:0:0:0:
448,192,33160,1,0,0:0:0:0:
64,192,33276,1,0,0:0:0:40:snare_edited1.wav
320,192,33276,1,0,0:0:0:0:
448,192,33276,1,0,0:0:0:0:
64,192,33391,1,0,0:0:0:60:Kick 2.wav
192,192,33391,1,0,0:0:0:50:cymbal01_short.wav
192,192,33508,1,0,0:0:0:0:
320,192,33625,1,0,0:0:0:0:
64,192,33742,1,0,0:0:0:60:Kick 2.wav
320,192,33742,1,0,0:0:0:0:
64,192,33859,1,0,0:0:0:40:snare_edited1.wav
192,192,33859,1,0,0:0:0:50:cymbal01_short.wav
448,192,33859,1,0,0:0:0:0:
320,192,33918,1,0,0:0:0:0:
192,192,33976,1,0,0:0:0:0:
64,192,34035,1,0,0:0:0:0:
448,192,34094,1,0,0:0:0:0:
192,192,34211,1,0,0:0:0:40:snare_edited1.wav
320,192,34211,1,0,0:0:0:0:
448,192,34211,1,0,0:0:0:0:
64,192,34328,1,0,0:0:0:60:Kick 2.wav
320,192,34328,1,0,0:0:0:50:cymbal01_short.wav
64,192,34445,1,0,0:0:0:0:
64,192,34562,1,0,0:0:0:60:Kick 2.wav
192,192,34562,1,0,0:0:0:0:
192,192,34680,1,0,0:0:0:0:
64,192,34797,1,0,0:0:0:40:snare_edited1.wav
320,192,34797,1,0,0:0:0:50:cymbal01_short.wav
448,192,34797,1,0,0:0:0:0:
192,192,34853,1,0,0:0:0:0:
448,192,34910,1,0,0:0:0:0:
320,192,34967,1,0,0:0:0:0:
64,192,35024,1,0,0:0:0:0:
192,192,35137,1,0,0:0:0:40:snare_edited1.wav
320,192,35137,1,0,0:0:0:0:
448,192,35137,1,0,0:0:0:0:
64,192,35251,1,0,0:0:0:60:Kick 2.wav
320,192,35251,1,0,0:0:0:50:cymbal01_short.wav
64,192,35367,1,0,0:0:0:0:
448,192,35484,1,0,0:0:0:0:
320,192,35601,1,0,0:0:0:60:Kick 2.wav
448,192,35601,1,0,0:0:0:0:
64,192,35717,1,0,0:0:0:40:snare_edited1.wav
192,192,35717,1,0,0:0:0:50:cymbal01_short.wav
320,192,35717,1,0,0:0:0:0:
448,192,35776,1,0,0:0:0:0:
192,192,35834,1,0,0:0:0:0:
64,192,35893,1,0,0:0:0:0:
448,192,35951,1,0,0:0:0:0:
64,192,36068,1,0,0:0:0:40:snare_edited1.wav
192,192,36068,1,0,0:0:0:0:
448,192,36068,1,0,0:0:0:0:
64,192,36184,1,0,0:0:0:60:Kick 2.wav
320,192,36184,1,0,0:0:0:50:cymbal01_short.wav
320,192,36301,1,0,0:0:0:0:
192,192,36418,1,0,0:0:0:0:
192,192,36535,1,0,0:0:0:60:Kick 2.wav
448,192,36535,1,0,0:0:0:0:
64,192,36651,1,0,0:0:0:40:snare_edited1.wav
320,192,36651,1,0,0:0:0:50:cymbal01_short.wav
448,192,36651,1,0,0:0:0:0:
192,192,36710,1,0,0:0:0:0:
320,192,36768,1,0,0:0:0:0:
64,192,36826,1,0,0:0:0:0:
448,192,36885,1,0,0:0:0:0:
64,192,37001,1,0,0:0:0:40:snare_edited1.wav
192,192,37001,1,0,0:0:0:0:
448,192,37001,1,0,0:0:0:0:
192,192,37118,1,0,0:0:0:60:Kick 2.wav
320,192,37118,1,0,0:0:0:50:cymbal01_short.wav
320,192,37235,1,0,0:0:0:0:
64,192,37352,1,0,0:0:0:0:
64,192,37468,1,0,0:0:0:60:Kick 2.wav
192,192,37468,1,0,0:0:0:0:
192,192,37584,1,0,0:0:0:40:snare_edited1.wav
320,192,37584,1,0,0:0:0:50:cymbal01_short.wav
448,192,37584,1,0,0:0:0:0:
64,192,37641,1,0,0:0:0:0:
320,192,37698,1,0,0:0:0:0:
448,192,37756,1,0,0:0:0:0:
192,192,37813,1,0,0:0:0:0:
64,192,37928,1,0,0:0:0:40:snare_edited1.wav
192,192,37928,1,0,0:0:0:0:
448,192,37928,1,0,0:0:0:0:
64,192,38043,1,0,0:0:0:60:Kick 2.wav
320,192,38043,1,0,0:0:0:50:cymbal01_short.wav
320,192,38158,1,0,0:0:0:0:
192,192,38273,1,0,0:0:0:60:Kick 2.wav
320,192,38273,1,0,0:0:0:0:
192,192,38388,1,0,0:0:0:0:
64,192,38503,1,0,0:0:0:40:snare_edited1.wav
320,192,38503,1,0,0:0:0:50:cymbal01_short.wav
448,192,38503,1,0,0:0:0:0:
192,192,38561,1,0,0:0:0:0:
320,192,38618,1,0,0:0:0:0:
64,192,38675,1,0,0:0:0:0:
192,192,38733,1,0,0:0:0:0:
64,192,38848,1,0,0:0:0:40:snare_edited1.wav
320,192,38848,1,0,0:0:0:0:
448,192,38848,1,0,0:0:0:0:
192,192,38963,1,0,0:0:0:60:Kick 2.wav
448,192,38963,1,0,0:0:0:50:cymbal01_short.wav
192,192,39080,1,0,0:0:0:0:
192,192,39197,1,0,0:0:0:0:
64,192,39314,1,0,0:0:0:60:Kick 2.wav
448,192,39314,1,0,0:0:0:0:
64,192,39431,1,0,0:0:0:40:snare_edited1.wav
192,192,39431,1,0,0:0:0:50:cymbal01_short.wav
448,192,39431,1,0,0:0:0:0:
320,192,39488,1,0,0:0:0:0:
192,192,39546,1,0,0:0:0:0:
320,192,39604,1,0,0:0:0:0:
448,192,39661,1,0,0:0:0:0:
192,192,39777,1,0,0:0:0:40:snare_edited1.wav
320,192,39777,1,0,0:0:0:0:
448,192,39777,1,0,0:0:0:0:
64,192,39892,1,0,0:0:0:60:Kick 2.wav
320,192,39892,1,0,0:0:0:50:cymbal01_short.wav
64,192,40007,1,0,0:0:0:0:
64,192,40123,1,0,0:0:0:0:
192,192,40238,1,0,0:0:0:60:Kick 2.wav
448,192,40238,1,0,0:0:0:0:
64,192,40354,1,0,0:0:0:40:snare_edited1.wav
320,192,40354,1,0,0:0:0:50:cymbal01_short.wav
448,192,40354,1,0,0:0:0:0:
192,192,40411,1,0,0:0:0:0:
320,192,40469,1,0,0:0:0:0:
192,192,40527,1,0,0:0:0:0:
64,192,40584,1,0,0:0:0:0:
64,192,40700,1,0,0:0:0:40:snare_edited1.wav
192,192,40700,1,0,0:0:0:0:
448,192,40700,1,0,0:0:0:0:
320,192,40815,1,0,0:0:0:60:Kick 2.wav
448,192,40815,1,0,0:0:0:50:cymbal01_short.wav
320,192,40930,1,0,0:0:0:0:
320,192,41045,1,0,0:0:0:0:
64,192,41161,1,0,0:0:0:60:Kick 2.wav
448,192,41161,1,0,0:0:0:0:
64,192,41276,1,0,0:0:0:40:snare_edited1.wav
192,192,41276,1,0,0:0:0:50:cymbal01_short.wav
448,192,41276,1,0,0:0:0:0:
320,192,41334,1,0,0:0:0:0:
192,192,41391,1,0,0:0:0:0:
64,192,41449,1,0,0:0:0:0:
320,192,41507,1,0,0:0:0:0:
64,192,41622,1,0,0:0:0:40:snare_edited1.wav
192,192,41622,1,0,0:0:0:0:
320,192,41622,1,0,0:0:0:0:
192,192,41738,1,0,0:0:0:60:Kick 2.wav
448,192,41738,1,0,0:0:0:50:cymbal01_short.wav
448,192,41854,1,0,0:0:0:0:
192,192,41971,1,0,0:0:0:60:Kick 2.wav
448,192,41971,1,0,0:0:0:0:
192,192,42088,1,0,0:0:0:0:
64,192,42204,1,0,0:0:0:40:snare_edited1.wav
320,192,42204,1,0,0:0:0:50:cymbal01_short.wav
448,192,42204,1,0,0:0:0:0:
192,192,42263,1,0,0:0:0:0:
320,192,42321,1,0,0:0:0:0:
448,192,42380,1,0,0:0:0:0:
64,192,42438,1,0,0:0:0:0:
64,192,42555,1,0,0:0:0:40:snare_edited1.wav
320,192,42555,1,0,0:0:0:0:
448,192,42555,1,0,0:0:0:0:
192,192,42671,1,0,0:0:0:60:Kick 2.wav
448,192,42671,1,0,0:0:0:50:cymbal01_short.wav
192,192,42787,1,0,0:0:0:0:
192,192,42904,1,0,0:0:0:0:
64,192,43021,1,0,0:0:0:60:Kick 2.wav
448,192,43021,1,0,0:0:0:0:
64,192,43137,1,0,0:0:0:40:snare_edited1.wav
320,192,43137,1,0,0:0:0:50:cymbal01_short.wav
448,192,43137,1,0,0:0:0:0:
192,192,43193,1,0,0:0:0:0:
320,192,43249,1,0,0:0:0:0:
64,192,43306,1,0,0:0:0:0:
448,192,43362,1,0,0:0:0:0:
192,192,43475,1,0,0:0:0:40:snare_edited1.wav
320,192,43475,1,0,0:0:0:0:
448,192,43475,1,0,0:0:0:0:
64,192,43588,1,0,0:0:0:60:Kick 2.wav
320,192,43588,1,0,0:0:0:50:cymbal01_short.wav
64,192,43704,1,0,0:0:0:0:
64,192,43821,1,0,0:0:0:0:
320,192,43938,1,0,0:0:0:60:Kick 2.wav
448,192,43938,1,0,0:0:0:0:
64,192,44054,1,0,0:0:0:40:snare_edited1.wav
192,192,44054,1,0,0:0:0:50:cymbal01_short.wav
448,192,44054,1,0,0:0:0:0:
320,192,44111,1,0,0:0:0:0:
192,192,44168,1,0,0:0:0:0:
448,192,44225,1,0,0:0:0:0:
64,192,44283,1,0,0:0:0:0:
64,192,44397,1,0,0:0:0:40:snare_edited1.wav
192,192,44397,1,0,0:0:0:0:
448,192,44397,1,0,0:0:0:0:
320,192,44512,1,0,0:0:0:60:Kick 2.wav
448,192,44512,1,0,0:0:0:50:cymbal01_short.wav
320,192,44626,1,0,0:0:0:0:
320,192,44741,1,0,0:0:0:0:
64,192,44855,1,0,0:0:0:60:Kick 2.wav
448,192,44855,1,0,0:0:0:0:
64,192,44970,1,0,0:0:0:40:snare_edited1.wav
192,192,44970,1,0,0:0:0:50:cymbal01_short.wav
448,192,44970,1,0,0:0:0:0:
320,192,45026,1,0,0:0:0:0:
192,192,45083,1,0,0:0:0:0:
448,192,45139,1,0,0:0:0:0:
320,192,45196,1,0,0:0:0:0:
64,192,45309,1,0,0:0:0:40:snare_edited1.wav
192,192,45309,1,0,0:0:0:0:
320,192,45309,1,0,0:0:0:0:
192,192,45422,1,0,0:0:0:60:Kick 2.wav
448,192,45422,1,0,0:0:0:50:cymbal01_short.wav
448,192,45536,1,0,0:0:0:0:
192,192,45649,1,0,0:0:0:60:Kick 2.wav
448,192,45649,1,0,0:0:0:0:
192,192,45762,1,0,0:0:0:0:
64,192,45875,1,0,0:0:0:40:snare_edited1.wav
320,192,45875,1,0,0:0:0:50:cymbal01_short.wav
448,192,45875,1,0,0:0:0:0:
192,192,45930,1,0,0:0:0:0:
320,192,45986,1,0,0:0:0:0:
64,192,46042,1,0,0:0:0:0:
192,192,46098,1,0,0:0:0:0:
320,192,46210,1,0,0:0:0:0:
64,192,46322,1,0,0:0:0:60:Kick 2.wav
192,192,46322,1,0,0:0:0:40:snare_edited1.wav
320,192,46322,1,0,0:0:0:40:LR_Hit Med Click.wav
448,192,46322,1,0,0:0:0:0:
64,192,46432,1,0,0:0:0:60:Kick 2.wav
192,192,46432,1,0,0:0:0:40:snare_edited1.wav
320,192,46432,1,0,0:0:0:40:LR_Hit Med Click.wav
448,192,46432,1,0,0:0:0:0:
192,192,46763,1,0,0:0:0:0:
192,192,46933,1,0,0:0:0:0:
64,192,47273,1,0,0:0:0:60:Kick 2.wav
192,192,47273,1,0,0:0:0:40:LR_Hit Med Click.wav
320,192,47273,1,0,0:0:0:0:
448,192,47273,1,0,0:0:0:0:
192,192,47388,1,0,0:0:0:40:LR_Hit Med Click.wav
448,192,47388,1,0,0:0:0:0:
64,192,47503,1,0,0:0:0:60:Kick 2.wav
192,192,47503,1,0,0:0:0:40:LR_Hit Med Click.wav
320,192,47503,1,0,0:0:0:0:
448,192,47503,1,0,0:0:0:0:
64,192,47619,1,0,0:0:0:40:LR_Hit Med Click.wav
320,192,47619,1,0,0:0:0:0:
64,192,47734,1,0,0:0:0:60:Kick 2.wav
192,192,47734,1,0,0:0:0:40:LR_Hit Med Click.wav
320,192,47734,1,0,0:0:0:0:
448,192,47734,1,0,0:0:0:0:
320,192,47849,1,0,0:0:0:40:LR_Hit Med Click.wav
448,192,47849,1,0,0:0:0:0:
64,192,47965,1,0,0:0:0:60:Kick 2.wav
192,192,47965,1,0,0:0:0:40:LR_Hit Med Click.wav
320,192,47965,1,0,0:0:0:0:
448,192,47965,1,0,0:0:0:0:
64,192,48080,1,0,0:0:0:40:LR_Hit Med Click.wav
192,192,48080,1,0,0:0:0:0:
64,192,48196,1,0,0:0:0:60:Kick 2.wav
192,192,48196,1,0,0:0:0:40:LR_Hit Med Click.wav
320,192,48196,1,0,0:0:0:0:
448,192,48196,1,0,0:0:0:0:
64,192,48311,1,0,0:0:0:60:Kick 2.wav
192,192,48311,1,0,0:0:0:40:LR_Hit Med Click.wav
320,192,48311,1,0,0:0:0:0:
448,192,48311,1,0,0:0:0:0:
64,192,49188,1,0,0:0:0:60:Kick 2.wav
192,192,49188,1,0,0:0:0:40:LR_Hit Med Click.wav
320,192,49188,1,0,0:0:0:0:
448,192,49188,1,0,0:0:0:0:
64,192,49307,1,0,0:0:0:40:LR_Hit Med Click.wav
448,192,49307,1,0,0:0:0:0:
64,192,49427,1,0,0:0:0:60:Kick 2.wav
192,192,49427,1,0,0:0:0:40:LR_Hit Med Click.wav
320,192,49427,1,0,0:0:0:0:
448,192,49427,1,0,0:0:0:0:
192,192,49546,1,0,0:0:0:40:LR_Hit Med Click.wav
320,192,49546,1,0,0:0:0:0:
64,192,49666,1,0,0:0:0:60:Kick 2.wav
192,192,49666,1,0,0:0:0:40:LR_Hit Med Click.wav
320,192,49666,1,0,0:0:0:0:
448,192,49666,1,0,0:0:0:0:
192,192,49785,1,0,0:0:0:40:LR_Hit Med Click.wav
448,192,49785,1,0,0:0:0:0:
64,192,49905,1,0,0:0:0:60:Kick 2.wav
192,192,49905,1,0,0:0:0:40:LR_Hit Med Click.wav
320,192,49905,1,0,0:0:0:0:
448,192,49905,1,0,0:0:0:0:
64,192,50024,1,0,0:0:0:40:LR_Hit Med Click.wav
320,192,50024,1,0,0:0:0:0:
64,192,50144,1,0,0:0:0:60:Kick 2.wav
192,192,50144,1,0,0:0:0:40:LR_Hit Med Click.wav
320,192,50144,1,0,0:0:0:0:
448,192,50144,1,0,0:0:0:0:
64,192,50263,1,0,0:0:0:60:Kick 2.wav
192,192,50263,1,0,0:0:0:40:LR_Hit Med Click.wav
320,192,50263,1,0,0:0:0:0:
448,192,50263,1,0,0:0:0:0:
448,192,50383,1,0,0:0:0:0:
192,192,50462,1,0,0:0:0:0:
320,192,50542,1,0,0:0:0:0:
192,192,50622,1,0,0:0:0:0:
192,192,50781,1,0,0:0:0:0:
320,192,50861,1,0,0:0:0:0:
320,192,50980,1,0,0:0:0:0:
64,192,51100,1,0,0:0:0:60:Kick 2.wav
192,192,51100,1,0,0:0:0:40:LR_Hit Med Click.wav
320,192,51100,1,0,0:0:0:0:
448,192,51100,1,0,0:0:0:0:
64,192,51220,1,0,0:0:0:40:LR_Hit Med Click.wav
192,192,51220,1,0,0:0:0:0:
64,192,51341,1,0,0:0:0:60:Kick 2.wav
192,192,51341,1,0,0:0:0:40:LR_Hit Med Click.wav
320,192,51341,1,0,0:0:0:0:
448,192,51341,1,0,0:0:0:0:
64,192,51462,1,0,0:0:0:40:LR_Hit Med Click.wav
448,192,51462,1,0,0:0:0:0:
64,192,51583,1,0,0:0:0:60:Kick 2.wav
192,192,51583,1,0,0:0:0:40:LR_Hit Med Click.wav
320,192,51583,1,0,0:0:0:0:
448,192,51583,1,0,0:0:0:0:
192,192,51695,1,0,0:0:0:40:LR_Hit Med Click.wav
448,192,51695,1,0,0:0:0:0:
64,192,51808,1,0,0:0:0:60:Kick 2.wav
192,192,51808,1,0,0:0:0:40:LR_Hit Med Click.wav
320,192,51808,1,0,0:0:0:0:
448,192,51808,1,0,0:0:0:0:
64,192,51921,1,0,0:0:0:40:LR_Hit Med Click.wav
320,192,51921,1,0,0:0:0:0:
64,192,52034,1,0,0:0:0:60:Kick 2.wav
192,192,52034,1,0,0:0:0:40:LR_Hit Med Click.wav
320,192,52034,1,0,0:0:0:0:
448,192,52034,1,0,0:0:0:0:
64,192,52146,1,0,0:0:0:60:Kick 2.wav
192,192,52146,1,0,0:0:0:40:LR_Hit Med Click.wav
320,192,52146,1,0,0:0:0:0:
448,192,52146,1,0,0:0:0:0:
64,192,52978,1,0,0:0:0:60:Kick 2.wav
192,192,52978,1,0,0:0:0:40:LR_Hit Med Click.wav
320,192,52978,1,0,0:0:0:0:
448,192,52978,1,0,0:0:0:0:
192,192,53093,1,0,0:0:0:40:LR_Hit Med Click.wav
448,192,53093,1,0,0:0:0:0:
64,192,53208,1,0,0:0:0:60:Kick 2.wav
192,192,53208,1,0,0:0:0:40:LR_Hit Med Click.wav
320,192,53208,1,0,0:0:0:0:
448,192,53208,1,0,0:0:0:0:
320,192,53324,1,0,0:0:0:40:LR_Hit Med Click.wav
448,192,53324,1,0,0:0:0:0:
64,192,53439,1,0,0:0:0:60:Kick 2.wav
192,192,53439,1,0,0:0:0:40:LR_Hit Med Click.wav
320,192,53439,1,0,0:0:0:0:
448,192,53439,1,0,0:0:0:0:
64,192,53554,1,0,0:0:0:40:LR_Hit Med Click.wav
192,192,53554,1,0,0:0:0:0:
320,192,53670,1,0,0:0:0:60:Kick 2.wav
448,192,53670,1,0,0:0:0:40:snare_edited1.wav
64,192,53785,1,0,0:0:0:40:snare_edited1.wav
192,192,53785,1,0,0:0:0:0:
64,192,53901,1,0,0:0:0:60:Kick 2.wav
192,192,53901,1,0,0:0:0:40:LR_Hit Med Click.wav
320,192,53901,1,0,0:0:0:40:LR_Ride FInish.wav
448,192,53901,1,0,0:0:0:0:
192,192,54022,1,0,0:0:0:0:
320,192,54022,1,0,0:0:0:0:
448,192,54144,1,0,0:0:0:0:
64,192,54266,1,0,0:0:0:0:
192,192,54266,1,0,0:0:0:0:
64,192,54388,1,0,0:0:0:40:snare_edited1.wav
320,192,54388,1,0,0:0:0:40:LR_Hit Med Click.wav
448,192,54388,1,0,0:0:0:0:
64,192,54510,1,0,0:0:0:0:
448,192,54510,1,0,0:0:0:0:
192,192,54632,1,0,0:0:0:0:
448,192,54632,1,0,0:0:0:0:
192,192,54754,1,0,0:0:0:0:
64,192,54876,1,0,0:0:0:60:Kick 2.wav
192,192,54876,1,0,0:0:0:40:LR_Hit Med Click.wav
320,192,54876,1,0,0:0:0:0:
448,192,54876,1,0,0:0:0:0:
64,192,54996,1,0,0:0:0:0:
320,192,54996,1,0,0:0:0:0:
64,192,55116,1,0,0:0:0:0:
448,192,55116,1,0,0:0:0:0:
64,192,55236,1,0,0:0:0:60:Kick 2.wav
192,192,55236,1,0,0:0:0:0:
320,192,55236,1,0,0:0:0:0:
448,192,55236,1,0,0:0:0:0:
64,192,55356,1,0,0:0:0:40:snare_edited1.wav
192,192,55356,1,0,0:0:0:40:LR_Hit Med Click.wav
448,192,55356,1,0,0:0:0:0:
192,192,55473,1,0,0:0:0:0:
320,192,55473,1,0,0:0:0:0:
64,192,55591,1,0,0:0:0:60:Kick 2.wav
192,192,55591,1,0,0:0:0:0:
320,192,55591,1,0,0:0:0:0:
448,192,55591,1,0,0:0:0:0:
64,192,55708,1,0,0:0:0:0:
448,192,55708,1,0,0:0:0:0:
64,192,55826,1,0,0:0:0:60:Kick 2.wav
192,192,55826,1,0,0:0:0:40:LR_Hit Med Click.wav
320,192,55826,1,0,0:0:0:0:
448,192,55826,1,0,0:0:0:0:
320,192,55947,1,0,0:0:0:0:
448,192,55947,1,0,0:0:0:0:
192,192,56069,1,0,0:0:0:0:
64,192,56191,1,0,0:0:0:0:
320,192,56191,1,0,0:0:0:0:
64,192,56313,1,0,0:0:0:40:snare_edited1.wav
192,192,56313,1,0,0:0:0:40:LR_Hit Med Click.wav
320,192,56313,1,0,0:0:0:0:
192,192,56430,1,0,0:0:0:0:
448,192,56430,1,0,0:0:0:0:
320,192,56548,1,0,0:0:0:0:
448,192,56548,1,0,0:0:0:0:
64,192,56665,1,0,0:0:0:0:
64,192,56783,1,0,0:0:0:60:Kick 2.wav
192,192,56783,1,0,0:0:0:40:LR_Hit Med Click.wav
320,192,56783,1,0,0:0:0:0:
448,192,56783,1,0,0:0:0:0:
320,192,56905,1,0,0:0:0:0:
448,192,56905,1,0,0:0:0:0:
64,192,57028,1,0,0:0:0:0:
448,192,57028,1,0,0:0:0:0:
64,192,57151,1,0,0:0:0:60:Kick 2.wav
192,192,57151,1,0,0:0:0:0:
320,192,57151,1,0,0:0:0:0:
448,192,57151,1,0,0:0:0:0:
64,192,57274,1,0,0:0:0:40:snare_edited1.wav
192,192,57274,1,0,0:0:0:40:LR_Hit Med Click.wav
320,192,57274,1,0,0:0:0:0:
192,192,57391,1,0,0:0:0:0:
448,192,57391,1,0,0:0:0:0:
64,192,57508,1,0,0:0:0:60:Kick 2.wav
192,192,57508,1,0,0:0:0:0:
320,192,57508,1,0,0:0:0:0:
448,192,57508,1,0,0:0:0:0:
64,192,57626,1,0,0:0:0:0:
320,192,57626,1,0,0:0:0:0:
64,192,57743,1,0,0:0:0:60:Kick 2.wav
192,192,57743,1,0,0:0:0:40:LR_Hit Med Click.wav
320,192,57743,1,0,0:0:0:0:
448,192,57743,1,0,0:0:0:0:
320,192,57863,1,0,0:0:0:0:
448,192,57863,1,0,0:0:0:0:
64,192,57983,1,0,0:0:0:0:
64,192,58103,1,0,0:0:0:0:
192,192,58103,1,0,0:0:0:0:
64,192,58223,1,0,0:0:0:40:snare_edited1.wav
192,192,58223,1,0,0:0:0:40:LR_Hit Med Click.wav
320,192,58223,1,0,0:0:0:0:
320,192,58343,1,0,0:0:0:0:
448,192,58343,1,0,0:0:0:0:
64,192,58463,1,0,0:0:0:0:
192,192,58463,1,0,0:0:0:0:
192,192,58583,1,0,0:0:0:0:
64,192,58703,1,0,0:0:0:60:Kick 2.wav
192,192,58703,1,0,0:0:0:40:LR_Hit Med Click.wav
320,192,58703,1,0,0:0:0:0:
448,192,58703,1,0,0:0:0:0:
64,192,58821,1,0,0:0:0:0:
448,192,58821,1,0,0:0:0:0:
64,192,58940,1,0,0:0:0:0:
320,192,58940,1,0,0:0:0:0:
64,192,59058,1,0,0:0:0:60:Kick 2.wav
192,192,59058,1,0,0:0:0:0:
320,192,59058,1,0,0:0:0:0:
448,192,59058,1,0,0:0:0:0:
192,192,59177,1,0,0:0:0:40:snare_edited1.wav
320,192,59177,1,0,0:0:0:40:LR_Hit Med Click.wav
448,192,59177,1,0,0:0:0:0:
64,192,59295,1,0,0:0:0:0:
192,192,59295,1,0,0:0:0:0:
64,192,59414,1,0,0:0:0:60:Kick 2.wav
192,192,59414,1,0,0:0:0:0:
320,192,59414,1,0,0:0:0:0:
448,192,59414,1,0,0:0:0:0:
320,192,59533,1,0,0:0:0:0:
448,192,59533,1,0,0:0:0:0:
64,192,59651,1,0,0:0:0:60:Kick 2.wav
192,192,59651,1,0,0:0:0:40:LR_Hit Med Click.wav
320,192,59651,1,0,0:0:0:0:
448,192,59651,1,0,0:0:0:0:
64,192,59773,1,0,0:0:0:0:
192,192,59773,1,0,0:0:0:0:
320,192,59895,1,0,0:0:0:0:
192,192,60018,1,0,0:0:0:0:
320,192,60018,1,0,0:0:0:0:
64,192,60140,1,0,0:0:0:40:snare_edited1.wav
192,192,60140,1,0,0:0:0:40:LR_Hit Med Click.wav
320,192,60140,1,0,0:0:0:0:
64,192,60258,1,0,0:0:0:0:
192,192,60258,1,0,0:0:0:0:
64,192,60377,1,0,0:0:0:0:
448,192,60377,1,0,0:0:0:0:
320,192,60495,1,0,0:0:0:0:
64,192,60614,1,0,0:0:0:60:Kick 2.wav
192,192,60614,1,0,0:0:0:40:LR_Hit Med Click.wav
320,192,60614,1,0,0:0:0:0:
448,192,60614,1,0,0:0:0:0:
192,192,60734,1,0,0:0:0:0:
64,192,60855,1,0,0:0:0:40:snare_edited1.wav
192,192,60855,1,0,0:0:0:0:
448,192,60855,1,0,0:0:0:0:
64,192,60976,1,0,0:0:0:0:
64,192,61097,1,0,0:0:0:40:tom01.wav
320,192,61097,1,0,0:0:0:0:
192,192,61219,1,0,0:0:0:0:
320,192,61219,1,0,0:0:0:0:
320,192,61342,1,0,0:0:0:40:tom04.wav
448,192,61342,1,0,0:0:0:0:
64,192,61465,1,0,0:0:0:0:
448,192,61465,1,0,0:0:0:0:
64,192,61588,1,0,0:0:0:60:Kick 2.wav
192,192,61588,1,0,0:0:0:50:LR_HiHat SClick 2.wav
320,192,61660,1,0,0:0:0:0:
448,192,61733,1,0,0:0:0:0:
192,192,61842,1,0,0:0:0:50:LR_HiHat SClick 2.wav
64,192,61926,1,0,0:0:0:0:
448,192,61994,1,0,0:0:0:0:
192,192,62096,1,0,0:0:0:50:LR_HiHat SClick 2.wav
320,192,62096,1,0,0:0:0:0:
192,192,62350,1,0,0:0:0:50:LR_HiHat SClick 2.wav
64,192,62604,1,0,0:0:0:40:snare_edited1.wav
320,192,62604,1,0,0:0:0:50:LR_HiHat SClick 2.wav
448,192,62604,1,0,0:0:0:0:
192,192,62848,1,0,0:0:0:50:LR_HiHat SClick 2.wav
320,192,62848,1,0,0:0:0:0:
64,192,63093,1,0,0:0:0:50:LR_HiHat SClick 2.wav
320,192,63093,1,0,0:0:0:0:
192,192,63333,1,0,0:0:0:60:Kick 2.wav
320,192,63333,1,0,0:0:0:50:LR_HiHat SClick 2.wav
64,192,63574,1,0,0:0:0:60:Kick 2.wav
448,192,63574,1,0,0:0:0:50:LR_HiHat SClick 2.wav
320,192,63670,1,0,0:0:0:0:
192,192,63766,1,0,0:0:0:0:
448,192,63863,1,0,0:0:0:0:
64,192,63959,1,0,0:0:0:0:
320,192,64056,1,0,0:0:0:50:LR_HiHat SClick 2.wav
448,192,64056,1,0,0:0:0:0:
448,192,64309,1,0,0:0:0:50:LR_HiHat SClick 2.wav
64,192,64562,1,0,0:0:0:40:snare_edited1.wav
320,192,64562,1,0,0:0:0:50:LR_HiHat SClick 2.wav
448,192,64562,1,0,0:0:0:0:
320,192,64801,1,0,0:0:0:50:LR_HiHat SClick 2.wav
448,192,64801,1,0,0:0:0:0:
192,192,65040,1,0,0:0:0:50:LR_HiHat SClick 2.wav
320,192,65040,1,0,0:0:0:0:
64,192,65262,1,0,0:0:0:60:Kick 2.wav
192,192,65262,1,0,0:0:0:50:LR_HiHat SClick 2.wav
64,192,65518,1,0,0:0:0:60:Kick 2.wav
192,192,65518,1,0,0:0:0:50:LR_HiHat SClick 2.wav
448,192,65598,1,0,0:0:0:0:
64,192,65678,1,0,0:0:0:0:
448,192,65758,1,0,0:0:0:50:LR_HiHat SClick 2.wav
64,192,65839,1,0,0:0:0:0:
448,192,65919,1,0,0:0:0:0:
192,192,65999,1,0,0:0:0:50:LR_HiHat SClick 2.wav
192,192,66240,1,0,0:0:0:50:LR_HiHat SClick 2.wav
64,192,66481,1,0,0:0:0:40:snare_edited1.wav
320,192,66481,1,0,0:0:0:50:LR_HiHat SClick 2.wav
448,192,66481,1,0,0:0:0:0:
64,192,66722,1,0,0:0:0:50:LR_HiHat SClick 2.wav
448,192,66722,1,0,0:0:0:0:
320,192,66963,1,0,0:0:0:50:LR_HiHat SClick 2.wav
192,192,67186,1,0,0:0:0:60:Kick 2.wav
320,192,67186,1,0,0:0:0:50:LR_HiHat SClick 2.wav
64,192,67282,1,0,0:0:0:0:
448,192,67346,1,0,0:0:0:0:
192,192,67445,1,0,0:0:0:60:Kick 2.wav
320,192,67445,1,0,0:0:0:50:LR_HiHat SClick 2.wav
320,192,67681,1,0,0:0:0:50:LR_HiHat SClick 2.wav
64,192,67759,1,0,0:0:0:0:
448,192,67838,1,0,0:0:0:0:
192,192,67917,1,0,0:0:0:50:LR_HiHat SClick 2.wav
448,192,68035,1,0,0:0:0:0:
320,192,68153,1,0,0:0:0:50:LR_HiHat SClick 2.wav
64,192,68232,1,0,0:0:0:0:
192,192,68311,1,0,0:0:0:0:
64,192,68389,1,0,0:0:0:40:snare_edited1.wav
320,192,68389,1,0,0:0:0:50:LR_HiHat SClick 2.wav
448,192,68389,1,0,0:0:0:0:
192,192,68507,1,0,0:0:0:0:
448,192,68626,1,0,0:0:0:50:LR_HiHat SClick 2.wav
320,192,68744,1,0,0:0:0:0:
192,192,68862,1,0,0:0:0:50:LR_HiHat SClick 2.wav
64,192,68941,1,0,0:0:0:0:
192,192,69019,1,0,0:0:0:0:
448,192,69098,1,0,0:0:0:50:LR_HiHat SClick 2.wav
320,192,69199,1,0,0:0:0:0:
448,192,69267,1,0,0:0:0:0:
64,192,69334,1,0,0:0:0:60:Kick 2.wav
192,192,69334,1,0,0:0:0:50:LR_HiHat SClick 2.wav
64,192,69454,1,0,0:0:0:0:
320,192,69574,1,0,0:0:0:50:LR_HiHat SClick 2.wav
320,192,69695,1,0,0:0:0:0:
192,192,69815,1,0,0:0:0:50:LR_HiHat SClick 2.wav
192,192,70056,1,0,0:0:0:50:LR_HiHat SClick 2.wav
64,192,70297,1,0,0:0:0:40:snare_edited1.wav
192,192,70297,1,0,0:0:0:50:LR_HiHat SClick 2.wav
448,192,70297,1,0,0:0:0:0:
320,192,70528,1,0,0:0:0:50:LR_HiHat SClick 2.wav
448,192,70528,1,0,0:0:0:0:
64,192,70760,1,0,0:0:0:50:LR_HiHat SClick 2.wav
192,192,70760,1,0,0:0:0:0:
64,192,70978,1,0,0:0:0:60:Kick 2.wav
192,192,70978,1,0,0:0:0:50:LR_HiHat SClick 2.wav
64,192,71223,1,0,0:0:0:60:Kick 2.wav
448,192,71223,1,0,0:0:0:50:LR_HiHat SClick 2.wav
320,192,71303,1,0,0:0:0:0:
192,192,71384,1,0,0:0:0:0:
448,192,71464,1,0,0:0:0:50:LR_HiHat SClick 2.wav
320,192,71545,1,0,0:0:0:0:
192,192,71626,1,0,0:0:0:0:
64,192,71706,1,0,0:0:0:50:LR_HiHat SClick 2.wav
320,192,71951,1,0,0:0:0:50:LR_HiHat SClick 2.wav
64,192,72197,1,0,0:0:0:40:snare_edited1.wav
192,192,72197,1,0,0:0:0:50:LR_HiHat SClick 2.wav
448,192,72197,1,0,0:0:0:0:
192,192,72438,1,0,0:0:0:50:LR_HiHat SClick 2.wav
448,192,72438,1,0,0:0:0:0:
64,192,72680,1,0,0:0:0:50:LR_HiHat SClick 2.wav
320,192,72680,1,0,0:0:0:0:
64,192,72895,1,0,0:0:0:60:Kick 2.wav
192,192,72895,1,0,0:0:0:50:LR_HiHat SClick 2.wav
192,192,73146,1,0,0:0:0:60:Kick 2.wav
320,192,73146,1,0,0:0:0:50:LR_HiHat SClick 2.wav
448,192,73226,1,0,0:0:0:0:
192,192,73306,1,0,0:0:0:0:
64,192,73386,1,0,0:0:0:50:LR_HiHat SClick 2.wav
448,192,73466,1,0,0:0:0:0:
64,192,73546,1,0,0:0:0:0:
192,192,73626,1,0,0:0:0:50:LR_HiHat SClick 2.wav
192,192,73866,1,0,0:0:0:50:LR_HiHat SClick 2.wav
64,192,74106,1,0,0:0:0:40:snare_edited1.wav
320,192,74106,1,0,0:0:0:50:LR_HiHat SClick 2.wav
448,192,74106,1,0,0:0:0:0:
192,192,74340,1,0,0:0:0:50:LR_HiHat SClick 2.wav
448,192,74340,1,0,0:0:0:0:
64,192,74574,1,0,0:0:0:50:LR_HiHat SClick 2.wav
192,192,74574,1,0,0:0:0:0:
64,192,74809,1,0,0:0:0:60:Kick 2.wav
320,192,74809,1,0,0:0:0:50:LR_HiHat SClick 2.wav
448,192,74926,1,0,0:0:0:0:
64,192,75043,1,0,0:0:0:60:Kick 2.wav
192,192,75043,1,0,0:0:0:50:LR_HiHat SClick 2.wav
448,192,75121,1,0,0:0:0:0:
64,192,75200,1,0,0:0:0:0:
320,192,75279,1,0,0:0:0:50:LR_HiHat SClick 2.wav
192,192,75357,1,0,0:0:0:0:
448,192,75397,1,0,0:0:0:0:
320,192,75515,1,0,0:0:0:50:LR_HiHat SClick 2.wav
64,192,75633,1,0,0:0:0:0:
448,192,75751,1,0,0:0:0:50:LR_HiHat SClick 2.wav
192,192,75830,1,0,0:0:0:0:
320,192,75909,1,0,0:0:0:0:
64,192,75987,1,0,0:0:0:40:snare_edited1.wav
192,192,75987,1,0,0:0:0:50:LR_HiHat SClick 2.wav
448,192,75987,1,0,0:0:0:0:
320,192,76102,1,0,0:0:0:0:
192,192,76217,1,0,0:0:0:50:LR_HiHat SClick 2.wav
64,192,76333,1,0,0:0:0:0:
192,192,76448,1,0,0:0:0:50:LR_HiHat SClick 2.wav
320,192,76525,1,0,0:0:0:0:
448,192,76602,1,0,0:0:0:0:
64,192,76679,1,0,0:0:0:50:LR_HiHat SClick 2.wav
320,192,76794,1,0,0:0:0:0:
192,192,76910,1,0,0:0:0:60:Kick 2.wav
320,192,76910,1,0,0:0:0:40:LR_Hit Med Click.wav
448,192,76910,1,0,0:0:0:0:
64,192,76960,1,0,0:0:0:0:
192,192,77011,1,0,0:0:0:0:
448,192,77062,1,0,0:0:0:0:
64,192,77113,1,0,0:0:0:0:
320,192,77164,1,0,0:0:0:0:
64,192,77253,1,0,0:0:0:60:Kick 2.wav
192,192,77253,1,0,0:0:0:0:
64,192,77368,1,0,0:0:0:40:snare_edited1.wav
192,192,77368,1,0,0:0:0:40:LR_Hit Med Click.wav
320,192,77368,1,0,0:0:0:0:
448,192,77469,1,0,0:0:0:0:
64,192,77520,1,0,0:0:0:0:
192,192,77571,1,0,0:0:0:0:
320,192,77622,1,0,0:0:0:0:
64,192,77711,1,0,0:0:0:40:snare_edited1.wav
192,192,77711,1,0,0:0:0:0:
448,192,77711,1,0,0:0:0:0:
64,192,77826,1,0,0:0:0:60:Kick 2.wav
192,192,77826,1,0,0:0:0:40:LR_Hit Med Click.wav
448,192,77876,1,0,0:0:0:0:
320,192,77927,1,0,0:0:0:0:
64,192,77978,1,0,0:0:0:0:
448,192,78029,1,0,0:0:0:0:
192,192,78080,1,0,0:0:0:0:
320,192,78169,1,0,0:0:0:60:Kick 2.wav
448,192,78169,1,0,0:0:0:0:
192,192,78284,1,0,0:0:0:40:snare_edited1.wav
320,192,78284,1,0,0:0:0:40:LR_Hit Med Click.wav
448,192,78284,1,0,0:0:0:0:
64,192,78334,1,0,0:0:0:0:
192,192,78385,1,0,0:0:0:0:
448,192,78436,1,0,0:0:0:0:
64,192,78487,1,0,0:0:0:0:
192,192,78538,1,0,0:0:0:0:
64,192,78627,1,0,0:0:0:40:snare_edited1.wav
320,192,78627,1,0,0:0:0:0:
448,192,78627,1,0,0:0:0:0:
320,192,78742,1,0,0:0:0:60:Kick 2.wav
448,192,78742,1,0,0:0:0:40:LR_Hit Med Click.wav
192,192,78794,1,0,0:0:0:0:
64,192,78846,1,0,0:0:0:0:
448,192,78899,1,0,0:0:0:0:
192,192,78951,1,0,0:0:0:0:
320,192,79004,1,0,0:0:0:0:
64,192,79096,1,0,0:0:0:60:Kick 2.wav
192,192,79096,1,0,0:0:0:0:
64,192,79214,1,0,0:0:0:40:snare_edited1.wav
320,192,79214,1,0,0:0:0:40:LR_Hit Med Click.wav
448,192,79214,1,0,0:0:0:0:
192,192,79265,1,0,0:0:0:0:
320,192,79316,1,0,0:0:0:0:
448,192,79367,1,0,0:0:0:0:
64,192,79418,1,0,0:0:0:0:
448,192,79501,1,0,0:0:0:0:
64,192,79558,1,0,0:0:0:40:snare_edited1.wav
192,192,79558,1,0,0:0:0:0:
320,192,79558,1,0,0:0:0:0:
320,192,79673,1,0,0:0:0:60:Kick 2.wav
448,192,79673,1,0,0:0:0:40:LR_Hit Med Click.wav
192,192,79731,1,0,0:0:0:0:
448,192,79790,1,0,0:0:0:0:
64,192,79849,1,0,0:0:0:0:
320,192,79908,1,0,0:0:0:60:Kick 2.wav
448,192,79908,1,0,0:0:0:0:
192,192,79967,1,0,0:0:0:0:
64,192,80025,1,0,0:0:0:0:
64,192,80143,1,0,0:0:0:40:snare_edited1.wav
192,192,80143,1,0,0:0:0:40:LR_Hit Med Click.wav
448,192,80143,1,0,0:0:0:0:
320,192,80200,1,0,0:0:0:0:
192,192,80258,1,0,0:0:0:0:
320,192,80316,1,0,0:0:0:0:
448,192,80373,1,0,0:0:0:0:
64,192,80489,1,0,0:0:0:40:snare_edited1.wav
192,192,80489,1,0,0:0:0:0:
448,192,80489,1,0,0:0:0:0:
64,192,80604,1,0,0:0:0:60:Kick 2.wav
320,192,80604,1,0,0:0:0:40:LR_Hit Med Click.wav
320,192,80722,1,0,0:0:0:0:
448,192,80840,1,0,0:0:0:0:
64,192,80958,1,0,0:0:0:60:Kick 2.wav
192,192,80958,1,0,0:0:0:0:
64,192,81076,1,0,0:0:0:40:snare_edited1.wav
320,192,81076,1,0,0:0:0:40:LR_Hit Med Click.wav
448,192,81076,1,0,0:0:0:0:
192,192,81135,1,0,0:0:0:0:
320,192,81194,1,0,0:0:0:0:
192,192,81253,1,0,0:0:0:0:
448,192,81312,1,0,0:0:0:0:
64,192,81430,1,0,0:0:0:40:snare_edited1.wav
192,192,81430,1,0,0:0:0:0:
320,192,81430,1,0,0:0:0:0:
64,192,81548,1,0,0:0:0:60:Kick 2.wav
448,192,81548,1,0,0:0:0:40:LR_Hit Med Click.wav
448,192,81663,1,0,0:0:0:0:
192,192,81778,1,0,0:0:0:0:
64,192,81894,1,0,0:0:0:60:Kick 2.wav
320,192,81894,1,0,0:0:0:0:
64,192,82009,1,0,0:0:0:40:snare_edited1.wav
192,192,82009,1,0,0:0:0:40:LR_Hit Med Click.wav
448,192,82009,1,0,0:0:0:0:
320,192,82067,1,0,0:0:0:0:
192,192,82124,1,0,0:0:0:0:
320,192,82182,1,0,0:0:0:0:
64,192,82240,1,0,0:0:0:0:
64,192,82355,1,0,0:0:0:40:snare_edited1.wav
192,192,82355,1,0,0:0:0:0:
448,192,82355,1,0,0:0:0:0:
320,192,82471,1,0,0:0:0:60:Kick 2.wav
448,192,82471,1,0,0:0:0:40:LR_Hit Med Click.wav
320,192,82588,1,0,0:0:0:0:
64,192,82705,1,0,0:0:0:0:
192,192,82822,1,0,0:0:0:60:Kick 2.wav
448,192,82822,1,0,0:0:0:0:
64,192,82939,1,0,0:0:0:40:snare_edited1.wav
320,192,82939,1,0,0:0:0:40:LR_Hit Med Click.wav
448,192,82939,1,0,0:0:0:0:
192,192,82995,1,0,0:0:0:0:
320,192,83051,1,0,0:0:0:0:
192,192,83108,1,0,0:0:0:0:
64,192,83164,1,0,0:0:0:0:
64,192,83277,1,0,0:0:0:40:snare_edited1.wav
192,192,83277,1,0,0:0:0:0:
448,192,83277,1,0,0:0:0:0:
320,192,83390,1,0,0:0:0:60:Kick 2.wav
448,192,83390,1,0,0:0:0:40:LR_Hit Med Click.wav
320,192,83504,1,0,0:0:0:0:
64,192,83618,1,0,0:0:0:60:Kick 2.wav
448,192,83618,1,0,0:0:0:0:
64,192,83732,1,0,0:0:0:0:
64,192,83846,1,0,0:0:0:40:snare_edited1.wav
192,192,83846,1,0,0:0:0:40:LR_Hit Med Click.wav
448,192,83846,1,0,0:0:0:0:
320,192,83903,1,0,0:0:0:0:
192,192,83960,1,0,0:0:0:0:
320,192,84018,1,0,0:0:0:0:
448,192,84075,1,0,0:0:0:0:
64,192,84151,1,0,0:0:0:0:
192,192,84227,1,0,0:0:0:0:
320,192,84303,1,0,0:0:0:60:Kick 2.wav
448,192,84303,1,0,0:0:0:40:LR_Hit Med Click.wav
192,192,84331,1,0,0:0:0:0:
64,192,84359,1,0,0:0:0:0:
320,192,84415,1,0,0:0:0:40:snare_edited1.wav
448,192,84415,1,0,0:0:0:0:
64,192,84527,1,0,0:0:0:60:Kick 2.wav
192,192,84527,1,0,0:0:0:40:LR_Hit Med Click.wav
320,192,84555,1,0,0:0:0:0:
448,192,84583,1,0,0:0:0:0:
64,192,84640,1,0,0:0:0:40:snare_edited1.wav
192,192,84640,1,0,0:0:0:0:
320,192,84752,1,0,0:0:0:60:Kick 2.wav
448,192,84752,1,0,0:0:0:40:LR_Hit Med Click.wav
192,192,84780,1,0,0:0:0:0:
64,192,84808,1,0,0:0:0:0:
320,192,84864,1,0,0:0:0:40:snare_edited1.wav
448,192,84864,1,0,0:0:0:0:
64,192,84977,1,0,0:0:0:60:Kick 2.wav
192,192,84977,1,0,0:0:0:40:LR_Hit Med Click.wav
320,192,85005,1,0,0:0:0:0:
448,192,85033,1,0,0:0:0:0:
64,192,85089,1,0,0:0:0:40:snare_edited1.wav
192,192,85089,1,0,0:0:0:0:
320,192,85201,1,0,0:0:0:60:Kick 2.wav
448,192,85201,1,0,0:0:0:40:LR_Hit Med Click.wav
192,192,85229,1,0,0:0:0:0:
64,192,85258,1,0,0:0:0:0:
320,192,85314,1,0,0:0:0:40:snare_edited1.wav
448,192,85314,1,0,0:0:0:0:
64,192,85426,1,0,0:0:0:60:Kick 2.wav
192,192,85426,1,0,0:0:0:40:LR_Hit Med Click.wav
320,192,85454,1,0,0:0:0:0:
448,192,85482,1,0,0:0:0:0:
64,192,85538,1,0,0:0:0:40:snare_edited1.wav
192,192,85538,1,0,0:0:0:0:
320,192,85651,1,0,0:0:0:60:Kick 2.wav
448,192,85651,1,0,0:0:0:40:LR_Hit Med Click.wav
192,192,85679,1,0,0:0:0:0:
64,192,85707,1,0,0:0:0:0:
320,192,85763,1,0,0:0:0:40:snare_edited1.wav
448,192,85763,1,0,0:0:0:0:
64,192,85876,1,0,0:0:0:60:Kick 2.wav
192,192,85876,1,0,0:0:0:40:LR_Hit Med Click.wav
320,192,85904,1,0,0:0:0:0:
448,192,85932,1,0,0:0:0:0:
64,192,85988,1,0,0:0:0:40:snare_edited1.wav
192,192,85988,1,0,0:0:0:0:
64,192,86100,1,0,0:0:0:60:Kick 2.wav
192,192,86100,1,0,0:0:0:40:LR_Hit Med Click.wav
320,192,86100,1,0,0:0:0:0:
448,192,86100,1,0,0:0:0:0:
64,192,86215,1,0,0:0:0:60:Kick 2.wav
192,192,86215,1,0,0:0:0:40:LR_Hit Med Click.wav
320,192,86215,1,0,0:0:0:0:
448,192,86215,1,0,0:0:0:0:
192,192,86561,1,0,0:0:0:0:
192,192,86715,1,0,0:0:0:0:
64,192,87023,1,0,0:0:0:60:Kick 2.wav
192,192,87023,1,0,0:0:0:40:LR_Hit Med Click.wav
320,192,87023,1,0,0:0:0:0:
448,192,87023,1,0,0:0:0:0:
64,192,87143,1,0,0:0:0:40:LR_Hit Med Click.wav
448,192,87143,1,0,0:0:0:0:
64,192,87263,1,0,0:0:0:60:Kick 2.wav
192,192,87263,1,0,0:0:0:40:LR_Hit Med Click.wav
320,192,87263,1,0,0:0:0:0:
448,192,87263,1,0,0:0:0:0:
192,192,87383,1,0,0:0:0:40:LR_Hit Med Click.wav
320,192,87383,1,0,0:0:0:0:
64,192,87503,1,0,0:0:0:60:Kick 2.wav
192,192,87503,1,0,0:0:0:40:LR_Hit Med Click.wav
320,192,87503,1,0,0:0:0:0:
448,192,87503,1,0,0:0:0:0:
320,192,87623,1,0,0:0:0:40:LR_Hit Med Click.wav
448,192,87623,1,0,0:0:0:0:
64,192,87743,1,0,0:0:0:60:Kick 2.wav
192,192,87743,1,0,0:0:0:40:LR_Hit Med Click.wav
320,192,87743,1,0,0:0:0:0:
448,192,87743,1,0,0:0:0:0:
64,192,87863,1,0,0:0:0:40:LR_Hit Med Click.wav
192,192,87863,1,0,0:0:0:0:
64,192,87983,1,0,0:0:0:60:Kick 2.wav
192,192,87983,1,0,0:0:0:40:LR_Hit Med Click.wav
320,192,87983,1,0,0:0:0:0:
448,192,87983,1,0,0:0:0:0:
64,192,88103,1,0,0:0:0:60:Kick 2.wav
192,192,88103,1,0,0:0:0:40:LR_Hit Med Click.wav
320,192,88103,1,0,0:0:0:0:
448,192,88103,1,0,0:0:0:0:
64,192,88943,1,0,0:0:0:60:Kick 2.wav
192,192,88943,1,0,0:0:0:40:LR_Hit Med Click.wav
320,192,88943,1,0,0:0:0:0:
448,192,88943,1,0,0:0:0:0:
64,192,89062,1,0,0:0:0:40:LR_Hit Med Click.wav
192,192,89062,1,0,0:0:0:0:
64,192,89181,1,0,0:0:0:60:Kick 2.wav
192,192,89181,1,0,0:0:0:40:LR_Hit Med Click.wav
320,192,89181,1,0,0:0:0:0:
448,192,89181,1,0,0:0:0:0:
192,192,89300,1,0,0:0:0:40:LR_Hit Med Click.wav
448,192,89300,1,0,0:0:0:0:
64,192,89419,1,0,0:0:0:60:Kick 2.wav
192,192,89419,1,0,0:0:0:40:LR_Hit Med Click.wav
320,192,89419,1,0,0:0:0:0:
448,192,89419,1,0,0:0:0:0:
64,192,89538,1,0,0:0:0:40:LR_Hit Med Click.wav
320,192,89538,1,0,0:0:0:0:
64,192,89657,1,0,0:0:0:60:Kick 2.wav
192,192,89657,1,0,0:0:0:40:LR_Hit Med Click.wav
320,192,89657,1,0,0:0:0:0:
448,192,89657,1,0,0:0:0:0:
320,192,89776,1,0,0:0:0:40:LR_Hit Med Click.wav
448,192,89776,1,0,0:0:0:0:
64,192,89895,1,0,0:0:0:60:Kick 2.wav
192,192,89895,1,0,0:0:0:40:LR_Hit Med Click.wav
320,192,89895,1,0,0:0:0:0:
448,192,89895,1,0,0:0:0:0:
64,192,90014,1,0,0:0:0:60:Kick 2.wav
192,192,90014,1,0,0:0:0:40:LR_Hit Med Click.wav
320,192,90014,1,0,0:0:0:0:
448,192,90014,1,0,0:0:0:0:
192,192,90133,1,0,0:0:0:0:
320,192,90252,1,0,0:0:0:0:
192,192,90331,1,0,0:0:0:0:
320,192,90450,1,0,0:0:0:0:
320,192,90569,1,0,0:0:0:0:
192,192,90688,1,0,0:0:0:0:
64,192,90847,1,0,0:0:0:60:Kick 2.wav
192,192,90847,1,0,0:0:0:40:LR_Hit Med Click.wav
320,192,90847,1,0,0:0:0:0:
448,192,90847,1,0,0:0:0:0:
64,192,90967,1,0,0:0:0:40:LR_Hit Med Click.wav
448,192,90967,1,0,0:0:0:0:
64,192,91087,1,0,0:0:0:60:Kick 2.wav
192,192,91087,1,0,0:0:0:40:LR_Hit Med Click.wav
320,192,91087,1,0,0:0:0:0:
448,192,91087,1,0,0:0:0:0:
320,192,91208,1,0,0:0:0:40:LR_Hit Med Click.wav
448,192,91208,1,0,0:0:0:0:
64,192,91328,1,0,0:0:0:60:Kick 2.wav
192,192,91328,1,0,0:0:0:40:LR_Hit Med Click.wav
320,192,91328,1,0,0:0:0:0:
448,192,91328,1,0,0:0:0:0:
64,192,91449,1,0,0:0:0:40:LR_Hit Med Click.wav
192,192,91449,1,0,0:0:0:0:
64,192,91569,1,0,0:0:0:60:Kick 2.wav
192,192,91569,1,0,0:0:0:40:LR_Hit Med Click.wav
320,192,91569,1,0,0:0:0:0:
448,192,91569,1,0,0:0:0:0:
64,192,91690,1,0,0:0:0:40:LR_Hit Med Click.wav
320,192,91690,1,0,0:0:0:0:
64,192,91810,1,0,0:0:0:60:Kick 2.wav
192,192,91810,1,0,0:0:0:40:LR_Hit Med Click.wav
320,192,91810,1,0,0:0:0:0:
448,192,91810,1,0,0:0:0:0:
64,192,91930,1,0,0:0:0:60:Kick 2.wav
192,192,91930,1,0,0:0:0:40:LR_Hit Med Click.wav
320,192,91930,1,0,0:0:0:0:
448,192,91930,1,0,0:0:0:0:
64,192,92754,1,0,0:0:0:60:Kick 2.wav
192,192,92754,1,0,0:0:0:40:LR_Hit Med Click.wav
320,192,92754,1,0,0:0:0:0:
448,192,92754,1,0,0:0:0:0:
192,192,92865,1,0,0:0:0:40:LR_Hit Med Click.wav
64,192,92977,1,0,0:0:0:60:Kick 2.wav
192,192,92977,1,0,0:0:0:40:LR_Hit Med Click.wav
320,192,92977,1,0,0:0:0:0:
448,192,92977,1,0,0:0:0:0:
320,192,93089,1,0,0:0:0:40:LR_Hit Med Click.wav
448,192,93089,1,0,0:0:0:0:
64,192,93201,1,0,0:0:0:60:Kick 2.wav
192,192,93201,1,0,0:0:0:40:LR_Hit Med Click.wav
320,192,93201,1,0,0:0:0:0:
448,192,93201,1,0,0:0:0:0:
64,192,93313,1,0,0:0:0:40:LR_Hit Med Click.wav
192,192,93313,1,0,0:0:0:0:
320,192,93425,1,0,0:0:0:60:Kick 2.wav
448,192,93425,1,0,0:0:0:40:snare_edited1.wav
64,192,93537,1,0,0:0:0:40:snare_edited1.wav
192,192,93537,1,0,0:0:0:0:
64,192,93649,1,0,0:0:0:60:Kick 2.wav
192,192,93649,1,0,0:0:0:40:LR_Hit Med Click.wav
320,192,93649,1,0,0:0:0:0:
448,192,93649,1,0,0:0:0:0:
192,192,93769,1,0,0:0:0:0:
448,192,93769,1,0,0:0:0:0:
320,192,93890,1,0,0:0:0:0:
64,192,94011,1,0,0:0:0:0:
192,192,94011,1,0,0:0:0:0:
64,192,94132,1,0,0:0:0:40:snare_edited1.wav
192,192,94132,1,0,0:0:0:40:LR_Hit Med Click.wav
448,192,94132,1,0,0:0:0:0:
320,192,94253,1,0,0:0:0:0:
448,192,94253,1,0,0:0:0:0:
64,192,94374,1,0,0:0:0:0:
320,192,94374,1,0,0:0:0:0:
192,192,94495,1,0,0:0:0:0:
64,192,94616,1,0,0:0:0:60:Kick 2.wav
192,192,94616,1,0,0:0:0:40:LR_Hit Med Click.wav
320,192,94616,1,0,0:0:0:0:
448,192,94616,1,0,0:0:0:0:
64,192,94734,1,0,0:0:0:0:
448,192,94734,1,0,0:0:0:0:
192,192,94852,1,0,0:0:0:0:
320,192,94852,1,0,0:0:0:0:
64,192,94970,1,0,0:0:0:60:Kick 2.wav
192,192,94970,1,0,0:0:0:0:
320,192,94970,1,0,0:0:0:0:
448,192,94970,1,0,0:0:0:0:
64,192,95088,1,0,0:0:0:40:snare_edited1.wav
320,192,95088,1,0,0:0:0:40:LR_Hit Med Click.wav
448,192,95088,1,0,0:0:0:0:
64,192,95206,1,0,0:0:0:0:
192,192,95206,1,0,0:0:0:0:
64,192,95324,1,0,0:0:0:60:Kick 2.wav
192,192,95324,1,0,0:0:0:0:
320,192,95324,1,0,0:0:0:0:
448,192,95324,1,0,0:0:0:0:
320,192,95442,1,0,0:0:0:0:
448,192,95442,1,0,0:0:0:0:
64,192,95560,1,0,0:0:0:60:Kick 2.wav
192,192,95560,1,0,0:0:0:40:LR_Hit Med Click.wav
320,192,95560,1,0,0:0:0:0:
448,192,95560,1,0,0:0:0:0:
64,192,95685,1,0,0:0:0:0:
192,192,95685,1,0,0:0:0:0:
320,192,95685,1,0,0:0:0:0:
448,192,95685,1,0,0:0:0:0:
192,192,95810,1,0,0:0:0:0:
64,192,95935,1,0,0:0:0:0:
320,192,95935,1,0,0:0:0:0:
64,192,96060,1,0,0:0:0:40:snare_edited1.wav
192,192,96060,1,0,0:0:0:40:LR_Hit Med Click.wav
448,192,96060,1,0,0:0:0:0:
64,192,96178,1,0,0:0:0:0:
448,192,96178,1,0,0:0:0:0:
320,192,96296,1,0,0:0:0:0:
448,192,96296,1,0,0:0:0:0:
64,192,96414,1,0,0:0:0:0:
64,192,96532,1,0,0:0:0:60:Kick 2.wav
192,192,96532,1,0,0:0:0:40:LR_Hit Med Click.wav
320,192,96532,1,0,0:0:0:0:
448,192,96532,1,0,0:0:0:0:
192,192,96653,1,0,0:0:0:0:
448,192,96653,1,0,0:0:0:0:
320,192,96775,1,0,0:0:0:0:
448,192,96775,1,0,0:0:0:0:
64,192,96897,1,0,0:0:0:60:Kick 2.wav
192,192,96897,1,0,0:0:0:0:
320,192,96897,1,0,0:0:0:0:
448,192,96897,1,0,0:0:0:0:
64,192,97019,1,0,0:0:0:40:snare_edited1.wav
192,192,97019,1,0,0:0:0:40:LR_Hit Med Click.wav
320,192,97019,1,0,0:0:0:0:
64,192,97139,1,0,0:0:0:0:
448,192,97139,1,0,0:0:0:0:
64,192,97259,1,0,0:0:0:60:Kick 2.wav
192,192,97259,1,0,0:0:0:0:
320,192,97259,1,0,0:0:0:0:
448,192,97259,1,0,0:0:0:0:
192,192,97379,1,0,0:0:0:0:
320,192,97379,1,0,0:0:0:0:
64,192,97499,1,0,0:0:0:60:Kick 2.wav
192,192,97499,1,0,0:0:0:40:LR_Hit Med Click.wav
320,192,97499,1,0,0:0:0:0:
448,192,97499,1,0,0:0:0:0:
64,192,97619,1,0,0:0:0:0:
448,192,97619,1,0,0:0:0:0:
320,192,97739,1,0,0:0:0:0:
192,192,97859,1,0,0:0:0:0:
320,192,97859,1,0,0:0:0:0:
64,192,97979,1,0,0:0:0:40:snare_edited1.wav
192,192,97979,1,0,0:0:0:40:LR_Hit Med Click.wav
320,192,97979,1,0,0:0:0:0:
64,192,98096,1,0,0:0:0:0:
192,192,98096,1,0,0:0:0:0:
320,192,98213,1,0,0:0:0:0:
448,192,98213,1,0,0:0:0:0:
320,192,98330,1,0,0:0:0:0:
64,192,98447,1,0,0:0:0:60:Kick 2.wav
192,192,98447,1,0,0:0:0:40:LR_Hit Med Click.wav
320,192,98447,1,0,0:0:0:0:
448,192,98447,1,0,0:0:0:0:
64,192,98565,1,0,0:0:0:0:
192,192,98565,1,0,0:0:0:0:
64,192,98684,1,0,0:0:0:0:
448,192,98684,1,0,0:0:0:0:
64,192,98802,1,0,0:0:0:60:Kick 2.wav
192,192,98802,1,0,0:0:0:0:
320,192,98802,1,0,0:0:0:0:
448,192,98802,1,0,0:0:0:0:
192,192,98921,1,0,0:0:0:40:snare_edited1.wav
320,192,98921,1,0,0:0:0:40:LR_Hit Med Click.wav
448,192,98921,1,0,0:0:0:0:
64,192,99042,1,0,0:0:0:0:
320,192,99042,1,0,0:0:0:0:
64,192,99164,1,0,0:0:0:60:Kick 2.wav
192,192,99164,1,0,0:0:0:0:
320,192,99164,1,0,0:0:0:0:
448,192,99164,1,0,0:0:0:0:
192,192,99286,1,0,0:0:0:0:
448,192,99286,1,0,0:0:0:0:
64,192,99408,1,0,0:0:0:60:Kick 2.wav
192,192,99408,1,0,0:0:0:40:LR_Hit Med Click.wav
320,192,99408,1,0,0:0:0:0:
448,192,99408,1,0,0:0:0:0:
64,192,99529,1,0,0:0:0:0:
320,192,99529,1,0,0:0:0:0:
192,192,99651,1,0,0:0:0:0:
64,192,99773,1,0,0:0:0:0:
448,192,99773,1,0,0:0:0:0:
192,192,99881,1,0,0:0:0:40:snare_edited1.wav
320,192,99881,1,0,0:0:0:40:LR_Hit Med Click.wav
448,192,99881,1,0,0:0:0:0:
64,192,99997,1,0,0:0:0:0:
448,192,99997,1,0,0:0:0:0:
64,192,100113,1,0,0:0:0:0:
192,192,100113,1,0,0:0:0:0:
192,192,100229,1,0,0:0:0:0:
64,192,100346,1,0,0:0:0:60:Kick 2.wav
192,192,100346,1,0,0:0:0:40:LR_Hit Med Click.wav
320,192,100346,1,0,0:0:0:0:
448,192,100346,1,0,0:0:0:0:
64,192,100471,1,0,0:0:0:0:
64,192,100597,1,0,0:0:0:40:snare_edited1.wav
320,192,100597,1,0,0:0:0:0:
448,192,100597,1,0,0:0:0:0:
320,192,100722,1,0,0:0:0:0:
192,192,100848,1,0,0:0:0:40:tom01.wav
320,192,100848,1,0,0:0:0:0:
64,192,100973,1,0,0:0:0:0:
192,192,100973,1,0,0:0:0:0:
192,192,101099,1,0,0:0:0:40:tom04.wav
448,192,101099,1,0,0:0:0:0:
320,192,101224,1,0,0:0:0:0:
448,192,101224,1,0,0:0:0:0:
64,192,101350,1,0,0:0:0:60:Kick 2.wav
192,192,101350,1,0,0:0:0:50:LR_HiHat SClick 2.wav
448,192,101422,1,0,0:0:0:0:
320,192,101494,1,0,0:0:0:0:
192,192,101603,1,0,0:0:0:50:LR_HiHat SClick 2.wav
448,192,101687,1,0,0:0:0:0:
64,192,101755,1,0,0:0:0:0:
192,192,101856,1,0,0:0:0:50:LR_HiHat SClick 2.wav
192,192,102109,1,0,0:0:0:50:LR_HiHat SClick 2.wav
64,192,102362,1,0,0:0:0:40:snare_edited1.wav
320,192,102362,1,0,0:0:0:50:LR_HiHat SClick 2.wav
448,192,102362,1,0,0:0:0:0:
320,192,102602,1,0,0:0:0:50:LR_HiHat SClick 2.wav
320,192,102842,1,0,0:0:0:50:LR_HiHat SClick 2.wav
192,192,103076,1,0,0:0:0:60:Kick 2.wav
320,192,103076,1,0,0:0:0:50:LR_HiHat SClick 2.wav
64,192,103322,1,0,0:0:0:60:Kick 2.wav
448,192,103322,1,0,0:0:0:50:LR_HiHat SClick 2.wav
192,192,103419,1,0,0:0:0:0:
64,192,103517,1,0,0:0:0:0:
320,192,103615,1,0,0:0:0:0:
192,192,103713,1,0,0:0:0:0:
448,192,103811,1,0,0:0:0:50:LR_HiHat SClick 2.wav
448,192,104056,1,0,0:0:0:50:LR_HiHat SClick 2.wav
64,192,104301,1,0,0:0:0:40:snare_edited1.wav
320,192,104301,1,0,0:0:0:50:LR_HiHat SClick 2.wav
448,192,104301,1,0,0:0:0:0:
320,192,104546,1,0,0:0:0:50:LR_HiHat SClick 2.wav
192,192,104791,1,0,0:0:0:50:LR_HiHat SClick 2.wav
64,192,105030,1,0,0:0:0:60:Kick 2.wav
192,192,105030,1,0,0:0:0:50:LR_HiHat SClick 2.wav
64,192,105269,1,0,0:0:0:60:Kick 2.wav
192,192,105269,1,0,0:0:0:50:LR_HiHat SClick 2.wav
448,192,105348,1,0,0:0:0:0:
64,192,105428,1,0,0:0:0:0:
448,192,105508,1,0,0:0:0:50:LR_HiHat SClick 2.wav
64,192,105587,1,0,0:0:0:0:
448,192,105667,1,0,0:0:0:0:
192,192,105747,1,0,0:0:0:50:LR_HiHat SClick 2.wav
192,192,105986,1,0,0:0:0:50:LR_HiHat SClick 2.wav
64,192,106225,1,0,0:0:0:40:snare_edited1.wav
320,192,106225,1,0,0:0:0:50:LR_HiHat SClick 2.wav
448,192,106225,1,0,0:0:0:0:
448,192,106464,1,0,0:0:0:50:LR_HiHat SClick 2.wav
320,192,106703,1,0,0:0:0:50:LR_HiHat SClick 2.wav
192,192,106923,1,0,0:0:0:60:Kick 2.wav
320,192,106923,1,0,0:0:0:50:LR_HiHat SClick 2.wav
64,192,107018,1,0,0:0:0:0:
448,192,107081,1,0,0:0:0:0:
192,192,107169,1,0,0:0:0:60:Kick 2.wav
320,192,107169,1,0,0:0:0:50:LR_HiHat SClick 2.wav
320,192,107410,1,0,0:0:0:50:LR_HiHat SClick 2.wav
64,192,107491,1,0,0:0:0:0:
448,192,107572,1,0,0:0:0:0:
192,192,107652,1,0,0:0:0:50:LR_HiHat SClick 2.wav
448,192,107773,1,0,0:0:0:0:
320,192,107894,1,0,0:0:0:50:LR_HiHat SClick 2.wav
64,192,107975,1,0,0:0:0:0:
192,192,108056,1,0,0:0:0:0:
64,192,108136,1,0,0:0:0:40:snare_edited1.wav
320,192,108136,1,0,0:0:0:50:LR_HiHat SClick 2.wav
448,192,108136,1,0,0:0:0:0:
192,192,108257,1,0,0:0:0:0:
448,192,108378,1,0,0:0:0:50:LR_HiHat SClick 2.wav
320,192,108499,1,0,0:0:0:0:
192,192,108620,1,0,0:0:0:50:LR_HiHat SClick 2.wav
64,192,108698,1,0,0:0:0:0:
320,192,108776,1,0,0:0:0:0:
192,192,108854,1,0,0:0:0:50:LR_HiHat SClick 2.wav
320,192,108954,1,0,0:0:0:0:
448,192,109021,1,0,0:0:0:0:
64,192,109088,1,0,0:0:0:60:Kick 2.wav
192,192,109088,1,0,0:0:0:50:LR_HiHat SClick 2.wav
64,192,109209,1,0,0:0:0:0:
448,192,109330,1,0,0:0:0:50:LR_HiHat SClick 2.wav
448,192,109452,1,0,0:0:0:0:
192,192,109573,1,0,0:0:0:50:LR_HiHat SClick 2.wav
192,192,109816,1,0,0:0:0:50:LR_HiHat SClick 2.wav
64,192,110059,1,0,0:0:0:40:snare_edited1.wav
192,192,110059,1,0,0:0:0:50:LR_HiHat SClick 2.wav
448,192,110059,1,0,0:0:0:0:
448,192,110302,1,0,0:0:0:50:LR_HiHat SClick 2.wav
192,192,110545,1,0,0:0:0:50:LR_HiHat SClick 2.wav
192,192,110760,1,0,0:0:0:60:Kick 2.wav
320,192,110760,1,0,0:0:0:50:LR_HiHat SClick 2.wav
64,192,111003,1,0,0:0:0:60:Kick 2.wav
448,192,111003,1,0,0:0:0:50:LR_HiHat SClick 2.wav
320,192,111084,1,0,0:0:0:0:
192,192,111165,1,0,0:0:0:0:
448,192,111246,1,0,0:0:0:50:LR_HiHat SClick 2.wav
320,192,111328,1,0,0:0:0:0:
192,192,111409,1,0,0:0:0:0:
64,192,111490,1,0,0:0:0:50:LR_HiHat SClick 2.wav
320,192,111734,1,0,0:0:0:50:LR_HiHat SClick 2.wav
64,192,111978,1,0,0:0:0:40:snare_edited1.wav
192,192,111978,1,0,0:0:0:50:LR_HiHat SClick 2.wav
448,192,111978,1,0,0:0:0:0:
448,192,112222,1,0,0:0:0:50:LR_HiHat SClick 2.wav
192,192,112466,1,0,0:0:0:50:LR_HiHat SClick 2.wav
64,192,112681,1,0,0:0:0:60:Kick 2.wav
192,192,112681,1,0,0:0:0:50:LR_HiHat SClick 2.wav
192,192,112918,1,0,0:0:0:60:Kick 2.wav
320,192,112918,1,0,0:0:0:50:LR_HiHat SClick 2.wav
448,192,112998,1,0,0:0:0:0:
192,192,113079,1,0,0:0:0:0:
64,192,113159,1,0,0:0:0:50:LR_HiHat SClick 2.wav
448,192,113240,1,0,0:0:0:0:
64,192,113321,1,0,0:0:0:0:
192,192,113401,1,0,0:0:0:50:LR_HiHat SClick 2.wav
320,192,113522,1,0,0:0:0:0:
192,192,113643,1,0,0:0:0:50:LR_HiHat SClick 2.wav
64,192,113885,1,0,0:0:0:40:snare_edited1.wav
320,192,113885,1,0,0:0:0:50:LR_HiHat SClick 2.wav
448,192,113885,1,0,0:0:0:0:
64,192,114118,1,0,0:0:0:50:LR_HiHat SClick 2.wav
320,192,114351,1,0,0:0:0:50:LR_HiHat SClick 2.wav
64,192,114568,1,0,0:0:0:60:Kick 2.wav
320,192,114568,1,0,0:0:0:50:LR_HiHat SClick 2.wav
448,192,114677,1,0,0:0:0:0:
64,192,114818,1,0,0:0:0:60:Kick 2.wav
192,192,114818,1,0,0:0:0:50:LR_HiHat SClick 2.wav
448,192,114899,1,0,0:0:0:0:
64,192,114980,1,0,0:0:0:0:
320,192,115061,1,0,0:0:0:50:LR_HiHat SClick 2.wav
192,192,115143,1,0,0:0:0:0:
448,192,115224,1,0,0:0:0:0:
320,192,115305,1,0,0:0:0:50:LR_HiHat SClick 2.wav
64,192,115427,1,0,0:0:0:0:
448,192,115549,1,0,0:0:0:50:LR_HiHat SClick 2.wav
192,192,115631,1,0,0:0:0:0:
320,192,115712,1,0,0:0:0:0:
64,192,115793,1,0,0:0:0:40:snare_edited1.wav
192,192,115793,1,0,0:0:0:50:LR_HiHat SClick 2.wav
448,192,115793,1,0,0:0:0:0:
320,192,115909,1,0,0:0:0:0:
192,192,116025,1,0,0:0:0:50:LR_HiHat SClick 2.wav
64,192,116141,1,0,0:0:0:0:
192,192,116258,1,0,0:0:0:50:LR_HiHat SClick 2.wav
320,192,116335,1,0,0:0:0:0:
448,192,116413,1,0,0:0:0:0:
64,192,116490,1,0,0:0:0:50:LR_HiHat SClick 2.wav
320,192,116568,1,0,0:0:0:0:
192,192,116723,1,0,0:0:0:60:Kick 2.wav
320,192,116723,1,0,0:0:0:50:LR_HiHat SClick 2.wav
448,192,116723,1,0,0:0:0:40:LR_Ride FInish.wav
64,192,116790,1,0,0:0:0:0:
192,192,116857,1,0,0:0:0:0:
448,192,116924,1,0,0:0:0:0:
64,192,116991,1,0,0:0:0:0:
320,192,117059,1,0,0:0:0:0:
448,192,117126,1,0,0:0:0:0:
192,192,117193,1,0,0:0:0:60:Kick 2.wav
320,192,117193,1,0,0:0:0:50:LR_HiHat SClick 2.wav
64,192,117260,1,0,0:0:0:0:
448,192,117328,1,0,0:0:0:0:
192,192,117395,1,0,0:0:0:0:
320,192,117462,1,0,0:0:0:0:
64,192,117529,1,0,0:0:0:0:
448,192,117596,1,0,0:0:0:0:
64,192,117664,1,0,0:0:0:40:snare_edited1.wav
192,192,117664,1,0,0:0:0:50:LR_HiHat SClick 2.wav
320,192,117664,1,0,0:0:0:0:
448,192,117731,1,0,0:0:0:0:
192,192,117798,1,0,0:0:0:0:
64,192,117865,1,0,0:0:0:0:
320,192,117899,1,0,0:0:0:60:Kick 2.wav
448,192,117899,1,0,0:0:0:50:LR_HiHat SClick 2.wav
192,192,118000,1,0,0:0:0:0:
320,192,118067,1,0,0:0:0:0:
448,192,118134,1,0,0:0:0:50:LR_HiHat SClick 2.wav
64,192,118195,1,0,0:0:0:0:
320,192,118257,1,0,0:0:0:0:
64,192,118349,1,0,0:0:0:60:Kick 2.wav
192,192,118349,1,0,0:0:0:50:LR_HiHat SClick 2.wav
448,192,118442,1,0,0:0:0:0:
320,192,118503,1,0,0:0:0:0:
64,192,118585,1,0,0:0:0:60:Kick 2.wav
192,192,118585,1,0,0:0:0:50:LR_HiHat SClick 2.wav
448,192,118652,1,0,0:0:0:0:
64,192,118719,1,0,0:0:0:0:
320,192,118786,1,0,0:0:0:0:
448,192,118853,1,0,0:0:0:0:
192,192,118921,1,0,0:0:0:0:
320,192,118988,1,0,0:0:0:0:
64,192,119055,1,0,0:0:0:60:Kick 2.wav
448,192,119055,1,0,0:0:0:50:LR_HiHat SClick 2.wav
192,192,119123,1,0,0:0:0:0:
448,192,119192,1,0,0:0:0:0:
64,192,119260,1,0,0:0:0:0:
320,192,119329,1,0,0:0:0:0:
192,192,119397,1,0,0:0:0:0:
448,192,119466,1,0,0:0:0:0:
64,192,119535,1,0,0:0:0:40:snare_edited1.wav
192,192,119535,1,0,0:0:0:50:LR_HiHat SClick 2.wav
320,192,119535,1,0,0:0:0:0:
448,192,119603,1,0,0:0:0:0:
64,192,119672,1,0,0:0:0:0:
320,192,119740,1,0,0:0:0:0:
192,192,119809,1,0,0:0:0:0:
448,192,119877,1,0,0:0:0:0:
64,192,119946,1,0,0:0:0:0:
320,192,120015,1,0,0:0:0:50:LR_HiHat SClick 2.wav
192,192,120127,1,0,0:0:0:0:
320,192,120240,1,0,0:0:0:50:LR_HiHat SClick 2.wav
64,192,120466,1,0,0:0:0:60:Kick 2.wav
192,192,120466,1,0,0:0:0:50:LR_HiHat SClick 2.wav
320,192,120580,1,0,0:0:0:0:
192,192,120695,1,0,0:0:0:50:LR_HiHat SClick 2.wav
64,192,120809,1,0,0:0:0:0:
320,192,120924,1,0,0:0:0:60:Kick 2.wav
448,192,120924,1,0,0:0:0:50:LR_HiHat SClick 2.wav
192,192,121038,1,0,0:0:0:0:
320,192,121153,1,0,0:0:0:50:LR_HiHat SClick 2.wav
448,192,121267,1,0,0:0:0:0:
64,192,121382,1,0,0:0:0:40:snare_edited1.wav
192,192,121382,1,0,0:0:0:50:LR_HiHat SClick 2.wav
320,192,121382,1,0,0:0:0:0:
64,192,121611,1,0,0:0:0:60:Kick 2.wav
192,192,121611,1,0,0:0:0:50:LR_HiHat SClick 2.wav
448,192,121687,1,0,0:0:0:0:
320,192,121840,1,0,0:0:0:50:LR_HiHat SClick 2.wav
192,192,122016,1,0,0:0:0:0:
320,192,122060,1,0,0:0:0:60:Kick 2.wav
448,192,122060,1,0,0:0:0:50:LR_HiHat SClick 2.wav
64,192,122281,1,0,0:0:0:60:Kick 2.wav
192,192,122281,1,0,0:0:0:50:LR_HiHat SClick 2.wav
320,192,122339,1,0,0:0:0:0:
448,192,122398,1,0,0:0:0:0:
64,192,122515,1,0,0:0:0:50:LR_HiHat SClick 2.wav
320,192,122632,1,0,0:0:0:0:
64,192,122691,1,0,0:0:0:0:
192,192,122749,1,0,0:0:0:60:Kick 2.wav
448,192,122749,1,0,0:0:0:50:LR_HiHat SClick 2.wav
320,192,122870,1,0,0:0:0:0:
64,192,122992,1,0,0:0:0:50:LR_HiHat SClick 2.wav
448,192,123053,1,0,0:0:0:0:
192,192,123114,1,0,0:0:0:0:
64,192,123236,1,0,0:0:0:40:snare_edited1.wav
320,192,123236,1,0,0:0:0:50:LR_HiHat SClick 2.wav
448,192,123236,1,0,0:0:0:0:
64,192,123352,1,0,0:0:0:0:
192,192,123469,1,0,0:0:0:50:LR_HiHat SClick 2.wav
320,192,123586,1,0,0:0:0:0:
448,192,123702,1,0,0:0:0:50:LR_HiHat SClick 2.wav
64,192,123780,1,0,0:0:0:0:
448,192,123858,1,0,0:0:0:0:
320,192,123936,1,0,0:0:0:50:LR_HiHat SClick 2.wav
192,192,124014,1,0,0:0:0:0:
64,192,124092,1,0,0:0:0:0:
320,192,124169,1,0,0:0:0:60:Kick 2.wav
448,192,124169,1,0,0:0:0:50:LR_HiHat SClick 2.wav
192,192,124237,1,0,0:0:0:0:
64,192,124305,1,0,0:0:0:0:
448,192,124373,1,0,0:0:0:0:
192,192,124441,1,0,0:0:0:0:
320,192,124509,1,0,0:0:0:0:
448,192,124577,1,0,0:0:0:0:
64,192,124645,1,0,0:0:0:60:Kick 2.wav
192,192,124645,1,0,0:0:0:50:LR_HiHat SClick 2.wav
320,192,124713,1,0,0:0:0:0:
64,192,124781,1,0,0:0:0:0:
448,192,124849,1,0,0:0:0:0:
192,192,124917,1,0,0:0:0:0:
320,192,124985,1,0,0:0:0:0:
448,192,125053,1,0,0:0:0:0:
64,192,125121,1,0,0:0:0:40:snare_edited1.wav
192,192,125121,1,0,0:0:0:50:LR_HiHat SClick 2.wav
320,192,125121,1,0,0:0:0:0:
448,192,125185,1,0,0:0:0:0:
192,192,125249,1,0,0:0:0:0:
64,192,125313,1,0,0:0:0:0:
320,192,125345,1,0,0:0:0:60:Kick 2.wav
448,192,125345,1,0,0:0:0:50:LR_HiHat SClick 2.wav
192,192,125442,1,0,0:0:0:0:
320,192,125506,1,0,0:0:0:0:
64,192,125570,1,0,0:0:0:50:LR_HiHat SClick 2.wav
448,192,125634,1,0,0:0:0:0:
64,192,125698,1,0,0:0:0:0:
192,192,125763,1,0,0:0:0:0:
320,192,125795,1,0,0:0:0:60:Kick 2.wav
448,192,125795,1,0,0:0:0:50:LR_HiHat SClick 2.wav
64,192,125891,1,0,0:0:0:0:
192,192,125955,1,0,0:0:0:0:
320,192,126019,1,0,0:0:0:60:Kick 2.wav
448,192,126019,1,0,0:0:0:50:LR_HiHat SClick 2.wav
192,192,126086,1,0,0:0:0:0:
64,192,126153,1,0,0:0:0:0:
320,192,126221,1,0,0:0:0:0:
192,192,126288,1,0,0:0:0:0:
64,192,126356,1,0,0:0:0:0:
192,192,126423,1,0,0:0:0:0:
320,192,126491,1,0,0:0:0:60:Kick 2.wav
448,192,126491,1,0,0:0:0:50:LR_HiHat SClick 2.wav
192,192,126560,1,0,0:0:0:0:
64,192,126630,1,0,0:0:0:0:
320,192,126700,1,0,0:0:0:0:
448,192,126769,1,0,0:0:0:0:
64,192,126839,1,0,0:0:0:0:
192,192,126909,1,0,0:0:0:0:
64,192,126978,1,0,0:0:0:40:snare_edited1.wav
320,192,126978,1,0,0:0:0:50:LR_HiHat SClick 2.wav
448,192,126978,1,0,0:0:0:0:
192,192,127044,1,0,0:0:0:0:
448,192,127111,1,0,0:0:0:0:
320,192,127178,1,0,0:0:0:0:
64,192,127245,1,0,0:0:0:0:
192,192,127312,1,0,0:0:0:0:
448,192,127379,1,0,0:0:0:0:
320,192,127446,1,0,0:0:0:50:LR_HiHat SClick 2.wav
64,192,127524,1,0,0:0:0:0:
320,192,127603,1,0,0:0:0:0:
64,192,127681,1,0,0:0:0:50:LR_HiHat SClick 2.wav
192,192,127798,1,0,0:0:0:0:
320,192,127915,1,0,0:0:0:60:Kick 2.wav
448,192,127915,1,0,0:0:0:50:LR_HiHat SClick 2.wav
64,192,127993,1,0,0:0:0:0:
192,192,128071,1,0,0:0:0:0:
320,192,128196,1,0,0:0:0:0:
192,192,128290,1,0,0:0:0:0:
64,192,128383,1,0,0:0:0:60:Kick 2.wav
448,192,128383,1,0,0:0:0:50:LR_HiHat SClick 2.wav
320,192,128477,1,0,0:0:0:0:
192,192,128571,1,0,0:0:0:0:
64,192,128665,1,0,0:0:0:0:
320,192,128758,1,0,0:0:0:0:
64,192,128852,1,0,0:0:0:40:snare_edited1.wav
192,192,128852,1,0,0:0:0:50:LR_HiHat SClick 2.wav
448,192,128852,1,0,0:0:0:0:
192,192,129074,1,0,0:0:0:60:Kick 2.wav
320,192,129074,1,0,0:0:0:50:LR_HiHat SClick 2.wav
64,192,129296,1,0,0:0:0:50:LR_HiHat SClick 2.wav
64,192,129518,1,0,0:0:0:60:Kick 2.wav
320,192,129518,1,0,0:0:0:50:LR_HiHat SClick 2.wav
64,192,129740,1,0,0:0:0:60:Kick 2.wav
192,192,129740,1,0,0:0:0:50:LR_HiHat SClick 2.wav
320,192,129740,1,0,0:0:0:40:LR_Ride FInish.wav
448,192,129740,1,0,0:0:0:0:
320,192,130121,1,0,0:0:0:0:
320,192,130502,1,0,0:0:0:0:
320,192,130756,1,0,0:0:0:0:
320,192,131243,1,0,0:0:0:0:
64,192,131731,1,0,0:0:0:50:LR_HiHat SClick 2.wav
320,192,131731,128,0,133120:0:0:0:0:
64,192,132194,1,0,0:0:0:50:LR_HiHat SClick 2.wav
64,192,132657,1,0,0:0:0:50:LR_HiHat SClick 2.wav
64,192,133120,1,0,0:0:0:50:LR_HiHat SClick 2.wav
64,192,133584,1,0,0:0:0:60:Kick 2.wav
192,192,133584,1,0,0:0:0:40:LR_Hit Med Click.wav
320,192,133584,1,0,0:0:0:0:
448,192,133584,1,0,0:0:0:0:
320,192,133700,1,0,0:0:0:0:
64,192,133815,1,0,0:0:0:40:snare_edited1.wav
192,192,133815,1,0,0:0:0:40:LR_Hit Med Click.wav
448,192,133815,1,0,0:0:0:0:
64,192,133931,1,0,0:0:0:60:Kick 2.wav
320,192,133931,1,0,0:0:0:0:
320,192,134047,1,0,0:0:0:40:LR_Hit Med Click.wav
64,192,134163,1,0,0:0:0:60:Kick 2.wav
448,192,134163,1,0,0:0:0:0:
64,192,134279,1,0,0:0:0:40:snare_edited1.wav
192,192,134279,1,0,0:0:0:40:LR_Hit Med Click.wav
448,192,134279,1,0,0:0:0:0:
320,192,134337,1,0,0:0:0:0:
192,192,134395,1,0,0:0:0:0:
448,192,134453,1,0,0:0:0:0:
64,192,134510,1,0,0:0:0:60:Kick 2.wav
320,192,134510,1,0,0:0:0:40:LR_Hit Med Click.wav
320,192,134627,1,0,0:0:0:0:
64,192,134744,1,0,0:0:0:40:snare_edited1.wav
192,192,134744,1,0,0:0:0:40:LR_Hit Med Click.wav
448,192,134744,1,0,0:0:0:0:
320,192,134861,1,0,0:0:0:60:Kick 2.wav
448,192,134861,1,0,0:0:0:0:
64,192,134978,1,0,0:0:0:40:LR_Hit Med Click.wav
64,192,135095,1,0,0:0:0:60:Kick 2.wav
448,192,135095,1,0,0:0:0:0:
192,192,135213,1,0,0:0:0:40:snare_edited1.wav
320,192,135213,1,0,0:0:0:40:LR_Hit Med Click.wav
448,192,135213,1,0,0:0:0:0:
64,192,135271,1,0,0:0:0:0:
320,192,135330,1,0,0:0:0:0:
192,192,135388,1,0,0:0:0:0:
64,192,135447,1,0,0:0:0:60:Kick 2.wav
448,192,135447,1,0,0:0:0:40:LR_Hit Med Click.wav
448,192,135559,1,0,0:0:0:0:
64,192,135671,1,0,0:0:0:40:snare_edited1.wav
192,192,135671,1,0,0:0:0:40:LR_Hit Med Click.wav
320,192,135671,1,0,0:0:0:0:
192,192,135784,1,0,0:0:0:60:Kick 2.wav
448,192,135784,1,0,0:0:0:0:
320,192,135896,1,0,0:0:0:40:LR_Hit Med Click.wav
64,192,136008,1,0,0:0:0:60:Kick 2.wav
320,192,136008,1,0,0:0:0:0:
64,192,136121,1,0,0:0:0:40:snare_edited1.wav
192,192,136121,1,0,0:0:0:40:LR_Hit Med Click.wav
448,192,136121,1,0,0:0:0:0:
320,192,136177,1,0,0:0:0:0:
448,192,136233,1,0,0:0:0:0:
64,192,136289,1,0,0:0:0:0:
192,192,136345,1,0,0:0:0:60:Kick 2.wav
320,192,136345,1,0,0:0:0:40:LR_Hit Med Click.wav
320,192,136462,1,0,0:0:0:0:
64,192,136579,1,0,0:0:0:40:snare_edited1.wav
192,192,136579,1,0,0:0:0:40:LR_Hit Med Click.wav
448,192,136579,1,0,0:0:0:0:
64,192,136696,1,0,0:0:0:60:Kick 2.wav
320,192,136696,1,0,0:0:0:0:
448,192,136813,1,0,0:0:0:40:LR_Hit Med Click.wav
192,192,136930,1,0,0:0:0:60:Kick 2.wav
448,192,136930,1,0,0:0:0:0:
64,192,137048,1,0,0:0:0:40:snare_edited1.wav
192,192,137048,1,0,0:0:0:40:LR_Hit Med Click.wav
320,192,137048,1,0,0:0:0:0:
448,192,137106,1,0,0:0:0:0:
64,192,137165,1,0,0:0:0:0:
320,192,137223,1,0,0:0:0:0:
192,192,137282,1,0,0:0:0:60:Kick 2.wav
448,192,137282,1,0,0:0:0:40:LR_Hit Med Click.wav
192,192,137399,1,0,0:0:0:0:
64,192,137516,1,0,0:0:0:40:snare_edited1.wav
320,192,137516,1,0,0:0:0:40:LR_Hit Med Click.wav
448,192,137516,1,0,0:0:0:0:
320,192,137633,1,0,0:0:0:60:Kick 2.wav
448,192,137633,1,0,0:0:0:0:
192,192,137750,1,0,0:0:0:40:LR_Hit Med Click.wav
192,192,137867,1,0,0:0:0:60:Kick 2.wav
448,192,137867,1,0,0:0:0:0:
64,192,137985,1,0,0:0:0:40:snare_edited1.wav
320,192,137985,1,0,0:0:0:40:LR_Hit Med Click.wav
448,192,137985,1,0,0:0:0:0:
192,192,138043,1,0,0:0:0:0:
64,192,138102,1,0,0:0:0:0:
320,192,138160,1,0,0:0:0:0:
192,192,138219,1,0,0:0:0:60:Kick 2.wav
448,192,138219,1,0,0:0:0:40:LR_Hit Med Click.wav
192,192,138336,1,0,0:0:0:0:
64,192,138453,1,0,0:0:0:40:snare_edited1.wav
320,192,138453,1,0,0:0:0:40:LR_Hit Med Click.wav
448,192,138453,1,0,0:0:0:0:
64,192,138571,1,0,0:0:0:60:Kick 2.wav
192,192,138571,1,0,0:0:0:0:
320,192,138688,1,0,0:0:0:40:LR_Hit Med Click.wav
64,192,138805,1,0,0:0:0:60:Kick 2.wav
320,192,138805,1,0,0:0:0:0:
64,192,138922,1,0,0:0:0:40:snare_edited1.wav
192,192,138922,1,0,0:0:0:40:LR_Hit Med Click.wav
448,192,138922,1,0,0:0:0:0:
320,192,138981,1,0,0:0:0:0:
192,192,139039,1,0,0:0:0:0:
448,192,139098,1,0,0:0:0:0:
64,192,139146,1,0,0:0:0:60:Kick 2.wav
320,192,139146,1,0,0:0:0:40:LR_Hit Med Click.wav
64,192,139263,1,0,0:0:0:0:
192,192,139380,1,0,0:0:0:40:snare_edited1.wav
320,192,139380,1,0,0:0:0:40:LR_Hit Med Click.wav
448,192,139380,1,0,0:0:0:0:
64,192,139497,1,0,0:0:0:60:Kick 2.wav
448,192,139497,1,0,0:0:0:0:
192,192,139614,1,0,0:0:0:40:LR_Hit Med Click.wav
192,192,139731,1,0,0:0:0:60:Kick 2.wav
448,192,139731,1,0,0:0:0:0:
64,192,139849,1,0,0:0:0:40:snare_edited1.wav
320,192,139849,1,0,0:0:0:40:LR_Hit Med Click.wav
448,192,139849,1,0,0:0:0:0:
192,192,139907,1,0,0:0:0:0:
320,192,139966,1,0,0:0:0:0:
448,192,140024,1,0,0:0:0:0:
64,192,140083,1,0,0:0:0:60:Kick 2.wav
192,192,140083,1,0,0:0:0:40:LR_Hit Med Click.wav
64,192,140200,1,0,0:0:0:0:
64,192,140317,1,0,0:0:0:40:snare_edited1.wav
320,192,140317,1,0,0:0:0:40:LR_Hit Med Click.wav
448,192,140317,1,0,0:0:0:0:
192,192,140435,1,0,0:0:0:60:Kick 2.wav
448,192,140435,1,0,0:0:0:0:
320,192,140552,1,0,0:0:0:40:LR_Hit Med Click.wav
64,192,140667,1,0,0:0:0:60:Kick 2.wav
448,192,140667,1,0,0:0:0:0:
64,192,140782,1,0,0:0:0:40:snare_edited1.wav
192,192,140782,1,0,0:0:0:40:LR_Hit Med Click.wav
448,192,140782,1,0,0:0:0:0:
320,192,140840,1,0,0:0:0:0:
192,192,140898,1,0,0:0:0:0:
64,192,140955,1,0,0:0:0:0:
320,192,141013,1,0,0:0:0:60:Kick 2.wav
448,192,141013,1,0,0:0:0:40:LR_Hit Med Click.wav
192,192,141071,1,0,0:0:0:0:
448,192,141129,1,0,0:0:0:0:
320,192,141187,1,0,0:0:0:0:
192,192,141245,1,0,0:0:0:0:
64,192,141303,1,0,0:0:0:0:
192,192,141361,1,0,0:0:0:0:
320,192,141419,1,0,0:0:0:0:
64,192,141478,1,0,0:0:0:40:snare_edited1.wav
192,192,141478,1,0,0:0:0:40:LR_Hit Med Click.wav
448,192,141478,1,0,0:0:0:0:
320,192,141529,1,0,0:0:0:0:
448,192,141594,1,0,0:0:0:0:
64,192,141633,1,0,0:0:0:0:
192,192,141710,1,0,0:0:0:0:
448,192,141788,1,0,0:0:0:0:
192,192,141826,1,0,0:0:0:0:
320,192,141891,1,0,0:0:0:0:
64,192,141943,1,0,0:0:0:60:Kick 2.wav
448,192,141943,1,0,0:0:0:40:LR_Hit Med Click.wav
192,192,141994,1,0,0:0:0:0:
320,192,142046,1,0,0:0:0:0:
64,192,142098,1,0,0:0:0:0:
192,192,142149,1,0,0:0:0:0:
320,192,142201,1,0,0:0:0:0:
64,192,142292,1,0,0:0:0:60:Kick 2.wav
448,192,142292,1,0,0:0:0:0:
64,192,142408,1,0,0:0:0:40:snare_edited1.wav
192,192,142408,1,0,0:0:0:40:LR_Hit Med Click.wav
448,192,142408,1,0,0:0:0:0:
320,192,142460,1,0,0:0:0:0:
192,192,142511,1,0,0:0:0:0:
448,192,142563,1,0,0:0:0:0:
64,192,142640,1,0,0:0:0:60:Kick 2.wav
320,192,142640,1,0,0:0:0:0:
192,192,142718,1,0,0:0:0:0:
64,192,142770,1,0,0:0:0:0:
320,192,142873,1,0,0:0:0:60:Kick 2.wav
448,192,142873,1,0,0:0:0:40:LR_Hit Med Click.wav
192,192,142930,1,0,0:0:0:0:
320,192,142988,1,0,0:0:0:0:
448,192,143046,1,0,0:0:0:0:
64,192,143104,1,0,0:0:0:0:
192,192,143162,1,0,0:0:0:0:
64,192,143220,1,0,0:0:0:0:
320,192,143278,1,0,0:0:0:0:
64,192,143336,1,0,0:0:0:40:snare_edited1.wav
192,192,143336,1,0,0:0:0:40:LR_Hit Med Click.wav
448,192,143336,1,0,0:0:0:0:
320,192,143385,1,0,0:0:0:0:
448,192,143447,1,0,0:0:0:0:
64,192,143485,1,0,0:0:0:0:
192,192,143559,1,0,0:0:0:0:
448,192,143634,1,0,0:0:0:0:
192,192,143671,1,0,0:0:0:0:
320,192,143734,1,0,0:0:0:0:
64,192,143783,1,0,0:0:0:60:Kick 2.wav
448,192,143783,1,0,0:0:0:40:LR_Hit Med Click.wav
192,192,143836,1,0,0:0:0:0:
320,192,143889,1,0,0:0:0:0:
64,192,143943,1,0,0:0:0:0:
192,192,143996,1,0,0:0:0:0:
320,192,144049,1,0,0:0:0:0:
64,192,144143,1,0,0:0:0:60:Kick 2.wav
448,192,144143,1,0,0:0:0:0:
64,192,144262,1,0,0:0:0:40:snare_edited1.wav
192,192,144262,1,0,0:0:0:40:LR_Hit Med Click.wav
448,192,144262,1,0,0:0:0:0:
320,192,144313,1,0,0:0:0:0:
192,192,144364,1,0,0:0:0:0:
448,192,144416,1,0,0:0:0:0:
64,192,144493,1,0,0:0:0:60:Kick 2.wav
320,192,144493,1,0,0:0:0:0:
192,192,144551,1,0,0:0:0:0:
64,192,144622,1,0,0:0:0:0:
320,192,144726,1,0,0:0:0:60:Kick 2.wav
448,192,144726,1,0,0:0:0:40:LR_Hit Med Click.wav
192,192,144785,1,0,0:0:0:0:
64,192,144845,1,0,0:0:0:0:
320,192,144904,1,0,0:0:0:0:
448,192,144964,1,0,0:0:0:0:
192,192,145023,1,0,0:0:0:0:
320,192,145083,1,0,0:0:0:0:
64,192,145142,1,0,0:0:0:0:
192,192,145202,1,0,0:0:0:40:snare_edited1.wav
320,192,145202,1,0,0:0:0:40:LR_Hit Med Click.wav
448,192,145202,1,0,0:0:0:0:
64,192,145252,1,0,0:0:0:0:
448,192,145316,1,0,0:0:0:0:
192,192,145354,1,0,0:0:0:0:
320,192,145430,1,0,0:0:0:0:
64,192,145506,1,0,0:0:0:0:
448,192,145544,1,0,0:0:0:0:
320,192,145608,1,0,0:0:0:0:
64,192,145659,1,0,0:0:0:60:Kick 2.wav
448,192,145659,1,0,0:0:0:40:LR_Hit Med Click.wav
192,192,145710,1,0,0:0:0:0:
320,192,145762,1,0,0:0:0:0:
64,192,145814,1,0,0:0:0:0:
192,192,145866,1,0,0:0:0:0:
320,192,145918,1,0,0:0:0:0:
64,192,146009,1,0,0:0:0:60:Kick 2.wav
448,192,146009,1,0,0:0:0:0:
64,192,146125,1,0,0:0:0:40:snare_edited1.wav
192,192,146125,1,0,0:0:0:40:LR_Hit Med Click.wav
448,192,146125,1,0,0:0:0:0:
320,192,146177,1,0,0:0:0:0:
192,192,146229,1,0,0:0:0:0:
448,192,146281,1,0,0:0:0:0:
64,192,146359,1,0,0:0:0:60:Kick 2.wav
320,192,146359,1,0,0:0:0:0:
192,192,146417,1,0,0:0:0:0:
64,192,146489,1,0,0:0:0:0:
320,192,146593,1,0,0:0:0:60:Kick 2.wav
448,192,146593,1,0,0:0:0:40:LR_Hit Med Click.wav
192,192,146652,1,0,0:0:0:0:
64,192,146711,1,0,0:0:0:0:
448,192,146770,1,0,0:0:0:0:
320,192,146829,1,0,0:0:0:0:
64,192,146888,1,0,0:0:0:0:
320,192,146947,1,0,0:0:0:0:
192,192,147006,1,0,0:0:0:0:
64,192,147065,1,0,0:0:0:40:snare_edited1.wav
320,192,147065,1,0,0:0:0:40:LR_Hit Med Click.wav
448,192,147065,1,0,0:0:0:0:
192,192,147115,1,0,0:0:0:0:
448,192,147177,1,0,0:0:0:0:
320,192,147215,1,0,0:0:0:0:
64,192,147290,1,0,0:0:0:0:
320,192,147365,1,0,0:0:0:0:
64,192,147402,1,0,0:0:0:0:
192,192,147465,1,0,0:0:0:0:
320,192,147516,1,0,0:0:0:60:Kick 2.wav
448,192,147516,1,0,0:0:0:40:LR_Hit Med Click.wav
64,192,147567,1,0,0:0:0:0:
320,192,147632,1,0,0:0:0:0:
448,192,147671,1,0,0:0:0:0:
64,192,147748,1,0,0:0:0:0:
192,192,147806,1,0,0:0:0:0:
320,192,147864,1,0,0:0:0:60:Kick 2.wav
448,192,147864,1,0,0:0:0:0:
64,192,147981,1,0,0:0:0:40:snare_edited1.wav
320,192,147981,1,0,0:0:0:40:LR_Hit Med Click.wav
448,192,147981,1,0,0:0:0:0:
64,192,148095,1,0,0:0:0:0:
192,192,148133,1,0,0:0:0:0:
320,192,148210,1,0,0:0:0:60:Kick 2.wav
448,192,148210,1,0,0:0:0:0:
64,192,148286,1,0,0:0:0:0:
448,192,148324,1,0,0:0:0:0:
192,192,148388,1,0,0:0:0:0:
64,192,148439,1,0,0:0:0:60:Kick 2.wav
320,192,148439,1,0,0:0:0:40:LR_Hit Med Click.wav
448,192,148439,1,0,0:0:0:40:LR_Ride FInish.wav
320,192,148556,1,0,0:0:0:0:
192,192,148673,1,0,0:0:0:0:
448,192,148712,1,0,0:0:0:0:
64,192,148751,1,0,0:0:0:0:
192,192,148790,1,0,0:0:0:0:
320,192,148849,1,0,0:0:0:0:
64,192,148907,1,0,0:0:0:40:snare_edited1.wav
192,192,148907,1,0,0:0:0:40:LR_Hit Med Click.wav
448,192,148907,1,0,0:0:0:0:
320,192,148964,1,0,0:0:0:0:
448,192,149022,1,0,0:0:0:0:
320,192,149137,1,0,0:0:0:0:
64,192,149183,1,0,0:0:0:0:
320,192,149253,1,0,0:0:0:0:
192,192,149368,1,0,0:0:0:60:Kick 2.wav
448,192,149368,1,0,0:0:0:40:LR_Hit Med Click.wav
320,192,149462,1,0,0:0:0:0:
192,192,149486,1,0,0:0:0:0:
64,192,149604,1,0,0:0:0:0:
320,192,149663,1,0,0:0:0:0:
64,192,149722,1,0,0:0:0:60:Kick 2.wav
448,192,149722,1,0,0:0:0:0:
192,192,149840,1,0,0:0:0:40:snare_edited1.wav
320,192,149840,1,0,0:0:0:40:LR_Hit Med Click.wav
448,192,149840,1,0,0:0:0:0:
64,192,149896,1,0,0:0:0:0:
192,192,149952,1,0,0:0:0:0:
320,192,150009,1,0,0:0:0:0:
64,192,150065,1,0,0:0:0:60:Kick 2.wav
448,192,150065,1,0,0:0:0:0:
192,192,150121,1,0,0:0:0:0:
64,192,150178,1,0,0:0:0:0:
320,192,150234,1,0,0:0:0:0:
192,192,150291,1,0,0:0:0:60:Kick 2.wav
448,192,150291,1,0,0:0:0:40:LR_Hit Med Click.wav
192,192,150411,1,0,0:0:0:0:
320,192,150531,1,0,0:0:0:0:
64,192,150612,1,0,0:0:0:0:
320,192,150652,1,0,0:0:0:0:
192,192,150692,1,0,0:0:0:0:
64,192,150772,1,0,0:0:0:40:snare_edited1.wav
320,192,150772,1,0,0:0:0:40:LR_Hit Med Click.wav
448,192,150772,1,0,0:0:0:0:
448,192,150889,1,0,0:0:0:0:
64,192,151006,1,0,0:0:0:0:
448,192,151064,1,0,0:0:0:0:
64,192,151123,1,0,0:0:0:0:
320,192,151182,1,0,0:0:0:0:
192,192,151240,1,0,0:0:0:60:Kick 2.wav
448,192,151240,1,0,0:0:0:40:LR_Hit Med Click.wav
64,192,151299,1,0,0:0:0:0:
448,192,151357,1,0,0:0:0:0:
320,192,151416,1,0,0:0:0:0:
192,192,151475,1,0,0:0:0:0:
64,192,151592,1,0,0:0:0:60:Kick 2.wav
192,192,151592,1,0,0:0:0:0:
64,192,151709,1,0,0:0:0:40:snare_edited1.wav
320,192,151709,1,0,0:0:0:40:LR_Hit Med Click.wav
448,192,151709,1,0,0:0:0:0:
320,192,151823,1,0,0:0:0:0:
192,192,151938,1,0,0:0:0:60:Kick 2.wav
448,192,151938,1,0,0:0:0:0:
448,192,152052,1,0,0:0:0:0:
64,192,152167,1,0,0:0:0:60:Kick 2.wav
320,192,152167,1,0,0:0:0:40:LR_Hit Med Click.wav
320,192,152289,1,0,0:0:0:0:
64,192,152412,1,0,0:0:0:0:
448,192,152494,1,0,0:0:0:0:
64,192,152535,1,0,0:0:0:0:
320,192,152576,1,0,0:0:0:0:
192,192,152658,1,0,0:0:0:40:snare_edited1.wav
320,192,152658,1,0,0:0:0:40:LR_Hit Med Click.wav
448,192,152658,1,0,0:0:0:0:
64,192,152715,1,0,0:0:0:0:
192,192,152773,1,0,0:0:0:0:
320,192,152889,1,0,0:0:0:0:
192,192,152967,1,0,0:0:0:0:
320,192,153005,1,0,0:0:0:0:
64,192,153121,1,0,0:0:0:60:Kick 2.wav
448,192,153121,1,0,0:0:0:40:LR_Hit Med Click.wav
448,192,153237,1,0,0:0:0:0:
320,192,153276,1,0,0:0:0:0:
64,192,153353,1,0,0:0:0:0:
448,192,153411,1,0,0:0:0:0:
64,192,153469,1,0,0:0:0:60:Kick 2.wav
192,192,153469,1,0,0:0:0:0:
192,192,153585,1,0,0:0:0:40:snare_edited1.wav
320,192,153585,1,0,0:0:0:40:LR_Hit Med Click.wav
448,192,153585,1,0,0:0:0:0:
64,192,153643,1,0,0:0:0:0:
320,192,153701,1,0,0:0:0:0:
192,192,153817,1,0,0:0:0:60:Kick 2.wav
448,192,153817,1,0,0:0:0:0:
192,192,153933,1,0,0:0:0:0:
448,192,153991,1,0,0:0:0:0:
64,192,154049,1,0,0:0:0:60:Kick 2.wav
320,192,154049,1,0,0:0:0:40:LR_Hit Med Click.wav
192,192,154110,1,0,0:0:0:0:
320,192,154171,1,0,0:0:0:0:
320,192,154294,1,0,0:0:0:0:
320,192,154417,1,0,0:0:0:0:
64,192,154540,1,0,0:0:0:40:snare_edited1.wav
192,192,154540,1,0,0:0:0:40:LR_Hit Med Click.wav
448,192,154540,1,0,0:0:0:0:
320,192,154597,1,0,0:0:0:0:
192,192,154654,1,0,0:0:0:0:
192,192,154769,1,0,0:0:0:0:
192,192,154883,1,0,0:0:0:0:
64,192,154998,1,0,0:0:0:60:Kick 2.wav
320,192,154998,1,0,0:0:0:40:LR_Hit Med Click.wav
448,192,155059,1,0,0:0:0:0:
64,192,155120,1,0,0:0:0:0:
64,192,155242,1,0,0:0:0:0:
64,192,155365,1,0,0:0:0:60:Kick 2.wav
320,192,155365,1,0,0:0:0:0:
192,192,155487,1,0,0:0:0:40:snare_edited1.wav
320,192,155487,1,0,0:0:0:40:LR_Hit Med Click.wav
448,192,155487,1,0,0:0:0:0:
64,192,155544,1,0,0:0:0:0:
448,192,155601,1,0,0:0:0:0:
64,192,155716,1,0,0:0:0:60:Kick 2.wav
448,192,155716,1,0,0:0:0:0:
448,192,155830,1,0,0:0:0:0:
320,192,155906,1,0,0:0:0:0:
64,192,155967,1,0,0:0:0:60:Kick 2.wav
192,192,155967,1,0,0:0:0:50:LR_HiHat SClick 2.wav
448,192,155967,1,0,0:0:0:40:LR_Ride FInish.wav
320,192,156027,1,0,0:0:0:0:
192,192,156087,1,0,0:0:0:0:
64,192,156147,1,0,0:0:0:0:
192,192,156207,1,0,0:0:0:50:LR_HiHat SClick 2.wav
320,192,156267,1,0,0:0:0:0:
64,192,156351,1,0,0:0:0:0:
320,192,156447,1,0,0:0:0:50:LR_HiHat SClick 2.wav
192,192,156527,1,0,0:0:0:0:
320,192,156607,1,0,0:0:0:0:
192,192,156687,1,0,0:0:0:50:LR_HiHat SClick 2.wav
64,192,156807,1,0,0:0:0:0:
64,192,156927,1,0,0:0:0:40:snare_edited1.wav
192,192,156927,1,0,0:0:0:50:LR_HiHat SClick 2.wav
448,192,156927,1,0,0:0:0:0:
320,192,157007,1,0,0:0:0:0:
192,192,157087,1,0,0:0:0:0:
320,192,157167,1,0,0:0:0:50:LR_HiHat SClick 2.wav
192,192,157247,1,0,0:0:0:0:
320,192,157327,1,0,0:0:0:0:
64,192,157407,1,0,0:0:0:50:LR_HiHat SClick 2.wav
64,192,157637,1,0,0:0:0:50:LR_HiHat SClick 2.wav
64,192,157810,1,0,0:0:0:0:
320,192,157868,1,0,0:0:0:60:Kick 2.wav
448,192,157868,1,0,0:0:0:50:LR_HiHat SClick 2.wav
448,192,157947,1,0,0:0:0:0:
64,192,157986,1,0,0:0:0:0:
192,192,158045,1,0,0:0:0:0:
320,192,158105,1,0,0:0:0:50:LR_HiHat SClick 2.wav
448,192,158164,1,0,0:0:0:0:
192,192,158223,1,0,0:0:0:0:
320,192,158302,1,0,0:0:0:0:
64,192,158342,1,0,0:0:0:50:LR_HiHat SClick 2.wav
448,192,158423,1,0,0:0:0:0:
64,192,158504,1,0,0:0:0:0:
448,192,158585,1,0,0:0:0:50:LR_HiHat SClick 2.wav
64,192,158667,1,0,0:0:0:0:
448,192,158748,1,0,0:0:0:0:
64,192,158829,1,0,0:0:0:40:snare_edited1.wav
192,192,158829,1,0,0:0:0:50:LR_HiHat SClick 2.wav
320,192,158829,1,0,0:0:0:0:
448,192,158887,1,0,0:0:0:0:
192,192,158946,1,0,0:0:0:0:
320,192,159004,1,0,0:0:0:0:
64,192,159063,1,0,0:0:0:50:LR_HiHat SClick 2.wav
320,192,159141,1,0,0:0:0:0:
64,192,159219,1,0,0:0:0:0:
320,192,159297,1,0,0:0:0:50:LR_HiHat SClick 2.wav
64,192,159355,1,0,0:0:0:0:
448,192,159414,1,0,0:0:0:0:
192,192,159473,1,0,0:0:0:0:
320,192,159531,1,0,0:0:0:50:LR_HiHat SClick 2.wav
448,192,159590,1,0,0:0:0:0:
192,192,159648,1,0,0:0:0:0:
64,192,159765,1,0,0:0:0:60:Kick 2.wav
448,192,159765,1,0,0:0:0:50:LR_HiHat SClick 2.wav
320,192,159833,1,0,0:0:0:0:
192,192,159901,1,0,0:0:0:0:
320,192,159969,1,0,0:0:0:0:
64,192,160004,1,0,0:0:0:50:LR_HiHat SClick 2.wav
448,192,160083,1,0,0:0:0:0:
192,192,160163,1,0,0:0:0:0:
320,192,160243,1,0,0:0:0:50:LR_HiHat SClick 2.wav
64,192,160322,1,0,0:0:0:0:
320,192,160402,1,0,0:0:0:0:
64,192,160482,1,0,0:0:0:50:LR_HiHat SClick 2.wav
192,192,160561,1,0,0:0:0:0:
320,192,160641,1,0,0:0:0:0:
64,192,160721,1,0,0:0:0:40:snare_edited1.wav
192,192,160721,1,0,0:0:0:50:LR_HiHat SClick 2.wav
448,192,160721,1,0,0:0:0:0:
320,192,160800,1,0,0:0:0:0:
64,192,160880,1,0,0:0:0:0:
320,192,160960,1,0,0:0:0:50:LR_HiHat SClick 2.wav
64,192,161039,1,0,0:0:0:0:
320,192,161119,1,0,0:0:0:0:
192,192,161199,1,0,0:0:0:50:LR_HiHat SClick 2.wav
192,192,161438,1,0,0:0:0:50:LR_HiHat SClick 2.wav
192,192,161617,1,0,0:0:0:0:
64,192,161677,1,0,0:0:0:60:Kick 2.wav
448,192,161677,1,0,0:0:0:50:LR_HiHat SClick 2.wav
64,192,161755,1,0,0:0:0:0:
448,192,161794,1,0,0:0:0:0:
320,192,161853,1,0,0:0:0:0:
192,192,161912,1,0,0:0:0:50:LR_HiHat SClick 2.wav
448,192,161971,1,0,0:0:0:0:
320,192,162069,1,0,0:0:0:0:
64,192,162147,1,0,0:0:0:50:LR_HiHat SClick 2.wav
192,192,162226,1,0,0:0:0:0:
448,192,162304,1,0,0:0:0:0:
64,192,162382,1,0,0:0:0:50:LR_HiHat SClick 2.wav
320,192,162461,1,0,0:0:0:0:
192,192,162539,1,0,0:0:0:0:
64,192,162618,1,0,0:0:0:40:snare_edited1.wav
320,192,162618,1,0,0:0:0:50:LR_HiHat SClick 2.wav
448,192,162618,1,0,0:0:0:40:LR_Ride FInish.wav
320,192,162696,1,0,0:0:0:0:
192,192,162775,1,0,0:0:0:0:
320,192,162853,1,0,0:0:0:50:LR_HiHat SClick 2.wav
192,192,162931,1,0,0:0:0:0:
320,192,163010,1,0,0:0:0:0:
448,192,163088,1,0,0:0:0:50:LR_HiHat SClick 2.wav
64,192,163167,1,0,0:0:0:0:
192,192,163245,1,0,0:0:0:0:
448,192,163324,1,0,0:0:0:50:LR_HiHat SClick 2.wav
320,192,163402,1,0,0:0:0:0:
448,192,163480,1,0,0:0:0:0:
64,192,163559,1,0,0:0:0:60:Kick 2.wav
192,192,163559,1,0,0:0:0:50:LR_HiHat SClick 2.wav
192,192,163637,1,0,0:0:0:0:
64,192,163716,1,0,0:0:0:0:
192,192,163794,1,0,0:0:0:50:LR_HiHat SClick 2.wav
64,192,163873,1,0,0:0:0:0:
448,192,163935,1,0,0:0:0:0:
320,192,164029,1,0,0:0:0:50:LR_HiHat SClick 2.wav
64,192,164108,1,0,0:0:0:0:
192,192,164186,1,0,0:0:0:0:
320,192,164265,1,0,0:0:0:50:LR_HiHat SClick 2.wav
192,192,164382,1,0,0:0:0:0:
64,192,164500,1,0,0:0:0:40:snare_edited1.wav
320,192,164500,1,0,0:0:0:50:LR_HiHat SClick 2.wav
448,192,164500,1,0,0:0:0:0:
192,192,164578,1,0,0:0:0:0:
448,192,164657,1,0,0:0:0:0:
192,192,164735,1,0,0:0:0:50:LR_HiHat SClick 2.wav
448,192,164814,1,0,0:0:0:0:
192,192,164892,1,0,0:0:0:0:
320,192,164971,1,0,0:0:0:50:LR_HiHat SClick 2.wav
320,192,165201,1,0,0:0:0:50:LR_HiHat SClick 2.wav
64,192,165432,1,0,0:0:0:60:Kick 2.wav
448,192,165432,1,0,0:0:0:50:LR_HiHat SClick 2.wav
448,192,165510,1,0,0:0:0:0:
64,192,165550,1,0,0:0:0:0:
192,192,165609,1,0,0:0:0:0:
320,192,165668,1,0,0:0:0:50:LR_HiHat SClick 2.wav
448,192,165746,1,0,0:0:0:0:
64,192,165825,1,0,0:0:0:0:
192,192,165904,1,0,0:0:0:50:LR_HiHat SClick 2.wav
320,192,165983,1,0,0:0:0:0:
192,192,166061,1,0,0:0:0:0:
320,192,166140,1,0,0:0:0:50:LR_HiHat SClick 2.wav
64,192,166199,1,0,0:0:0:0:
448,192,166258,1,0,0:0:0:0:
192,192,166317,1,0,0:0:0:0:
64,192,166376,1,0,0:0:0:40:snare_edited1.wav
320,192,166376,1,0,0:0:0:50:LR_HiHat SClick 2.wav
448,192,166376,1,0,0:0:0:0:
192,192,166454,1,0,0:0:0:0:
448,192,166532,1,0,0:0:0:0:
192,192,166610,1,0,0:0:0:50:LR_HiHat SClick 2.wav
448,192,166688,1,0,0:0:0:0:
320,192,166766,1,0,0:0:0:0:
64,192,166844,1,0,0:0:0:50:LR_HiHat SClick 2.wav
448,192,166922,1,0,0:0:0:0:
320,192,167001,1,0,0:0:0:0:
192,192,167079,1,0,0:0:0:50:LR_HiHat SClick 2.wav
64,192,167157,1,0,0:0:0:0:
320,192,167313,1,0,0:0:0:60:Kick 2.wav
448,192,167313,1,0,0:0:0:50:LR_HiHat SClick 2.wav
64,192,167408,1,0,0:0:0:0:
192,192,167504,1,0,0:0:0:0:
320,192,167552,1,0,0:0:0:50:LR_HiHat SClick 2.wav
448,192,167599,1,0,0:0:0:0:
64,192,167695,1,0,0:0:0:0:
192,192,167791,1,0,0:0:0:50:LR_HiHat SClick 2.wav
320,192,167850,1,0,0:0:0:0:
192,192,167910,1,0,0:0:0:0:
448,192,167970,1,0,0:0:0:0:
64,192,168030,1,0,0:0:0:50:LR_HiHat SClick 2.wav
320,192,168089,1,0,0:0:0:0:
192,192,168149,1,0,0:0:0:0:
320,192,168209,1,0,0:0:0:0:
64,192,168269,1,0,0:0:0:40:snare_edited1.wav
192,192,168269,1,0,0:0:0:50:LR_HiHat SClick 2.wav
448,192,168269,1,0,0:0:0:0:
320,192,168326,1,0,0:0:0:0:
64,192,168384,1,0,0:0:0:0:
192,192,168442,1,0,0:0:0:0:
448,192,168500,1,0,0:0:0:50:LR_HiHat SClick 2.wav
448,192,168732,1,0,0:0:0:50:LR_HiHat SClick 2.wav
448,192,168963,1,0,0:0:0:50:LR_HiHat SClick 2.wav
64,192,169195,1,0,0:0:0:60:Kick 2.wav
192,192,169195,1,0,0:0:0:50:LR_HiHat SClick 2.wav
320,192,169272,1,0,0:0:0:0:
448,192,169349,1,0,0:0:0:0:
64,192,169388,1,0,0:0:0:0:
192,192,169426,1,0,0:0:0:50:LR_HiHat SClick 2.wav
320,192,169465,1,0,0:0:0:0:
192,192,169581,1,0,0:0:0:0:
448,192,169658,1,0,0:0:0:50:LR_HiHat SClick 2.wav
64,192,169696,1,0,0:0:0:0:
320,192,169735,1,0,0:0:0:0:
192,192,169812,1,0,0:0:0:0:
320,192,169851,1,0,0:0:0:0:
448,192,169889,1,0,0:0:0:50:LR_HiHat SClick 2.wav
64,192,169967,1,0,0:0:0:0:
448,192,170044,1,0,0:0:0:0:
64,192,170121,1,0,0:0:0:40:snare_edited1.wav
192,192,170121,1,0,0:0:0:50:LR_HiHat SClick 2.wav
320,192,170121,1,0,0:0:0:40:LR_Ride FInish.wav
192,192,170224,1,0,0:0:0:0:
320,192,170276,1,0,0:0:0:0:
448,192,170353,1,0,0:0:0:50:LR_HiHat SClick 2.wav
64,192,170399,1,0,0:0:0:0:
320,192,170469,1,0,0:0:0:0:
448,192,170527,1,0,0:0:0:0:
192,192,170584,1,0,0:0:0:50:LR_HiHat SClick 2.wav
192,192,170816,1,0,0:0:0:50:LR_HiHat SClick 2.wav
320,192,171048,1,0,0:0:0:60:Kick 2.wav
448,192,171048,1,0,0:0:0:50:LR_HiHat SClick 2.wav
64,192,171108,1,0,0:0:0:0:
192,192,171168,1,0,0:0:0:0:
448,192,171228,1,0,0:0:0:0:
64,192,171288,1,0,0:0:0:50:LR_HiHat SClick 2.wav
320,192,171348,1,0,0:0:0:0:
448,192,171408,1,0,0:0:0:0:
192,192,171468,1,0,0:0:0:0:
64,192,171528,1,0,0:0:0:60:Kick 2.wav
320,192,171528,1,0,0:0:0:50:LR_HiHat SClick 2.wav
448,192,171585,1,0,0:0:0:0:
192,192,171643,1,0,0:0:0:0:
320,192,171701,1,0,0:0:0:0:
64,192,171758,1,0,0:0:0:50:LR_HiHat SClick 2.wav
448,192,171816,1,0,0:0:0:0:
320,192,171874,1,0,0:0:0:0:
192,192,171931,1,0,0:0:0:0:
64,192,171989,1,0,0:0:0:40:snare_edited1.wav
320,192,171989,1,0,0:0:0:50:LR_HiHat SClick 2.wav
448,192,171989,1,0,0:0:0:0:
192,192,172047,1,0,0:0:0:0:
448,192,172106,1,0,0:0:0:0:
320,192,172165,1,0,0:0:0:0:
64,192,172224,1,0,0:0:0:60:Kick 2.wav
192,192,172224,1,0,0:0:0:50:LR_HiHat SClick 2.wav
448,192,172283,1,0,0:0:0:0:
320,192,172341,1,0,0:0:0:0:
64,192,172400,1,0,0:0:0:0:
192,192,172459,1,0,0:0:0:50:LR_HiHat SClick 2.wav
320,192,172512,1,0,0:0:0:0:
448,192,172565,1,0,0:0:0:0:
64,192,172618,1,0,0:0:0:0:
192,192,172671,1,0,0:0:0:60:Kick 2.wav
320,192,172671,1,0,0:0:0:50:LR_HiHat SClick 2.wav
448,192,172778,1,0,0:0:0:0:
64,192,172896,1,0,0:0:0:60:Kick 2.wav
192,192,172896,1,0,0:0:0:50:LR_HiHat SClick 2.wav
448,192,172961,1,0,0:0:0:0:
320,192,173027,1,0,0:0:0:0:
64,192,173093,1,0,0:0:0:0:
448,192,173126,1,0,0:0:0:50:LR_HiHat SClick 2.wav
192,192,173225,1,0,0:0:0:0:
448,192,173291,1,0,0:0:0:0:
64,192,173357,1,0,0:0:0:60:Kick 2.wav
320,192,173357,1,0,0:0:0:50:LR_HiHat SClick 2.wav
192,192,173423,1,0,0:0:0:0:
448,192,173489,1,0,0:0:0:0:
320,192,173530,1,0,0:0:0:0:
64,192,173588,1,0,0:0:0:50:LR_HiHat SClick 2.wav
192,192,173687,1,0,0:0:0:0:
320,192,173753,1,0,0:0:0:0:
64,192,173819,1,0,0:0:0:40:snare_edited1.wav
192,192,173819,1,0,0:0:0:50:LR_HiHat SClick 2.wav
448,192,173819,1,0,0:0:0:40:LR_Ride FInish.wav
320,192,173885,1,0,0:0:0:0:
64,192,173952,1,0,0:0:0:0:
320,192,174053,1,0,0:0:0:50:LR_HiHat SClick 2.wav
64,192,174153,1,0,0:0:0:0:
320,192,174220,1,0,0:0:0:0:
64,192,174287,1,0,0:0:0:50:LR_HiHat SClick 2.wav
320,192,174354,1,0,0:0:0:0:
64,192,174421,1,0,0:0:0:0:
320,192,174522,1,0,0:0:0:50:LR_HiHat SClick 2.wav
320,192,174662,1,0,0:0:0:0:
64,192,174742,1,0,0:0:0:60:Kick 2.wav
448,192,174742,1,0,0:0:0:50:LR_HiHat SClick 2.wav
192,192,174819,1,0,0:0:0:0:
320,192,174858,1,0,0:0:0:0:
448,192,174917,1,0,0:0:0:0:
64,192,174975,1,0,0:0:0:50:LR_HiHat SClick 2.wav
448,192,175053,1,0,0:0:0:0:
192,192,175092,1,0,0:0:0:0:
320,192,175150,1,0,0:0:0:0:
64,192,175208,1,0,0:0:0:60:Kick 2.wav
448,192,175208,1,0,0:0:0:50:LR_HiHat SClick 2.wav
320,192,175275,1,0,0:0:0:0:
192,192,175325,1,0,0:0:0:0:
64,192,175384,1,0,0:0:0:0:
320,192,175442,1,0,0:0:0:50:LR_HiHat SClick 2.wav
192,192,175500,1,0,0:0:0:0:
448,192,175542,1,0,0:0:0:0:
320,192,175609,1,0,0:0:0:0:
64,192,175675,1,0,0:0:0:40:snare_edited1.wav
192,192,175675,1,0,0:0:0:50:LR_HiHat SClick 2.wav
448,192,175675,1,0,0:0:0:0:
320,192,175742,1,0,0:0:0:0:
64,192,175809,1,0,0:0:0:0:
192,192,175909,1,0,0:0:0:60:Kick 2.wav
448,192,175909,1,0,0:0:0:50:LR_HiHat SClick 2.wav
320,192,176009,1,0,0:0:0:0:
64,192,176076,1,0,0:0:0:0:
448,192,176142,1,0,0:0:0:50:LR_HiHat SClick 2.wav
64,192,176353,1,0,0:0:0:60:Kick 2.wav
192,192,176353,1,0,0:0:0:50:LR_HiHat SClick 2.wav
192,192,176458,1,0,0:0:0:0:
64,192,176564,1,0,0:0:0:60:Kick 2.wav
320,192,176564,1,0,0:0:0:50:LR_HiHat SClick 2.wav
448,192,176620,1,0,0:0:0:0:
320,192,176677,1,0,0:0:0:0:
192,192,176734,1,0,0:0:0:0:
64,192,176791,1,0,0:0:0:50:LR_HiHat SClick 2.wav
320,192,176904,1,0,0:0:0:0:
448,192,176961,1,0,0:0:0:0:
64,192,177018,1,0,0:0:0:60:Kick 2.wav
192,192,177018,1,0,0:0:0:50:LR_HiHat SClick 2.wav
320,192,177075,1,0,0:0:0:0:
64,192,177132,1,0,0:0:0:0:
448,192,177189,1,0,0:0:0:0:
320,192,177245,1,0,0:0:0:50:LR_HiHat SClick 2.wav
192,192,177302,1,0,0:0:0:0:
64,192,177359,1,0,0:0:0:0:
64,192,177473,1,0,0:0:0:40:snare_edited1.wav
192,192,177473,1,0,0:0:0:50:LR_HiHat SClick 2.wav
448,192,177473,1,0,0:0:0:40:LR_Ride FInish.wav
320,192,177529,1,0,0:0:0:0:
192,192,177586,1,0,0:0:0:0:
64,192,177643,1,0,0:0:0:0:
320,192,177700,1,0,0:0:0:50:LR_HiHat SClick 2.wav
448,192,177757,1,0,0:0:0:0:
64,192,177814,1,0,0:0:0:0:
192,192,177870,1,0,0:0:0:0:
64,192,177927,1,0,0:0:0:40:snare_edited1.wav
320,192,177927,1,0,0:0:0:50:LR_HiHat SClick 2.wav
448,192,177927,1,0,0:0:0:40:LR_Ride FInish.wav
192,192,177996,1,0,0:0:0:0:
320,192,178066,1,0,0:0:0:0:
64,192,178170,1,0,0:0:0:50:LR_HiHat SClick 2.wav
192,192,178231,1,0,0:0:0:0:
320,192,178292,1,0,0:0:0:0:
448,192,178353,1,0,0:0:0:0:
64,192,178414,1,0,0:0:0:60:Kick 2.wav
192,192,178414,1,0,0:0:0:50:LR_HiHat SClick 2.wav
448,192,178471,1,0,0:0:0:0:
320,192,178528,1,0,0:0:0:0:
64,192,178585,1,0,0:0:0:0:
192,192,178643,1,0,0:0:0:50:LR_HiHat SClick 2.wav
448,192,178700,1,0,0:0:0:0:
192,192,178757,1,0,0:0:0:0:
320,192,178814,1,0,0:0:0:0:
64,192,178872,1,0,0:0:0:60:Kick 2.wav
448,192,178872,1,0,0:0:0:50:LR_HiHat SClick 2.wav
192,192,178929,1,0,0:0:0:0:
448,192,178986,1,0,0:0:0:0:
320,192,179043,1,0,0:0:0:0:
64,192,179101,1,0,0:0:0:50:LR_HiHat SClick 2.wav
192,192,179158,1,0,0:0:0:0:
448,192,179215,1,0,0:0:0:0:
320,192,179272,1,0,0:0:0:0:
64,192,179330,1,0,0:0:0:40:snare_edited1.wav
192,192,179330,1,0,0:0:0:50:LR_HiHat SClick 2.wav
448,192,179330,1,0,0:0:0:0:
320,192,179385,1,0,0:0:0:0:
64,192,179441,1,0,0:0:0:0:
192,192,179497,1,0,0:0:0:0:
320,192,179553,1,0,0:0:0:60:Kick 2.wav
448,192,179553,1,0,0:0:0:50:LR_HiHat SClick 2.wav
64,192,179609,1,0,0:0:0:0:
448,192,179665,1,0,0:0:0:0:
320,192,179721,1,0,0:0:0:0:
192,192,179777,1,0,0:0:0:50:LR_HiHat SClick 2.wav
448,192,179832,1,0,0:0:0:0:
64,192,179903,1,0,0:0:0:0:
192,192,179997,1,0,0:0:0:60:Kick 2.wav
320,192,179997,1,0,0:0:0:50:LR_HiHat SClick 2.wav
64,192,180225,1,0,0:0:0:60:Kick 2.wav
192,192,180225,1,0,0:0:0:50:LR_HiHat SClick 2.wav
448,192,180289,1,0,0:0:0:0:
320,192,180354,1,0,0:0:0:0:
64,192,180451,1,0,0:0:0:50:LR_HiHat SClick 2.wav
448,192,180548,1,0,0:0:0:0:
64,192,180613,1,0,0:0:0:0:
320,192,180677,1,0,0:0:0:60:Kick 2.wav
448,192,180677,1,0,0:0:0:50:LR_HiHat SClick 2.wav
192,192,180743,1,0,0:0:0:0:
64,192,180809,1,0,0:0:0:0:
320,192,180908,1,0,0:0:0:50:LR_HiHat SClick 2.wav
192,192,181007,1,0,0:0:0:0:
320,192,181074,1,0,0:0:0:0:
64,192,181140,1,0,0:0:0:40:snare_edited1.wav
192,192,181140,1,0,0:0:0:50:LR_HiHat SClick 2.wav
448,192,181140,1,0,0:0:0:40:LR_Ride FInish.wav
320,192,181206,1,0,0:0:0:0:
448,192,181272,1,0,0:0:0:0:
64,192,181371,1,0,0:0:0:50:LR_HiHat SClick 2.wav
192,192,181429,1,0,0:0:0:0:
320,192,181487,1,0,0:0:0:0:
448,192,181545,1,0,0:0:0:0:
192,192,181603,1,0,0:0:0:50:LR_HiHat SClick 2.wav
64,192,181669,1,0,0:0:0:0:
320,192,181736,1,0,0:0:0:0:
448,192,181802,1,0,0:0:0:0:
192,192,181893,1,0,0:0:0:0:
320,192,182000,1,0,0:0:0:0:
64,192,182066,1,0,0:0:0:60:Kick 2.wav
448,192,182066,1,0,0:0:0:50:LR_HiHat SClick 2.wav
192,192,182142,1,0,0:0:0:0:
320,192,182180,1,0,0:0:0:0:
448,192,182238,1,0,0:0:0:0:
64,192,182295,1,0,0:0:0:50:LR_HiHat SClick 2.wav
320,192,182353,1,0,0:0:0:0:
64,192,182410,1,0,0:0:0:0:
192,192,182468,1,0,0:0:0:0:
320,192,182525,1,0,0:0:0:60:Kick 2.wav
448,192,182525,1,0,0:0:0:50:LR_HiHat SClick 2.wav
64,192,182583,1,0,0:0:0:0:
320,192,182640,1,0,0:0:0:0:
64,192,182698,1,0,0:0:0:0:
448,192,182755,1,0,0:0:0:50:LR_HiHat SClick 2.wav
192,192,182813,1,0,0:0:0:0:
320,192,182870,1,0,0:0:0:0:
64,192,182928,1,0,0:0:0:0:
192,192,182985,1,0,0:0:0:40:snare_edited1.wav
320,192,182985,1,0,0:0:0:50:LR_HiHat SClick 2.wav
448,192,182985,1,0,0:0:0:0:
64,192,183040,1,0,0:0:0:0:
448,192,183111,1,0,0:0:0:0:
64,192,183207,1,0,0:0:0:60:Kick 2.wav
192,192,183207,1,0,0:0:0:50:LR_HiHat SClick 2.wav
448,192,183445,1,0,0:0:0:50:LR_HiHat SClick 2.wav
320,192,183663,1,0,0:0:0:60:Kick 2.wav
448,192,183663,1,0,0:0:0:50:LR_HiHat SClick 2.wav
192,192,183772,1,0,0:0:0:0:
320,192,183826,1,0,0:0:0:0:
64,192,183881,1,0,0:0:0:60:Kick 2.wav
448,192,183881,1,0,0:0:0:50:LR_HiHat SClick 2.wav
320,192,183937,1,0,0:0:0:0:
192,192,183993,1,0,0:0:0:0:
448,192,184049,1,0,0:0:0:0:
64,192,184105,1,0,0:0:0:50:LR_HiHat SClick 2.wav
320,192,184218,1,0,0:0:0:0:
192,192,184274,1,0,0:0:0:0:
64,192,184330,1,0,0:0:0:60:Kick 2.wav
448,192,184330,1,0,0:0:0:50:LR_HiHat SClick 2.wav
320,192,184386,1,0,0:0:0:0:
64,192,184442,1,0,0:0:0:0:
448,192,184555,1,0,0:0:0:50:LR_HiHat SClick 2.wav
192,192,184611,1,0,0:0:0:0:
64,192,184667,1,0,0:0:0:0:
320,192,184723,1,0,0:0:0:0:
64,192,184779,1,0,0:0:0:40:snare_edited1.wav
192,192,184779,1,0,0:0:0:50:LR_HiHat SClick 2.wav
448,192,184779,1,0,0:0:0:40:LR_Ride FInish.wav
320,192,184836,1,0,0:0:0:0:
448,192,184892,1,0,0:0:0:0:
64,192,185004,1,0,0:0:0:50:LR_HiHat SClick 2.wav
448,192,185116,1,0,0:0:0:0:
192,192,185173,1,0,0:0:0:0:
64,192,185229,1,0,0:0:0:40:snare_edited1.wav
320,192,185229,1,0,0:0:0:50:LR_HiHat SClick 2.wav
448,192,185229,1,0,0:0:0:40:LR_Ride FInish.wav
192,192,185285,1,0,0:0:0:0:
64,192,185341,1,0,0:0:0:0:
448,192,185454,1,0,0:0:0:50:LR_HiHat SClick 2.wav
192,192,185510,1,0,0:0:0:0:
320,192,185566,1,0,0:0:0:0:
448,192,185622,1,0,0:0:0:0:
64,192,185678,1,0,0:0:0:60:Kick 2.wav
192,192,185678,1,0,0:0:0:50:LR_HiHat SClick 2.wav
320,192,185735,1,0,0:0:0:0:
448,192,185792,1,0,0:0:0:0:
64,192,185849,1,0,0:0:0:0:
192,192,185907,1,0,0:0:0:50:LR_HiHat SClick 2.wav
320,192,185964,1,0,0:0:0:0:
192,192,186021,1,0,0:0:0:0:
320,192,186078,1,0,0:0:0:0:
64,192,186136,1,0,0:0:0:60:Kick 2.wav
448,192,186136,1,0,0:0:0:50:LR_HiHat SClick 2.wav
192,192,186193,1,0,0:0:0:0:
64,192,186250,1,0,0:0:0:0:
448,192,186307,1,0,0:0:0:0:
64,192,186365,1,0,0:0:0:50:LR_HiHat SClick 2.wav
448,192,186422,1,0,0:0:0:0:
320,192,186479,1,0,0:0:0:0:
192,192,186536,1,0,0:0:0:0:
64,192,186594,1,0,0:0:0:40:snare_edited1.wav
320,192,186594,1,0,0:0:0:50:LR_HiHat SClick 2.wav
448,192,186594,1,0,0:0:0:0:
192,192,186659,1,0,0:0:0:0:
64,192,186724,1,0,0:0:0:0:
320,192,186823,1,0,0:0:0:60:Kick 2.wav
448,192,186823,1,0,0:0:0:50:LR_HiHat SClick 2.wav
64,192,186921,1,0,0:0:0:0:
192,192,186986,1,0,0:0:0:0:
448,192,187052,1,0,0:0:0:50:LR_HiHat SClick 2.wav
64,192,187281,1,0,0:0:0:60:Kick 2.wav
320,192,187281,1,0,0:0:0:50:LR_HiHat SClick 2.wav
192,192,187510,1,0,0:0:0:60:Kick 2.wav
448,192,187510,1,0,0:0:0:50:LR_HiHat SClick 2.wav
64,192,187574,1,0,0:0:0:0:
320,192,187638,1,0,0:0:0:0:
192,192,187734,1,0,0:0:0:50:LR_HiHat SClick 2.wav
64,192,187831,1,0,0:0:0:0:
320,192,187895,1,0,0:0:0:0:
64,192,187959,1,0,0:0:0:60:Kick 2.wav
448,192,187959,1,0,0:0:0:50:LR_HiHat SClick 2.wav
192,192,188023,1,0,0:0:0:0:
64,192,188087,1,0,0:0:0:0:
320,192,188184,1,0,0:0:0:50:LR_HiHat SClick 2.wav
192,192,188280,1,0,0:0:0:0:
320,192,188344,1,0,0:0:0:0:
64,192,188408,1,0,0:0:0:40:snare_edited1.wav
192,192,188408,1,0,0:0:0:50:LR_HiHat SClick 2.wav
448,192,188408,1,0,0:0:0:40:LR_Ride FInish.wav
320,192,188483,1,0,0:0:0:0:
448,192,188558,1,0,0:0:0:0:
192,192,188633,1,0,0:0:0:50:LR_HiHat SClick 2.wav
320,192,188708,1,0,0:0:0:0:
448,192,188783,1,0,0:0:0:0:
192,192,188858,1,0,0:0:0:50:LR_HiHat SClick 2.wav
448,192,188936,1,0,0:0:0:0:
192,192,189014,1,0,0:0:0:0:
448,192,189093,1,0,0:0:0:50:LR_HiHat SClick 2.wav
64,192,189171,1,0,0:0:0:0:
320,192,189250,1,0,0:0:0:0:
64,192,189328,1,0,0:0:0:60:Kick 2.wav
192,192,189328,1,0,0:0:0:50:LR_HiHat SClick 2.wav
448,192,189392,1,0,0:0:0:0:
320,192,189457,1,0,0:0:0:0:
64,192,189555,1,0,0:0:0:50:LR_HiHat SClick 2.wav
320,192,189652,1,0,0:0:0:0:
64,192,189717,1,0,0:0:0:0:
320,192,189782,1,0,0:0:0:60:Kick 2.wav
448,192,189782,1,0,0:0:0:50:LR_HiHat SClick 2.wav
192,192,189847,1,0,0:0:0:0:
64,192,189912,1,0,0:0:0:0:
320,192,190009,1,0,0:0:0:50:LR_HiHat SClick 2.wav
192,192,190107,1,0,0:0:0:0:
320,192,190172,1,0,0:0:0:0:
64,192,190237,1,0,0:0:0:40:snare_edited1.wav
192,192,190237,1,0,0:0:0:50:LR_HiHat SClick 2.wav
448,192,190237,1,0,0:0:0:0:
320,192,190302,1,0,0:0:0:0:
448,192,190366,1,0,0:0:0:0:
64,192,190464,1,0,0:0:0:60:Kick 2.wav
192,192,190464,1,0,0:0:0:50:LR_HiHat SClick 2.wav
448,192,190561,1,0,0:0:0:0:
64,192,190626,1,0,0:0:0:0:
320,192,190691,1,0,0:0:0:50:LR_HiHat SClick 2.wav
192,192,190748,1,0,0:0:0:0:
64,192,190805,1,0,0:0:0:0:
192,192,190920,1,0,0:0:0:60:Kick 2.wav
320,192,190920,1,0,0:0:0:50:LR_HiHat SClick 2.wav
320,192,191034,1,0,0:0:0:0:
192,192,191133,1,0,0:0:0:60:Kick 2.wav
448,192,191133,1,0,0:0:0:50:LR_HiHat SClick 2.wav
64,192,191223,1,0,0:0:0:0:
320,192,191314,1,0,0:0:0:0:
64,192,191359,1,0,0:0:0:50:LR_HiHat SClick 2.wav
192,192,191472,1,0,0:0:0:0:
448,192,191529,1,0,0:0:0:0:
64,192,191585,1,0,0:0:0:60:Kick 2.wav
320,192,191585,1,0,0:0:0:50:LR_HiHat SClick 2.wav
192,192,191642,1,0,0:0:0:0:
448,192,191699,1,0,0:0:0:0:
192,192,191766,1,0,0:0:0:0:
448,192,191812,1,0,0:0:0:50:LR_HiHat SClick 2.wav
64,192,191909,1,0,0:0:0:0:
192,192,191973,1,0,0:0:0:0:
64,192,192038,1,0,0:0:0:40:snare_edited1.wav
320,192,192038,1,0,0:0:0:50:LR_HiHat SClick 2.wav
448,192,192038,1,0,0:0:0:0:
192,192,192103,1,0,0:0:0:0:
448,192,192168,1,0,0:0:0:0:
64,192,192209,1,0,0:0:0:0:
320,192,192266,1,0,0:0:0:50:LR_HiHat SClick 2.wav
192,192,192363,1,0,0:0:0:0:
320,192,192429,1,0,0:0:0:0:
64,192,192494,1,0,0:0:0:40:snare_edited1.wav
192,192,192494,1,0,0:0:0:50:LR_HiHat SClick 2.wav
448,192,192494,1,0,0:0:0:40:LR_Ride FInish.wav
320,192,192570,1,0,0:0:0:0:
448,192,192646,1,0,0:0:0:0:
64,192,192722,1,0,0:0:0:50:LR_HiHat SClick 2.wav
192,192,192820,1,0,0:0:0:0:
448,192,192885,1,0,0:0:0:0:
64,192,192950,1,0,0:0:0:60:Kick 2.wav
192,192,192950,1,0,0:0:0:50:LR_HiHat SClick 2.wav
320,192,193028,1,0,0:0:0:0:
64,192,193137,1,0,0:0:0:0:
320,192,193184,1,0,0:0:0:50:LR_HiHat SClick 2.wav
192,192,193262,1,0,0:0:0:0:
448,192,193325,1,0,0:0:0:0:
64,192,193418,1,0,0:0:0:60:Kick 2.wav
192,192,193418,1,0,0:0:0:50:LR_HiHat SClick 2.wav
320,192,193477,1,0,0:0:0:0:
448,192,193535,1,0,0:0:0:0:
64,192,193653,1,0,0:0:0:50:LR_HiHat SClick 2.wav
320,192,193731,1,0,0:0:0:0:
192,192,193809,1,0,0:0:0:0:
64,192,193887,1,0,0:0:0:40:snare_edited1.wav
320,192,193887,1,0,0:0:0:50:LR_HiHat SClick 2.wav
448,192,193887,1,0,0:0:0:0:
192,192,193962,1,0,0:0:0:0:
320,192,194037,1,0,0:0:0:0:
64,192,194113,1,0,0:0:0:60:Kick 2.wav
192,192,194113,1,0,0:0:0:50:LR_HiHat SClick 2.wav
320,192,194188,1,0,0:0:0:0:
192,192,194264,1,0,0:0:0:0:
320,192,194339,1,0,0:0:0:50:LR_HiHat SClick 2.wav
64,192,194566,1,0,0:0:0:60:Kick 2.wav
192,192,194566,1,0,0:0:0:50:LR_HiHat SClick 2.wav
64,192,194793,1,0,0:0:0:60:Kick 2.wav
192,192,194793,1,0,0:0:0:50:LR_HiHat SClick 2.wav
320,192,194843,1,0,0:0:0:0:
448,192,194893,1,0,0:0:0:0:
64,192,194962,1,0,0:0:0:0:
320,192,195019,1,0,0:0:0:50:LR_HiHat SClick 2.wav
192,192,195094,1,0,0:0:0:0:
448,192,195145,1,0,0:0:0:0:
320,192,195195,1,0,0:0:0:0:
64,192,195245,1,0,0:0:0:60:Kick 2.wav
192,192,195245,1,0,0:0:0:50:LR_HiHat SClick 2.wav
448,192,195296,1,0,0:0:0:0:
64,192,195346,1,0,0:0:0:0:
320,192,195415,1,0,0:0:0:0:
192,192,195472,1,0,0:0:0:50:LR_HiHat SClick 2.wav
448,192,195528,1,0,0:0:0:0:
64,192,195585,1,0,0:0:0:0:
320,192,195642,1,0,0:0:0:0:
64,192,195698,1,0,0:0:0:40:snare_edited1.wav
192,192,195698,1,0,0:0:0:50:LR_HiHat SClick 2.wav
448,192,195698,1,0,0:0:0:40:LR_Ride FInish.wav
320,192,195774,1,0,0:0:0:0:
64,192,195849,1,0,0:0:0:0:
448,192,195925,1,0,0:0:0:50:LR_HiHat SClick 2.wav
192,192,196000,1,0,0:0:0:0:
64,192,196076,1,0,0:0:0:0:
320,192,196151,1,0,0:0:0:50:LR_HiHat SClick 2.wav
320,192,196377,1,0,0:0:0:50:LR_HiHat SClick 2.wav
64,192,196604,1,0,0:0:0:60:Kick 2.wav
448,192,196604,1,0,0:0:0:50:LR_HiHat SClick 2.wav
320,192,196653,1,0,0:0:0:0:
192,192,196703,1,0,0:0:0:0:
64,192,196771,1,0,0:0:0:0:
448,192,196827,1,0,0:0:0:50:LR_HiHat SClick 2.wav
192,192,196883,1,0,0:0:0:0:
320,192,196952,1,0,0:0:0:0:
448,192,197002,1,0,0:0:0:0:
64,192,197051,1,0,0:0:0:60:Kick 2.wav
192,192,197051,1,0,0:0:0:50:LR_HiHat SClick 2.wav
320,192,197101,1,0,0:0:0:0:
448,192,197152,1,0,0:0:0:0:
64,192,197222,1,0,0:0:0:0:
192,192,197280,1,0,0:0:0:50:LR_HiHat SClick 2.wav
448,192,197337,1,0,0:0:0:0:
320,192,197394,1,0,0:0:0:0:
192,192,197451,1,0,0:0:0:0:
64,192,197509,1,0,0:0:0:40:snare_edited1.wav
320,192,197509,1,0,0:0:0:50:LR_HiHat SClick 2.wav
448,192,197509,1,0,0:0:0:0:
192,192,197580,1,0,0:0:0:0:
448,192,197652,1,0,0:0:0:0:
64,192,197724,1,0,0:0:0:60:Kick 2.wav
320,192,197724,1,0,0:0:0:50:LR_HiHat SClick 2.wav
320,192,197854,1,0,0:0:0:0:
64,192,197956,1,0,0:0:0:50:LR_HiHat SClick 2.wav
192,192,198065,1,0,0:0:0:0:
448,192,198175,1,0,0:0:0:0:
320,192,198284,1,0,0:0:0:0:
64,192,198394,1,0,0:0:0:60:Kick 2.wav
192,192,198394,1,0,0:0:0:40:LR_Hit Med Click.wav
448,192,198394,1,0,0:0:0:40:LR_Ride FInish.wav
320,192,198499,1,0,0:0:0:0:
64,192,198605,1,0,0:0:0:0:
192,192,198710,1,0,0:0:0:60:Kick 2.wav
320,192,198710,1,0,0:0:0:40:LR_Hit Med Click.wav
448,192,198710,1,0,0:0:0:40:LR_Ride FInish.wav
64,192,198816,1,0,0:0:0:0:
448,192,198922,1,0,0:0:0:0:
64,192,199027,1,0,0:0:0:60:Kick 2.wav
192,192,199027,1,0,0:0:0:40:LR_Hit Med Click.wav
320,192,199027,1,0,0:0:0:40:LR_Ride FInish.wav
192,192,199152,1,0,0:0:0:0:
64,192,199277,1,0,0:0:0:60:Kick 2.wav
320,192,199277,1,0,0:0:0:40:LR_Hit Med Click.wav
448,192,199277,1,0,0:0:0:40:LR_Ride FInish.wav
64,192,199402,1,0,0:0:0:0:
192,192,199527,1,0,0:0:0:0:
320,192,199652,1,0,0:0:0:0:
64,192,199777,1,0,0:0:0:60:Kick 2.wav
192,192,199777,1,0,0:0:0:40:LR_Hit Med Click.wav
448,192,199777,1,0,0:0:0:40:LR_Ride FInish.wav
448,192,199883,1,0,0:0:0:0:
64,192,199989,1,0,0:0:0:0:
320,192,200095,1,0,0:0:0:0:
192,192,200201,1,0,0:0:0:0:
64,192,200307,128,0,204217:0:0:0:60:Kick 2.wav
320,192,200307,128,0,202550:0:0:0:40:LR_Hit Med Click.wav
448,192,200307,128,0,200435:0:0:0:40:LR_Ride FInish.wav
448,192,200563,128,0,200691:0:0:0:0:
192,192,200819,128,0,200948:0:0:0:0:
448,192,200819,128,0,200948:0:0:0:0:
192,192,201076,128,0,201204:0:0:0:0:
448,192,201076,128,0,202486:0:0:0:0:
192,192,201332,128,0,202614:0:0:0:0:
192,192,202999,128,0,204281:0:0:0:0:
320,192,203063,128,0,204345:0:0:0:0:
448,192,203127,128,0,204409:0:0:0:0:
