osu file format v14

[General]
AudioFilename: audio.mp3
AudioLeadIn: 0
PreviewTime: 148400
Countdown: 0
SampleSet: Soft
StackLeniency: 0.7
Mode: 3
LetterboxInBreaks: 0
SpecialStyle: 0
WidescreenStoryboard: 1

[Editor]
Bookmarks: 16812,31531,46322,61588,76910,86100,101350,133584,155967,171048
DistanceSpacing: 1.1
BeatDivisor: 4
GridSize: 4
TimelineZoom: 2.2

[Metadata]
Title:Chop Suey!
TitleUnicode:Chop Suey!
Artist:System Of A Down
ArtistUnicode:System Of A Down
Creator:Bumpy Cone
Version:Advanced
Source:
Tags:SOAD Toxicity 2001 Alternative Progressive Heavy Nu NĂ¼ Nue Metal Rock English male vocalist vocals Serj Tankian Daron Malakian Shavo Odadjian John Dolmayan Geo_ooo Chandelure epic man 2 EM2 Herarudo HimitsuHiketsu Cyantifiction To_ofu vocal dump chord chords jack jacks chordjack chordjacks cj tech technical rice Self-Righteous Suicide
BeatmapID:4216889
BeatmapSetID:2021976

[Difficulty]
HPDrainRate:6.9
CircleSize:4
OverallDifficulty:6.9
ApproachRate:5
SliderMultiplier:1.4
SliderTickRate:1

[Events]
//Background and Video events
0,0,"chopsuey.jpg",0,0
//Break Periods
//Storyboard Layer 0 (Background)
//Storyboard Layer 1 (Fail)
//Storyboard Layer 2 (Pass)
//Storyboard Layer 3 (Foreground)
//Storyboard Layer 4 (Overlay)
//Storyboard Sound Samples
Sample,18684,0,"tom04.wav",40
Sample,20519,0,"tom04.wav",40
Sample,22365,0,"tom04.wav",40
Sample,26054,0,"tom04.wav",40
Sample,27885,0,"tom04.wav",40
Sample,29672,0,"tom04.wav",20
Sample,29908,0,"tom04.wav",23
Sample,29908,0,"tom03.wav",23
Sample,30144,0,"tom04.wav",27
Sample,30377,0,"tom03.wav",30
Sample,30377,0,"tom04.wav",30
Sample,30610,0,"tom04.wav",33
Sample,30844,0,"tom04.wav",37
Sample,30844,0,"tom03.wav",37
Sample,31077,0,"tom04.wav",40
Sample,31531,0,"LR_Ride FInish.wav",40
Sample,46322,0,"LR_Hit Med Click.wav",40
Sample,46432,0,"LR_Hit Med Click.wav",40
Sample,53670,0,"snare_edited1.wav",40
Sample,53901,0,"LR_Ride FInish.wav",40
Sample,61588,0,"LR_Ride FInish.wav",40
Sample,93425,0,"snare_edited1.wav",40
Sample,101350,0,"LR_Ride FInish.wav",40
Sample,116723,0,"LR_Ride FInish.wav",40
Sample,129740,0,"LR_Ride FInish.wav",40
Sample,140552,0,"LR_Hit Med Click.wav",40
Sample,141013,0,"LR_Ride FInish.wav",40
Sample,142873,0,"LR_Ride FInish.wav",40
Sample,144726,0,"LR_Ride FInish.wav",40
Sample,146593,0,"LR_Ride FInish.wav",40
Sample,148439,0,"LR_Ride FInish.wav",40
Sample,149368,0,"LR_Hit Med Click.wav",40
Sample,150291,0,"LR_Ride FInish.wav",40
Sample,154049,0,"LR_Ride FInish.wav",40
Sample,155967,0,"LR_Ride FInish.wav",40
Sample,162618,0,"LR_Ride FInish.wav",40
Sample,170121,0,"LR_Ride FInish.wav",40
Sample,171048,0,"LR_Ride FInish.wav",40
Sample,173819,0,"LR_Ride FInish.wav",40
Sample,177473,0,"LR_Ride FInish.wav",40
Sample,177927,0,"LR_Ride FInish.wav",40
Sample,181140,0,"LR_Ride FInish.wav",40
Sample,184779,0,"LR_Ride FInish.wav",40
Sample,185229,0,"LR_Ride FInish.wav",40
Sample,188408,0,"LR_Ride FInish.wav",40
Sample,192494,0,"LR_Ride FInish.wav",40
Sample,195698,0,"LR_Ride FInish.wav",40
Sample,198394,0,"LR_Ride FInish.wav",40
Sample,198710,0,"LR_Ride FInish.wav",40
Sample,199027,0,"LR_Ride FInish.wav",40
Sample,199277,0,"LR_Ride FInish.wav",40
Sample,199777,0,"LR_Ride FInish.wav",40
Sample,200307,0,"LR_Ride FInish.wav",40

[TimingPoints]
1660,491.803278688524,4,2,1,35,1,0
1660,-96.1538461538461,4,2,1,35,0,0
2397,476.190476190476,4,2,1,35,1,8
2397,-99.009900990099,4,2,1,35,0,8
3587,458.015267175572,4,2,1,35,1,0
3587,-103.092783505155,4,2,1,35,0,0
4274,465.116279069767,4,2,1,35,1,8
4274,-102.040816326531,4,2,1,35,0,8
5436,472.44094488189,4,2,1,35,1,0
9215,487.804878048781,4,2,1,35,1,0
9215,-97.0873786407767,4,2,1,35,0,0
9946,466.926070038911,4,2,1,35,1,8
9946,-101.010101010101,4,2,1,35,0,8
10879,540.540540540541,4,2,1,35,1,8
10879,-87.719298245614,4,2,1,35,0,8
11149,472.44094488189,4,2,1,35,1,0
13038,458.015267175573,4,2,1,35,1,0
13038,-103.092783505155,4,2,1,35,0,0
13725,451.127819548872,4,2,1,35,1,8
13725,-105.263157894737,4,2,1,35,0,8
14401,536.912751677852,4,2,1,35,1,8
14401,-87.719298245614,4,2,1,35,0,8
14936,444.444444444445,4,2,1,35,1,0
14936,-106.382978723404,4,2,1,35,0,0
15602,476.190476190476,4,2,1,35,1,8
15602,-99.009900990099,4,2,1,35,0,8
16812,447.761194029851,4,3,1,35,1,0
16812,-105.263157894737,4,3,1,35,0,0
17259,461.538461538462,4,3,1,35,1,8
17259,-102.040816326531,4,3,1,35,0,8
18182,502.092050209205,4,3,1,35,1,8
18182,-94.3396226415094,4,3,1,35,0,8
18684,444.444444444445,4,3,1,35,1,0
18684,-106.382978723404,4,3,1,35,0,0
19592,444.444444444445,4,3,1,35,1,8
19592,-106.382978723404,4,3,1,35,0,8
20036,483.870967741936,4,3,1,35,1,8
20036,-98.0392156862745,4,3,1,35,0,8
20519,458.015267175573,4,3,1,35,1,0
20519,-103.092783505155,4,3,1,35,0,0
21893,472.44094488189,4,3,1,35,1,8
22365,459.770114942529,4,3,1,35,1,0
22365,-103.092783505155,4,3,1,35,0,0
23744,472.44094488189,4,3,1,35,1,8
24216,458.015267175573,4,3,1,35,1,0
24216,-103.092783505155,4,3,1,35,0,0
25132,441.176470588235,4,3,1,35,1,8
25132,-107.52688172043,4,3,1,35,0,8
26054,447.761194029851,4,3,1,35,1,0
26054,-105.263157894737,4,3,1,35,0,0
26949,447.761194029851,4,3,1,35,1,8
26949,-105.263157894737,4,3,1,35,0,8
27885,442.804428044281,4,3,1,35,1,0
27885,-106.382978723404,4,3,1,35,0,0
29213,459.770114942529,4,3,1,35,1,8
29213,-103.092783505155,4,3,1,35,0,8
29672,472.44094488189,4,3,1,35,1,0
30144,466.926070038911,4,3,1,35,1,8
30144,-101.010101010101,4,3,1,35,0,8
31077,454.545454545455,4,3,1,35,1,8
31077,-104.166666666667,4,3,1,35,0,8
31531,461.538461538462,4,3,1,35,1,0
31531,-102.040816326531,4,3,1,35,0,0
32454,476.190476190477,4,3,1,35,1,8
32454,-99.009900990099,4,3,1,35,0,8
32930,461.538461538462,4,3,1,35,1,8
32930,-102.040816326531,4,3,1,35,0,8
33391,468.750000000001,4,3,1,35,1,0
33391,-101.010101010101,4,3,1,35,0,0
34797,454.545454545456,4,3,1,35,1,8
34797,-104.166666666667,4,3,1,35,0,8
35251,466.926070038912,4,3,1,35,1,0
35251,-101.010101010101,4,3,1,35,0,0
37584,459.77011494253,4,3,1,35,1,8
37584,-103.092783505155,4,3,1,35,0,8
38963,468.750000000001,4,3,1,35,1,0
38963,-101.010101010101,4,3,1,35,0,0
39431,461.538461538463,4,3,1,35,1,8
39431,-102.040816326531,4,3,1,35,0,8
40815,461.538461538463,4,3,1,35,1,0
40815,-102.040816326531,4,3,1,35,0,0
41738,466.926070038912,4,3,1,35,1,8
41738,-101.010101010101,4,3,1,35,0,8
42671,466.926070038912,4,3,1,35,1,0
42671,-101.010101010101,4,3,1,35,0,0
43137,451.127819548873,4,3,1,35,1,8
43137,-105.263157894737,4,3,1,35,0,8
43588,466.926070038912,4,3,1,35,1,8
43588,-101.010101010101,4,3,1,35,0,8
44054,458.015267175574,4,3,1,35,1,8
44054,-103.092783505155,4,3,1,35,0,8
44512,458.015267175574,4,3,1,35,1,0
44512,-103.092783505155,4,3,1,35,0,0
44970,452.830188679246,4,3,1,35,1,8
44970,-104.166666666667,4,3,1,35,0,8
45875,447.761194029852,4,3,1,35,1,8
45875,-105.263157894737,4,3,1,35,0,8
46322,441.176470588235,4,3,1,35,1,0
46322,-107.52688172043,4,3,1,35,0,0
46763,510.638297872342,4,3,1,35,1,8
46763,-92.5925925925926,4,3,1,35,0,8
47273,461.538461538463,4,3,1,35,1,8
47273,-102.040816326531,4,3,1,35,0,8
48196,461.538461538463,4,3,1,35,1,0
48196,-102.040816326531,4,3,1,35,0,0
49188,478.087649402392,4,3,1,35,1,8
49188,-99.009900990099,4,3,1,35,0,8
50144,478.087649402392,4,3,1,35,1,0
50144,-99.009900990099,4,3,1,35,0,0
51100,483.870967741937,4,3,1,35,1,8
51100,-98.0392156862745,4,3,1,35,0,8
51583,451.127819548874,4,3,1,35,1,8
51583,-105.263157894737,4,3,1,35,0,8
52034,451.127819548874,4,3,1,35,1,0
52034,-105.263157894737,4,3,1,35,0,0
52978,461.538461538463,4,3,1,35,1,8
52978,-102.040816326531,4,3,1,35,0,8
53901,487.804878048782,4,3,1,35,1,0
53901,-97.0873786407767,4,3,1,35,0,0
54876,480.000000000001,4,3,1,35,1,8
54876,-98.0392156862745,4,3,1,35,0,8
55356,470.588235294119,4,3,1,35,1,8
55826,487.804878048782,4,3,1,35,1,0
55826,-97.0873786407767,4,3,1,35,0,0
56313,470.588235294119,4,3,1,35,1,8
56783,491.803278688526,4,3,1,35,1,8
56783,-96.1538461538461,4,3,1,35,0,8
57274,469.667318982387,4,3,1,35,1,8
57274,-101.010101010101,4,3,1,35,0,8
57743,480.000000000001,4,3,1,35,1,0
57743,-98.0392156862745,4,3,1,35,0,0
58703,474.308300395258,4,3,1,35,1,8
59651,489.795918367348,4,3,1,35,1,0
59651,-96.1538461538461,4,3,1,35,0,0
60140,474.308300395258,4,3,1,35,1,8
60614,483.870967741937,4,3,1,35,1,8
60614,-98.0392156862745,4,3,1,35,0,8
61097,491.803278688526,4,3,1,35,1,8
61097,-96.1538461538461,4,3,1,35,0,8
61588,508.474576271188,4,2,1,35,1,0
61588,-92.5925925925926,4,2,1,35,0,0
62604,489.795918367348,4,2,1,35,1,8
62604,-96.1538461538461,4,2,1,35,0,8
63093,481.927710843375,4,2,1,35,1,8
63093,-98.0392156862745,4,2,1,35,0,8
63574,481.927710843375,4,2,1,35,1,0
63574,-98.0392156862745,4,2,1,35,0,0
64056,506.329113924051,4,2,1,35,1,8
64056,-93.4579439252336,4,2,1,35,0,8
64562,478.087649402391,4,2,1,35,1,8
64562,-99.009900990099,4,2,1,35,0,8
65040,444.444444444444,4,2,1,35,1,8
65040,-106.382978723404,4,2,1,35,0,8
65518,481.927710843375,4,2,1,35,1,0
65518,-98.0392156862745,4,2,1,35,0,0
66963,447.761194029852,4,2,1,35,1,8
66963,-105.263157894737,4,2,1,35,0,8
67445,472.440944881891,4,2,1,35,1,0
69334,481.927710843375,4,2,1,35,1,0
69334,-98.0392156862745,4,2,1,35,0,0
70297,463.320463320464,4,2,1,35,1,8
70297,-102.040816326531,4,2,1,35,0,8
70760,437.956204379563,4,2,1,35,1,8
70760,-107.52688172043,4,2,1,35,0,8
71223,483.870967741937,4,2,1,35,1,0
71223,-98.0392156862745,4,2,1,35,0,0
71706,491.803278688526,4,2,1,35,1,8
71706,-96.1538461538461,4,2,1,35,0,8
72197,483.870967741937,4,2,1,35,1,8
72197,-98.0392156862745,4,2,1,35,0,8
72680,431.654676258993,4,2,1,35,1,8
72680,-109.89010989011,4,2,1,35,0,8
73146,480.000000000001,4,2,1,35,1,0
73146,-98.0392156862745,4,2,1,35,0,0
74106,468.750000000001,4,2,1,35,1,8
74106,-101.010101010101,4,2,1,35,0,8
75043,472.440944881891,4,2,1,35,1,0
75987,461.538461538462,4,2,1,35,1,8
75987,-102.040816326531,4,2,1,35,0,8
76910,458.015267175573,4,3,1,35,1,0
76910,-103.092783505155,4,3,1,35,0,0
78742,472.44094488189,4,3,1,35,1,0
79214,459.770114942529,4,3,1,35,1,8
79214,-103.092783505155,4,3,1,35,0,8
79673,470.588235294118,4,3,1,35,1,8
80143,461.538461538462,4,3,1,35,1,8
80143,-102.040816326531,4,3,1,35,0,8
80604,472.44094488189,4,3,1,35,1,0
81548,461.538461538462,4,3,1,35,1,8
81548,-102.040816326531,4,3,1,35,0,8
82471,468.750000000001,4,3,1,35,1,0
82471,-101.010101010101,4,3,1,35,0,0
82939,451.127819548872,4,3,1,35,1,8
82939,-105.263157894737,4,3,1,35,0,8
83390,456.794822992006,4,3,1,35,1,8
83390,-103.092783505155,4,3,1,35,0,8
84303,449.438202247192,4,3,1,35,1,0
84303,-105.263157894737,4,3,1,35,0,0
86100,461.538461538462,4,3,1,35,1,0
86100,-102.040816326531,4,3,1,35,0,0
87023,480.000000000001,4,3,1,35,1,8
87023,-98.0392156862745,4,3,1,35,0,8
87983,480.000000000001,4,3,1,35,1,0
87983,-98.0392156862745,4,3,1,35,0,0
88943,476.190476190477,4,3,1,35,1,8
88943,-99.009900990099,4,3,1,35,0,8
89895,476.190476190477,4,3,1,35,1,0
89895,-99.009900990099,4,3,1,35,0,0
90847,481.927710843374,4,3,1,35,1,8
90847,-98.0392156862745,4,3,1,35,0,8
91810,481.927710843374,4,3,1,35,1,0
91810,-98.0392156862745,4,3,1,35,0,0
92754,447.761194029851,4,3,1,35,1,8
92754,-105.263157894737,4,3,1,35,0,8
93649,483.870967741936,4,3,1,35,1,0
93649,-98.0392156862745,4,3,1,35,0,0
94616,472.44094488189,4,3,1,35,1,8
95560,500.000000000001,4,3,1,35,1,0
95560,-94.3396226415094,4,3,1,35,0,0
96060,472.44094488189,4,3,1,35,1,8
96532,487.804878048781,4,3,1,35,1,8
96532,-97.0873786407767,4,3,1,35,0,8
97019,480.000000000001,4,3,1,35,1,8
97019,-98.0392156862745,4,3,1,35,0,8
97499,480.000000000001,4,3,1,35,1,0
97499,-98.0392156862745,4,3,1,35,0,0
97979,468.75,4,3,1,35,1,8
97979,-101.010101010101,4,3,1,35,0,8
98447,474.308300395257,4,3,1,35,1,8
98921,487.804878048782,4,3,1,35,1,8
98921,-97.0873786407767,4,3,1,35,0,8
99408,487.804878048782,4,3,1,35,1,0
99408,-97.0873786407767,4,3,1,35,0,0
99881,465.116279069767,4,3,1,35,1,8
99881,-102.040816326531,4,3,1,35,0,8
100346,502.092050209205,4,3,1,35,1,8
100346,-94.3396226415094,4,3,1,35,0,8
101350,506.32911392405,4,2,1,35,1,0
101350,-93.4579439252336,4,2,1,35,0,0
102362,480,4,2,1,35,1,8
102362,-98.0392156862745,4,2,1,35,0,8
102842,468.75,4,2,1,35,1,8
102842,-101.010101010101,4,2,1,35,0,8
103322,489.795918367347,4,2,1,35,1,0
103322,-96.1538461538461,4,2,1,35,0,0
104791,478.08764940239,4,2,1,35,1,8
104791,-99.009900990099,4,2,1,35,0,8
105269,478.08764940239,4,2,1,35,1,0
105269,-99.009900990099,4,2,1,35,0,0
106703,441.176470588235,4,2,1,35,1,8
106703,-107.52688172043,4,2,1,35,0,8
107169,483.870967741935,4,2,1,35,1,0
107169,-98.0392156862745,4,2,1,35,0,0
108620,468.75,4,2,1,35,1,8
108620,-101.010101010101,4,2,1,35,0,8
109088,485.82995951417,4,2,1,35,1,0
109088,-97.0873786407767,4,2,1,35,0,0
110545,431.654676258993,4,2,1,35,1,8
110545,-109.89010989011,4,2,1,35,0,8
111003,487.80487804878,4,2,1,35,1,0
111003,-97.0873786407767,4,2,1,35,0,0
112466,431.654676258993,4,2,1,35,1,8
112466,-109.89010989011,4,2,1,35,0,8
112918,483.870967741935,4,2,1,35,1,0
112918,-98.0392156862745,4,2,1,35,0,0
113885,466.92607003891,4,2,1,35,1,8
113885,-101.010101010101,4,2,1,35,0,8
114351,434.782608695652,4,2,1,35,1,8
114351,-108.695652173913,4,2,1,35,0,8
114818,487.80487804878,4,2,1,35,1,0
114818,-97.0873786407767,4,2,1,35,0,0
115793,465.116279069767,4,2,1,35,1,8
115793,-102.040816326531,4,2,1,35,0,8
116723,470.588235294117,4,2,1,35,1,0
118134,431.654676258993,4,2,1,35,1,8
118134,-109.89010989011,4,2,1,35,0,8
118585,470.588235294117,4,2,1,35,1,0
119055,479.999999999999,4,2,1,35,1,8
119055,-98.0392156862745,4,2,1,35,0,8
120015,451.127819548872,4,2,1,35,1,8
120015,-105.263157894737,4,2,1,35,0,8
120466,458.015267175572,4,2,1,35,1,0
120466,-103.092783505155,4,2,1,35,0,0
121840,441.176470588235,4,2,1,35,1,8
121840,-107.52688172043,4,2,1,35,0,8
122281,468.749999999999,4,2,1,35,1,0
122281,-101.010101010101,4,2,1,35,0,0
122749,487.80487804878,4,2,1,35,1,8
122749,-97.0873786407767,4,2,1,35,0,8
123236,466.92607003891,4,2,1,35,1,8
123236,-101.010101010101,4,2,1,35,0,8
124169,476.190476190476,4,2,1,35,1,0
124169,-99.009900990099,4,2,1,35,0,0
125121,449.438202247191,4,2,1,35,1,8
125121,-105.263157894737,4,2,1,35,0,8
126019,472.440944881889,4,2,1,35,1,0
126491,487.80487804878,4,2,1,35,1,8
126491,-97.0873786407767,4,2,1,35,0,8
126978,468.749999999999,4,2,1,35,1,8
126978,-101.010101010101,4,2,1,35,0,8
127915,468.749999999999,4,2,1,35,1,0
127915,-101.010101010101,4,2,1,35,0,0
128852,444.444444444444,4,2,1,35,1,8
128852,-106.382978723404,4,2,1,35,0,8
129740,508.474576271186,4,2,1,35,1,0
129740,-92.5925925925926,4,2,1,35,0,0
130756,487.80487804878,4,2,1,35,1,8
130756,-97.0873786407767,4,2,1,35,0,8
131731,463.320463320463,4,2,1,35,1,0
131731,-102.040816326531,4,2,1,35,0,0
133584,-102.040816326531,4,3,1,35,0,0
134510,468.75,4,3,1,35,1,8
134510,-101.010101010101,4,3,1,35,0,8
135447,449.438202247191,4,3,1,35,1,0
135447,-105.263157894737,4,3,1,35,0,0
136345,468.75,4,3,1,35,1,8
136345,-101.010101010101,4,3,1,35,0,8
137282,468.75,4,3,1,35,1,0
137282,-101.010101010101,4,3,1,35,0,0
139146,468.75,4,3,1,35,1,0
139146,-101.010101010101,4,3,1,35,0,0
140552,461.538461538461,4,3,1,35,1,8
140552,-102.040816326531,4,3,1,35,0,8
141013,465.116279069767,4,3,1,35,1,1
141013,-102.040816326531,4,3,1,35,0,1
142873,463.320463320463,4,3,1,35,1,1
142873,-102.040816326531,4,3,1,35,0,1
143336,447.76119402985,4,3,1,35,1,9
143336,-105.263157894737,4,3,1,35,0,9
143783,480,4,3,1,35,1,9
143783,-98.0392156862745,4,3,1,35,0,9
144262,463.320463320463,4,3,1,35,1,9
144262,-102.040816326531,4,3,1,35,0,9
144726,476.190476190476,4,3,1,35,1,1
144726,-99.009900990099,4,3,1,35,0,1
145202,457.142857142857,4,3,1,35,1,9
145202,-103.092783505155,4,3,1,35,0,9
145659,466.92607003891,4,3,1,35,1,9
145659,-101.010101010101,4,3,1,35,0,9
146593,472.440944881889,4,3,1,35,1,1
147065,450.281425891182,4,3,1,35,1,9
147065,-105.263157894737,4,3,1,35,0,9
147516,465.116279069767,4,3,1,35,1,9
147516,-102.040816326531,4,3,1,35,0,9
147981,458.015267175573,4,3,1,35,1,9
147981,-103.092783505155,4,3,1,35,0,9
148439,468.749999999999,4,3,1,35,1,0
148439,-101.010101010101,4,3,1,35,0,0
148907,461.538461538461,4,3,1,35,1,8
148907,-102.040816326531,4,3,1,35,0,8
149368,472.440944881889,4,3,1,35,1,8
149840,451.127819548872,4,3,1,35,1,8
149840,-105.263157894737,4,3,1,35,0,8
150291,481.927710843373,4,3,1,35,1,0
150291,-98.0392156862745,4,3,1,35,0,0
150772,468.749999999999,4,3,1,35,1,8
150772,-101.010101010101,4,3,1,35,0,8
151709,458.015267175572,4,3,1,35,1,8
151709,-103.092783505155,4,3,1,35,0,8
152167,491.803278688524,4,3,1,35,1,0
152167,-96.1538461538461,4,3,1,35,0,0
152658,463.678516228748,4,3,1,35,1,8
152658,-102.040816326531,4,3,1,35,0,8
154049,491.803278688524,4,3,1,35,1,0
154049,-96.1538461538461,4,3,1,35,0,0
154540,458.015267175572,4,3,1,35,1,8
154540,-103.092783505155,4,3,1,35,0,8
154998,489.795918367346,4,3,1,35,1,8
154998,-96.1538461538461,4,3,1,35,0,8
155487,458.015267175574,4,3,1,35,1,8
155487,-103.092783505155,4,3,1,35,0,8
155967,480.000000000001,4,2,1,35,1,0
155967,-98.0392156862745,4,2,1,35,0,0
157407,461.538461538463,4,2,1,35,1,8
157407,-102.040816326531,4,2,1,35,0,8
157868,474.308300395258,4,2,1,35,1,0
158342,487.804878048782,4,2,1,35,1,8
158342,-97.0873786407767,4,2,1,35,0,8
158829,468.384074941452,4,2,1,35,1,8
158829,-101.010101010101,4,2,1,35,0,8
159765,478.087649402392,4,2,1,35,1,0
159765,-99.009900990099,4,2,1,35,0,0
161677,470.588235294119,4,2,1,35,1,0
164971,461.538461538463,4,2,1,35,1,8
164971,-102.040816326531,4,2,1,35,0,8
165432,472.44094488189,4,2,1,35,1,0
166376,468.75,4,2,1,35,1,8
166376,-101.010101010101,4,2,1,35,0,8
167313,478.087649402392,4,2,1,35,1,0
167313,-99.009900990099,4,2,1,35,0,0
168269,463.320463320464,4,2,1,35,1,8
168269,-102.040816326531,4,2,1,35,0,8
169195,463.320463320464,4,2,1,35,1,0
169195,-102.040816326531,4,2,1,35,0,0
171048,480,4,2,1,35,1,0
171048,-98.0392156862745,4,2,1,35,0,0
171528,461.538461538462,4,2,1,35,1,8
171528,-102.040816326531,4,2,1,35,0,8
171989,470.588235294118,4,2,1,35,1,8
172459,425.531914893618,4,2,1,35,1,8
172459,-111.111111111111,4,2,1,35,0,8
172896,461.538461538462,4,2,1,35,1,0
172896,-102.040816326531,4,2,1,35,0,0
173819,468.750000000001,4,2,1,35,1,8
173819,-101.010101010101,4,2,1,35,0,8
174742,466.926070038911,4,2,1,35,1,0
174742,-101.010101010101,4,2,1,35,0,0
176142,422.535211267606,4,2,1,35,1,8
176142,-112.359550561798,4,2,1,35,0,8
176564,454.545454545456,4,2,1,35,1,0
176564,-104.166666666667,4,2,1,35,0,0
177927,487.804878048782,4,2,1,35,1,8
177927,-97.0873786407767,4,2,1,35,0,8
178414,458.015267175574,4,2,1,35,1,0
178414,-103.092783505155,4,2,1,35,0,0
179330,447.761194029852,4,2,1,35,1,8
179330,-105.263157894737,4,2,1,35,0,8
179777,441.176470588237,4,2,1,35,1,8
179777,-107.52688172043,4,2,1,35,0,8
180225,452.830188679246,4,2,1,35,1,0
180225,-104.166666666667,4,2,1,35,0,0
180677,463.320463320464,4,2,1,35,1,8
180677,-102.040816326531,4,2,1,35,0,8
182066,459.77011494253,4,2,1,35,1,0
182066,-103.092783505155,4,2,1,35,0,0
182985,444.444444444444,4,2,1,35,1,8
182985,-106.382978723404,4,2,1,35,0,8
183445,436.363636363637,4,2,1,35,1,8
183445,-108.695652173913,4,2,1,35,0,8
183881,449.438202247192,4,2,1,35,1,0
183881,-105.263157894737,4,2,1,35,0,0
185678,458.015267175574,4,2,1,35,1,0
185678,-103.092783505155,4,2,1,35,0,0
187510,449.438202247192,4,2,1,35,1,0
187510,-105.263157894737,4,2,1,35,0,0
188858,470.588235294119,4,2,1,35,1,8
189328,454.545454545456,4,2,1,35,1,0
189328,-104.166666666667,4,2,1,35,0,0
190691,458.015267175573,4,2,1,35,1,8
190691,-103.092783505155,4,2,1,35,0,8
191133,452.830188679247,4,2,1,35,1,0
191133,-104.166666666667,4,2,1,35,0,0
192038,456.273764258557,4,2,1,35,1,8
192038,-103.092783505155,4,2,1,35,0,8
192950,468.75,4,2,1,35,1,0
192950,-101.010101010101,4,2,1,35,0,0
193887,452.830188679245,4,2,1,35,1,8
193887,-104.166666666667,4,2,1,35,0,8
194793,452.830188679247,4,2,1,35,1,0
194793,-104.166666666667,4,2,1,35,0,0
196604,447.761194029852,4,2,1,35,1,0
196604,-105.263157894737,4,2,1,35,0,0
197051,458.015267175574,4,2,1,35,1,8
197051,-103.092783505155,4,2,1,35,0,8
197509,431.654676258994,4,2,1,35,1,8
197509,-109.89010989011,4,2,1,35,0,8
197956,438.59649122807,4,2,1,35,1,8
197956,-107.52688172043,4,2,1,35,0,8
198394,422.535211267607,4,2,1,35,1,0
198394,-112.359550561798,4,2,1,35,0,0
199027,500.000000000002,4,2,1,35,1,8
199027,-94.3396226415094,4,2,1,35,0,8
199777,530.973451327436,4,2,1,35,1,8
199777,-89.2857142857143,4,2,1,35,0,8
200307,512.820512820515,4,2,1,35,1,0
200307,-91.743119266055,4,2,1,35,0,0

[HitObjects]
448,192,184,5,0,0:0:0:0:
448,192,676,1,0,0:0:0:0:
448,192,1168,1,0,0:0:0:0:
320,192,1660,128,0,1905:0:0:0:0:
192,192,1905,1,0,0:0:0:0:
64,192,2028,128,0,2274:0:0:0:0:
448,192,2274,1,0,0:0:0:0:
320,192,2397,128,0,2635:0:0:0:0:
192,192,2635,1,0,0:0:0:0:
320,192,2754,1,0,0:0:0:0:
448,192,2873,1,0,0:0:0:0:
64,192,2992,1,0,0:0:0:0:
320,192,3111,128,0,3349:0:0:0:0:
192,192,3349,1,0,0:0:0:0:
64,192,3468,1,0,0:0:0:0:
448,192,3587,128,0,3930:0:0:0:0:
192,192,3930,1,0,0:0:0:0:
320,192,4045,1,0,0:0:0:0:
64,192,4159,1,0,0:0:0:0:
320,192,4274,128,0,4506:0:0:0:0:
192,192,4506,1,0,0:0:0:0:
64,192,4622,1,0,0:0:0:0:
448,192,4739,1,0,0:0:0:0:
320,192,4855,1,0,0:0:0:0:
64,192,4971,128,0,5204:0:0:0:0:
448,192,5204,1,0,0:0:0:0:
192,192,5320,1,0,0:0:0:0:
320,192,5436,128,0,5672:0:0:0:0:
448,192,5672,1,0,0:0:0:0:
192,192,5790,128,0,6026:0:0:0:0:
64,192,6026,1,0,0:0:0:0:
320,192,6144,128,0,6380:0:0:0:0:
192,192,6380,1,0,0:0:0:0:
64,192,6498,1,0,0:0:0:0:
192,192,6617,1,0,0:0:0:0:
320,192,6735,1,0,0:0:0:0:
448,192,6853,128,0,7089:0:0:0:0:
192,192,7089,1,0,0:0:0:0:
320,192,7207,1,0,0:0:0:0:
64,192,7325,128,0,7561:0:0:0:0:
448,192,7561,1,0,0:0:0:0:
320,192,7680,1,0,0:0:0:0:
192,192,7798,1,0,0:0:0:0:
64,192,7916,1,0,0:0:0:0:
448,192,8034,128,0,8270:0:0:0:0:
320,192,8270,1,0,0:0:0:0:
192,192,8388,1,0,0:0:0:0:
64,192,8506,1,0,0:0:0:0:
320,192,8624,1,0,0:0:0:0:
192,192,8743,128,0,8979:0:0:0:0:
64,192,8979,1,0,0:0:0:0:
448,192,9097,1,0,0:0:0:0:
64,192,9215,128,0,9580:0:0:0:70:cymbal01_short.wav
192,192,9215,128,0,9580:0:0:0:0:
320,192,9458,1,0,0:0:0:0:
448,192,9580,128,0,9946:0:0:0:0:
192,192,9702,1,0,0:0:0:0:
320,192,9946,128,0,10296:0:0:0:0:
64,192,10179,1,0,0:0:0:0:
192,192,10296,128,0,10646:0:0:0:0:
448,192,10412,1,0,0:0:0:0:
448,192,10646,128,0,10879:0:0:0:0:
64,192,10879,128,0,11149:0:0:0:0:
448,192,11149,128,0,11503:0:0:0:0:
320,192,11385,1,0,0:0:0:0:
192,192,11503,128,0,11857:0:0:0:0:
64,192,11621,1,0,0:0:0:0:
448,192,11857,128,0,12211:0:0:0:0:
320,192,12093,1,0,0:0:0:0:
64,192,12211,128,0,12566:0:0:0:0:
192,192,12330,1,0,0:0:0:0:
320,192,12566,128,0,12802:0:0:0:0:
192,192,12802,128,0,13038:0:0:0:0:
64,192,13038,128,0,13381:0:0:0:0:
448,192,13267,1,0,0:0:0:0:
320,192,13381,128,0,13725:0:0:0:0:
192,192,13496,1,0,0:0:0:0:
448,192,13725,128,0,14063:0:0:0:0:
64,192,13950,1,0,0:0:0:0:
192,192,14063,128,0,14401:0:0:0:0:
64,192,14176,1,0,0:0:0:0:
320,192,14401,128,0,14669:0:0:0:0:
64,192,14669,128,0,14936:0:0:0:0:
192,192,14936,128,0,15158:0:0:0:0:
448,192,15158,1,0,0:0:0:0:
320,192,15269,1,0,0:0:0:0:
448,192,15380,1,0,0:0:0:0:
192,192,15602,128,0,15840:0:0:0:0:
448,192,15840,1,0,0:0:0:0:
320,192,15959,1,0,0:0:0:0:
448,192,16078,1,0,0:0:0:0:
192,192,16316,128,0,16554:0:0:0:0:
448,192,16554,1,0,0:0:0:0:
320,192,16673,1,0,0:0:0:0:
64,192,16812,1,0,0:0:0:60:Kick 2.wav
448,192,16812,1,0,0:0:0:40:tom03.wav
192,192,17147,1,0,0:0:0:40:tom01.wav
320,192,17259,1,0,0:0:0:60:Kick 2.wav
448,192,17259,1,0,0:0:0:40:tom01.wav
320,192,17489,1,0,0:0:0:40:tom03.wav
64,192,17720,1,0,0:0:0:60:Kick 2.wav
192,192,17720,1,0,0:0:0:40:tom03.wav
448,192,17835,1,0,0:0:0:40:tom03.wav
448,192,18066,1,0,0:0:0:40:tom03.wav
64,192,18182,1,0,0:0:0:60:Kick 2.wav
192,192,18182,1,0,0:0:0:40:tom04.wav
64,192,18684,1,0,0:0:0:60:Kick 2.wav
448,192,18684,1,0,0:0:0:40:tom03.wav
320,192,19017,1,0,0:0:0:40:tom01.wav
64,192,19128,1,0,0:0:0:60:Kick 2.wav
192,192,19128,1,0,0:0:0:40:tom01.wav
192,192,19350,1,0,0:0:0:40:tom03.wav
320,192,19592,1,0,0:0:0:60:Kick 2.wav
448,192,19592,1,0,0:0:0:40:tom03.wav
64,192,19703,1,0,0:0:0:40:tom03.wav
64,192,19925,1,0,0:0:0:40:tom03.wav
320,192,20036,1,0,0:0:0:60:Kick 2.wav
448,192,20036,1,0,0:0:0:40:tom04.wav
192,192,20519,1,0,0:0:0:60:Kick 2.wav
320,192,20519,1,0,0:0:0:40:tom03.wav
448,192,20862,1,0,0:0:0:40:tom01.wav
64,192,20977,1,0,0:0:0:60:Kick 2.wav
320,192,20977,1,0,0:0:0:40:tom01.wav
320,192,21206,1,0,0:0:0:40:tom03.wav
192,192,21435,1,0,0:0:0:60:Kick 2.wav
448,192,21435,1,0,0:0:0:40:tom03.wav
64,192,21549,1,0,0:0:0:40:tom03.wav
64,192,21778,1,0,0:0:0:40:tom03.wav
192,192,21893,1,0,0:0:0:60:Kick 2.wav
448,192,21893,1,0,0:0:0:40:tom04.wav
64,192,22365,1,0,0:0:0:60:Kick 2.wav
320,192,22365,1,0,0:0:0:40:tom03.wav
448,192,22709,1,0,0:0:0:40:tom01.wav
192,192,22824,1,0,0:0:0:60:Kick 2.wav
320,192,22824,1,0,0:0:0:40:tom01.wav
192,192,23054,1,0,0:0:0:40:tom03.wav
64,192,23284,1,0,0:0:0:60:Kick 2.wav
320,192,23284,1,0,0:0:0:40:tom03.wav
448,192,23399,1,0,0:0:0:40:tom03.wav
448,192,23629,1,0,0:0:0:40:tom03.wav
64,192,23744,1,0,0:0:0:60:Kick 2.wav
320,192,23744,1,0,0:0:0:40:tom04.wav
320,192,24216,1,0,0:0:0:60:Kick 2.wav
448,192,24216,1,0,0:0:0:40:tom03.wav
64,192,24559,1,0,0:0:0:40:tom01.wav
320,192,24674,1,0,0:0:0:60:Kick 2.wav
448,192,24674,1,0,0:0:0:40:tom01.wav
320,192,24903,1,0,0:0:0:40:tom03.wav
192,192,25132,1,0,0:0:0:60:Kick 2.wav
448,192,25132,1,0,0:0:0:40:tom03.wav
64,192,25242,1,0,0:0:0:40:tom03.wav
64,192,25462,1,0,0:0:0:40:tom03.wav
192,192,25573,1,0,0:0:0:60:Kick 2.wav
448,192,25573,1,0,0:0:0:40:tom04.wav
64,192,26054,1,0,0:0:0:60:Kick 2.wav
320,192,26054,1,0,0:0:0:40:tom03.wav
192,192,26389,1,0,0:0:0:40:tom01.wav
320,192,26501,1,0,0:0:0:60:Kick 2.wav
448,192,26501,1,0,0:0:0:40:tom01.wav
448,192,26725,1,0,0:0:0:40:tom03.wav
64,192,26949,1,0,0:0:0:60:Kick 2.wav
320,192,26949,1,0,0:0:0:40:tom03.wav
192,192,27060,1,0,0:0:0:40:tom03.wav
192,192,27284,1,0,0:0:0:40:tom03.wav
64,192,27396,1,0,0:0:0:60:Kick 2.wav
320,192,27396,1,0,0:0:0:40:tom04.wav
64,192,27885,1,0,0:0:0:60:Kick 2.wav
192,192,27885,1,0,0:0:0:40:tom03.wav
448,192,28217,1,0,0:0:0:40:tom01.wav
64,192,28327,1,0,0:0:0:60:Kick 2.wav
320,192,28327,1,0,0:0:0:40:tom01.wav
64,192,28549,1,0,0:0:0:40:tom03.wav
320,192,28770,1,0,0:0:0:60:Kick 2.wav
448,192,28770,1,0,0:0:0:40:tom03.wav
192,192,28881,1,0,0:0:0:40:tom03.wav
192,192,29102,1,0,0:0:0:40:tom03.wav
320,192,29213,1,0,0:0:0:60:Kick 2.wav
448,192,29213,1,0,0:0:0:40:tom04.wav
320,192,29672,1,0,0:0:0:30:Kick 2.wav
448,192,29672,1,0,0:0:0:20:tom03.wav
192,192,29908,1,0,0:0:0:35:Kick 2.wav
64,192,30144,1,0,0:0:0:40:Kick 2.wav
448,192,30144,1,0,0:0:0:27:tom03.wav
320,192,30377,1,0,0:0:0:45:Kick 2.wav
64,192,30610,1,0,0:0:0:50:Kick 2.wav
192,192,30610,1,0,0:0:0:33:tom03.wav
320,192,30844,1,0,0:0:0:55:Kick 2.wav
64,192,31077,1,0,0:0:0:60:Kick 2.wav
448,192,31077,1,0,0:0:0:40:tom03.wav
192,192,31304,1,0,0:0:0:40:snare_edited1.wav
320,192,31531,1,0,0:0:0:60:Kick 2.wav
448,192,31531,1,0,0:0:0:50:cymbal01_short.wav
64,192,31646,128,0,31877:0:0:0:0:
320,192,31877,1,0,0:0:0:60:Kick 2.wav
448,192,31877,1,0,0:0:0:0:
64,192,31992,1,0,0:0:0:40:snare_edited1.wav
192,192,31992,128,0,32338:0:0:0:50:cymbal01_short.wav
448,192,32338,1,0,0:0:0:40:snare_edited1.wav
64,192,32454,1,0,0:0:0:60:Kick 2.wav
192,192,32454,1,0,0:0:0:50:cymbal01_short.wav
320,192,32573,128,0,32811:0:0:0:0:
192,192,32811,1,0,0:0:0:60:Kick 2.wav
448,192,32811,1,0,0:0:0:0:
64,192,32930,1,0,0:0:0:40:snare_edited1.wav
320,192,32930,128,0,33276:0:0:0:50:cymbal01_short.wav
192,192,33276,1,0,0:0:0:40:snare_edited1.wav
64,192,33391,1,0,0:0:0:60:Kick 2.wav
448,192,33391,128,0,33742:0:0:0:50:cymbal01_short.wav
192,192,33742,1,0,0:0:0:60:Kick 2.wav
320,192,33742,1,0,0:0:0:0:
64,192,33859,128,0,34211:0:0:0:40:snare_edited1.wav
448,192,33859,1,0,0:0:0:50:cymbal01_short.wav
320,192,34211,1,0,0:0:0:40:snare_edited1.wav
64,192,34328,1,0,0:0:0:60:Kick 2.wav
192,192,34328,128,0,34562:0:0:0:50:cymbal01_short.wav
320,192,34562,1,0,0:0:0:60:Kick 2.wav
448,192,34562,128,0,34797:0:0:0:0:
64,192,34797,128,0,35137:0:0:0:40:snare_edited1.wav
192,192,34797,1,0,0:0:0:50:cymbal01_short.wav
448,192,35137,1,0,0:0:0:40:snare_edited1.wav
192,192,35251,128,0,35601:0:0:0:60:Kick 2.wav
320,192,35251,1,0,0:0:0:50:cymbal01_short.wav
64,192,35601,1,0,0:0:0:60:Kick 2.wav
448,192,35601,1,0,0:0:0:0:
192,192,35717,1,0,0:0:0:40:snare_edited1.wav
320,192,35717,128,0,36068:0:0:0:50:cymbal01_short.wav
64,192,36068,1,0,0:0:0:40:snare_edited1.wav
192,192,36184,1,0,0:0:0:60:Kick 2.wav
448,192,36184,128,0,36535:0:0:0:50:cymbal01_short.wav
192,192,36535,1,0,0:0:0:60:Kick 2.wav
320,192,36535,1,0,0:0:0:0:
64,192,36651,128,0,37001:0:0:0:40:snare_edited1.wav
448,192,36651,1,0,0:0:0:50:cymbal01_short.wav
192,192,37001,1,0,0:0:0:40:snare_edited1.wav
64,192,37118,1,0,0:0:0:60:Kick 2.wav
320,192,37118,128,0,37468:0:0:0:50:cymbal01_short.wav
192,192,37468,1,0,0:0:0:60:Kick 2.wav
448,192,37468,1,0,0:0:0:0:
64,192,37584,1,0,0:0:0:40:snare_edited1.wav
320,192,37584,128,0,37928:0:0:0:50:cymbal01_short.wav
192,192,37928,1,0,0:0:0:40:snare_edited1.wav
64,192,38043,128,0,38273:0:0:0:60:Kick 2.wav
320,192,38043,1,0,0:0:0:50:cymbal01_short.wav
192,192,38273,1,0,0:0:0:60:Kick 2.wav
448,192,38273,128,0,38503:0:0:0:0:
64,192,38503,128,0,38848:0:0:0:40:snare_edited1.wav
320,192,38503,1,0,0:0:0:50:cymbal01_short.wav
448,192,38848,1,0,0:0:0:40:snare_edited1.wav
192,192,38963,1,0,0:0:0:60:Kick 2.wav
320,192,38963,128,0,39197:0:0:0:50:cymbal01_short.wav
448,192,39197,1,0,0:0:0:0:
64,192,39314,1,0,0:0:0:60:Kick 2.wav
192,192,39314,1,0,0:0:0:0:
320,192,39431,1,0,0:0:0:40:snare_edited1.wav
448,192,39431,128,0,39777:0:0:0:50:cymbal01_short.wav
192,192,39777,1,0,0:0:0:40:snare_edited1.wav
64,192,39892,128,0,40123:0:0:0:60:Kick 2.wav
320,192,39892,1,0,0:0:0:50:cymbal01_short.wav
192,192,40123,1,0,0:0:0:0:
64,192,40238,1,0,0:0:0:60:Kick 2.wav
448,192,40238,1,0,0:0:0:0:
192,192,40354,1,0,0:0:0:40:snare_edited1.wav
320,192,40354,128,0,40700:0:0:0:50:cymbal01_short.wav
64,192,40700,1,0,0:0:0:40:snare_edited1.wav
192,192,40815,1,0,0:0:0:60:Kick 2.wav
448,192,40815,128,0,41045:0:0:0:50:cymbal01_short.wav
320,192,41045,1,0,0:0:0:0:
64,192,41161,1,0,0:0:0:60:Kick 2.wav
192,192,41161,1,0,0:0:0:0:
320,192,41276,128,0,41622:0:0:0:40:snare_edited1.wav
448,192,41276,1,0,0:0:0:50:cymbal01_short.wav
192,192,41622,1,0,0:0:0:40:snare_edited1.wav
64,192,41738,1,0,0:0:0:60:Kick 2.wav
448,192,41738,128,0,41971:0:0:0:50:cymbal01_short.wav
192,192,41971,1,0,0:0:0:60:Kick 2.wav
320,192,41971,128,0,42204:0:0:0:0:
64,192,42204,128,0,42555:0:0:0:40:snare_edited1.wav
448,192,42204,1,0,0:0:0:50:cymbal01_short.wav
448,192,42555,1,0,0:0:0:40:snare_edited1.wav
64,192,42671,1,0,0:0:0:60:Kick 2.wav
320,192,42671,128,0,42904:0:0:0:50:cymbal01_short.wav
192,192,42904,1,0,0:0:0:0:
64,192,43021,1,0,0:0:0:60:Kick 2.wav
448,192,43021,1,0,0:0:0:0:
192,192,43137,1,0,0:0:0:40:snare_edited1.wav
320,192,43137,128,0,43475:0:0:0:50:cymbal01_short.wav
64,192,43475,1,0,0:0:0:40:snare_edited1.wav
192,192,43588,128,0,43821:0:0:0:60:Kick 2.wav
448,192,43588,1,0,0:0:0:50:cymbal01_short.wav
64,192,43821,1,0,0:0:0:0:
320,192,43938,1,0,0:0:0:60:Kick 2.wav
448,192,43938,1,0,0:0:0:0:
64,192,44054,128,0,44397:0:0:0:40:snare_edited1.wav
192,192,44054,1,0,0:0:0:50:cymbal01_short.wav
320,192,44397,1,0,0:0:0:40:snare_edited1.wav
192,192,44512,1,0,0:0:0:60:Kick 2.wav
448,192,44512,128,0,44741:0:0:0:50:cymbal01_short.wav
320,192,44741,1,0,0:0:0:0:
64,192,44855,1,0,0:0:0:60:Kick 2.wav
448,192,44855,1,0,0:0:0:0:
192,192,44970,1,0,0:0:0:40:snare_edited1.wav
320,192,44970,128,0,45309:0:0:0:50:cymbal01_short.wav
64,192,45309,1,0,0:0:0:40:snare_edited1.wav
192,192,45422,128,0,45649:0:0:0:60:Kick 2.wav
448,192,45422,1,0,0:0:0:50:cymbal01_short.wav
64,192,45649,128,0,45875:0:0:0:60:Kick 2.wav
320,192,45649,1,0,0:0:0:0:
192,192,45875,1,0,0:0:0:40:snare_edited1.wav
448,192,45875,128,0,46322:0:0:0:50:cymbal01_short.wav
64,192,46322,1,0,0:0:0:60:Kick 2.wav
192,192,46322,1,0,0:0:0:40:snare_edited1.wav
320,192,46432,1,0,0:0:0:60:Kick 2.wav
448,192,46432,1,0,0:0:0:40:snare_edited1.wav
64,192,46763,1,0,0:0:0:0:
192,192,47273,1,0,0:0:0:60:Kick 2.wav
448,192,47273,1,0,0:0:0:40:LR_Hit Med Click.wav
64,192,47503,1,0,0:0:0:60:Kick 2.wav
192,192,47503,1,0,0:0:0:40:LR_Hit Med Click.wav
64,192,47734,1,0,0:0:0:60:Kick 2.wav
448,192,47734,1,0,0:0:0:40:LR_Hit Med Click.wav
192,192,47965,1,0,0:0:0:60:Kick 2.wav
448,192,47965,1,0,0:0:0:40:LR_Hit Med Click.wav
320,192,48196,1,0,0:0:0:60:Kick 2.wav
448,192,48196,1,0,0:0:0:40:LR_Hit Med Click.wav
64,192,48311,1,0,0:0:0:60:Kick 2.wav
192,192,48311,1,0,0:0:0:40:LR_Hit Med Click.wav
64,192,49188,1,0,0:0:0:60:Kick 2.wav
448,192,49188,1,0,0:0:0:40:LR_Hit Med Click.wav
192,192,49427,1,0,0:0:0:60:Kick 2.wav
448,192,49427,1,0,0:0:0:40:LR_Hit Med Click.wav
64,192,49666,1,0,0:0:0:60:Kick 2.wav
192,192,49666,1,0,0:0:0:40:LR_Hit Med Click.wav
64,192,49905,1,0,0:0:0:60:Kick 2.wav
320,192,49905,1,0,0:0:0:40:LR_Hit Med Click.wav
192,192,50144,1,0,0:0:0:60:Kick 2.wav
448,192,50144,1,0,0:0:0:40:LR_Hit Med Click.wav
64,192,50263,1,0,0:0:0:60:Kick 2.wav
320,192,50263,1,0,0:0:0:40:LR_Hit Med Click.wav
192,192,50622,1,0,0:0:0:0:
64,192,51100,1,0,0:0:0:60:Kick 2.wav
320,192,51100,1,0,0:0:0:40:LR_Hit Med Click.wav
320,192,51341,1,0,0:0:0:60:Kick 2.wav
448,192,51341,1,0,0:0:0:40:LR_Hit Med Click.wav
64,192,51583,1,0,0:0:0:60:Kick 2.wav
448,192,51583,1,0,0:0:0:40:LR_Hit Med Click.wav
64,192,51808,1,0,0:0:0:60:Kick 2.wav
192,192,51808,1,0,0:0:0:40:LR_Hit Med Click.wav
192,192,52034,1,0,0:0:0:60:Kick 2.wav
320,192,52034,1,0,0:0:0:40:LR_Hit Med Click.wav
64,192,52146,1,0,0:0:0:60:Kick 2.wav
448,192,52146,1,0,0:0:0:40:LR_Hit Med Click.wav
64,192,52978,1,0,0:0:0:60:Kick 2.wav
448,192,52978,1,0,0:0:0:40:LR_Hit Med Click.wav
64,192,53208,1,0,0:0:0:60:Kick 2.wav
320,192,53208,1,0,0:0:0:40:LR_Hit Med Click.wav
320,192,53439,1,0,0:0:0:60:Kick 2.wav
448,192,53439,1,0,0:0:0:40:LR_Hit Med Click.wav
64,192,53670,1,0,0:0:0:60:Kick 2.wav
192,192,53785,1,0,0:0:0:40:snare_edited1.wav
320,192,53901,1,0,0:0:0:60:Kick 2.wav
448,192,53901,1,0,0:0:0:40:LR_Hit Med Click.wav
64,192,54022,1,0,0:0:0:0:
448,192,54266,1,0,0:0:0:0:
64,192,54388,1,0,0:0:0:40:snare_edited1.wav
192,192,54388,1,0,0:0:0:40:LR_Hit Med Click.wav
320,192,54510,1,0,0:0:0:0:
448,192,54632,1,0,0:0:0:0:
64,192,54876,1,0,0:0:0:60:Kick 2.wav
192,192,54876,1,0,0:0:0:40:LR_Hit Med Click.wav
448,192,54996,1,0,0:0:0:0:
320,192,55116,1,0,0:0:0:0:
64,192,55236,1,0,0:0:0:60:Kick 2.wav
192,192,55356,1,0,0:0:0:40:snare_edited1.wav
448,192,55356,1,0,0:0:0:40:LR_Hit Med Click.wav
64,192,55591,1,0,0:0:0:60:Kick 2.wav
192,192,55708,1,0,0:0:0:0:
320,192,55826,1,0,0:0:0:60:Kick 2.wav
448,192,55826,1,0,0:0:0:40:LR_Hit Med Click.wav
64,192,55947,1,0,0:0:0:0:
448,192,56191,1,0,0:0:0:0:
192,192,56313,1,0,0:0:0:40:snare_edited1.wav
320,192,56313,1,0,0:0:0:40:LR_Hit Med Click.wav
64,192,56430,1,0,0:0:0:0:
448,192,56548,1,0,0:0:0:0:
64,192,56783,1,0,0:0:0:60:Kick 2.wav
192,192,56783,1,0,0:0:0:40:LR_Hit Med Click.wav
320,192,56905,1,0,0:0:0:0:
448,192,57028,1,0,0:0:0:0:
64,192,57151,1,0,0:0:0:60:Kick 2.wav
192,192,57274,1,0,0:0:0:40:snare_edited1.wav
320,192,57274,1,0,0:0:0:40:LR_Hit Med Click.wav
192,192,57508,1,0,0:0:0:60:Kick 2.wav
448,192,57626,1,0,0:0:0:0:
64,192,57743,1,0,0:0:0:60:Kick 2.wav
320,192,57743,1,0,0:0:0:40:LR_Hit Med Click.wav
192,192,57863,1,0,0:0:0:0:
448,192,58103,1,0,0:0:0:0:
64,192,58223,1,0,0:0:0:40:snare_edited1.wav
192,192,58223,1,0,0:0:0:40:LR_Hit Med Click.wav
320,192,58343,1,0,0:0:0:0:
448,192,58463,1,0,0:0:0:0:
64,192,58703,1,0,0:0:0:60:Kick 2.wav
320,192,58703,1,0,0:0:0:40:LR_Hit Med Click.wav
192,192,58821,1,0,0:0:0:0:
448,192,58940,1,0,0:0:0:0:
320,192,59058,1,0,0:0:0:60:Kick 2.wav
64,192,59177,1,0,0:0:0:40:snare_edited1.wav
192,192,59177,1,0,0:0:0:40:LR_Hit Med Click.wav
192,192,59414,1,0,0:0:0:60:Kick 2.wav
448,192,59533,1,0,0:0:0:0:
64,192,59651,1,0,0:0:0:60:Kick 2.wav
320,192,59651,1,0,0:0:0:40:LR_Hit Med Click.wav
192,192,59773,1,0,0:0:0:0:
320,192,60018,1,0,0:0:0:0:
64,192,60140,1,0,0:0:0:40:snare_edited1.wav
448,192,60140,1,0,0:0:0:40:LR_Hit Med Click.wav
192,192,60258,1,0,0:0:0:0:
448,192,60377,1,0,0:0:0:0:
64,192,60614,1,0,0:0:0:60:Kick 2.wav
320,192,60614,1,0,0:0:0:40:LR_Hit Med Click.wav
192,192,60855,1,0,0:0:0:40:snare_edited1.wav
448,192,60855,1,0,0:0:0:0:
64,192,61097,1,0,0:0:0:40:tom01.wav
64,192,61342,1,0,0:0:0:40:tom04.wav
320,192,61588,128,0,62096:0:0:0:60:Kick 2.wav
448,192,61588,1,0,0:0:0:50:LR_HiHat SClick 2.wav
64,192,62096,1,0,0:0:0:50:LR_HiHat SClick 2.wav
192,192,62604,1,0,0:0:0:40:snare_edited1.wav
448,192,62604,1,0,0:0:0:50:LR_HiHat SClick 2.wav
448,192,62848,1,0,0:0:0:50:LR_HiHat SClick 2.wav
64,192,63093,1,0,0:0:0:50:LR_HiHat SClick 2.wav
192,192,63333,1,0,0:0:0:60:Kick 2.wav
320,192,63333,1,0,0:0:0:50:LR_HiHat SClick 2.wav
64,192,63574,1,0,0:0:0:60:Kick 2.wav
448,192,63574,128,0,64056:0:0:0:50:LR_HiHat SClick 2.wav
320,192,64056,1,0,0:0:0:50:LR_HiHat SClick 2.wav
192,192,64562,1,0,0:0:0:40:snare_edited1.wav
448,192,64562,1,0,0:0:0:50:LR_HiHat SClick 2.wav
448,192,64801,1,0,0:0:0:50:LR_HiHat SClick 2.wav
64,192,65040,1,0,0:0:0:50:LR_HiHat SClick 2.wav
320,192,65262,1,0,0:0:0:60:Kick 2.wav
448,192,65262,1,0,0:0:0:50:LR_HiHat SClick 2.wav
64,192,65518,128,0,65999:0:0:0:60:Kick 2.wav
192,192,65518,1,0,0:0:0:50:LR_HiHat SClick 2.wav
320,192,65999,1,0,0:0:0:50:LR_HiHat SClick 2.wav
192,192,66481,1,0,0:0:0:40:snare_edited1.wav
448,192,66481,1,0,0:0:0:50:LR_HiHat SClick 2.wav
448,192,66722,1,0,0:0:0:50:LR_HiHat SClick 2.wav
64,192,66963,1,0,0:0:0:50:LR_HiHat SClick 2.wav
192,192,67186,1,0,0:0:0:60:Kick 2.wav
448,192,67186,1,0,0:0:0:50:LR_HiHat SClick 2.wav
64,192,67445,1,0,0:0:0:60:Kick 2.wav
320,192,67445,128,0,67799:0:0:0:50:LR_HiHat SClick 2.wav
192,192,67799,128,0,68153:0:0:0:0:
64,192,68153,128,0,68389:0:0:0:50:LR_HiHat SClick 2.wav
320,192,68389,128,0,68862:0:0:0:40:snare_edited1.wav
448,192,68389,1,0,0:0:0:50:LR_HiHat SClick 2.wav
192,192,68626,1,0,0:0:0:50:LR_HiHat SClick 2.wav
64,192,68862,128,0,69334:0:0:0:50:LR_HiHat SClick 2.wav
448,192,69098,1,0,0:0:0:50:LR_HiHat SClick 2.wav
192,192,69334,1,0,0:0:0:60:Kick 2.wav
320,192,69334,128,0,69815:0:0:0:50:LR_HiHat SClick 2.wav
64,192,69815,1,0,0:0:0:50:LR_HiHat SClick 2.wav
192,192,70297,1,0,0:0:0:40:snare_edited1.wav
448,192,70297,1,0,0:0:0:50:LR_HiHat SClick 2.wav
448,192,70528,1,0,0:0:0:50:LR_HiHat SClick 2.wav
64,192,70760,1,0,0:0:0:50:LR_HiHat SClick 2.wav
320,192,70978,1,0,0:0:0:60:Kick 2.wav
448,192,70978,1,0,0:0:0:50:LR_HiHat SClick 2.wav
64,192,71223,1,0,0:0:0:60:Kick 2.wav
192,192,71223,128,0,71706:0:0:0:50:LR_HiHat SClick 2.wav
448,192,71706,1,0,0:0:0:50:LR_HiHat SClick 2.wav
64,192,72197,1,0,0:0:0:40:snare_edited1.wav
320,192,72197,1,0,0:0:0:50:LR_HiHat SClick 2.wav
320,192,72438,1,0,0:0:0:50:LR_HiHat SClick 2.wav
192,192,72680,1,0,0:0:0:50:LR_HiHat SClick 2.wav
64,192,72895,1,0,0:0:0:60:Kick 2.wav
448,192,72895,1,0,0:0:0:50:LR_HiHat SClick 2.wav
192,192,73146,128,0,73626:0:0:0:60:Kick 2.wav
320,192,73146,1,0,0:0:0:50:LR_HiHat SClick 2.wav
64,192,73626,1,0,0:0:0:50:LR_HiHat SClick 2.wav
320,192,74106,1,0,0:0:0:40:snare_edited1.wav
448,192,74106,1,0,0:0:0:50:LR_HiHat SClick 2.wav
448,192,74340,1,0,0:0:0:50:LR_HiHat SClick 2.wav
192,192,74574,1,0,0:0:0:50:LR_HiHat SClick 2.wav
64,192,74809,128,0,75043:0:0:0:60:Kick 2.wav
320,192,74809,1,0,0:0:0:50:LR_HiHat SClick 2.wav
192,192,75043,1,0,0:0:0:60:Kick 2.wav
448,192,75043,128,0,75397:0:0:0:50:LR_HiHat SClick 2.wav
64,192,75397,128,0,75751:0:0:0:0:
320,192,75751,128,0,75987:0:0:0:50:LR_HiHat SClick 2.wav
192,192,75987,128,0,76448:0:0:0:40:snare_edited1.wav
448,192,75987,1,0,0:0:0:50:LR_HiHat SClick 2.wav
64,192,76448,128,0,76910:0:0:0:50:LR_HiHat SClick 2.wav
320,192,76910,128,0,77253:0:0:0:60:Kick 2.wav
448,192,76910,1,0,0:0:0:40:LR_Hit Med Click.wav
64,192,77253,1,0,0:0:0:60:Kick 2.wav
192,192,77253,1,0,0:0:0:0:
320,192,77368,1,0,0:0:0:40:snare_edited1.wav
448,192,77368,128,0,77711:0:0:0:40:LR_Hit Med Click.wav
192,192,77711,1,0,0:0:0:40:snare_edited1.wav
64,192,77826,128,0,78169:0:0:0:60:Kick 2.wav
448,192,77826,1,0,0:0:0:40:LR_Hit Med Click.wav
320,192,78169,1,0,0:0:0:60:Kick 2.wav
448,192,78169,1,0,0:0:0:0:
64,192,78284,1,0,0:0:0:40:snare_edited1.wav
192,192,78284,128,0,78627:0:0:0:40:LR_Hit Med Click.wav
320,192,78627,1,0,0:0:0:40:snare_edited1.wav
64,192,78742,1,0,0:0:0:60:Kick 2.wav
448,192,78742,128,0,79096:0:0:0:40:LR_Hit Med Click.wav
192,192,79096,1,0,0:0:0:60:Kick 2.wav
320,192,79096,1,0,0:0:0:0:
64,192,79214,128,0,79558:0:0:0:40:snare_edited1.wav
448,192,79214,1,0,0:0:0:40:LR_Hit Med Click.wav
320,192,79558,1,0,0:0:0:40:snare_edited1.wav
64,192,79673,1,0,0:0:0:60:Kick 2.wav
192,192,79673,128,0,79908:0:0:0:40:LR_Hit Med Click.wav
320,192,79908,1,0,0:0:0:60:Kick 2.wav
448,192,79908,128,0,80143:0:0:0:0:
64,192,80143,128,0,80489:0:0:0:40:snare_edited1.wav
192,192,80143,1,0,0:0:0:40:LR_Hit Med Click.wav
448,192,80489,1,0,0:0:0:40:snare_edited1.wav
192,192,80604,128,0,80958:0:0:0:60:Kick 2.wav
320,192,80604,1,0,0:0:0:40:LR_Hit Med Click.wav
64,192,80958,1,0,0:0:0:60:Kick 2.wav
448,192,80958,1,0,0:0:0:0:
192,192,81076,1,0,0:0:0:40:snare_edited1.wav
320,192,81076,128,0,81430:0:0:0:40:LR_Hit Med Click.wav
64,192,81430,1,0,0:0:0:40:snare_edited1.wav
192,192,81548,1,0,0:0:0:60:Kick 2.wav
448,192,81548,128,0,81894:0:0:0:40:LR_Hit Med Click.wav
64,192,81894,1,0,0:0:0:60:Kick 2.wav
320,192,81894,1,0,0:0:0:0:
192,192,82009,128,0,82355:0:0:0:40:snare_edited1.wav
448,192,82009,1,0,0:0:0:40:LR_Hit Med Click.wav
320,192,82355,1,0,0:0:0:40:snare_edited1.wav
64,192,82471,128,0,82822:0:0:0:60:Kick 2.wav
448,192,82471,1,0,0:0:0:40:LR_Hit Med Click.wav
192,192,82822,1,0,0:0:0:60:Kick 2.wav
320,192,82822,1,0,0:0:0:0:
64,192,82939,1,0,0:0:0:40:snare_edited1.wav
448,192,82939,128,0,83277:0:0:0:40:LR_Hit Med Click.wav
320,192,83277,1,0,0:0:0:40:snare_edited1.wav
64,192,83390,1,0,0:0:0:60:Kick 2.wav
192,192,83390,128,0,83618:0:0:0:40:LR_Hit Med Click.wav
320,192,83618,1,0,0:0:0:60:Kick 2.wav
448,192,83618,128,0,83846:0:0:0:0:
64,192,83846,128,0,84303:0:0:0:40:snare_edited1.wav
192,192,83846,1,0,0:0:0:40:LR_Hit Med Click.wav
320,192,84303,1,0,0:0:0:60:Kick 2.wav
448,192,84303,1,0,0:0:0:40:LR_Hit Med Click.wav
320,192,84527,1,0,0:0:0:60:Kick 2.wav
448,192,84527,1,0,0:0:0:40:LR_Hit Med Click.wav
64,192,84752,1,0,0:0:0:60:Kick 2.wav
192,192,84752,1,0,0:0:0:40:LR_Hit Med Click.wav
64,192,84977,1,0,0:0:0:60:Kick 2.wav
192,192,84977,1,0,0:0:0:40:LR_Hit Med Click.wav
320,192,85201,1,0,0:0:0:60:Kick 2.wav
448,192,85201,1,0,0:0:0:40:LR_Hit Med Click.wav
320,192,85426,1,0,0:0:0:60:Kick 2.wav
448,192,85426,1,0,0:0:0:40:LR_Hit Med Click.wav
64,192,85651,1,0,0:0:0:60:Kick 2.wav
192,192,85651,1,0,0:0:0:40:LR_Hit Med Click.wav
64,192,85876,1,0,0:0:0:60:Kick 2.wav
192,192,85876,1,0,0:0:0:40:LR_Hit Med Click.wav
320,192,86100,1,0,0:0:0:60:Kick 2.wav
448,192,86100,1,0,0:0:0:40:LR_Hit Med Click.wav
64,192,86215,1,0,0:0:0:60:Kick 2.wav
192,192,86215,1,0,0:0:0:40:LR_Hit Med Click.wav
64,192,86561,1,0,0:0:0:0:
320,192,87023,1,0,0:0:0:60:Kick 2.wav
448,192,87023,1,0,0:0:0:40:LR_Hit Med Click.wav
64,192,87263,1,0,0:0:0:60:Kick 2.wav
448,192,87263,1,0,0:0:0:40:LR_Hit Med Click.wav
64,192,87503,1,0,0:0:0:60:Kick 2.wav
320,192,87503,1,0,0:0:0:40:LR_Hit Med Click.wav
192,192,87743,1,0,0:0:0:60:Kick 2.wav
320,192,87743,1,0,0:0:0:40:LR_Hit Med Click.wav
64,192,87983,1,0,0:0:0:60:Kick 2.wav
448,192,87983,1,0,0:0:0:40:LR_Hit Med Click.wav
192,192,88103,1,0,0:0:0:60:Kick 2.wav
320,192,88103,1,0,0:0:0:40:LR_Hit Med Click.wav
64,192,88943,1,0,0:0:0:60:Kick 2.wav
448,192,88943,1,0,0:0:0:40:LR_Hit Med Click.wav
192,192,89181,1,0,0:0:0:60:Kick 2.wav
448,192,89181,1,0,0:0:0:40:LR_Hit Med Click.wav
64,192,89419,1,0,0:0:0:60:Kick 2.wav
192,192,89419,1,0,0:0:0:40:LR_Hit Med Click.wav
64,192,89657,1,0,0:0:0:60:Kick 2.wav
320,192,89657,1,0,0:0:0:40:LR_Hit Med Click.wav
192,192,89895,1,0,0:0:0:60:Kick 2.wav
448,192,89895,1,0,0:0:0:40:LR_Hit Med Click.wav
64,192,90014,1,0,0:0:0:60:Kick 2.wav
320,192,90014,1,0,0:0:0:40:LR_Hit Med Click.wav
192,192,90371,1,0,0:0:0:0:
64,192,90847,1,0,0:0:0:60:Kick 2.wav
320,192,90847,1,0,0:0:0:40:LR_Hit Med Click.wav
320,192,91087,1,0,0:0:0:60:Kick 2.wav
448,192,91087,1,0,0:0:0:40:LR_Hit Med Click.wav
64,192,91328,1,0,0:0:0:60:Kick 2.wav
448,192,91328,1,0,0:0:0:40:LR_Hit Med Click.wav
64,192,91569,1,0,0:0:0:60:Kick 2.wav
192,192,91569,1,0,0:0:0:40:LR_Hit Med Click.wav
320,192,91810,1,0,0:0:0:60:Kick 2.wav
448,192,91810,1,0,0:0:0:40:LR_Hit Med Click.wav
64,192,91930,1,0,0:0:0:60:Kick 2.wav
192,192,91930,1,0,0:0:0:40:LR_Hit Med Click.wav
64,192,92754,1,0,0:0:0:60:Kick 2.wav
192,192,92754,1,0,0:0:0:40:LR_Hit Med Click.wav
64,192,92977,1,0,0:0:0:60:Kick 2.wav
320,192,92977,1,0,0:0:0:40:LR_Hit Med Click.wav
320,192,93201,1,0,0:0:0:60:Kick 2.wav
448,192,93201,1,0,0:0:0:40:LR_Hit Med Click.wav
64,192,93425,1,0,0:0:0:60:Kick 2.wav
192,192,93537,1,0,0:0:0:40:snare_edited1.wav
320,192,93649,1,0,0:0:0:60:Kick 2.wav
448,192,93649,1,0,0:0:0:40:LR_Hit Med Click.wav
64,192,93769,1,0,0:0:0:0:
448,192,94011,1,0,0:0:0:0:
64,192,94132,1,0,0:0:0:40:snare_edited1.wav
192,192,94132,1,0,0:0:0:40:LR_Hit Med Click.wav
320,192,94253,1,0,0:0:0:0:
448,192,94374,1,0,0:0:0:0:
64,192,94616,1,0,0:0:0:60:Kick 2.wav
192,192,94616,1,0,0:0:0:40:LR_Hit Med Click.wav
448,192,94734,1,0,0:0:0:0:
320,192,94852,1,0,0:0:0:0:
64,192,94970,1,0,0:0:0:60:Kick 2.wav
192,192,95088,1,0,0:0:0:40:snare_edited1.wav
448,192,95088,1,0,0:0:0:40:LR_Hit Med Click.wav
64,192,95324,1,0,0:0:0:60:Kick 2.wav
192,192,95442,1,0,0:0:0:0:
320,192,95560,1,0,0:0:0:60:Kick 2.wav
448,192,95560,1,0,0:0:0:40:LR_Hit Med Click.wav
64,192,95685,1,0,0:0:0:0:
448,192,95935,1,0,0:0:0:0:
192,192,96060,1,0,0:0:0:40:snare_edited1.wav
320,192,96060,1,0,0:0:0:40:LR_Hit Med Click.wav
64,192,96178,1,0,0:0:0:0:
448,192,96296,1,0,0:0:0:0:
64,192,96532,1,0,0:0:0:60:Kick 2.wav
192,192,96532,1,0,0:0:0:40:LR_Hit Med Click.wav
320,192,96653,1,0,0:0:0:0:
448,192,96775,1,0,0:0:0:0:
64,192,96897,1,0,0:0:0:60:Kick 2.wav
192,192,97019,1,0,0:0:0:40:snare_edited1.wav
320,192,97019,1,0,0:0:0:40:LR_Hit Med Click.wav
192,192,97259,1,0,0:0:0:60:Kick 2.wav
448,192,97379,1,0,0:0:0:0:
64,192,97499,1,0,0:0:0:60:Kick 2.wav
320,192,97499,1,0,0:0:0:40:LR_Hit Med Click.wav
192,192,97619,1,0,0:0:0:0:
448,192,97859,1,0,0:0:0:0:
64,192,97979,1,0,0:0:0:40:snare_edited1.wav
192,192,97979,1,0,0:0:0:40:LR_Hit Med Click.wav
320,192,98096,1,0,0:0:0:0:
448,192,98213,1,0,0:0:0:0:
64,192,98447,1,0,0:0:0:60:Kick 2.wav
320,192,98447,1,0,0:0:0:40:LR_Hit Med Click.wav
192,192,98565,1,0,0:0:0:0:
448,192,98684,1,0,0:0:0:0:
320,192,98802,1,0,0:0:0:60:Kick 2.wav
64,192,98921,1,0,0:0:0:40:snare_edited1.wav
192,192,98921,1,0,0:0:0:40:LR_Hit Med Click.wav
192,192,99164,1,0,0:0:0:60:Kick 2.wav
448,192,99286,1,0,0:0:0:0:
64,192,99408,1,0,0:0:0:60:Kick 2.wav
320,192,99408,1,0,0:0:0:40:LR_Hit Med Click.wav
192,192,99529,1,0,0:0:0:0:
320,192,99773,1,0,0:0:0:0:
64,192,99881,1,0,0:0:0:40:snare_edited1.wav
448,192,99881,1,0,0:0:0:40:LR_Hit Med Click.wav
192,192,99997,1,0,0:0:0:0:
448,192,100113,1,0,0:0:0:0:
64,192,100346,1,0,0:0:0:60:Kick 2.wav
320,192,100346,1,0,0:0:0:40:LR_Hit Med Click.wav
192,192,100597,1,0,0:0:0:40:snare_edited1.wav
448,192,100597,1,0,0:0:0:0:
64,192,100848,1,0,0:0:0:40:tom01.wav
64,192,101099,1,0,0:0:0:40:tom04.wav
320,192,101350,128,0,101856:0:0:0:60:Kick 2.wav
448,192,101350,1,0,0:0:0:50:LR_HiHat SClick 2.wav
64,192,101856,1,0,0:0:0:50:LR_HiHat SClick 2.wav
192,192,102362,1,0,0:0:0:40:snare_edited1.wav
448,192,102362,1,0,0:0:0:50:LR_HiHat SClick 2.wav
64,192,102842,1,0,0:0:0:50:LR_HiHat SClick 2.wav
192,192,103076,1,0,0:0:0:60:Kick 2.wav
320,192,103076,1,0,0:0:0:50:LR_HiHat SClick 2.wav
64,192,103322,1,0,0:0:0:60:Kick 2.wav
448,192,103322,128,0,103811:0:0:0:50:LR_HiHat SClick 2.wav
320,192,103811,1,0,0:0:0:50:LR_HiHat SClick 2.wav
192,192,104301,1,0,0:0:0:40:snare_edited1.wav
448,192,104301,1,0,0:0:0:50:LR_HiHat SClick 2.wav
64,192,104791,1,0,0:0:0:50:LR_HiHat SClick 2.wav
320,192,105030,1,0,0:0:0:60:Kick 2.wav
448,192,105030,1,0,0:0:0:50:LR_HiHat SClick 2.wav
64,192,105269,128,0,105747:0:0:0:60:Kick 2.wav
192,192,105269,1,0,0:0:0:50:LR_HiHat SClick 2.wav
320,192,105747,1,0,0:0:0:50:LR_HiHat SClick 2.wav
192,192,106225,1,0,0:0:0:40:snare_edited1.wav
448,192,106225,1,0,0:0:0:50:LR_HiHat SClick 2.wav
64,192,106703,1,0,0:0:0:50:LR_HiHat SClick 2.wav
192,192,106923,1,0,0:0:0:60:Kick 2.wav
448,192,106923,1,0,0:0:0:50:LR_HiHat SClick 2.wav
64,192,107169,1,0,0:0:0:60:Kick 2.wav
320,192,107169,128,0,107531:0:0:0:50:LR_HiHat SClick 2.wav
192,192,107531,128,0,107894:0:0:0:0:
64,192,107894,128,0,108136:0:0:0:50:LR_HiHat SClick 2.wav
320,192,108136,128,0,108620:0:0:0:40:snare_edited1.wav
448,192,108136,1,0,0:0:0:50:LR_HiHat SClick 2.wav
64,192,108620,128,0,109088:0:0:0:50:LR_HiHat SClick 2.wav
192,192,109088,1,0,0:0:0:60:Kick 2.wav
320,192,109088,128,0,109573:0:0:0:50:LR_HiHat SClick 2.wav
64,192,109573,1,0,0:0:0:50:LR_HiHat SClick 2.wav
192,192,110059,1,0,0:0:0:40:snare_edited1.wav
448,192,110059,1,0,0:0:0:50:LR_HiHat SClick 2.wav
64,192,110545,1,0,0:0:0:50:LR_HiHat SClick 2.wav
320,192,110760,1,0,0:0:0:60:Kick 2.wav
448,192,110760,1,0,0:0:0:50:LR_HiHat SClick 2.wav
64,192,111003,1,0,0:0:0:60:Kick 2.wav
192,192,111003,128,0,111490:0:0:0:50:LR_HiHat SClick 2.wav
448,192,111490,1,0,0:0:0:50:LR_HiHat SClick 2.wav
64,192,111978,1,0,0:0:0:40:snare_edited1.wav
320,192,111978,1,0,0:0:0:50:LR_HiHat SClick 2.wav
192,192,112466,1,0,0:0:0:50:LR_HiHat SClick 2.wav
64,192,112681,1,0,0:0:0:60:Kick 2.wav
448,192,112681,1,0,0:0:0:50:LR_HiHat SClick 2.wav
192,192,112918,128,0,113401:0:0:0:60:Kick 2.wav
320,192,112918,1,0,0:0:0:50:LR_HiHat SClick 2.wav
64,192,113401,1,0,0:0:0:50:LR_HiHat SClick 2.wav
320,192,113885,1,0,0:0:0:40:snare_edited1.wav
448,192,113885,1,0,0:0:0:50:LR_HiHat SClick 2.wav
192,192,114351,1,0,0:0:0:50:LR_HiHat SClick 2.wav
64,192,114568,128,0,114818:0:0:0:60:Kick 2.wav
320,192,114568,1,0,0:0:0:50:LR_HiHat SClick 2.wav
192,192,114818,1,0,0:0:0:60:Kick 2.wav
448,192,114818,128,0,115183:0:0:0:50:LR_HiHat SClick 2.wav
64,192,115183,128,0,115549:0:0:0:0:
320,192,115549,128,0,115793:0:0:0:50:LR_HiHat SClick 2.wav
192,192,115793,128,0,116258:0:0:0:40:snare_edited1.wav
448,192,115793,1,0,0:0:0:50:LR_HiHat SClick 2.wav
64,192,116258,128,0,116723:0:0:0:50:LR_HiHat SClick 2.wav
320,192,116723,128,0,118585:0:0:0:60:Kick 2.wav
448,192,116723,1,0,0:0:0:50:LR_HiHat SClick 2.wav
64,192,117193,1,0,0:0:0:60:Kick 2.wav
192,192,117193,1,0,0:0:0:50:LR_HiHat SClick 2.wav
64,192,117664,1,0,0:0:0:40:snare_edited1.wav
448,192,117664,1,0,0:0:0:50:LR_HiHat SClick 2.wav
64,192,117899,1,0,0:0:0:60:Kick 2.wav
192,192,117899,1,0,0:0:0:50:LR_HiHat SClick 2.wav
448,192,118134,1,0,0:0:0:50:LR_HiHat SClick 2.wav
64,192,118349,1,0,0:0:0:60:Kick 2.wav
192,192,118349,1,0,0:0:0:50:LR_HiHat SClick 2.wav
64,192,118585,1,0,0:0:0:60:Kick 2.wav
448,192,118585,128,0,120466:0:0:0:50:LR_HiHat SClick 2.wav
192,192,119055,1,0,0:0:0:60:Kick 2.wav
320,192,119055,1,0,0:0:0:50:LR_HiHat SClick 2.wav
64,192,119535,1,0,0:0:0:40:snare_edited1.wav
192,192,119535,1,0,0:0:0:50:LR_HiHat SClick 2.wav
320,192,120015,1,0,0:0:0:50:LR_HiHat SClick 2.wav
64,192,120466,128,0,121382:0:0:0:60:Kick 2.wav
192,192,120466,1,0,0:0:0:50:LR_HiHat SClick 2.wav
320,192,120924,1,0,0:0:0:60:Kick 2.wav
448,192,120924,1,0,0:0:0:50:LR_HiHat SClick 2.wav
192,192,121382,1,0,0:0:0:40:snare_edited1.wav
448,192,121382,1,0,0:0:0:50:LR_HiHat SClick 2.wav
64,192,121611,1,0,0:0:0:60:Kick 2.wav
320,192,121611,1,0,0:0:0:50:LR_HiHat SClick 2.wav
192,192,121840,1,0,0:0:0:50:LR_HiHat SClick 2.wav
64,192,122060,1,0,0:0:0:60:Kick 2.wav
448,192,122060,1,0,0:0:0:50:LR_HiHat SClick 2.wav
192,192,122281,1,0,0:0:0:60:Kick 2.wav
320,192,122281,128,0,122632:0:0:0:50:LR_HiHat SClick 2.wav
192,192,122632,128,0,122992:0:0:0:0:
320,192,122749,1,0,0:0:0:60:Kick 2.wav
448,192,122749,1,0,0:0:0:50:LR_HiHat SClick 2.wav
64,192,122992,128,0,123236:0:0:0:50:LR_HiHat SClick 2.wav
320,192,123236,128,0,123702:0:0:0:40:snare_edited1.wav
448,192,123236,1,0,0:0:0:50:LR_HiHat SClick 2.wav
192,192,123702,128,0,124169:0:0:0:50:LR_HiHat SClick 2.wav
64,192,124169,1,0,0:0:0:60:Kick 2.wav
448,192,124169,128,0,126019:0:0:0:50:LR_HiHat SClick 2.wav
192,192,124645,1,0,0:0:0:60:Kick 2.wav
320,192,124645,1,0,0:0:0:50:LR_HiHat SClick 2.wav
64,192,125121,1,0,0:0:0:40:snare_edited1.wav
320,192,125121,1,0,0:0:0:50:LR_HiHat SClick 2.wav
64,192,125345,1,0,0:0:0:60:Kick 2.wav
192,192,125345,1,0,0:0:0:50:LR_HiHat SClick 2.wav
320,192,125570,1,0,0:0:0:50:LR_HiHat SClick 2.wav
64,192,125795,1,0,0:0:0:60:Kick 2.wav
192,192,125795,1,0,0:0:0:50:LR_HiHat SClick 2.wav
64,192,126019,1,0,0:0:0:60:Kick 2.wav
320,192,126019,128,0,127915:0:0:0:50:LR_HiHat SClick 2.wav
192,192,126491,1,0,0:0:0:60:Kick 2.wav
448,192,126491,1,0,0:0:0:50:LR_HiHat SClick 2.wav
64,192,126978,1,0,0:0:0:40:snare_edited1.wav
192,192,126978,1,0,0:0:0:50:LR_HiHat SClick 2.wav
448,192,127446,1,0,0:0:0:50:LR_HiHat SClick 2.wav
64,192,127915,128,0,128852:0:0:0:60:Kick 2.wav
192,192,127915,1,0,0:0:0:50:LR_HiHat SClick 2.wav
320,192,128383,1,0,0:0:0:60:Kick 2.wav
448,192,128383,1,0,0:0:0:50:LR_HiHat SClick 2.wav
192,192,128852,1,0,0:0:0:40:snare_edited1.wav
320,192,128852,1,0,0:0:0:50:LR_HiHat SClick 2.wav
64,192,129074,1,0,0:0:0:60:Kick 2.wav
448,192,129074,1,0,0:0:0:50:LR_HiHat SClick 2.wav
192,192,129296,1,0,0:0:0:50:LR_HiHat SClick 2.wav
64,192,129518,128,0,129740:0:0:0:60:Kick 2.wav
320,192,129518,1,0,0:0:0:50:LR_HiHat SClick 2.wav
192,192,129740,1,0,0:0:0:60:Kick 2.wav
448,192,129740,128,0,130121:0:0:0:50:LR_HiHat SClick 2.wav
320,192,130121,128,0,130502:0:0:0:0:
192,192,130502,128,0,130756:0:0:0:0:
64,192,130756,128,0,131243:0:0:0:0:
192,192,131243,128,0,131731:0:0:0:0:
64,192,131731,1,0,0:0:0:50:LR_HiHat SClick 2.wav
320,192,131731,128,0,133120:0:0:0:0:
64,192,132194,1,0,0:0:0:50:LR_HiHat SClick 2.wav
64,192,132657,1,0,0:0:0:50:LR_HiHat SClick 2.wav
64,192,133120,1,0,0:0:0:50:LR_HiHat SClick 2.wav
320,192,133584,128,0,133815:0:0:0:60:Kick 2.wav
448,192,133584,1,0,0:0:0:40:LR_Hit Med Click.wav
64,192,133815,1,0,0:0:0:40:snare_edited1.wav
192,192,133815,1,0,0:0:0:40:LR_Hit Med Click.wav
320,192,133931,1,0,0:0:0:60:Kick 2.wav
448,192,133931,128,0,134163:0:0:0:0:
64,192,134163,1,0,0:0:0:60:Kick 2.wav
192,192,134279,1,0,0:0:0:40:snare_edited1.wav
320,192,134279,128,0,134510:0:0:0:40:LR_Hit Med Click.wav
64,192,134510,128,0,134744:0:0:0:60:Kick 2.wav
448,192,134510,1,0,0:0:0:40:LR_Hit Med Click.wav
192,192,134744,1,0,0:0:0:40:snare_edited1.wav
320,192,134744,1,0,0:0:0:40:LR_Hit Med Click.wav
64,192,134861,1,0,0:0:0:60:Kick 2.wav
448,192,134861,128,0,135095:0:0:0:0:
320,192,135095,1,0,0:0:0:60:Kick 2.wav
64,192,135213,128,0,135447:0:0:0:40:snare_edited1.wav
192,192,135213,1,0,0:0:0:40:LR_Hit Med Click.wav
320,192,135447,128,0,135671:0:0:0:60:Kick 2.wav
448,192,135447,1,0,0:0:0:40:LR_Hit Med Click.wav
64,192,135671,1,0,0:0:0:40:snare_edited1.wav
192,192,135671,1,0,0:0:0:40:LR_Hit Med Click.wav
320,192,135784,1,0,0:0:0:60:Kick 2.wav
448,192,135784,128,0,136008:0:0:0:0:
192,192,136008,1,0,0:0:0:60:Kick 2.wav
64,192,136121,1,0,0:0:0:40:snare_edited1.wav
320,192,136121,128,0,136345:0:0:0:40:LR_Hit Med Click.wav
192,192,136345,128,0,136579:0:0:0:60:Kick 2.wav
448,192,136345,1,0,0:0:0:40:LR_Hit Med Click.wav
64,192,136579,1,0,0:0:0:40:snare_edited1.wav
320,192,136579,1,0,0:0:0:40:LR_Hit Med Click.wav
192,192,136696,1,0,0:0:0:60:Kick 2.wav
448,192,136696,128,0,136930:0:0:0:0:
320,192,136930,1,0,0:0:0:60:Kick 2.wav
64,192,137048,1,0,0:0:0:40:snare_edited1.wav
192,192,137048,128,0,137282:0:0:0:40:LR_Hit Med Click.wav
320,192,137282,128,0,137516:0:0:0:60:Kick 2.wav
448,192,137282,1,0,0:0:0:40:LR_Hit Med Click.wav
64,192,137516,1,0,0:0:0:40:snare_edited1.wav
192,192,137516,1,0,0:0:0:40:LR_Hit Med Click.wav
320,192,137633,1,0,0:0:0:60:Kick 2.wav
448,192,137633,128,0,137867:0:0:0:0:
64,192,137867,1,0,0:0:0:60:Kick 2.wav
192,192,137985,128,0,138219:0:0:0:40:snare_edited1.wav
320,192,137985,1,0,0:0:0:40:LR_Hit Med Click.wav
64,192,138219,128,0,138453:0:0:0:60:Kick 2.wav
448,192,138219,1,0,0:0:0:40:LR_Hit Med Click.wav
320,192,138453,1,0,0:0:0:40:snare_edited1.wav
448,192,138453,1,0,0:0:0:40:LR_Hit Med Click.wav
64,192,138571,1,0,0:0:0:60:Kick 2.wav
192,192,138571,128,0,138805:0:0:0:0:
320,192,138805,1,0,0:0:0:60:Kick 2.wav
192,192,138922,1,0,0:0:0:40:snare_edited1.wav
448,192,138922,128,0,139146:0:0:0:40:LR_Hit Med Click.wav
64,192,139146,128,0,139380:0:0:0:60:Kick 2.wav
320,192,139146,1,0,0:0:0:40:LR_Hit Med Click.wav
192,192,139380,1,0,0:0:0:40:snare_edited1.wav
448,192,139380,1,0,0:0:0:40:LR_Hit Med Click.wav
64,192,139497,1,0,0:0:0:60:Kick 2.wav
320,192,139497,128,0,139731:0:0:0:0:
192,192,139731,1,0,0:0:0:60:Kick 2.wav
64,192,139849,128,0,140083:0:0:0:40:snare_edited1.wav
320,192,139849,1,0,0:0:0:40:LR_Hit Med Click.wav
192,192,140083,128,0,140317:0:0:0:60:Kick 2.wav
448,192,140083,1,0,0:0:0:40:LR_Hit Med Click.wav
64,192,140317,1,0,0:0:0:40:snare_edited1.wav
320,192,140317,1,0,0:0:0:40:LR_Hit Med Click.wav
192,192,140435,1,0,0:0:0:60:Kick 2.wav
448,192,140435,128,0,140667:0:0:0:0:
64,192,140667,1,0,0:0:0:60:Kick 2.wav
192,192,140782,1,0,0:0:0:40:snare_edited1.wav
320,192,140782,128,0,141013:0:0:0:40:LR_Hit Med Click.wav
64,192,141013,128,0,141245:0:0:0:60:Kick 2.wav
448,192,141013,128,0,141245:0:0:0:40:LR_Hit Med Click.wav
192,192,141245,1,0,0:0:0:0:
64,192,141478,128,0,141943:0:0:0:40:snare_edited1.wav
448,192,141478,128,0,141943:0:0:0:40:LR_Hit Med Click.wav
192,192,141710,1,0,0:0:0:0:
192,192,141943,128,0,142175:0:0:0:60:Kick 2.wav
320,192,141943,1,0,0:0:0:40:LR_Hit Med Click.wav
448,192,142175,1,0,0:0:0:0:
64,192,142292,1,0,0:0:0:60:Kick 2.wav
192,192,142292,1,0,0:0:0:0:
320,192,142408,128,0,142640:0:0:0:40:snare_edited1.wav
448,192,142408,1,0,0:0:0:40:LR_Hit Med Click.wav
64,192,142640,1,0,0:0:0:60:Kick 2.wav
192,192,142640,1,0,0:0:0:0:
192,192,142873,128,0,143104:0:0:0:60:Kick 2.wav
320,192,142873,128,0,143104:0:0:0:40:LR_Hit Med Click.wav
64,192,143104,1,0,0:0:0:0:
192,192,143336,128,0,143783:0:0:0:40:snare_edited1.wav
320,192,143336,128,0,143783:0:0:0:40:LR_Hit Med Click.wav
448,192,143559,1,0,0:0:0:0:
64,192,143783,128,0,144023:0:0:0:60:Kick 2.wav
448,192,143783,1,0,0:0:0:40:LR_Hit Med Click.wav
320,192,144023,1,0,0:0:0:0:
64,192,144143,1,0,0:0:0:60:Kick 2.wav
192,192,144143,1,0,0:0:0:0:
320,192,144262,1,0,0:0:0:40:snare_edited1.wav
448,192,144262,128,0,144493:0:0:0:40:LR_Hit Med Click.wav
64,192,144493,1,0,0:0:0:60:Kick 2.wav
192,192,144493,1,0,0:0:0:0:
64,192,144726,128,0,144964:0:0:0:60:Kick 2.wav
320,192,144726,128,0,144964:0:0:0:40:LR_Hit Med Click.wav
192,192,144964,1,0,0:0:0:0:
64,192,145202,128,0,145659:0:0:0:40:snare_edited1.wav
320,192,145202,128,0,145659:0:0:0:40:LR_Hit Med Click.wav
448,192,145430,1,0,0:0:0:0:
192,192,145659,128,0,145892:0:0:0:60:Kick 2.wav
448,192,145659,1,0,0:0:0:40:LR_Hit Med Click.wav
320,192,145892,1,0,0:0:0:0:
64,192,146009,1,0,0:0:0:60:Kick 2.wav
192,192,146009,1,0,0:0:0:0:
320,192,146125,1,0,0:0:0:40:snare_edited1.wav
448,192,146125,128,0,146359:0:0:0:40:LR_Hit Med Click.wav
64,192,146359,1,0,0:0:0:60:Kick 2.wav
192,192,146359,1,0,0:0:0:0:
320,192,146593,128,0,146829:0:0:0:60:Kick 2.wav
448,192,146593,128,0,146829:0:0:0:40:LR_Hit Med Click.wav
64,192,146829,1,0,0:0:0:0:
320,192,147065,128,0,147516:0:0:0:40:snare_edited1.wav
448,192,147065,128,0,147515:0:0:0:40:LR_Hit Med Click.wav
192,192,147290,1,0,0:0:0:0:
64,192,147516,1,0,0:0:0:60:Kick 2.wav
192,192,147516,1,0,0:0:0:40:LR_Hit Med Click.wav
320,192,147748,1,0,0:0:0:0:
64,192,147864,1,0,0:0:0:60:Kick 2.wav
448,192,147864,1,0,0:0:0:0:
192,192,147981,1,0,0:0:0:40:snare_edited1.wav
320,192,147981,1,0,0:0:0:40:LR_Hit Med Click.wav
192,192,148210,1,0,0:0:0:60:Kick 2.wav
320,192,148210,1,0,0:0:0:0:
64,192,148439,1,0,0:0:0:60:Kick 2.wav
448,192,148439,1,0,0:0:0:40:LR_Hit Med Click.wav
448,192,148673,128,0,149137:0:0:0:0:
64,192,148907,1,0,0:0:0:40:snare_edited1.wav
192,192,148907,1,0,0:0:0:40:LR_Hit Med Click.wav
320,192,149137,128,0,149368:0:0:0:0:
192,192,149368,128,0,149722:0:0:0:60:Kick 2.wav
320,192,149722,1,0,0:0:0:60:Kick 2.wav
448,192,149722,1,0,0:0:0:0:
64,192,149840,128,0,150291:0:0:0:40:snare_edited1.wav
192,192,149840,1,0,0:0:0:40:LR_Hit Med Click.wav
320,192,150065,1,0,0:0:0:60:Kick 2.wav
448,192,150065,1,0,0:0:0:0:
192,192,150291,1,0,0:0:0:60:Kick 2.wav
448,192,150291,1,0,0:0:0:40:LR_Hit Med Click.wav
320,192,150531,128,0,151006:0:0:0:0:
64,192,150772,1,0,0:0:0:40:snare_edited1.wav
192,192,150772,1,0,0:0:0:40:LR_Hit Med Click.wav
448,192,151006,128,0,151240:0:0:0:0:
64,192,151240,1,0,0:0:0:60:Kick 2.wav
192,192,151240,128,0,151475:0:0:0:40:LR_Hit Med Click.wav
320,192,151475,1,0,0:0:0:0:
64,192,151592,1,0,0:0:0:60:Kick 2.wav
192,192,151592,1,0,0:0:0:0:
320,192,151709,1,0,0:0:0:40:snare_edited1.wav
448,192,151709,128,0,151938:0:0:0:40:LR_Hit Med Click.wav
64,192,151938,1,0,0:0:0:60:Kick 2.wav
192,192,151938,128,0,152167:0:0:0:0:
320,192,152167,1,0,0:0:0:60:Kick 2.wav
448,192,152167,1,0,0:0:0:40:LR_Hit Med Click.wav
320,192,152412,128,0,152889:0:0:0:0:
64,192,152658,1,0,0:0:0:40:snare_edited1.wav
448,192,152658,1,0,0:0:0:40:LR_Hit Med Click.wav
192,192,152889,128,0,153121:0:0:0:0:
64,192,153121,128,0,153353:0:0:0:60:Kick 2.wav
448,192,153121,1,0,0:0:0:40:LR_Hit Med Click.wav
320,192,153353,1,0,0:0:0:0:
192,192,153469,1,0,0:0:0:60:Kick 2.wav
448,192,153469,1,0,0:0:0:0:
64,192,153585,1,0,0:0:0:40:snare_edited1.wav
320,192,153585,128,0,154049:0:0:0:40:LR_Hit Med Click.wav
64,192,153817,1,0,0:0:0:60:Kick 2.wav
192,192,153817,1,0,0:0:0:0:
192,192,154049,1,0,0:0:0:60:Kick 2.wav
448,192,154049,128,0,154540:0:0:0:40:LR_Hit Med Click.wav
64,192,154540,128,0,154998:0:0:0:40:snare_edited1.wav
320,192,154540,1,0,0:0:0:40:LR_Hit Med Click.wav
192,192,154998,1,0,0:0:0:60:Kick 2.wav
320,192,154998,128,0,155365:0:0:0:40:LR_Hit Med Click.wav
64,192,155365,1,0,0:0:0:60:Kick 2.wav
192,192,155365,1,0,0:0:0:0:
320,192,155487,1,0,0:0:0:40:snare_edited1.wav
448,192,155487,128,0,155945:0:0:0:40:LR_Hit Med Click.wav
192,192,155716,1,0,0:0:0:60:Kick 2.wav
320,192,155716,1,0,0:0:0:0:
64,192,155967,128,0,156447:0:0:0:60:Kick 2.wav
192,192,155967,1,0,0:0:0:50:LR_HiHat SClick 2.wav
320,192,156447,128,0,156927:0:0:0:50:LR_HiHat SClick 2.wav
64,192,156927,128,0,157407:0:0:0:40:snare_edited1.wav
448,192,156927,1,0,0:0:0:50:LR_HiHat SClick 2.wav
320,192,157407,1,0,0:0:0:50:LR_HiHat SClick 2.wav
64,192,157868,1,0,0:0:0:60:Kick 2.wav
192,192,157868,128,0,158342:0:0:0:50:LR_HiHat SClick 2.wav
320,192,158342,128,0,158829:0:0:0:50:LR_HiHat SClick 2.wav
64,192,158829,128,0,159297:0:0:0:40:snare_edited1.wav
448,192,158829,1,0,0:0:0:50:LR_HiHat SClick 2.wav
448,192,159297,128,0,159765:0:0:0:50:LR_HiHat SClick 2.wav
192,192,159765,1,0,0:0:0:60:Kick 2.wav
320,192,159765,128,0,160243:0:0:0:50:LR_HiHat SClick 2.wav
64,192,160243,128,0,160721:0:0:0:50:LR_HiHat SClick 2.wav
192,192,160721,128,0,161199:0:0:0:40:snare_edited1.wav
448,192,160721,1,0,0:0:0:50:LR_HiHat SClick 2.wav
320,192,161199,1,0,0:0:0:50:LR_HiHat SClick 2.wav
64,192,161677,128,0,162147:0:0:0:60:Kick 2.wav
448,192,161677,1,0,0:0:0:50:LR_HiHat SClick 2.wav
320,192,162147,128,0,162618:0:0:0:50:LR_HiHat SClick 2.wav
192,192,162618,128,0,163088:0:0:0:40:snare_edited1.wav
448,192,162618,1,0,0:0:0:50:LR_HiHat SClick 2.wav
64,192,163088,128,0,163559:0:0:0:50:LR_HiHat SClick 2.wav
320,192,163559,1,0,0:0:0:60:Kick 2.wav
448,192,163559,128,0,164029:0:0:0:50:LR_HiHat SClick 2.wav
192,192,164029,128,0,164500:0:0:0:50:LR_HiHat SClick 2.wav
320,192,164500,128,0,164971:0:0:0:40:snare_edited1.wav
448,192,164500,1,0,0:0:0:50:LR_HiHat SClick 2.wav
64,192,164971,1,0,0:0:0:50:LR_HiHat SClick 2.wav
64,192,165432,1,0,0:0:0:60:Kick 2.wav
192,192,165432,128,0,165904:0:0:0:50:LR_HiHat SClick 2.wav
320,192,165904,128,0,166376:0:0:0:50:LR_HiHat SClick 2.wav
64,192,166376,128,0,166844:0:0:0:40:snare_edited1.wav
448,192,166376,1,0,0:0:0:50:LR_HiHat SClick 2.wav
320,192,166844,128,0,167313:0:0:0:50:LR_HiHat SClick 2.wav
192,192,167313,128,0,167791:0:0:0:60:Kick 2.wav
448,192,167313,1,0,0:0:0:50:LR_HiHat SClick 2.wav
448,192,167791,128,0,168732:0:0:0:50:LR_HiHat SClick 2.wav
64,192,168269,1,0,0:0:0:40:snare_edited1.wav
192,192,168269,1,0,0:0:0:50:LR_HiHat SClick 2.wav
64,192,168732,1,0,0:0:0:50:LR_HiHat SClick 2.wav
192,192,169195,1,0,0:0:0:60:Kick 2.wav
448,192,169195,128,0,169503:0:0:0:50:LR_HiHat SClick 2.wav
320,192,169503,128,0,169812:0:0:0:0:
192,192,169812,128,0,170121:0:0:0:0:
64,192,170121,128,0,170584:0:0:0:40:snare_edited1.wav
448,192,170121,1,0,0:0:0:50:LR_HiHat SClick 2.wav
320,192,170584,1,0,0:0:0:50:LR_HiHat SClick 2.wav
64,192,171048,128,0,172896:0:0:0:60:Kick 2.wav
192,192,171048,1,0,0:0:0:50:LR_HiHat SClick 2.wav
320,192,171528,1,0,0:0:0:60:Kick 2.wav
448,192,171528,1,0,0:0:0:50:LR_HiHat SClick 2.wav
192,192,171989,1,0,0:0:0:40:snare_edited1.wav
448,192,171989,1,0,0:0:0:50:LR_HiHat SClick 2.wav
192,192,172224,1,0,0:0:0:60:Kick 2.wav
320,192,172224,1,0,0:0:0:50:LR_HiHat SClick 2.wav
448,192,172459,1,0,0:0:0:50:LR_HiHat SClick 2.wav
192,192,172671,1,0,0:0:0:60:Kick 2.wav
320,192,172671,1,0,0:0:0:50:LR_HiHat SClick 2.wav
320,192,172896,1,0,0:0:0:60:Kick 2.wav
448,192,172896,128,0,174742:0:0:0:50:LR_HiHat SClick 2.wav
64,192,173357,1,0,0:0:0:60:Kick 2.wav
192,192,173357,1,0,0:0:0:50:LR_HiHat SClick 2.wav
64,192,173819,1,0,0:0:0:40:snare_edited1.wav
320,192,173819,1,0,0:0:0:50:LR_HiHat SClick 2.wav
192,192,174287,1,0,0:0:0:50:LR_HiHat SClick 2.wav
64,192,174742,1,0,0:0:0:60:Kick 2.wav
320,192,174742,128,0,176142:0:0:0:50:LR_HiHat SClick 2.wav
192,192,175208,1,0,0:0:0:60:Kick 2.wav
448,192,175208,1,0,0:0:0:50:LR_HiHat SClick 2.wav
64,192,175675,1,0,0:0:0:40:snare_edited1.wav
192,192,175675,1,0,0:0:0:50:LR_HiHat SClick 2.wav
192,192,175909,1,0,0:0:0:60:Kick 2.wav
448,192,175909,1,0,0:0:0:50:LR_HiHat SClick 2.wav
64,192,176142,1,0,0:0:0:50:LR_HiHat SClick 2.wav
192,192,176353,1,0,0:0:0:60:Kick 2.wav
448,192,176353,1,0,0:0:0:50:LR_HiHat SClick 2.wav
64,192,176564,128,0,176904:0:0:0:60:Kick 2.wav
320,192,176564,1,0,0:0:0:50:LR_HiHat SClick 2.wav
448,192,176904,128,0,177245:0:0:0:0:
64,192,177018,1,0,0:0:0:60:Kick 2.wav
192,192,177018,1,0,0:0:0:50:LR_HiHat SClick 2.wav
320,192,177245,128,0,177473:0:0:0:50:LR_HiHat SClick 2.wav
192,192,177473,128,0,177927:0:0:0:40:snare_edited1.wav
448,192,177473,1,0,0:0:0:50:LR_HiHat SClick 2.wav
64,192,177927,128,0,178170:0:0:0:40:snare_edited1.wav
320,192,177927,1,0,0:0:0:50:LR_HiHat SClick 2.wav
448,192,178170,128,0,178643:0:0:0:50:LR_HiHat SClick 2.wav
64,192,178414,1,0,0:0:0:60:Kick 2.wav
192,192,178414,1,0,0:0:0:50:LR_HiHat SClick 2.wav
320,192,178643,128,0,178872:0:0:0:50:LR_HiHat SClick 2.wav
64,192,178872,1,0,0:0:0:60:Kick 2.wav
192,192,178872,128,0,179101:0:0:0:50:LR_HiHat SClick 2.wav
448,192,179101,128,0,179777:0:0:0:50:LR_HiHat SClick 2.wav
64,192,179330,1,0,0:0:0:40:snare_edited1.wav
320,192,179330,1,0,0:0:0:50:LR_HiHat SClick 2.wav
64,192,179553,1,0,0:0:0:60:Kick 2.wav
192,192,179553,1,0,0:0:0:50:LR_HiHat SClick 2.wav
320,192,179777,1,0,0:0:0:50:LR_HiHat SClick 2.wav
192,192,179997,1,0,0:0:0:60:Kick 2.wav
448,192,179997,1,0,0:0:0:50:LR_HiHat SClick 2.wav
64,192,180225,128,0,182066:0:0:0:60:Kick 2.wav
192,192,180225,1,0,0:0:0:50:LR_HiHat SClick 2.wav
320,192,180677,1,0,0:0:0:60:Kick 2.wav
448,192,180677,1,0,0:0:0:50:LR_HiHat SClick 2.wav
192,192,181140,1,0,0:0:0:40:snare_edited1.wav
448,192,181140,1,0,0:0:0:50:LR_HiHat SClick 2.wav
320,192,181603,1,0,0:0:0:50:LR_HiHat SClick 2.wav
192,192,182066,1,0,0:0:0:60:Kick 2.wav
320,192,182066,128,0,182985:0:0:0:50:LR_HiHat SClick 2.wav
64,192,182525,1,0,0:0:0:60:Kick 2.wav
448,192,182525,1,0,0:0:0:50:LR_HiHat SClick 2.wav
64,192,182985,1,0,0:0:0:40:snare_edited1.wav
192,192,182985,1,0,0:0:0:50:LR_HiHat SClick 2.wav
192,192,183207,1,0,0:0:0:60:Kick 2.wav
448,192,183207,1,0,0:0:0:50:LR_HiHat SClick 2.wav
320,192,183445,1,0,0:0:0:50:LR_HiHat SClick 2.wav
192,192,183663,1,0,0:0:0:60:Kick 2.wav
448,192,183663,128,0,183881:0:0:0:50:LR_HiHat SClick 2.wav
64,192,183881,128,0,184218:0:0:0:60:Kick 2.wav
320,192,183881,1,0,0:0:0:50:LR_HiHat SClick 2.wav
192,192,184218,128,0,184555:0:0:0:0:
320,192,184330,1,0,0:0:0:60:Kick 2.wav
448,192,184330,1,0,0:0:0:50:LR_HiHat SClick 2.wav
320,192,184555,128,0,184779:0:0:0:50:LR_HiHat SClick 2.wav
64,192,184779,1,0,0:0:0:40:snare_edited1.wav
448,192,184779,128,0,185229:0:0:0:50:LR_HiHat SClick 2.wav
192,192,185229,1,0,0:0:0:40:snare_edited1.wav
320,192,185229,128,0,185454:0:0:0:50:LR_HiHat SClick 2.wav
64,192,185454,128,0,187052:0:0:0:50:LR_HiHat SClick 2.wav
320,192,185678,1,0,0:0:0:60:Kick 2.wav
448,192,185678,1,0,0:0:0:50:LR_HiHat SClick 2.wav
192,192,186136,1,0,0:0:0:60:Kick 2.wav
448,192,186136,1,0,0:0:0:50:LR_HiHat SClick 2.wav
192,192,186594,1,0,0:0:0:40:snare_edited1.wav
320,192,186594,1,0,0:0:0:50:LR_HiHat SClick 2.wav
320,192,186823,1,0,0:0:0:60:Kick 2.wav
448,192,186823,1,0,0:0:0:50:LR_HiHat SClick 2.wav
192,192,187052,1,0,0:0:0:50:LR_HiHat SClick 2.wav
64,192,187281,1,0,0:0:0:60:Kick 2.wav
320,192,187281,1,0,0:0:0:50:LR_HiHat SClick 2.wav
192,192,187510,1,0,0:0:0:60:Kick 2.wav
448,192,187510,128,0,188858:0:0:0:50:LR_HiHat SClick 2.wav
64,192,187959,1,0,0:0:0:60:Kick 2.wav
320,192,187959,1,0,0:0:0:50:LR_HiHat SClick 2.wav
64,192,188408,1,0,0:0:0:40:snare_edited1.wav
192,192,188408,1,0,0:0:0:50:LR_HiHat SClick 2.wav
320,192,188858,1,0,0:0:0:50:LR_HiHat SClick 2.wav
64,192,189328,128,0,190691:0:0:0:60:Kick 2.wav
448,192,189328,1,0,0:0:0:50:LR_HiHat SClick 2.wav
192,192,189782,1,0,0:0:0:60:Kick 2.wav
320,192,189782,1,0,0:0:0:50:LR_HiHat SClick 2.wav
192,192,190237,1,0,0:0:0:40:snare_edited1.wav
448,192,190237,1,0,0:0:0:50:LR_HiHat SClick 2.wav
320,192,190464,1,0,0:0:0:60:Kick 2.wav
448,192,190464,1,0,0:0:0:50:LR_HiHat SClick 2.wav
192,192,190691,1,0,0:0:0:50:LR_HiHat SClick 2.wav
64,192,190920,1,0,0:0:0:60:Kick 2.wav
320,192,190920,1,0,0:0:0:50:LR_HiHat SClick 2.wav
192,192,191133,128,0,191472:0:0:0:60:Kick 2.wav
448,192,191133,1,0,0:0:0:50:LR_HiHat SClick 2.wav
448,192,191472,128,0,191812:0:0:0:0:
64,192,191585,1,0,0:0:0:60:Kick 2.wav
320,192,191585,1,0,0:0:0:50:LR_HiHat SClick 2.wav
64,192,191812,128,0,192038:0:0:0:50:LR_HiHat SClick 2.wav
320,192,192038,128,0,192494:0:0:0:40:snare_edited1.wav
448,192,192038,1,0,0:0:0:50:LR_HiHat SClick 2.wav
64,192,192494,128,0,192722:0:0:0:40:snare_edited1.wav
192,192,192494,1,0,0:0:0:50:LR_HiHat SClick 2.wav
448,192,192722,128,0,194339:0:0:0:50:LR_HiHat SClick 2.wav
64,192,192950,1,0,0:0:0:60:Kick 2.wav
320,192,192950,1,0,0:0:0:50:LR_HiHat SClick 2.wav
64,192,193418,1,0,0:0:0:60:Kick 2.wav
192,192,193418,1,0,0:0:0:50:LR_HiHat SClick 2.wav
192,192,193887,1,0,0:0:0:40:snare_edited1.wav
320,192,193887,1,0,0:0:0:50:LR_HiHat SClick 2.wav
64,192,194113,1,0,0:0:0:60:Kick 2.wav
192,192,194113,1,0,0:0:0:50:LR_HiHat SClick 2.wav
320,192,194339,1,0,0:0:0:50:LR_HiHat SClick 2.wav
64,192,194566,1,0,0:0:0:60:Kick 2.wav
192,192,194566,1,0,0:0:0:50:LR_HiHat SClick 2.wav
64,192,194793,1,0,0:0:0:60:Kick 2.wav
448,192,194793,128,0,195019:0:0:0:50:LR_HiHat SClick 2.wav
320,192,195019,128,0,196151:0:0:0:50:LR_HiHat SClick 2.wav
64,192,195245,1,0,0:0:0:60:Kick 2.wav
192,192,195245,1,0,0:0:0:50:LR_HiHat SClick 2.wav
64,192,195698,1,0,0:0:0:40:snare_edited1.wav
448,192,195698,1,0,0:0:0:50:LR_HiHat SClick 2.wav
192,192,196151,1,0,0:0:0:50:LR_HiHat SClick 2.wav
64,192,196604,128,0,196827:0:0:0:60:Kick 2.wav
448,192,196604,1,0,0:0:0:50:LR_HiHat SClick 2.wav
192,192,196827,128,0,197509:0:0:0:50:LR_HiHat SClick 2.wav
320,192,197051,1,0,0:0:0:60:Kick 2.wav
448,192,197051,1,0,0:0:0:50:LR_HiHat SClick 2.wav
64,192,197509,1,0,0:0:0:40:snare_edited1.wav
448,192,197509,1,0,0:0:0:50:LR_HiHat SClick 2.wav
192,192,197724,1,0,0:0:0:60:Kick 2.wav
320,192,197724,1,0,0:0:0:50:LR_HiHat SClick 2.wav
448,192,197956,1,0,0:0:0:50:LR_HiHat SClick 2.wav
64,192,198175,128,0,198394:0:0:0:0:
320,192,198394,1,0,0:0:0:60:Kick 2.wav
448,192,198394,128,0,198710:0:0:0:40:LR_Hit Med Click.wav
64,192,198710,1,0,0:0:0:60:Kick 2.wav
192,192,198710,128,0,199027:0:0:0:40:LR_Hit Med Click.wav
64,192,199027,1,0,0:0:0:60:Kick 2.wav
320,192,199027,128,0,199277:0:0:0:40:LR_Hit Med Click.wav
192,192,199277,1,0,0:0:0:60:Kick 2.wav
448,192,199277,128,0,199777:0:0:0:40:LR_Hit Med Click.wav
64,192,199777,1,0,0:0:0:60:Kick 2.wav
192,192,199777,128,0,200307:0:0:0:40:LR_Hit Med Click.wav
64,192,200307,128,0,204409:0:0:0:60:Kick 2.wav
448,192,200307,1,0,0:0:0:40:LR_Hit Med Click.wav
320,192,200563,128,0,200819:0:0:0:0:
192,192,200819,128,0,201076:0:0:0:0:
320,192,201076,128,0,201332:0:0:0:0:
448,192,201332,128,0,202358:0:0:0:0:
448,192,203127,128,0,204409:0:0:0:0:
