osu file format v14

[General]
AudioFilename: audio.mp3
AudioLeadIn: 0
PreviewTime: 327034
Countdown: 0
SampleSet: Soft
StackLeniency: 0.7
Mode: 0
LetterboxInBreaks: 0
WidescreenStoryboard: 0

[Editor]
Bookmarks: 2438,30674,58909,87144,115380,143615,171850,200086,228321,256556,284791,327144,341262,369497,397733,425968,454203,482438,510674,524791
DistanceSpacing: 1
BeatDivisor: 4
GridSize: 32
TimelineZoom: 2.7

[Metadata]
Title:Tsukikage Shoujo
TitleUnicode:月影少女
Artist:Syrufit feat. Mei Ayakura
ArtistUnicode:Syrufit feat. 綾倉盟
Creator:Delette
Version:Maiden Who Finds The Imposter
Source:東方永夜抄 ~ Imperishable Night.
Tags:daycore aye1337 228 jp japanese electronic trance techno electro vocal rearrangement over C80 Hakurei Reimu armpits Maiden's Capriccio ~ Dream Battle Imperishable Night Marathon touhou project eiyashou moonlight maiden Syrup Comfiture 少女綺想曲 shoujo kisoukyoku 東方Project ZUN Team Shanghai Alice th08
BeatmapID:4034369
BeatmapSetID:1949019

[Difficulty]
HPDrainRate:6
CircleSize:3.8
OverallDifficulty:8
ApproachRate:8.5
SliderMultiplier:1.4
SliderTickRate:1

[Events]
//Background and Video events
0,0,"bg.jpg",0,0
//Break Periods
2,315873,326469
//Storyboard Layer 0 (Background)
//Storyboard Layer 1 (Fail)
//Storyboard Layer 2 (Pass)
//Storyboard Layer 3 (Foreground)
//Storyboard Layer 4 (Overlay)
//Storyboard Sound Samples

[TimingPoints]
2439,441.176470588235,4,2,1,40,1,0
9497,-100,4,2,1,50,0,0
16556,-100,4,2,1,30,0,0
18321,-125,4,2,1,30,0,0
23615,-111.111111111111,4,2,1,30,0,0
27144,-111.111111111111,4,2,1,40,0,0
27586,-111.111111111111,4,2,1,43,0,0
28027,-111.111111111111,4,2,1,46,0,0
28468,-111.111111111111,4,2,1,49,0,0
28909,-111.111111111111,4,2,1,52,0,0
29350,-111.111111111111,4,2,1,55,0,0
29791,-111.111111111111,4,2,1,80,0,0
30674,-83.3333333333333,4,2,1,80,0,0
53615,-83.3333333333333,4,2,1,50,0,0
54057,-83.3333333333333,4,2,1,53,0,0
54498,-83.3333333333333,4,2,1,56,0,0
54939,-83.3333333333333,4,2,1,59,0,0
55380,-83.3333333333333,4,2,1,62,0,0
55821,-83.3333333333333,4,2,1,65,0,0
56262,-83.3333333333333,4,2,1,68,0,0
56703,-83.3333333333333,4,2,1,69,0,0
57144,-83.3333333333333,4,2,1,70,0,0
58909,-83.3333333333333,4,2,1,80,0,0
81851,-83.3333333333333,4,2,1,50,0,0
82293,-83.3333333333333,4,2,1,53,0,0
82734,-83.3333333333333,4,2,1,56,0,0
83175,-83.3333333333333,4,2,1,59,0,0
83616,-83.3333333333333,4,2,1,62,0,0
84057,-83.3333333333333,4,2,1,65,0,0
84498,-83.3333333333333,4,2,1,68,0,0
84939,-83.3333333333333,4,2,1,69,0,0
85380,-83.3333333333333,4,2,1,70,0,0
87144,-400,4,2,1,50,0,0
88909,-153.846153846154,4,2,1,50,0,0
95968,-117.64705882353,4,2,1,50,0,0
101262,-117.64705882353,4,2,1,55,0,0
108321,-105.263157894737,4,2,1,55,0,0
111850,-95.2380952380954,4,2,1,55,0,0
113615,-666.666666666658,4,2,1,55,0,0
114497,-181.818181818181,4,2,1,55,0,0
114718,-66.6666666666667,4,2,1,55,0,0
115159,-47.6190476190476,4,2,1,55,0,0
115380,-66.6666666666667,4,2,1,70,0,0
115821,-80,4,2,1,70,0,0
122438,-66.6666666666667,4,2,1,70,0,0
125968,-80,4,2,1,70,0,0
157733,-133.333333333333,4,2,1,40,0,0
158615,-285.714285714284,4,2,1,40,0,0
160269,-133.333333333333,4,2,1,40,0,0
161262,-285.714285714284,4,2,1,40,0,0
163909,-133.333333333333,4,2,1,40,0,0
165674,-285.714285714284,4,2,1,40,0,0
167438,-133.333333333333,4,2,1,40,0,0
168321,-285.714285714284,4,2,1,40,0,0
170968,-133.333333333333,4,2,1,40,0,0
171850,-133.333333333333,4,2,1,50,0,0
178909,-111.111111111111,4,2,1,50,0,0
180674,-111.111111111111,4,2,1,40,0,0
181116,-111.111111111111,4,2,1,43,0,0
181557,-111.111111111111,4,2,1,46,0,0
181998,-111.111111111111,4,2,1,49,0,0
182439,-111.111111111111,4,2,1,52,0,0
182880,-111.111111111111,4,2,1,55,0,0
183321,-111.111111111111,4,2,1,58,0,0
183762,-111.111111111111,4,2,1,61,0,0
184203,-111.111111111111,4,2,1,65,0,0
185968,-66.6666666666667,4,2,1,80,0,0
186409,-83.3333333333333,4,2,1,80,0,0
208468,-83.3333333333333,4,2,1,50,0,0
208910,-83.3333333333333,4,2,1,53,0,0
209351,-83.3333333333333,4,2,1,56,0,0
209792,-83.3333333333333,4,2,1,59,0,0
210233,-83.3333333333333,4,2,1,62,0,0
210674,-83.3333333333333,4,2,1,65,0,0
211115,-83.3333333333333,4,2,1,68,0,0
211556,-83.3333333333333,4,2,1,69,0,0
211997,-83.3333333333333,4,2,1,70,0,0
214203,-50,4,2,1,90,0,1
214644,-100,4,2,1,90,0,1
215196,-66.6666666666667,4,2,1,90,0,1
215968,-50,4,2,1,90,0,1
216409,-100,4,2,1,90,0,1
216850,-66.6666666666667,4,2,1,90,0,1
217733,-50,4,2,1,90,0,1
220821,-100,4,2,1,90,0,1
221262,-37.037037037037,4,2,1,90,0,1
221703,-100,4,2,1,90,0,1
223027,-37.037037037037,4,2,1,90,0,1
223468,-100,4,2,1,90,0,1
224791,-66.6666666666667,4,2,1,90,0,1
227438,-40,4,2,1,90,0,1
228321,-40,4,2,1,95,0,1
228762,-100,4,2,1,95,0,1
229203,-58.8235294117647,4,2,1,95,0,1
230086,-40,4,2,1,95,0,1
230527,-100,4,2,1,95,0,1
230968,-58.8235294117647,4,2,1,95,0,1
231850,-40,4,2,1,95,0,1
232291,-100,4,2,1,95,0,1
232733,-66.6666666666667,4,2,1,95,0,1
233615,-50,4,2,1,95,0,1
234056,-100,4,2,1,95,0,1
235380,-40,4,2,1,95,0,1
235821,-100,4,2,1,95,0,1
236262,-58.8235294117647,4,2,1,95,0,1
237144,-40,4,2,1,95,0,1
237586,-100,4,2,1,95,0,1
238027,-58.8235294117647,4,2,1,95,0,1
238909,-37.037037037037,4,2,1,95,0,1
239350,-100,4,2,1,95,0,1
239791,-58.8235294117647,4,2,1,95,0,1
242438,-66.6666666666667,4,2,1,80,0,0
243321,-76.9230769230769,4,2,1,80,0,0
270674,-76.9230769230769,4,2,1,70,0,0
311483,-76.9230769230769,4,2,1,40,0,0
312144,-200,4,2,1,40,0,0
327144,-125,4,2,1,40,0,0
341262,-111.111111111111,4,2,2,50,0,0
348321,-100,4,2,2,60,0,0
353615,-90.9090909090909,4,2,2,60,0,0
354938,-50,4,2,1,80,0,0
355380,-62.5,4,2,1,80,0,0
355821,-76.9230769230769,4,2,1,80,0,0
383615,-66.6666666666667,4,2,1,90,0,1
384056,-40,4,2,1,90,0,1
385380,-66.6666666666667,4,2,1,90,0,1
385821,-40,4,2,1,90,0,1
387144,-66.6666666666667,4,2,1,90,0,1
387586,-40,4,2,1,90,0,1
388909,-50,4,2,1,90,0,1
389350,-40,4,2,1,90,0,1
390674,-58.8235294117647,4,2,1,90,0,1
395968,-76.9230769230769,4,2,1,90,0,1
397291,-50,4,2,1,90,0,1
397733,-40,4,2,1,95,0,1
398615,-66.6666666666667,4,2,1,95,0,1
399497,-40,4,2,1,95,0,1
400380,-66.6666666666667,4,2,1,95,0,1
401262,-40,4,2,1,95,0,1
402144,-66.6666666666667,4,2,1,95,0,1
404791,-40,4,2,1,95,0,1
405674,-66.6666666666667,4,2,1,95,0,1
406556,-40,4,2,1,95,0,1
407438,-66.6666666666667,4,2,1,95,0,1
408321,-40,4,2,1,95,0,1
409203,-66.6666666666667,4,2,1,95,0,1
410086,-200,4,2,1,60,0,0
411850,-66.6666666666667,4,2,1,80,0,0
412291,-83.3333333333333,4,2,1,80,0,0
468321,-83.3333333333333,4,2,1,70,0,0
482438,-83.3333333333333,4,2,1,60,0,0
496556,-83.3333333333333,4,2,1,50,0,0
524791,-83.3333333333333,4,2,1,5,0,0

[Colours]
Combo1 : 223,196,153
Combo2 : 245,95,109
Combo3 : 134,103,214
Combo4 : 237,129,162
Combo5 : 165,177,235
Combo6 : 197,197,197
Combo7 : 170,116,108

[HitObjects]
220,361,2438,70,0,P|235:363|265:382,3,35,0|0|0|0,3:2|0:0|0:0|0:0,0:0:0:0:
265,379,2880,2,0,P|312:315|273:243,1,140,0|0,3:3|3:0,0:0:0:0:
248,184,3541,1,0,0:0:0:0:
248,184,3762,2,0,P|200:204|164:212,1,70,0|0,3:3|0:0,0:0:0:0:
323,118,4203,2,0,P|332:151|347:183,1,70,0|0,3:0|0:0,0:0:0:0:
208,316,4644,2,0,P|120:292|100:228,2,140,0|0|0,3:3|3:0|3:3,0:0:0:0:
184,236,5968,69,0,3:2:0:0:
12,360,6409,2,0,P|-11:271|34:222,2,140,0|0|0,3:2|3:2|3:2,0:0:0:0:
0,104,7733,2,0,P|104:128|144:144,1,140,0|0,3:2|3:2,0:0:0:0:
160,56,8615,2,0,P|264:32|304:16,1,140,0|0,3:2|3:2,0:0:0:0:
398,212,9497,22,0,P|410:157|418:137,1,70,0|0,3:2|0:0,0:0:0:0:
442,64,9938,1,0,3:2:0:0:
442,64,10380,2,0,P|387:51|367:43,1,70,0|0,3:2|0:0,0:0:0:0:
294,20,10821,1,0,3:2:0:0:
294,20,11262,2,0,P|281:74|273:94,1,70,0|0,3:2|0:0,0:0:0:0:
250,168,11703,1,0,3:2:0:0:
398,212,12034,1,2,0:0:0:0:
398,212,12144,2,0,P|410:157|418:137,1,70,0|0,3:2|0:0,0:0:0:0:
442,64,12586,2,0,P|387:51|367:43,1,70,0|0,3:2|0:0,0:0:0:0:
250,168,13027,70,0,P|181:180|114:203,1,140,0|0,3:2|3:2,0:0:0:0:
49,142,13688,1,2,0:0:0:0:
30,276,13909,2,0,P|98:288|165:311,1,140,0|0,3:2|3:2,0:0:0:0:
414,384,14791,2,0,P|426:315|449:248,2,140,2|0|0,3:2|3:2|3:2,0:0:0:0:
337,331,15894,1,2,0:0:0:0:
258,383,16115,1,0,3:2:0:0:
198,313,16336,1,2,0:0:0:0:
76,382,16556,5,4,0:0:0:0:
76,382,16777,2,0,P|48:278|280:274,1,420,2|0,0:0|0:0,0:0:0:0:
276,262,18321,1,2,0:0:0:0:
450,180,18983,1,2,0:0:0:0:
450,180,19093,1,2,0:0:0:0:
450,180,19203,2,0,P|462:124|466:100,2,56,2|2|0,0:0|0:0|0:0,0:0:0:0:
485,290,19865,1,2,0:0:0:0:
485,290,20086,6,0,P|444:268|374:268,1,112,2|0,0:0|0:0,0:0:0:0:
277,215,20747,1,2,0:0:0:0:
277,215,20968,2,0,P|292:266|262:311,1,112,2|0,0:0|0:0,0:0:0:0:
177,384,21630,1,0,0:0:0:0:
177,384,21850,2,0,P|157:330|142:261,1,112,2|0,0:0|0:0,0:0:0:0:
57,226,22512,1,2,0:0:0:0:
57,226,22622,1,2,0:0:0:0:
57,226,22733,2,0,L|-17:252,2,56,2|2|0,0:0|0:0|0:0,0:0:0:0:
55,120,23394,1,2,0:0:0:0:
55,120,23615,86,0,P|87:132|107:136,5,31.4999990386963,2|0|0|0|0|0,0:0|0:0|0:0|0:0|0:0|0:0,0:0:0:0:
11,51,24277,2,0,P|15:36|22:21,1,31.4999990386963,2|0,0:0|0:0,0:0:0:0:
99,47,24497,2,0,P|131:35|151:31,7,31.4999990386963,2|0|0|0|0|0|0|0,0:0|0:0|0:0|0:0|0:0|0:0|0:0|0:0,0:0:0:0:
204,1,25380,2,0,P|216:33|220:53,5,31.4999990386963,2|0|0|0|0|0,0:0|0:0|0:0|0:0|0:0|0:0,0:0:0:0:
287,72,26041,2,0,P|319:84|339:88,1,31.4999990386963,10|10,0:2|0:2,0:0:0:0:
190,111,26262,5,10,0:1:0:0:
185,121,26372,1,8,0:1:0:0:
182,133,26482,1,10,0:1:0:0:
181,145,26592,1,8,0:1:0:0:
183,156,26703,1,8,0:1:0:0:
186,168,26813,1,8,0:1:0:0:
191,178,26923,1,10,0:1:0:0:
198,188,27034,1,8,0:1:0:0:
207,196,27144,2,0,P|221:200|236:207,5,31.4999990386963,10|8|8|8|8|8,0:1|0:1|0:1|0:1|0:1|0:1,0:0:0:0:
310,174,27806,2,0,P|324:170|339:163,1,31.4999990386963,10|8,0:1|0:1,0:0:0:0:
421,148,28027,21,10,0:1:0:0:
438,164,28137,1,8,0:1:0:0:
450,184,28247,1,8,0:1:0:0:
458,206,28357,1,8,0:1:0:0:
460,229,28468,1,8,0:1:0:0:
457,253,28578,1,8,0:1:0:0:
448,274,28688,1,8,0:1:0:0:
434,294,28799,1,8,0:1:0:0:
416,309,28909,1,10,0:1:0:0:
394,285,29019,1,8,0:1:0:0:
370,265,29129,1,8,0:1:0:0:
343,250,29239,1,8,0:1:0:0:
313,238,29350,1,8,0:1:0:0:
283,232,29460,1,8,0:1:0:0:
251,230,29570,1,8,0:1:0:0:
220,234,29681,1,8,0:1:0:0:
189,242,29791,1,2,0:2:0:0:
512,321,30674,38,0,P|419:337|325:321,1,167.999994873047,6|8,3:2|0:0,0:0:0:0:
189,242,31336,1,2,0:0:0:0:
207,352,31556,1,2,3:2:0:0:
210,368,31666,1,0,0:0:0:0:
213,384,31777,1,0,0:0:0:0:
328,211,31997,2,0,P|327:163|337:94,1,83.9999974365235,8|2,0:0|0:0,0:0:0:0:
93,92,32438,2,0,P|96:174|111:271,1,167.999994873047,0|8,3:2|0:0,0:0:0:0:
210,161,33100,1,2,0:0:0:0:
226,158,33211,1,2,0:0:0:0:
242,155,33321,1,2,3:2:0:0:
357,228,33541,2,0,L|368:298,1,41.9999987182618,2|0,0:0|0:0,0:0:0:0:
422,137,33762,2,0,L|433:67,1,41.9999987182618,8|0,0:0|0:0,0:0:0:0:
492,228,33983,2,0,L|412:212,1,41.9999987182618,2|0,0:0|0:0,0:0:0:0:
290,17,34203,6,0,P|369:18|483:-1,1,167.999994873047,0|8,3:2|0:0,0:0:0:0:
203,88,34865,1,2,0:0:0:0:
203,88,34975,1,2,0:0:0:0:
203,88,35086,2,0,L|189:189,1,83.9999974365235,2|0,3:2|0:0,0:0:0:0:
177,279,35527,1,8,0:2:0:0:
5,249,35747,2,0,P|15:189|27:107,1,125.999996154785,2|0,0:0|0:0,0:0:0:0:
35,137,36188,2,0,L|126:127,1,83.9999974365235,2|10,0:2|0:2,0:0:0:0:
265,226,36630,1,2,0:0:0:0:
268,242,36741,1,2,0:0:0:0:
271,258,36851,1,2,3:2:0:0:
145,333,37071,2,0,L|84:343,1,41.9999987182618,2|0,0:0|0:0,0:0:0:0:
50,227,37291,2,0,L|57:268,1,41.9999987182618,8|0,0:0|0:0,0:0:0:0:
2,384,37512,2,0,L|9:342,1,41.9999987182618,2|0,0:0|0:0,0:0:0:0:
229,377,37733,86,0,P|300:378|428:388,1,167.999994873047,2|8,3:2|0:0,0:0:0:0:
510,293,38394,1,2,0:0:0:0:
365,212,38615,1,2,3:2:0:0:
364,232,38725,1,0,0:0:0:0:
362,253,38835,1,0,0:0:0:0:
360,274,38945,1,0,0:0:0:0:
358,295,39056,2,0,P|310:290|261:288,1,83.9999974365235,8|2,0:0|0:0,0:0:0:0:
425,139,39497,6,0,P|466:141|508:145,1,83.9999974365235,0|0,3:2|0:0,0:0:0:0:
292,175,39938,1,8,0:0:0:0:
312,75,40159,1,2,0:0:0:0:
309,59,40270,1,2,0:0:0:0:
306,43,40380,1,2,3:2:0:0:
303,27,40490,1,0,0:0:0:0:
300,11,40600,1,2,0:0:0:0:
210,127,40821,2,0,L|150:119,1,41.9999987182618,8|0,0:0|0:0,0:0:0:0:
153,106,41041,2,0,L|93:98,1,41.9999987182618,2|0,0:0|0:0,0:0:0:0:
2,50,41262,86,0,P|8:113|4:167,1,83.9999974365235,0|0,3:2|0:0,0:0:0:0:
0,148,41593,1,2,0:0:0:0:
72,323,41813,1,2,0:0:0:0:
91,307,41924,1,2,0:0:0:0:
113,295,42034,1,2,0:0:0:0:
137,289,42144,2,0,P|200:287|241:283,1,83.9999974365235,2|0,3:2|0:0,0:0:0:0:
442,384,42586,1,8,0:2:0:0:
423,368,42697,1,0,0:0:0:0:
401,356,42807,1,2,0:0:0:0:
377,350,42916,1,0,0:0:0:0:
351,347,43027,6,0,P|356:299|362:241,1,83.9999974365235,0|2,3:2|0:2,0:0:0:0:
378,246,43358,1,0,0:0:0:0:
401,237,43468,1,10,0:2:0:0:
444,60,43688,1,2,0:0:0:0:
454,82,43799,1,2,0:0:0:0:
470,102,43909,1,2,3:2:0:0:
489,117,44018,1,0,0:0:0:0:
512,130,44130,1,2,0:0:0:0:
300,157,44350,2,0,L|290:89,1,41.9999987182618,8|0,0:0|0:0,0:0:0:0:
332,42,44571,2,0,L|322:-26,1,41.9999987182618,2|0,0:0|0:0,0:0:0:0:
169,217,44791,86,0,P|104:215|-9:212,1,167.999994873047,4|8,3:2|0:0,0:0:0:0:
142,369,45453,1,2,0:0:0:0:
253,358,45674,1,2,3:2:0:0:
269,355,45785,1,0,0:0:0:0:
285,352,45895,1,0,0:0:0:0:
253,161,46115,2,0,P|260:224|262:270,1,83.9999974365235,8|2,0:0|0:0,0:0:0:0:
44,300,46556,2,0,P|44:207|28:104,1,167.999994873047,2|8,3:2|0:0,0:0:0:0:
161,9,47218,1,2,0:0:0:0:
163,29,47328,1,2,0:0:0:0:
166,50,47438,1,2,3:2:0:0:
167,71,47548,1,0,0:0:0:0:
169,92,47659,1,2,0:0:0:0:
173,226,47880,2,0,L|174:291,1,41.9999987182618,8|0,0:0|0:0,0:0:0:0:
343,243,48100,2,0,L|266:246,1,41.9999987182618,2|0,0:0|0:0,0:0:0:0:
320,119,48321,6,0,P|401:113|437:107,1,83.9999974365235,2|0,3:2|0:0,0:0:0:0:
512,101,48762,1,8,0:0:0:0:
512,217,48983,2,0,P|511:280|508:354,1,125.999996154785,2|0,0:0|0:0,0:0:0:0:
492,336,49424,2,0,L|375:350,1,83.9999974365235,0|8,0:0|0:2,0:0:0:0:
248,256,49865,1,2,0:0:0:0:
248,256,49975,1,0,0:0:0:0:
248,256,50086,86,0,L|358:246,1,83.9999974365235,2|2,3:2|0:2,0:0:0:0:
325,384,50527,1,10,0:2:0:0:
149,303,50747,1,2,0:0:0:0:
151,282,50857,1,2,0:0:0:0:
153,261,50967,1,2,3:2:0:0:
12,132,51188,2,0,L|22:196,1,41.9999987182618,2|0,0:0|0:0,0:0:0:0:
153,150,51409,2,0,L|111:143,1,41.9999987182618,8|0,0:0|0:0,0:0:0:0:
77,35,51630,2,0,L|70:76,1,41.9999987182618,2|0,0:0|0:0,0:0:0:0:
0,271,51850,6,0,P|87:260|208:253,1,167.999994873047,2|10,3:2|0:2,0:0:0:0:
292,254,52512,1,2,0:0:0:0:
303,99,52733,2,0,L|313:41,3,41.9999987182618,2|0|2|0,3:2|0:0|0:0|0:0,0:0:0:0:
342,41,53174,2,0,L|352:-17,3,41.9999987182618,8|0|2|0,0:0|0:0|0:0|0:0,0:0:0:0:
429,13,53615,85,10,3:1:0:0:
444,19,53725,1,8,0:1:0:0:
458,27,53836,1,8,0:1:0:0:
470,37,53946,1,8,0:1:0:0:
480,49,54056,2,0,L|488:106,1,41.9999987182618,8|8,0:1|0:1,0:0:0:0:
371,141,54277,1,10,0:1:0:0:
359,151,54387,1,10,0:1:0:0:
349,163,54497,2,0,L|341:220,1,41.9999987182618,10|8,3:1|0:1,0:0:0:0:
336,154,54718,2,0,L|328:211,1,41.9999987182618,10|8,0:1|0:1,0:0:0:0:
491,240,54938,2,0,L|499:297,1,41.9999987182618,8|8,0:1|0:1,0:0:0:0:
500,228,55159,2,0,L|508:285,1,41.9999987182618,10|8,0:1|0:1,0:0:0:0:
375,375,55380,53,10,3:1:0:0:
334,384,55490,1,8,0:1:0:0:
293,378,55600,1,8,0:1:0:0:
257,356,55710,1,8,0:1:0:0:
233,322,55821,1,8,0:1:0:0:
223,282,55931,1,8,0:1:0:0:
229,241,56041,1,10,0:1:0:0:
235,200,56152,1,8,0:1:0:0:
225,160,56262,1,10,3:1:0:0:
201,126,56373,1,8,0:1:0:0:
165,104,56483,1,8,0:1:0:0:
124,98,56593,1,8,0:1:0:0:
84,108,56703,1,10,0:1:0:0:
105,144,56813,1,8,0:1:0:0:
112,185,56924,1,8,0:1:0:0:
106,226,57034,1,8,0:1:0:0:
79,258,57144,85,10,3:1:0:0:
86,312,57255,1,8,0:1:0:0:
128,346,57365,1,8,0:1:0:0:
182,341,57475,1,8,0:1:0:0:
220,301,57586,1,10,0:1:0:0:
220,246,57696,1,8,0:1:0:0:
247,198,57806,1,8,0:1:0:0:
300,189,57916,1,8,0:1:0:0:
350,210,58027,1,10,3:1:0:0:
402,194,58137,1,8,0:1:0:0:
426,145,58247,1,8,0:1:0:0:
413,91,58358,1,8,0:1:0:0:
367,61,58468,1,10,0:1:0:0:
313,68,58578,1,8,0:1:0:0:
270,34,58688,1,10,0:1:0:0:
216,44,58799,1,8,0:1:0:0:
167,18,58909,54,0,P|175:80|176:139,1,83.9999974365235,6|0,3:2|0:0,0:0:0:0:
293,271,59350,2,0,P|285:209|284:150,1,83.9999974365235,8|2,0:0|0:0,0:0:0:0:
89,68,59791,2,0,P|25:129|51:223,1,167.999994873047,2|8,3:2|0:0,0:0:0:0:
112,243,60453,1,2,0:0:0:0:
167,18,60674,2,0,P|208:21|250:28,1,83.9999974365235,2|0,3:2|0:0,0:0:0:0:
250,29,61005,1,0,0:0:0:0:
250,29,61115,1,8,0:0:0:0:
401,0,61336,1,2,0:0:0:0:
394,20,61446,1,2,0:0:0:0:
390,40,61556,2,0,P|392:81|399:123,1,83.9999974365235,2|2,3:2|0:0,0:0:0:0:
374,274,61997,2,0,P|415:267|457:264,1,83.9999974365235,8|2,0:0|0:0,0:0:0:0:
237,315,62438,6,0,P|232:226|217:135,1,167.999994873047,2|8,3:2|0:0,0:0:0:0:
148,51,63100,1,2,0:0:0:0:
107,186,63321,1,2,3:2:0:0:
106,206,63431,1,0,0:0:0:0:
105,227,63541,1,0,0:0:0:0:
102,248,63651,1,0,0:0:0:0:
99,269,63762,1,8,0:2:0:0:
11,212,63983,1,2,0:0:0:0:
67,82,64203,86,0,P|141:69|203:146,1,167.999994873047,2|10,3:2|0:2,0:0:0:0:
237,253,64865,1,2,0:0:0:0:
256,245,64975,1,2,0:0:0:0:
276,239,65085,1,2,3:2:0:0:
383,298,65306,2,0,L|400:249,1,41.9999987182618,2|0,0:0|0:0,0:0:0:0:
473,220,65527,2,0,L|522:237,1,41.9999987182618,8|0,0:0|0:0,0:0:0:0:
390,158,65747,2,0,L|341:175,1,41.9999987182618,2|0,0:0|0:0,0:0:0:0:
256,366,65968,6,0,P|206:334|72:307,1,167.999994873047,2|8,3:2|0:0,0:0:0:0:
5,148,66630,1,2,0:0:0:0:
2,169,66740,1,0,0:0:0:0:
0,190,66850,2,0,P|50:175|104:165,1,83.9999974365235,2|0,3:2|0:0,0:0:0:0:
225,47,67291,2,0,P|183:37|143:25,1,83.9999974365235,8|2,0:0|0:0,0:0:0:0:
363,187,67733,86,0,P|423:141|415:43,1,167.999994873047,2|8,3:2|0:0,0:0:0:0:
266,125,68394,1,2,0:0:0:0:
272,145,68504,1,2,0:0:0:0:
278,165,68614,1,2,3:2:0:0:
366,264,68835,1,2,0:0:0:0:
272,374,69056,2,0,L|224:385,1,41.9999987182618,8|0,0:0|0:0,0:0:0:0:
213,375,69277,2,0,L|165:386,1,41.9999987182618,2|0,0:0|0:0,0:0:0:0:
56,356,69497,6,0,P|41:291|26:243,1,83.9999974365235,2|0,3:2|0:0,0:0:0:0:
28,261,69828,1,2,0:2:0:0:
12,139,70049,2,0,P|65:150|105:163,1,83.9999974365235,2|2,0:2|0:0,0:0:0:0:
108,151,70380,1,2,3:2:0:0:
114,131,70490,1,0,0:0:0:0:
120,111,70600,1,0,0:0:0:0:
126,91,70711,1,0,0:0:0:0:
222,13,70931,1,0,0:0:0:0:
242,19,71042,1,2,0:0:0:0:
262,25,71152,1,0,0:0:0:0:
282,31,71262,86,0,L|252:141,1,83.9999974365235,2|2,3:2|0:2,0:0:0:0:
246,126,71593,1,2,0:0:0:0:
377,115,71813,1,2,0:0:0:0:
395,120,71924,1,2,0:0:0:0:
415,126,72034,1,2,0:0:0:0:
435,132,72144,2,0,L|455:50,1,83.9999974365235,2|2,3:2|0:0,0:0:0:0:
470,48,72475,1,0,0:0:0:0:
490,44,72585,2,0,L|500:85,1,41.9999987182618,8|0,0:0|0:0,0:0:0:0:
481,205,72806,2,0,L|440:215,1,41.9999987182618,2|0,0:0|0:0,0:0:0:0:
212,275,73027,6,0,P|162:237|141:126,1,167.999994873047,4|8,3:2|0:0,0:0:0:0:
208,68,73688,1,2,0:0:0:0:
285,156,73909,1,2,3:2:0:0:
280,176,74019,1,0,0:0:0:0:
276,197,74129,1,0,0:0:0:0:
348,290,74350,2,0,P|408:276|445:272,1,83.9999974365235,8|2,0:0|0:0,0:0:0:0:
512,64,74791,2,0,P|404:89|337:96,1,167.999994873047,2|8,3:2|0:0,0:0:0:0:
199,157,75453,1,2,0:0:0:0:
179,152,75563,1,2,0:0:0:0:
157,148,75673,1,2,3:2:0:0:
71,54,75894,2,0,L|62:14,1,41.9999987182618,2|0,0:0|0:0,0:0:0:0:
166,107,76115,2,0,L|157:147,1,41.9999987182618,8|0,0:0|0:0,0:0:0:0:
45,190,76336,2,0,L|5:199,1,41.9999987182618,2|0,0:0|0:0,0:0:0:0:
231,58,76556,86,0,P|283:91|299:212,1,167.999994873047,2|8,3:2|0:0,0:0:0:0:
247,322,77218,1,2,0:0:0:0:
267,326,77328,1,2,0:0:0:0:
287,331,77438,2,0,P|352:349|400:370,1,83.9999974365235,2|0,3:2|0:0,0:0:0:0:
477,219,77880,2,0,P|412:237|364:258,1,83.9999974365235,8|2,0:2|0:0,0:0:0:0:
170,379,78321,6,0,L|134:194,1,167.999994873047,2|10,3:2|0:2,0:0:0:0:
0,176,78983,1,2,0:0:0:0:
7,156,79094,1,2,0:0:0:0:
14,135,79204,1,2,3:2:0:0:
129,63,79424,1,2,0:0:0:0:
129,63,79644,2,0,P|124:27|123:2,1,41.9999987182618,8|0,0:0|0:0,0:0:0:0:
200,129,79865,2,0,P|221:126|242:125,1,41.9999987182618,2|0,0:0|0:0,0:0:0:0:
43,250,80086,86,0,P|127:269|216:299,1,167.999994873047,0|10,3:2|0:2,0:0:0:0:
269,366,80747,1,2,0:0:0:0:
352,276,80968,2,0,L|341:224,3,41.9999987182618,2|0|2|0,3:2|0:0|0:0|0:0,0:0:0:0:
307,213,81409,2,0,L|318:161,3,41.9999987182618,8|0|2|0,0:0|0:0|0:0|0:0,0:0:0:0:
423,141,81850,5,10,3:1:0:0:
438,153,81960,1,8,0:1:0:0:
457,162,82070,1,8,0:1:0:0:
477,167,82180,1,8,0:1:0:0:
498,168,82291,2,0,P|493:144|487:116,1,41.9999987182618,8|8,0:1|0:1,0:0:0:0:
414,32,82512,1,10,0:1:0:0:
394,27,82622,1,10,0:1:0:0:
373,26,82733,2,0,P|378:49|383:78,1,41.9999987182618,10|8,3:1|0:1,0:0:0:0:
355,41,82953,2,0,P|360:64|365:93,1,41.9999987182618,10|8,0:1|0:1,0:0:0:0:
274,221,83174,2,0,P|279:198|284:169,1,41.9999987182618,8|8,0:1|0:1,0:0:0:0:
256,206,83394,2,0,P|261:183|266:154,1,41.9999987182618,10|8,0:1|0:1,0:0:0:0:
232,31,83615,37,10,3:1:0:0:
193,14,83725,1,8,0:1:0:0:
151,11,83835,1,8,0:1:0:0:
111,23,83945,1,8,0:1:0:0:
77,46,84056,1,8,0:1:0:0:
52,80,84166,1,8,0:1:0:0:
40,120,84276,1,10,0:1:0:0:
41,162,84387,1,8,0:1:0:0:
57,201,84497,1,10,3:1:0:0:
96,186,84607,1,8,0:1:0:0:
138,183,84717,1,8,0:1:0:0:
178,193,84827,1,8,0:1:0:0:
214,215,84938,1,8,0:1:0:0:
242,246,85048,1,8,0:1:0:0:
259,284,85158,1,8,0:1:0:0:
265,326,85269,1,8,0:1:0:0:
258,367,85380,85,10,3:1:0:0:
311,382,85490,1,8,0:1:0:0:
363,363,85600,1,8,0:1:0:0:
394,318,85710,1,8,0:1:0:0:
394,263,85821,1,8,0:1:0:0:
361,218,85931,1,8,0:1:0:0:
309,201,86041,1,10,0:1:0:0:
299,146,86151,1,10,0:1:0:0:
320,95,86261,1,10,3:1:0:0:
364,63,86371,1,8,0:1:0:0:
419,59,86482,1,8,0:1:0:0:
468,86,86592,1,8,0:1:0:0:
494,134,86702,1,8,0:1:0:0:
456,174,86813,1,8,0:1:0:0:
475,225,86924,1,8,0:1:0:0:
440,266,87034,1,8,0:1:0:0:
446,320,87144,86,0,L|322:337,1,122.5,4|0,0:0|0:0,0:0:0:0:
206,384,88909,2,0,B|224:217|292:315|315:128,1,272.999987503052,2|0,0:0|0:0,0:0:0:0:
313,141,90453,1,2,0:0:0:0:
416,60,90674,86,0,B|396:81|396:81|369:86,2,45.4999979171754,2|2|0,0:0|0:0|0:0,0:0:0:0:
300,51,91336,2,0,L|316:161,2,90.9999958343508,2|2|2,0:0|0:0|0:0,0:0:0:0:
224,105,92438,1,0,0:0:0:0:
224,105,93762,2,0,L|164:94,1,45.4999979171754,2|0,0:0|0:0,0:0:0:0:
77,33,94203,6,0,L|94:132,1,90.9999958343508,2|0,0:0|0:0,0:0:0:0:
0,222,94865,2,0,B|142:194|142:194|194:215,1,181.999991668702,2|0,0:0|0:0,0:0:0:0:
48,356,95968,2,0,L|96:103,1,238.00000453949,2|0,0:0|0:0,0:0:0:0:
92,122,97291,2,0,L|161:107,1,59.5000011348725,2|2,0:0|0:0,0:0:0:0:
268,174,97733,86,0,P|316:159|375:145,2,89.2500017023087,2|2|2,0:0|0:0|0:0,0:0:0:0:
403,303,98615,2,0,P|359:314|317:327,2,89.2500017023087,2|2|2,0:0|0:0|0:0,0:0:0:0:
336,236,99497,1,2,0:0:0:0:
462,192,100380,1,2,0:0:0:0:
512,75,101262,86,0,P|469:74|402:70,1,89.2500017023087,2|2,0:0|0:0,0:0:0:0:
430,80,101703,2,0,L|428:145,1,59.5000011348725,8|2,0:0|0:0,0:0:0:0:
310,209,102144,1,2,0:3:0:0:
310,209,102255,1,2,0:3:0:0:
310,209,102365,1,2,0:3:0:0:
310,209,102475,1,2,0:3:0:0:
310,209,102586,1,10,0:2:0:0:
318,113,102806,1,2,0:0:0:0:
177,101,103027,22,0,P|127:99|56:93,2,119.000002269745,2|8|0,0:0|0:0|0:0,0:0:0:0:
184,91,104019,1,2,0:3:0:0:
190,80,104130,1,2,0:3:0:0:
194,69,104240,1,2,0:3:0:0:
196,57,104350,1,10,0:0:0:0:
306,70,104571,1,2,0:0:0:0:
297,229,104791,2,0,L|302:158,1,59.5000011348725,2|2,0:0|0:0,0:0:0:0:
178,211,105233,1,8,0:0:0:0:
162,316,105453,2,0,L|151:391,1,59.5000011348725,2|0,0:0|0:0,0:0:0:0:
284,346,105894,1,2,0:3:0:0:
284,346,106005,1,2,0:3:0:0:
284,346,106115,1,10,0:0:0:0:
162,316,106336,1,2,0:0:0:0:
0,357,106556,70,0,P|13:298|16:227,1,119.000002269745,2|8,0:0|0:0,0:0:0:0:
450,0,107549,1,2,0:3:0:0:
451,11,107659,1,2,0:3:0:0:
452,22,107769,1,2,0:3:0:0:
453,33,107880,1,10,0:0:0:0:
370,99,108100,1,2,0:0:0:0:
248,26,108321,22,0,P|252:76|252:154,1,99.7499973363877,2|0,0:0|0:0,0:0:0:0:
244,136,108762,1,8,0:0:0:0:
332,234,108983,2,0,P|383:231|438:230,1,99.7499973363877,2|2,0:0|0:3,0:0:0:0:
241,318,109534,1,2,0:3:0:0:
241,318,109644,2,0,P|242:376|239:406,1,66.4999982242585,8|2,0:0|0:0,0:0:0:0:
132,225,110086,70,0,P|77:220|-11:222,2,132.999996448517,2|8|2,0:0|0:0|0:0,0:0:0:0:
459,197,111409,2,0,P|461:240|461:273,1,66.4999982242585,8|2,0:0|0:0,0:0:0:0:
209,279,111850,2,0,P|212:225|210:156,1,110.249996635437,2|2,0:0|0:0,0:0:0:0:
426,119,112512,1,2,0:0:0:0:
354,67,112733,1,2,0:3:0:0:
354,57,112843,1,2,0:3:0:0:
355,48,112953,1,2,0:3:0:0:
356,39,113063,1,2,0:3:0:0:
357,30,113174,2,0,L|438:23,1,73.4999977569581,10|2,0:0|0:0,0:0:0:0:
512,346,113615,22,0,L|489:349,1,20.9999993591309,6|0,3:2|0:0,0:0:0:0:
124,217,114497,2,0,L|133:185,1,19.2500005874634,2|0,0:0|0:0,0:0:0:0:
195,132,114718,2,0,L|220:221,1,52.5000020027161,2|0,0:0|0:0,0:0:0:0:
215,268,114938,2,0,L|178:258,2,26.2500010013581,8|8|8,0:1|0:1|0:1,0:0:0:0:
58,219,115159,2,0,L|184:181,1,73.4999977569581,10|8,0:1|0:1,0:0:0:0:
286,380,115380,54,0,P|309:304|339:232,1,157.500006008148,6|0,3:2|0:0,0:0:0:0:
330,219,115821,2,0,P|288:206|247:191,1,87.5,8|2,0:0|0:0,0:0:0:0:
395,296,116262,1,0,3:0:0:0:
403,292,116372,1,0,0:0:0:0:
411,289,116482,1,2,0:2:0:0:
419,286,116592,1,2,0:0:0:0:
428,284,116703,1,8,0:0:0:0:
507,261,116924,1,2,0:0:0:0:
380,157,117144,70,0,P|426:140|472:127,1,87.5,0|0,3:0|0:0,0:0:0:0:
294,70,117586,2,0,P|247:53|201:40,1,87.5,8|0,0:0|0:0,0:0:0:0:
90,24,118027,1,0,3:2:0:0:
92,34,118137,1,0,0:0:0:0:
95,45,118247,1,2,0:0:0:0:
39,114,118468,1,8,0:0:0:0:
132,153,118688,1,2,0:0:0:0:
49,279,118909,22,0,P|102:291|148:311,1,87.5,0|0,3:2|0:0,0:0:0:0:
335,358,119350,2,0,P|294:373|251:382,1,87.5,8|2,0:0|0:0,0:0:0:0:
235,376,119681,1,2,0:0:0:0:
212,297,119902,1,2,0:0:0:0:
212,297,120012,1,2,0:0:0:0:
350,253,120233,1,8,0:0:0:0:
313,131,120453,1,2,0:0:0:0:
401,59,120674,70,0,P|409:101|425:142,1,87.5,0|0,3:0|0:0,0:0:0:0:
228,203,121115,2,0,P|212:162|203:119,1,87.5,8|2,0:0|0:0,0:0:0:0:
211,103,121446,1,2,0:0:0:0:
122,142,121666,1,2,0:0:0:0:
122,142,121777,1,2,0:0:0:0:
179,289,121997,1,8,0:0:0:0:
63,348,122218,1,2,0:0:0:0:
0,259,122438,22,0,L|20:143,1,105.000004005432,2|2,3:2|0:2,0:0:0:0:
36,151,122769,2,0,L|22:72,1,52.5000020027161,2|8,0:2|0:0,0:0:0:0:
40,82,122990,1,2,0:2:0:0:
101,225,123211,1,2,0:2:0:0:
121,230,123321,1,2,3:2:0:0:
211,103,123541,1,2,0:2:0:0:
231,98,123652,2,0,L|248:201,1,105.000004005432,2|2,0:2|0:2,0:0:0:0:
342,342,124093,1,2,0:2:0:0:
362,347,124203,2,0,L|379:243,1,105.000004005432,2|2,3:2|0:2,0:0:0:0:
370,231,124534,2,0,L|448:217,1,52.5000020027161,2|8,0:2|0:0,0:0:0:0:
435,229,124755,1,2,0:2:0:0:
497,97,124975,1,2,0:2:0:0:
476,90,125086,1,2,3:2:0:0:
339,0,125305,1,2,0:2:0:0:
332,21,125416,2,0,L|351:134,1,105.000004005432,2|2,0:2|0:2,0:0:0:0:
342,139,125747,1,2,0:2:0:0:
321,132,125858,1,2,0:2:0:0:
301,126,125968,38,0,P|265:134|209:155,1,87.5,0|0,3:2|0:0,0:0:0:0:
222,330,126409,2,0,P|170:313|119:301,1,87.5,8|2,0:0|0:0,0:0:0:0:
131,291,126740,1,2,0:0:0:0:
159,213,126961,1,2,0:0:0:0:
159,213,127071,1,2,0:0:0:0:
93,374,127291,1,8,0:0:0:0:
53,254,127512,1,2,0:0:0:0:
13,134,127733,54,0,P|27:75|31:27,1,87.5,0|0,3:2|0:0,0:0:0:0:
156,0,128174,2,0,P|142:59|138:107,1,87.5,8|2,0:0|0:0,0:0:0:0:
149,100,128505,1,2,0:0:0:0:
233,75,128725,1,2,0:0:0:0:
233,75,128836,1,2,0:0:0:0:
93,163,129056,1,8,0:0:0:0:
213,203,129277,1,2,0:0:0:0:
333,243,129498,70,0,P|392:229|470:228,2,131.25,6|2|2,3:2|0:2|0:2,0:0:0:0:
286,133,130380,2,0,P|299:83|305:43,1,87.5,2|0,3:2|0:0,0:0:0:0:
299,33,130711,2,0,P|349:46|389:52,1,87.5,2|0,0:2|0:0,0:0:0:0:
400,41,131041,1,2,0:2:0:0:
250,211,131262,2,0,P|170:224|92:245,1,131.25,2|2,3:2|0:2,0:0:0:0:
121,236,131924,1,2,0:2:0:0:
48,196,132144,2,0,P|55:148|68:101,1,87.5,2|0,3:2|0:0,0:0:0:0:
3,44,132586,1,10,0:0:0:0:
3,44,132806,1,2,0:0:0:0:
153,146,133027,70,0,P|209:109|207:34,1,131.25,2|2,3:2|0:2,0:0:0:0:
214,49,133688,1,2,0:2:0:0:
288,11,133909,2,0,L|344:24,1,43.75,2|0,3:2|0:0,0:0:0:0:
343,32,134130,1,2,0:2:0:0:
340,42,134240,2,0,L|327:98,1,43.75,2|8,0:2|0:0,0:0:0:0:
330,84,134571,1,2,0:2:0:0:
448,141,134791,2,0,P|385:174|362:244,1,131.25,2|2,3:2|0:2,0:0:0:0:
362,226,135453,1,2,0:2:0:0:
415,306,135674,2,0,L|457:296,1,43.75,2|0,3:2|0:0,0:0:0:0:
342,384,135894,1,2,0:2:0:0:
331,381,136004,1,2,0:2:0:0:
320,379,136115,2,0,P|298:325|293:283,1,87.5,10|0,0:2|0:0,0:0:0:0:
212,163,136556,54,0,P|123:182|102:275,1,175,2|8,3:2|0:0,0:0:0:0:
199,267,137218,1,2,0:0:0:0:
282,209,137438,1,0,3:2:0:0:
286,199,137548,1,0,0:0:0:0:
290,188,137658,1,2,0:2:0:0:
294,178,137768,1,2,0:2:0:0:
297,168,137879,1,8,0:0:0:0:
261,87,138100,1,2,0:0:0:0:
359,40,138321,38,0,P|400:58|464:78,1,87.5,0|0,3:2|0:0,0:0:0:0:
478,193,138762,2,0,P|437:175|373:155,1,87.5,8|0,0:0|0:0,0:0:0:0:
261,87,139203,1,0,3:2:0:0:
251,91,139313,1,0,0:0:0:0:
241,95,139423,1,2,0:0:0:0:
230,99,139533,1,2,0:0:0:0:
220,103,139644,1,8,0:0:0:0:
173,181,139865,1,2,0:0:0:0:
66,133,140086,54,0,P|51:91|34:51,1,87.5,0|0,3:2|0:0,0:0:0:0:
9,218,140527,2,0,P|23:259|40:299,1,87.5,8|2,0:0|0:0,0:0:0:0:
37,317,140858,1,2,0:0:0:0:
105,378,141078,1,2,0:0:0:0:
105,378,141188,1,2,0:0:0:0:
185,334,141409,1,8,0:0:0:0:
265,290,141630,1,2,0:0:0:0:
357,355,141850,38,0,P|424:376|458:389,1,87.5,0|0,3:0|0:0,0:0:0:0:
512,245,142291,2,0,P|445:266|411:279,1,87.5,8|2,0:0|0:0,0:0:0:0:
413,265,142622,1,2,0:0:0:0:
446,179,142843,1,2,0:0:0:0:
446,179,142952,1,2,0:0:0:0:
366,135,143173,1,8,0:0:0:0:
286,91,143394,1,2,0:0:0:0:
148,43,143615,54,0,P|138:110|149:193,2,131.25,6|2|2,3:2|0:2|0:2,0:0:0:0:
286,240,144497,2,0,L|191:245,1,87.5,2|0,3:2|0:0,0:0:0:0:
207,259,144828,2,0,L|210:374,1,87.5,2|0,0:2|0:0,0:0:0:0:
198,360,145159,1,2,0:2:0:0:
0,302,145380,2,0,P|62:293|141:297,1,131.25,2|2,3:2|0:2,0:0:0:0:
130,295,146041,1,2,0:2:0:0:
76,199,146262,2,0,L|71:99,1,87.5,2|0,3:2|0:0,0:0:0:0:
173,72,146703,2,0,L|177:159,1,87.5,10|2,0:0|0:0,0:0:0:0:
280,232,147144,38,0,P|348:236|388:227,1,87.5,2|2,3:2|0:0,0:0:0:0:
468,215,147586,1,8,0:0:0:0:
479,345,147806,1,2,0:2:0:0:
479,345,147916,1,0,0:0:0:0:
479,345,148027,2,0,L|380:356,1,87.5,2|2,3:2|0:2,0:0:0:0:
368,231,148468,2,0,L|377:132,1,87.5,8|2,0:0|0:2,0:0:0:0:
284,0,148909,54,0,P|293:50|292:102,1,87.5,2|0,3:2|0:0,0:0:0:0:
442,78,149350,1,8,0:0:0:0:
458,174,149571,1,2,0:2:0:0:
458,174,149681,1,2,0:0:0:0:
359,190,149902,1,0,0:0:0:0:
359,190,150012,1,2,0:2:0:0:
231,147,150233,2,0,P|223:199|230:253,1,87.5,10|0,0:2|0:0,0:0:0:0:
213,381,150674,38,0,P|153:375|33:370,1,175,2|8,3:2|0:0,0:0:0:0:
0,192,151336,2,0,P|25:257|120:270,1,175,2|2,0:0|0:2,0:0:0:0:
74,145,151997,2,0,P|71:89|62:45,1,87.5,8|2,0:0|0:0,0:0:0:0:
237,6,152438,2,0,L|323:17,1,87.5,0|0,3:2|0:0,0:0:0:0:
387,87,152880,1,8,0:0:0:0:
260,145,153100,1,2,0:0:0:0:
260,145,153211,1,2,0:0:0:0:
358,216,153431,1,0,0:0:0:0:
358,216,153541,1,2,0:0:0:0:
278,298,153762,2,0,L|289:389,1,87.5,8|2,0:0|0:0,0:0:0:0:
143,274,154203,54,0,P|132:222|144:121,1,131.25,0|2,3:2|0:0,0:0:0:0:
334,2,154865,1,2,0:0:0:0:
387,84,155086,2,0,P|398:136|393:206,1,87.5,0|2,3:2|0:0,0:0:0:0:
391,186,155416,1,2,0:2:0:0:
389,295,155637,1,2,0:2:0:0:
389,295,155747,1,2,0:0:0:0:
226,235,155968,2,0,L|236:329,1,87.5,0|0,3:0|0:0,0:0:0:0:
401,384,156409,1,8,0:0:0:0:
512,292,156630,1,2,0:0:0:0:
512,292,156740,1,2,0:0:0:0:
512,292,156850,37,0,3:0:0:0:
391,186,157071,1,2,0:0:0:0:
391,186,157181,1,0,0:0:0:0:
466,44,157402,1,0,0:0:0:0:
466,44,157512,1,2,0:0:0:0:
251,110,157733,86,0,P|260:161|260:285,1,157.500006008148,2|2,3:2|0:2,0:0:0:0:
191,328,158615,2,0,L|146:319,2,36.749998878479,2|0|0,0:2|0:0|0:0,0:0:0:0:
290,375,159497,1,2,0:2:0:0:
21,292,160159,1,2,0:2:0:0:
21,292,160269,1,2,0:2:0:0:
21,292,160380,2,0,L|15:225,1,52.5000020027161,2|2,0:2|0:2,0:0:0:0:
112,183,160821,2,0,L|116:235,1,52.5000020027161,2|2,0:2|0:2,0:0:0:0:
245,281,161262,6,0,L|288:286,2,36.749998878479,2|0|2,0:2|0:0|0:2,0:0:0:0:
236,185,162144,1,2,0:2:0:0:
236,185,162255,2,0,L|280:189,1,36.749998878479,2|0,0:2|0:0,0:0:0:0:
357,195,162806,1,2,0:2:0:0:
371,39,163027,1,2,0:2:0:0:
94,19,163688,1,2,0:2:0:0:
94,19,163799,1,2,0:2:0:0:
94,19,163909,2,0,L|84:89,1,52.5000020027161,2|2,0:2|0:2,0:0:0:0:
165,101,164350,2,0,L|155:171,1,52.5000020027161,2|2,0:2|0:2,0:0:0:0:
202,306,164791,86,0,P|221:249|318:210,1,157.500006008148,2|2,0:2|0:2,0:0:0:0:
391,254,165674,2,0,L|400:298,2,36.749998878479,2|0|0,0:2|0:0|0:0,0:0:0:0:
395,138,166556,1,2,0:2:0:0:
282,384,167218,1,2,0:2:0:0:
282,384,167328,1,2,0:2:0:0:
282,384,167438,2,0,L|274:315,1,52.5000020027161,2|2,0:2|0:2,0:0:0:0:
174,293,167880,2,0,L|180:345,1,52.5000020027161,2|2,0:2|0:2,0:0:0:0:
35,382,168321,6,0,L|-7:373,2,36.749998878479,2|0|0,0:2|0:0|0:0,0:0:0:0:
39,301,169203,1,2,0:2:0:0:
39,301,169313,2,0,L|48:261,1,36.749998878479,2|0,0:2|0:0,0:0:0:0:
64,184,169865,1,2,0:2:0:0:
97,33,170086,1,2,0:2:0:0:
334,27,170747,1,2,0:2:0:0:
334,27,170858,1,2,0:2:0:0:
334,27,170968,2,0,L|343:101,1,52.5000020027161,2|2,0:2|0:2,0:0:0:0:
434,99,171409,2,0,L|427:46,1,52.5000020027161,2|2,0:2|0:2,0:0:0:0:
299,149,171850,70,0,P|326:204|339:250,1,105.000004005432,2|8,0:2|0:0,0:0:0:0:
338,245,172512,1,2,0:0:0:0:
416,303,172733,2,0,P|402:330|396:353,1,52.5000020027161,2|0,0:0|0:0,0:0:0:0:
396,351,173063,1,0,0:0:0:0:
396,351,173174,1,8,0:0:0:0:
314,330,173394,1,0,0:0:0:0:
130,384,173615,2,0,P|93:348|94:278,1,105.000004005432,2|8,0:0|0:0,0:0:0:0:
180,318,174277,1,2,0:0:0:0:
180,318,174387,1,2,0:0:0:0:
180,318,174497,2,0,P|219:330|252:338,1,52.5000020027161,2|2,0:0|0:0,0:0:0:0:
220,213,174938,2,0,P|181:225|148:233,1,52.5000020027161,8|2,0:0|0:0,0:0:0:0:
29,318,175380,22,0,P|21:269|5:193,1,105.000004005432,2|8,0:0|0:0,0:0:0:0:
41,142,176041,1,2,0:0:0:0:
109,70,176262,2,0,P|148:82|181:90,1,52.5000020027161,2|0,0:0|0:0,0:0:0:0:
159,84,176593,1,0,0:0:0:0:
159,84,176703,1,8,0:0:0:0:
184,180,176924,1,0,0:0:0:0:
41,142,177144,2,0,P|74:164|104:237,1,105.000004005432,2|8,0:0|0:0,0:0:0:0:
158,299,177806,1,2,0:0:0:0:
158,299,177916,1,2,0:0:0:0:
158,299,178027,2,0,L|94:317,1,52.5000020027161,2|2,0:0|0:0,0:0:0:0:
184,180,178468,2,0,L|248:198,1,52.5000020027161,8|2,0:0|0:0,0:0:0:0:
312,322,178909,70,0,L|344:313,5,31.4999990386963,2|0|0|0|8|0,0:0|0:0|0:0|0:0|0:0|0:0,0:0:0:0:
411,262,179571,2,0,L|443:271,1,31.4999990386963,2|0,0:0|0:0,0:0:0:0:
323,220,179791,2,0,L|314:188,7,31.4999990386963,2|0|0|0|8|0|0|0,0:0|0:0|0:0|0:0|0:0|0:0|0:0|0:0,0:0:0:0:
387,127,180674,2,0,L|396:95,5,31.4999990386963,10|8|8|8|8|8,0:1|0:1|0:1|0:1|0:1|0:1,0:0:0:0:
353,24,181336,2,0,L|322:15,1,31.4999990386963,10|10,0:1|0:1,0:0:0:0:
246,59,181556,21,10,0:1:0:0:
241,43,181666,1,8,0:1:0:0:
234,30,181776,1,10,0:1:0:0:
223,18,181886,1,8,0:1:0:0:
210,9,181997,1,8,0:1:0:0:
196,3,182107,1,8,0:1:0:0:
180,0,182217,1,10,0:1:0:0:
165,1,182328,1,8,0:1:0:0:
150,5,182438,21,10,0:1:0:0:
153,20,182548,1,8,0:1:0:0:
157,35,182658,1,8,0:1:0:0:
161,50,182768,1,8,0:1:0:0:
164,66,182879,1,8,0:1:0:0:
168,81,182989,1,8,0:1:0:0:
172,96,183099,1,10,0:1:0:0:
175,112,183210,1,8,0:1:0:0:
179,127,183321,1,10,0:1:0:0:
169,156,183431,1,8,0:1:0:0:
148,179,183541,1,8,0:1:0:0:
119,190,183651,1,8,0:1:0:0:
88,188,183762,1,8,0:1:0:0:
61,172,183872,1,8,0:1:0:0:
43,146,183982,1,8,0:1:0:0:
39,116,184093,1,8,0:1:0:0:
48,86,184203,85,10,0:1:0:0:
79,93,184313,1,8,0:1:0:0:
110,100,184423,1,8,0:1:0:0:
140,107,184533,1,8,0:1:0:0:
171,114,184644,1,8,0:1:0:0:
202,121,184754,1,8,0:1:0:0:
233,128,184864,1,10,0:1:0:0:
263,135,184975,1,10,0:1:0:0:
294,142,185085,1,10,0:1:0:0:
322,175,185196,1,8,0:1:0:0:
365,179,185306,1,10,0:1:0:0:
385,217,185416,1,8,0:1:0:0:
427,204,185527,1,8,0:1:0:0:
470,211,185637,1,8,0:1:0:0:
486,170,185747,1,10,0:1:0:0:
466,130,185858,1,8,0:1:0:0:
424,114,185968,38,0,P|391:205|373:290,1,157.500006008148,6|0,3:2|0:0,0:0:0:0:
386,279,186409,2,0,L|277:250,1,83.9999974365235,8|0,0:0|0:0,0:0:0:0:
133,136,186850,2,0,L|24:165,1,83.9999974365235,2|0,3:2|0:0,0:0:0:0:
230,75,187291,1,8,0:0:0:0:
158,266,187512,1,2,0:0:0:0:
317,150,187733,2,0,P|348:98|320:-2,1,167.999994873047,2|8,3:2|0:0,0:0:0:0:
133,76,188394,1,2,0:0:0:0:
138,96,188504,1,2,0:0:0:0:
143,116,188614,1,2,3:2:0:0:
76,233,188836,2,0,L|22:222,1,41.9999987182618,2|0,0:0|0:0,0:0:0:0:
210,202,189056,2,0,L|264:213,1,41.9999987182618,8|0,0:0|0:0,0:0:0:0:
150,344,189277,2,0,L|139:290,1,41.9999987182618,2|0,0:0|0:0,0:0:0:0:
317,150,189497,54,0,P|384:171|434:288,1,167.999994873047,2|8,3:2|0:0,0:0:0:0:
328,373,190159,1,2,0:0:0:0:
328,373,190269,1,2,0:0:0:0:
328,373,190380,2,0,P|281:359|229:348,1,83.9999974365235,2|0,3:2|0:0,0:0:0:0:
150,344,190821,1,10,0:0:0:0:
328,249,191041,2,0,P|392:268|463:283,1,125.999996154785,2|0,0:0|0:0,0:0:0:0:
461,291,191483,2,0,P|472:237|488:184,1,83.9999974365235,2|10,0:0|0:0,0:0:0:0:
409,84,191924,1,2,0:0:0:0:
404,104,192034,1,2,0:0:0:0:
399,124,192144,1,2,3:2:0:0:
245,191,192365,2,0,P|235:144|229:126,1,41.9999987182618,2|0,0:0|0:0,0:0:0:0:
307,97,192586,2,0,P|317:50|323:32,1,41.9999987182618,8|0,0:0|0:0,0:0:0:0:
159,191,192806,2,0,P|112:201|94:207,1,41.9999987182618,2|0,0:0|0:0,0:0:0:0:
0,0,193027,54,0,P|129:27|179:44,1,167.999994873047,2|8,3:2|0:0,0:0:0:0:
236,149,193688,1,2,0:0:0:0:
31,212,193909,1,2,3:2:0:0:
28,191,194019,1,0,0:0:0:0:
26,170,194129,1,0,0:0:0:0:
23,149,194239,1,0,0:0:0:0:
20,128,194350,2,0,P|79:121|122:115,1,83.9999974365235,8|0,0:0|0:0,0:0:0:0:
254,283,194791,86,0,P|195:290|152:296,1,83.9999974365235,2|0,3:2|0:0,0:0:0:0:
63,324,195233,1,8,0:0:0:0:
202,190,195453,1,2,0:2:0:0:
204,169,195563,1,2,0:2:0:0:
206,148,195673,1,2,3:2:0:0:
289,56,195894,1,2,0:0:0:0:
289,56,196115,2,0,P|333:66|353:70,1,41.9999987182618,10|0,0:0|0:0,0:0:0:0:
351,73,196336,2,0,P|395:83|415:87,1,41.9999987182618,2|0,0:0|0:0,0:0:0:0:
503,182,196556,54,0,P|457:197|402:204,1,83.9999974365235,2|2,3:2|0:0,0:0:0:0:
403,197,196887,1,2,0:0:0:0:
311,283,197108,1,2,0:0:0:0:
317,303,197218,1,2,0:0:0:0:
345,333,197328,1,2,0:0:0:0:
339,353,197438,1,2,3:2:0:0:
204,250,197659,1,2,0:0:0:0:
224,244,197769,1,2,0:0:0:0:
129,361,197990,1,2,0:0:0:0:
109,355,198100,1,2,0:0:0:0:
80,323,198211,1,2,0:0:0:0:
60,317,198321,54,0,P|49:239|40:199,1,83.9999974365235,2|2,3:2|0:0,0:0:0:0:
51,218,198652,1,2,0:0:0:0:
64,202,198762,1,10,0:0:0:0:
81,57,198983,1,2,0:0:0:0:
95,72,199093,1,2,0:0:0:0:
107,89,199203,2,0,L|165:66,1,41.9999987182618,2|0,3:2|0:0,0:0:0:0:
209,0,199424,2,0,L|267:23,1,41.9999987182618,2|0,0:0|0:0,0:0:0:0:
325,48,199644,1,10,0:0:0:0:
329,68,199754,1,2,0:0:0:0:
334,88,199864,1,2,0:0:0:0:
339,109,199974,1,2,0:0:0:0:
344,129,200086,86,0,P|412:128|524:133,1,167.999994873047,6|8,3:2|0:0,0:0:0:0:
471,45,200747,1,2,0:0:0:0:
448,215,200968,1,2,3:2:0:0:
446,235,201078,1,0,0:0:0:0:
444,256,201188,1,0,0:0:0:0:
264,223,201409,2,0,P|266:174|266:121,1,83.9999974365235,10|0,0:0|0:0,0:0:0:0:
327,373,201850,54,0,P|251:371|133:371,1,167.999994873047,2|8,3:2|0:0,0:0:0:0:
25,214,202512,1,2,0:2:0:0:
27,234,202622,1,2,0:2:0:0:
29,255,202733,2,0,L|80:264,2,41.9999987182618,2|0|2,0:2|0:0|0:0,0:0:0:0:
182,132,203174,2,0,L|189:196,1,41.9999987182618,8|0,0:0|0:0,0:0:0:0:
231,290,203394,2,0,L|238:226,1,41.9999987182618,2|0,0:0|0:0,0:0:0:0:
93,136,203615,53,2,3:2:0:0:
103,95,203725,1,0,0:0:0:0:
131,64,203835,1,0,0:0:0:0:
169,49,203945,1,0,0:0:0:0:
211,53,204056,1,8,0:0:0:0:
357,154,204277,1,2,0:0:0:0:
359,134,204387,1,2,0:0:0:0:
361,113,204497,2,0,L|480:103,1,83.9999974365235,2|0,3:2|0:0,0:0:0:0:
301,3,204938,1,8,0:0:0:0:
275,182,205159,86,0,P|277:239|267:333,1,125.999996154785,2|0,0:0|0:0,0:0:0:0:
242,324,205600,2,0,L|126:332,1,83.9999974365235,2|8,0:0|0:0,0:0:0:0:
366,384,206041,1,2,0:0:0:0:
386,382,206151,1,2,0:0:0:0:
407,380,206261,2,0,L|417:261,1,83.9999974365235,2|2,3:2|0:0,0:0:0:0:
364,128,206703,2,0,L|431:141,1,41.9999987182618,8|0,0:0|0:0,0:0:0:0:
512,210,206924,2,0,L|445:223,1,41.9999987182618,2|0,0:0|0:0,0:0:0:0:
249,174,207144,54,0,P|251:110|249:70,1,83.9999974365235,2|0,3:2|0:0,0:0:0:0:
127,10,207586,1,8,0:0:0:0:
126,138,207806,1,2,0:2:0:0:
344,133,208027,2,0,P|415:133|451:133,1,83.9999974365235,2|0,3:2|0:0,0:0:0:0:
178,258,208468,1,8,0:1:0:0:
157,258,208578,1,8,0:1:0:0:
136,258,208688,1,10,0:1:0:0:
115,258,208798,1,8,0:1:0:0:
93,256,208909,54,0,L|90:200,5,41.9999987182618,10|8|8|8|8|8,0:1|0:1|0:1|0:1|0:1|0:1,0:0:0:0:
24,165,209571,1,10,0:1:0:0:
24,165,209681,1,10,0:1:0:0:
24,165,209791,2,0,L|35:95,1,41.9999987182618,10|8,0:1|0:1,0:0:0:0:
109,97,210012,2,0,L|120:27,1,41.9999987182618,10|8,0:1|0:1,0:0:0:0:
263,190,210233,2,0,L|252:260,1,41.9999987182618,8|8,0:1|0:1,0:0:0:0:
178,258,210454,2,0,L|167:328,1,41.9999987182618,10|8,0:1|0:1,0:0:0:0:
340,382,210674,21,10,0:1:0:0:
381,379,210784,1,8,0:1:0:0:
421,366,210894,1,8,0:1:0:0:
456,343,211004,1,8,0:1:0:0:
484,312,211115,1,8,0:1:0:0:
503,275,211225,1,8,0:1:0:0:
512,234,211335,1,10,0:1:0:0:
511,192,211446,1,8,0:1:0:0:
498,152,211556,1,10,0:1:0:0:
456,156,211666,1,8,0:1:0:0:
413,160,211777,1,8,0:1:0:0:
371,164,211887,1,8,0:1:0:0:
329,168,211997,1,8,0:1:0:0:
323,126,212108,1,8,0:1:0:0:
317,84,212218,1,8,0:1:0:0:
311,42,212328,1,8,0:1:0:0:
306,0,212438,2,0,L|371:8,3,41.9999987182618,10|8|8|8,0:1|0:1|0:1|0:1,0:0:0:0:
172,57,212880,2,0,L|107:49,3,41.9999987182618,8|8|10|10,0:1|0:1|0:1|0:1,0:0:0:0:
222,122,213321,1,10,0:1:0:0:
188,159,213431,1,8,0:1:0:0:
141,178,213541,1,10,0:1:0:0:
92,162,213652,1,8,0:1:0:0:
73,115,213762,1,8,0:1:0:0:
120,134,213872,1,8,0:1:0:0:
136,183,213983,1,10,0:1:0:0:
117,230,214093,1,8,0:1:0:0:
80,264,214203,38,0,P|54:150|-13:28,1,210,14|0,0:3|0:0,0:0:0:0:
150,4,214644,2,0,B|166:18|166:18|138:103,1,105,10|0,0:3|0:0,0:0:0:0:
30,187,215086,85,10,0:3:0:0:
49,174,215196,2,0,L|113:168,1,52.5000020027161,0|10,0:0|0:3,0:0:0:0:
212,124,215416,85,10,0:3:0:0:
231,137,215526,2,0,L|295:143,1,52.5000020027161,0|10,0:0|0:3,0:0:0:0:
366,202,215747,21,10,0:3:0:0:
385,189,215858,1,10,0:3:0:0:
405,171,215968,2,0,P|442:282|459:374,1,210,10|0,0:3|0:0,0:0:0:0:
493,264,216409,2,0,B|480:277|480:277|394:301,1,105,10|0,0:3|0:0,0:0:0:0:
274,228,216850,86,0,P|294:292|329:335,1,105.000004005432,10|10,0:3|0:3,0:0:0:0:
116,286,217181,2,0,P|153:249|176:202,1,105.000004005432,10|10,0:3|0:3,0:0:0:0:
222,372,217512,2,0,L|160:360,1,52.5000020027161,10|10,0:3|0:3,0:0:0:0:
76,189,217733,86,0,B|56:176|56:176|-12:90|-12:90|29:179,1,210,10|0,0:3|0:0,0:0:0:0:
0,232,218174,2,0,P|38:157|174:94,1,210,10|0,0:3|0:0,0:0:0:0:
207,12,218615,21,10,0:3:0:0:
234,87,218836,1,10,0:3:0:0:
272,103,218946,1,10,0:3:0:0:
225,281,219166,1,10,0:3:0:0:
222,240,219276,1,10,0:3:0:0:
198,206,219387,1,10,0:3:0:0:
160,190,219497,86,0,B|100:230|100:230|284:185,1,210,10|0,0:3|0:0,0:0:0:0:
311,206,219938,2,0,P|367:254|393:385,1,210,10|0,0:3|0:0,0:0:0:0:
465,296,220380,1,10,0:3:0:0:
382,289,220600,1,10,0:3:0:0:
344,307,220711,1,10,0:3:0:0:
320,341,220821,2,0,L|271:352,1,35,0|10,0:0|0:3,0:0:0:0:
250,274,221041,2,0,L|201:285,1,35,10|10,0:3|0:3,0:0:0:0:
465,140,221262,86,0,P|435:42|249:14,1,283.500001081467,10|0,0:3|0:0,0:0:0:0:
188,86,221703,2,0,P|242:83|257:127,1,105,10|0,0:3|0:0,0:0:0:0:
277,216,222144,1,10,0:3:0:0:
246,233,222255,2,0,L|196:238,1,35,0|10,0:0|0:3,0:0:0:0:
84,286,222475,1,10,0:3:0:0:
114,304,222586,2,0,L|164:309,1,35,0|10,0:0|0:3,0:0:0:0:
25,384,222806,2,0,L|6:326,1,35,10|10,0:3|0:3,0:0:0:0:
127,150,223027,22,0,P|158:260|342:266,1,283.500001081467,10|0,0:3|0:0,0:0:0:0:
422,223,223468,2,0,P|370:223|358:172,1,105,10|0,0:3|0:0,0:0:0:0:
433,142,223909,2,0,L|419:76,1,35,10|0,0:3|0:0,0:0:0:0:
475,16,224130,1,10,0:3:0:0:
497,42,224240,2,0,L|509:102,1,35,10|0,0:3|0:0,0:0:0:0:
448,321,224461,1,10,0:3:0:0:
403,311,224571,1,10,0:3:0:0:
358,303,224681,1,10,0:3:0:0:
304,295,224791,86,0,L|239:302,3,52.5000020027161,10|0|0|0,0:3|0:0|0:0|0:0,0:0:0:0:
295,90,225233,2,0,L|360:97,3,52.5000020027161,10|0|0|0,0:3|0:0|0:0|0:0,0:0:0:0:
171,238,225674,2,0,L|158:173,1,52.5000020027161,10|0,0:3|0:0,0:0:0:0:
416,142,225894,1,10,0:3:0:0:
410,183,226005,2,0,L|423:248,1,52.5000020027161,10|0,0:3|0:0,0:0:0:0:
189,109,226225,1,10,0:3:0:0:
147,102,226335,1,10,0:3:0:0:
105,95,226445,1,10,0:3:0:0:
60,87,226555,86,0,L|52:25,3,52.5000020027161,10|0|0|0,0:3|0:0|0:0|0:0,0:0:0:0:
239,0,226997,2,0,L|245:52,3,52.5000020027161,10|0|0|0,0:3|0:0|0:0|0:0,0:0:0:0:
326,46,227438,22,0,P|369:90|372:190,1,131.25,10|0,0:3|0:0,0:0:0:0:
352,168,227659,2,0,B|327:211|327:211|335:265,1,87.5,10|10,0:3|0:3,0:0:0:0:
469,341,227880,2,0,L|527:349,4,43.75,8|8|8|8|8,0:3|0:3|0:3|0:3|0:3,0:0:0:0:
322,378,228211,1,8,0:3:0:0:
285,368,228321,6,0,P|238:352|239:228,1,175,12|0,0:3|0:0,0:0:0:0:
236,240,228652,1,2,0:0:0:0:
264,214,228762,2,0,L|350:233,1,70,10|0,0:3|0:0,0:0:0:0:
174,338,229093,1,2,0:0:0:0:
144,361,229203,2,0,P|138:335|127:296,1,59.5000011348725,10|0,0:3|0:0,0:0:0:0:
148,94,229424,1,10,0:3:0:0:
177,117,229534,2,0,P|171:141|161:177,1,59.5000011348725,10|0,0:3|0:0,0:0:0:0:
0,242,229755,1,10,0:3:0:0:
23,212,229865,2,0,P|47:217|84:228,1,59.5000011348725,10|10,0:3|0:3,0:0:0:0:
321,141,230086,86,0,P|303:40|234:3,1,175,10|2,0:3|0:0,0:0:0:0:
242,11,230416,1,2,0:0:0:0:
228,47,230527,2,0,P|191:54|154:66,1,70,10|2,0:3|0:0,0:0:0:0:
350,28,230858,1,2,0:0:0:0:
363,64,230968,2,0,P|394:57|425:47,1,59.5000011348725,10|0,0:3|0:0,0:0:0:0:
509,199,231188,1,10,0:3:0:0:
496,235,231298,2,0,P|464:228|433:218,1,59.5000011348725,10|0,0:3|0:0,0:0:0:0:
321,141,231519,1,10,0:3:0:0:
283,151,231630,2,0,P|253:156|223:166,1,59.5000011348725,10|10,0:3|0:3,0:0:0:0:
0,283,231850,86,0,P|129:308|200:333,1,175,10|2,0:3|0:0,0:0:0:0:
176,327,232181,1,2,0:0:0:0:
202,354,232291,2,0,P|235:364|271:369,1,70,10|2,0:3|0:0,0:0:0:0:
425,252,232622,1,2,0:0:0:0:
409,282,232733,2,0,P|424:334|432:389,1,105.000004005432,10|10,0:3|0:3,0:0:0:0:
506,171,233063,2,0,P|440:151|373:141,1,105.000004005432,10|10,0:3|0:3,0:0:0:0:
309,58,233394,2,0,P|349:46|390:39,1,52.5000020027161,10|10,0:3|0:3,0:0:0:0:
249,271,233615,22,0,P|272:194|197:98,1,210,10|0,0:3|0:0,0:0:0:0:
153,160,234056,2,0,P|108:166|77:181,1,70,10|0,0:3|0:0,0:0:0:0:
4,264,234387,1,2,0:0:0:0:
12,284,234497,2,0,P|50:289|77:302,1,70,10|10,0:3|0:3,0:0:0:0:
181,367,234828,1,10,0:3:0:0:
181,367,234938,1,10,0:3:0:0:
181,367,235049,1,10,0:3:0:0:
181,367,235159,2,0,P|177:351|173:333,1,35,10|10,0:3|0:3,0:0:0:0:
372,384,235380,86,0,L|429:193,1,175,10|2,0:3|0:0,0:0:0:0:
431,214,235711,1,2,0:0:0:0:
467,221,235821,2,0,L|445:148,1,70,10|2,0:3|0:0,0:0:0:0:
317,59,236152,1,2,0:0:0:0:
296,91,236262,2,0,P|317:120|329:142,1,59.5000011348725,10|0,0:3|0:0,0:0:0:0:
476,22,236483,1,10,0:3:0:0:
437,20,236593,2,0,P|421:54|407:76,1,59.5000011348725,10|2,0:3|0:0,0:0:0:0:
299,236,236813,1,10,0:3:0:0:
264,218,236924,2,0,P|248:182|234:161,1,59.5000011348725,10|10,0:3|0:3,0:0:0:0:
0,11,237144,86,0,L|186:65,1,175,10|2,0:3|0:0,0:0:0:0:
175,67,237475,1,2,0:0:0:0:
158,102,237586,2,0,P|112:113|88:120,1,70,10|2,0:3|0:0,0:0:0:0:
209,293,237916,1,2,0:0:0:0:
179,317,238027,2,0,P|139:309|118:305,1,59.5000011348725,10|0,0:3|0:0,0:0:0:0:
2,87,238247,1,10,0:3:0:0:
37,103,238358,2,0,P|46:141|52:161,1,59.5000011348725,10|2,0:3|0:0,0:0:0:0:
78,376,238578,1,10,0:3:0:0:
42,359,238689,2,0,P|32:321|26:301,1,59.5000011348725,10|10,0:3|0:3,0:0:0:0:
207,164,238909,22,0,P|320:170|367:232,1,189.000000720978,10|2,0:3|0:0,0:0:0:0:
360,236,239240,1,2,0:0:0:0:
341,284,239350,1,10,0:3:0:0:
359,333,239461,1,2,0:0:0:0:
403,360,239571,1,2,0:0:0:0:
454,353,239681,1,2,0:0:0:0:
485,311,239791,2,0,P|477:282|466:254,1,59.5000011348725,10|0,0:3|0:0,0:0:0:0:
425,47,240012,1,10,0:3:0:0:
407,98,240122,2,0,P|413:121|430:166,1,59.5000011348725,10|10,0:3|0:3,0:0:0:0:
264,242,240343,1,10,0:3:0:0:
206,227,240453,1,10,0:3:0:0:
147,214,240563,1,10,0:3:0:0:
96,246,240674,86,0,L|116:323,3,59.5000011348725,10|0|0|0,0:3|0:0|0:0|0:0,0:0:0:0:
0,153,241115,2,0,L|14:95,3,59.5000011348725,10|0|0|0,0:3|0:0|0:0|0:0,0:0:0:0:
97,0,241556,1,10,0:3:0:0:
155,14,241666,1,2,0:0:0:0:
213,28,241777,1,10,0:3:0:0:
271,42,241887,1,10,0:3:0:0:
292,97,241997,1,2,0:0:0:0:
280,155,242108,1,10,0:3:0:0:
315,202,242218,1,10,0:3:0:0:
297,258,242328,1,10,0:3:0:0:
326,309,242438,86,0,L|489:352,1,157.500006008148,6|0,3:2|0:0,0:0:0:0:
490,340,242880,1,8,0:0:0:0:
417,238,243100,1,0,0:0:0:0:
512,161,243321,2,0,P|503:116|496:63,1,90.9999958343508,2|0,3:2|0:0,0:0:0:0:
297,29,243762,1,8,0:0:0:0:
412,128,243983,1,2,0:0:0:0:
235,221,244203,2,0,P|142:243|55:268,1,181.999991668702,2|8,3:2|0:0,0:0:0:0:
0,153,244865,1,2,0:0:0:0:
4,130,244975,1,2,0:0:0:0:
8,108,245085,1,2,3:2:0:0:
109,32,245306,2,0,P|137:38|164:46,1,45.4999979171754,2|0,0:0|0:0,0:0:0:0:
103,168,245527,2,0,P|97:146|91:123,1,45.4999979171754,8|0,0:0|0:0,0:0:0:0:
266,4,245747,2,0,P|260:26|254:48,1,45.4999979171754,2|0,0:0|0:0,0:0:0:0:
360,249,245968,70,0,P|432:219|440:119,1,181.999991668702,2|8,3:2|0:0,0:0:0:0:
343,0,246630,1,2,0:0:0:0:
349,22,246740,1,2,0:0:0:0:
354,44,246850,2,0,P|341:95|331:148,1,90.9999958343508,2|0,3:2|0:0,0:0:0:0:
327,138,247181,1,0,0:0:0:0:
322,143,247291,2,0,P|296:136|270:131,1,45.4999979171754,10|0,0:0|0:0,0:0:0:0:
223,233,247512,2,0,P|197:239|171:244,1,45.4999979171754,2|0,0:0|0:0,0:0:0:0:
72,370,247733,86,0,P|58:301|27:187,1,181.999991668702,2|10,3:2|0:0,0:0:0:0:
5,97,248394,1,2,0:0:0:0:
144,25,248615,1,2,3:2:0:0:
136,46,248725,1,0,0:0:0:0:
129,68,248835,1,2,0:0:0:0:
124,90,248945,1,0,0:0:0:0:
119,112,249056,1,8,0:0:0:0:
223,233,249277,1,2,0:0:0:0:
396,107,249497,38,0,P|459:138|480:257,1,181.999991668702,2|8,3:2|0:0,0:0:0:0:
390,384,250159,1,2,0:0:0:0:
368,376,250269,1,0,0:0:0:0:
347,369,250380,2,0,P|334:310|316:259,1,90.9999958343508,2|0,3:2|0:0,0:0:0:0:
328,273,250711,1,0,0:0:0:0:
331,266,250821,2,0,P|372:256|408:244,1,45.4999979171754,8|0,0:0|0:0,0:0:0:0:
223,233,251041,2,0,P|201:238|178:243,1,45.4999979171754
0,98,251262,70,0,P|96:124|193:145,1,181.999991668702,2|8,3:2|0:0,0:0:0:0:
278,45,251924,1,2,0:2:0:0:
272,22,252034,1,2,0:2:0:0:
269,0,252144,1,2,3:2:0:0:
392,92,252365,2,0,P|414:87|436:85,1,45.4999979171754,2|0,0:0|0:0,0:0:0:0:
512,204,252586,2,0,P|489:205|467:210,1,45.4999979171754,10|0,0:0|0:0,0:0:0:0:
330,265,252806,2,0,P|335:287|337:310,1,45.4999979171754,2|0,0:0|0:0,0:0:0:0:
170,384,253027,86,0,P|159:337|157:290,1,90.9999958343508,2|2,3:2|0:0,0:0:0:0:
168,282,253358,1,2,0:0:0:0:
18,215,253578,1,2,0:0:0:0:
12,236,253688,1,2,0:0:0:0:
6,257,253799,1,2,0:0:0:0:
0,278,253909,2,0,L|17:336,1,45.4999979171754,2|0,3:2|0:0,0:0:0:0:
145,209,254130,1,2,0:0:0:0:
139,188,254240,1,2,0:0:0:0:
63,97,254461,1,2,0:0:0:0:
42,103,254571,1,2,0:0:0:0:
21,109,254682,1,2,0:0:0:0:
0,115,254792,2,0,P|8:57|13:15,1,90.9999958343508,2|2,3:2|0:0,0:0:0:0:
27,15,255122,1,2,0:0:0:0:
49,18,255233,1,10,0:0:0:0:
71,21,255343,1,0,0:0:0:0:
94,24,255453,1,2,0:0:0:0:
116,27,255563,1,2,0:0:0:0:
139,29,255674,1,2,3:2:0:0:
196,131,255894,1,2,0:0:0:0:
219,129,256005,1,0,0:0:0:0:
325,28,256225,1,2,0:0:0:0:
348,30,256336,1,2,0:0:0:0:
371,32,256446,1,2,0:0:0:0:
394,34,256556,38,0,P|420:123|402:221,1,181.999991668702,6|8,3:2|0:0,0:0:0:0:
269,316,257218,1,2,0:0:0:0:
145,190,257438,2,0,P|186:224|245:232,1,90.9999958343508,2|0,3:2|0:0,0:0:0:0:
405,327,257880,2,0,P|355:359|331:401,1,90.9999958343508,10|0,0:0|0:0,0:0:0:0:
248,147,258321,70,0,P|348:141|469:119,1,181.999991668702,2|8,3:2|0:0,0:0:0:0:
112,41,258983,1,2,0:2:0:0:
132,68,259093,1,2,0:2:0:0:
147,98,259203,1,2,3:2:0:0:
157,131,259313,1,0,0:0:0:0:
161,165,259424,1,2,0:0:0:0:
291,260,259644,1,8,0:0:0:0:
271,287,259754,1,0,0:0:0:0:
256,317,259864,1,2,0:0:0:0:
246,350,259974,1,0,0:0:0:0:
242,384,260086,86,0,P|117:366|44:361,1,181.999991668702,2|8,3:2|0:0,0:0:0:0:
0,195,260747,1,2,0:0:0:0:
0,195,260858,1,2,0:0:0:0:
0,195,260968,2,0,P|15:243|60:275,1,90.9999958343508,2|0,3:2|0:0,0:0:0:0:
212,146,261409,2,0,P|197:194|152:226,1,90.9999958343508,8|2,0:0|0:0,0:0:0:0:
134,0,261850,38,0,B|205:14|205:14|222:42|222:42|313:62,1,181.999991668702,2|8,3:2|0:0,0:0:0:0:
463,194,262512,1,2,0:0:0:0:
483,167,262622,1,2,0:0:0:0:
498,137,262732,1,2,3:2:0:0:
508,104,262842,1,0,0:0:0:0:
512,70,262953,1,2,0:0:0:0:
342,159,263174,1,8,0:0:0:0:
342,159,263284,1,0,0:0:0:0:
342,159,263394,1,2,0:0:0:0:
505,259,263615,70,0,P|496:323|362:379,1,181.999991668702,2|8,3:2|0:0,0:0:0:0:
244,264,264277,1,2,0:2:0:0:
244,264,264387,1,0,0:0:0:0:
244,264,264497,2,0,L|261:375,1,90.9999958343508,2|0,3:2|0:0,0:0:0:0:
429,213,264938,2,0,L|415:123,1,90.9999958343508,8|2,0:0|0:2,0:0:0:0:
180,210,265380,86,0,P|111:212|-14:186,1,181.999991668702,2|8,3:2|0:0,0:0:0:0:
93,0,266041,1,2,0:2:0:0:
101,33,266151,1,2,0:2:0:0:
105,66,266261,1,2,3:2:0:0:
105,101,266371,1,0,0:0:0:0:
101,134,266482,1,2,0:0:0:0:
232,76,266703,1,8,0:0:0:0:
232,76,266813,1,0,0:0:0:0:
232,76,266924,1,2,0:0:0:0:
333,212,267144,37,2,3:2:0:0:
203,247,267365,1,0,0:0:0:0:
193,282,267475,1,0,0:0:0:0:
311,123,267696,1,0,0:0:0:0:
347,120,267806,1,2,0:0:0:0:
380,133,267916,1,0,0:0:0:0:
405,159,268027,1,2,3:2:0:0:
422,190,268137,1,0,0:0:0:0:
423,226,268247,1,0,0:0:0:0:
411,260,268357,1,0,0:0:0:0:
224,161,268578,1,0,0:0:0:0:
188,158,268688,1,0,0:0:0:0:
155,171,268798,1,0,0:0:0:0:
130,197,268909,1,2,3:2:0:0:
275,315,269130,1,0,0:0:0:0:
266,350,269240,1,0,0:0:0:0:
405,159,269461,1,0,0:0:0:0:
380,133,269572,1,2,0:0:0:0:
347,120,269682,1,2,0:0:0:0:
311,123,269792,1,2,3:2:0:0:
282,145,269902,1,0,0:0:0:0:
271,179,270012,1,2,0:0:0:0:
247,206,270122,1,0,0:0:0:0:
210,212,270233,1,8,0:0:0:0:
168,193,270343,1,0,0:0:0:0:
126,173,270453,1,2,0:0:0:0:
112,129,270563,1,0,0:0:0:0:
102,84,270674,22,0,L|203:95,1,90.9999958343508,6|0,3:2|0:0,0:0:0:0:
343,203,271115,1,8,0:0:0:0:
350,99,271336,1,2,0:0:0:0:
350,99,271446,1,2,0:0:0:0:
393,8,271666,1,2,0:0:0:0:
393,8,271777,1,2,0:2:0:0:
247,85,271997,1,8,0:0:0:0:
451,135,272218,1,2,0:0:0:0:
404,282,272438,70,0,L|288:292,1,90.9999958343508,0|0,3:0|0:0,0:0:0:0:
83,225,272880,1,8,0:0:0:0:
176,173,273100,1,2,0:0:0:0:
176,173,273211,1,2,0:0:0:0:
180,272,273431,1,2,0:0:0:0:
180,272,273541,1,2,0:0:0:0:
262,212,273762,1,8,0:0:0:0:
126,90,273983,1,2,0:0:0:0:
126,90,274093,1,0,0:0:0:0:
126,90,274203,22,0,L|119:-7,1,90.9999958343508,0|0,3:2|0:0,0:0:0:0:
315,20,274644,2,0,L|322:117,1,90.9999958343508,8|2,0:0|0:0,0:0:0:0:
306,144,274975,1,2,0:0:0:0:
420,170,275196,1,2,0:0:0:0:
420,170,275306,1,2,0:0:0:0:
394,277,275527,1,8,0:0:0:0:
285,251,275747,1,2,0:0:0:0:
147,293,275968,70,0,L|160:406,1,90.9999958343508,0|0,3:0|0:0,0:0:0:0:
383,359,276409,2,0,L|372:268,1,90.9999958343508,8|2,0:0|0:0,0:0:0:0:
384,233,276740,1,2,0:0:0:0:
419,113,276961,1,2,0:0:0:0:
419,113,277071,1,2,0:0:0:0:
303,80,277291,1,8,0:0:0:0:
268,190,277512,1,2,0:0:0:0:
24,121,277733,21,2,3:2:0:0:
169,71,277953,1,2,0:2:0:0:
173,48,278063,1,2,0:2:0:0:
80,181,278284,1,2,0:2:0:0:
61,43,278505,1,2,0:2:0:0:
57,20,278615,1,2,3:2:0:0:
165,170,278836,1,2,0:2:0:0:
169,193,278946,1,2,0:2:0:0:
93,290,279166,1,2,0:2:0:0:
270,239,279387,1,2,0:2:0:0:
266,216,279497,1,2,3:2:0:0:
181,58,279718,1,2,0:2:0:0:
185,81,279828,1,2,0:2:0:0:
352,181,280049,1,2,0:2:0:0:
427,96,280269,1,2,0:2:0:0:
431,73,280379,1,2,3:2:0:0:
508,149,280600,1,2,0:2:0:0:
512,172,280710,1,2,0:2:0:0:
339,87,280931,1,2,0:2:0:0:
335,64,281041,1,2,0:2:0:0:
331,41,281152,1,2,0:2:0:0:
327,18,281262,70,0,L|222:9,1,90.9999958343508,0|0,3:2|0:0,0:0:0:0:
108,141,281703,2,0,L|198:148,1,90.9999958343508,8|2,0:0|0:0,0:0:0:0:
228,126,282034,1,2,0:0:0:0:
207,249,282255,1,2,0:0:0:0:
207,249,282365,1,2,0:0:0:0:
324,266,282586,1,8,0:0:0:0:
342,145,282806,1,2,0:0:0:0:
491,333,283027,22,0,L|391:354,1,90.9999958343508,0|0,3:2|0:0,0:0:0:0:
326,166,283468,2,0,L|415:147,1,90.9999958343508,8|2,0:0|0:0,0:0:0:0:
435,117,283799,1,2,0:0:0:0:
302,77,284019,1,2,0:0:0:0:
302,77,284130,1,2,0:0:0:0:
175,52,284350,1,8,0:0:0:0:
142,170,284571,1,2,0:0:0:0:
0,131,284791,38,0,P|19:68|35:-12,2,136.499993751526,6|2|2,3:2|0:2|0:2,0:0:0:0:
13,271,285674,2,0,L|118:249,1,90.9999958343508,2|0,3:2|0:0,0:0:0:0:
110,244,286005,2,0,L|215:266,1,90.9999958343508,2|0,0:2|0:0,0:0:0:0:
209,278,286336,1,2,0:2:0:0:
283,367,286556,2,0,P|350:323|347:236,1,136.499993751526,2|2,3:2|0:2,0:0:0:0:
359,271,287218,1,2,0:2:0:0:
283,213,287438,2,0,P|279:171|270:101,1,90.9999958343508,2|0,3:2|0:0,0:0:0:0:
227,53,287880,1,10,0:0:0:0:
328,19,288100,1,2,0:0:0:0:
368,120,288321,53,2,3:2:0:0:
189,179,288541,2,0,P|193:221|202:291,1,90.9999958343508,2|8,0:0|0:0,0:0:0:0:
135,349,288983,1,2,0:2:0:0:
53,304,289203,1,2,3:2:0:0:
53,304,289313,1,0,0:0:0:0:
53,304,289424,1,2,0:2:0:0:
53,304,289534,1,2,0:2:0:0:
53,304,289644,1,8,0:0:0:0:
112,229,289865,1,2,0:2:0:0:
0,177,290086,38,0,L|29:73,1,90.9999958343508,2|0,3:2|0:0,0:0:0:0:
142,19,290527,2,0,L|117:106,1,90.9999958343508,8|2,0:0|0:2,0:0:0:0:
124,123,290858,1,2,0:0:0:0:
230,92,291078,1,2,0:0:0:0:
230,92,291188,1,2,0:2:0:0:
230,92,291299,1,2,0:2:0:0:
230,92,291409,1,10,0:2:0:0:
339,64,291630,1,0,0:0:0:0:
446,166,291850,54,0,P|425:266|409:359,1,181.999991668702,2|8,3:2|0:0,0:0:0:0:
316,384,292512,2,0,P|264:373|216:364,1,90.9999958343508,2|0,0:0|3:2,0:0:0:0:
226,366,292843,1,0,0:0:0:0:
226,366,292953,1,2,0:2:0:0:
207,277,293174,1,8,0:0:0:0:
310,254,293394,1,2,0:0:0:0:
139,348,293615,38,0,P|94:340|49:330,1,90.9999958343508,0|0,3:2|0:0,0:0:0:0:
71,178,294056,2,0,P|115:187|160:195,1,90.9999958343508,8|0,0:0|0:0,0:0:0:0:
176,191,294387,1,2,0:0:0:0:
137,87,294608,1,2,0:0:0:0:
137,87,294718,1,2,0:0:0:0:
137,87,294828,1,2,0:0:0:0:
137,87,294938,1,8,0:0:0:0:
241,48,295159,1,2,0:0:0:0:
297,179,295380,54,0,P|279:250|264:327,2,136.499993751526,0|2|2,3:2|0:0|0:0,0:0:0:0:
339,55,296262,1,0,3:2:0:0:
360,60,296372,1,2,0:0:0:0:
379,74,296482,1,2,0:0:0:0:
391,93,296592,1,0,0:0:0:0:
395,115,296703,1,8,0:0:0:0:
374,228,296924,1,2,0:0:0:0:
493,248,297144,38,0,P|503:203|512:159,1,90.9999958343508,0|0,3:0|0:0,0:0:0:0:
374,228,297586,2,0,P|363:272|354:316,1,90.9999958343508,8|2,0:0|0:0,0:0:0:0:
356,333,297916,1,2,0:0:0:0:
250,355,298137,1,2,0:0:0:0:
250,355,298247,1,2,0:0:0:0:
250,355,298358,1,0,0:0:0:0:
250,355,298468,1,8,0:0:0:0:
143,384,298688,1,2,0:0:0:0:
23,322,298909,54,0,L|41:203,1,90.9999958343508,6|0,3:2|0:0,0:0:0:0:
26,221,299240,2,0,P|57:155|135:161,1,136.499993751526,2|2,0:2|0:2,0:0:0:0:
190,243,299791,1,2,3:2:0:0:
212,246,299901,1,0,0:0:0:0:
234,250,300011,1,0,0:0:0:0:
257,254,300121,1,2,0:2:0:0:
279,259,300233,2,0,L|261:140,1,90.9999958343508,8|2,0:0|0:2,0:0:0:0:
406,26,300674,38,0,P|356:54|326:89,1,90.9999958343508,2|0,3:2|0:0,0:0:0:0:
320,88,301005,2,0,P|288:55|267:15,1,90.9999958343508,2|0,0:2|0:0,0:0:0:0:
252,6,301336,1,2,0:2:0:0:
415,118,301556,2,0,P|456:200|423:290,1,181.999991668702,2|10,3:2|0:0,0:0:0:0:
344,334,302218,1,2,0:0:0:0:
234,250,302438,53,2,3:2:0:0:
145,279,302659,2,0,P|81:297|41:312,2,90.9999958343508,2|8|2,0:0|0:0|0:2,0:0:0:0:
236,162,303321,1,2,3:2:0:0:
226,140,303431,1,0,0:0:0:0:
213,122,303541,1,2,0:2:0:0:
194,110,303651,1,2,0:2:0:0:
172,105,303762,2,0,P|108:87|68:72,1,90.9999958343508,8|2,0:0|0:2,0:0:0:0:
304,5,304203,38,0,L|322:106,1,90.9999958343508,2|0,3:2|0:0,0:0:0:0:
496,101,304644,2,0,L|480:11,1,90.9999958343508,8|2,0:0|0:2,0:0:0:0:
465,0,304975,1,2,0:0:0:0:
410,89,305196,1,0,0:0:0:0:
410,89,305306,1,2,0:2:0:0:
434,190,305527,1,10,0:2:0:0:
434,190,305747,1,0,0:0:0:0:
325,271,305968,54,0,P|208:240|132:227,1,181.999991668702,2|8,3:2|0:0,0:0:0:0:
50,384,306630,2,0,P|13:316|42:215,1,181.999991668702,2|2,0:0|0:2,0:0:0:0:
51,210,307181,1,2,0:2:0:0:
63,203,307291,2,0,L|83:94,1,90.9999958343508,8|2,0:0|0:0,0:0:0:0:
164,18,307733,38,0,P|211:24|277:36,1,90.9999958343508,0|0,3:2|0:0,0:0:0:0:
419,91,308174,2,0,P|374:83|329:77,1,90.9999958343508,8|0,0:0|0:0,0:0:0:0:
315,85,308505,1,2,0:0:0:0:
228,124,308725,1,2,0:0:0:0:
228,124,308836,1,2,0:0:0:0:
294,194,309056,1,8,0:0:0:0:
294,194,309277,1,2,0:0:0:0:
396,301,309497,54,0,P|457:268|489:265,1,90.9999958343508,0|0,3:2|0:0,0:0:0:0:
492,273,309828,2,0,P|516:198|449:144,1,136.499993751526,2|2,0:0|0:0,0:0:0:0:
389,122,310380,1,0,3:2:0:0:
385,144,310490,1,2,0:0:0:0:
381,166,310600,1,2,0:0:0:0:
377,189,310710,1,0,0:0:0:0:
373,211,310821,2,0,L|270:238,1,90.9999958343508,8|2,0:0|0:0,0:0:0:0:
113,274,311262,37,0,3:0:0:0:
113,274,312144,2,0,P|106:254|101:220,2,52.5,2|2|2,0:0|0:0|0:0,0:0:0:0:
36,162,313027,2,0,P|82:139|105:136,1,70,6|0,3:2|0:0,0:0:0:0:
115,57,313688,2,0,P|142:122|362:157,1,315,2|0,0:0|0:0,0:0:0:0:
0,347,327144,86,0,P|46:345|79:345,1,56,2|0,0:0|0:0,0:0:0:0:
79,360,327475,2,0,P|125:357|185:356,1,84,2|2,0:0|0:0,0:0:0:0:
273,366,328027,2,0,L|267:332,1,28,2|0,0:0|0:0,0:0:0:0:
305,376,328247,2,0,P|356:370|435:365,1,112,2|0,0:0|0:0,0:0:0:0:
504,297,328909,2,0,P|502:247|499:224,1,56,2|0,0:0|0:0,0:0:0:0:
493,214,329240,2,0,P|485:148|483:117,1,84,2|0,0:0|0:0,0:0:0:0:
500,107,329681,1,2,0:0:0:0:
509,80,329791,1,2,0:0:0:0:
453,0,330012,1,2,0:0:0:0:
365,45,330233,2,0,L|324:52,2,28,2|0|2,0:0|0:0|0:0,0:0:0:0:
250,16,330674,6,0,P|216:15|191:13,1,56,2|0,0:0|0:0,0:0:0:0:
167,22,331005,2,0,P|119:20|66:12,1,84,2|2,0:0|0:0,0:0:0:0:
7,89,331556,2,0,L|39:85,1,28,2|0,0:0|0:0,0:0:0:0:
19,118,331777,2,0,P|11:157|6:233,1,112,2|0,0:0|0:0,0:0:0:0:
13,328,332438,2,0,P|28:361|88:382,1,84,2|0,0:0|0:0,0:0:0:0:
195,368,333100,1,2,0:0:0:0:
221,357,333211,1,2,0:0:0:0:
248,352,333321,1,2,0:0:0:0:
345,370,333541,1,2,0:0:0:0:
450,361,333762,2,0,L|457:328,2,28,2|0|2,0:0|0:0|0:0,0:0:0:0:
502,265,334203,86,0,P|458:259|422:248,1,56,2|0,0:0|0:0,0:0:0:0:
418,259,334534,2,0,P|372:239|323:221,1,84,2|0,0:0|0:0,0:0:0:0:
235,220,335086,2,0,L|224:250,1,28,2|0,0:0|0:0,0:0:0:0:
222,193,335306,2,0,P|193:174|128:122,1,112,2|0,0:0|0:0,0:0:0:0:
64,54,335968,2,0,P|38:32|-13:-11,1,84,2|0,0:0|0:0,0:0:0:0:
0,0,336630,1,2,0:0:0:0:
0,0,336740,1,2,0:0:0:0:
0,0,336850,1,2,0:0:0:0:
59,92,337071,1,2,0:0:0:0:
153,71,337291,2,0,L|187:45,2,28,2|0|2,0:0|0:0|0:0,0:0:0:0:
211,143,337733,6,0,P|245:182|262:203,1,56,2|0,0:0|0:0,0:0:0:0:
275,182,338063,2,0,P|322:150|354:131,1,84,2|0,0:0|0:0,0:0:0:0:
439,85,338615,1,2,0:0:0:0:
439,85,338725,1,2,0:0:0:0:
439,85,338836,2,0,P|471:50|517:-10,1,112,2|0,0:0|0:0,0:0:0:0:
281,194,339497,2,0,P|253:211|198:245,2,84,2|0|0,0:0|0:0|0:0,0:0:0:0:
292,168,340269,1,2,0:0:0:0:
295,140,340380,1,2,0:0:0:0:
228,258,340600,1,2,0:0:0:0:
132,242,340821,1,2,0:0:0:0:
132,242,340931,1,2,0:0:0:0:
132,242,341041,1,2,0:0:0:0:
21,358,341262,86,0,L|123:387,1,94.499997116089,2|2,3:2|0:0,0:0:0:0:
21,358,341924,1,2,0:2:0:0:
5,248,342144,1,2,0:2:0:0:
5,248,342255,2,0,P|1:200|-4:166,1,62.9999980773926,8|0,0:0|3:0,0:0:0:0:
9,172,342586,1,8,0:0:0:0:
21,158,342696,2,0,P|19:134|16:117,2,31.4999990386963,0|8|0,3:0|0:0|3:0,0:0:0:0:
8,24,343027,86,0,P|62:26|111:91,1,125.999996154785,10|8,0:0|0:0,0:0:0:0:
121,179,343688,1,2,0:0:0:0:
121,179,343799,1,10,0:0:0:0:
121,179,343909,1,2,3:2:0:0:
291,109,344130,1,10,3:2:0:0:
183,65,344350,2,0,L|195:117,1,31.4999990386963,0|0,3:2|3:2,0:0:0:0:
212,174,344571,1,10,0:0:0:0:
379,92,344791,6,0,L|400:-14,1,94.499997116089,2|0,3:2|0:0,0:0:0:0:
379,92,345453,1,2,3:2:0:0:
512,148,345673,1,2,0:2:0:0:
512,148,345784,2,0,P|470:168|444:184,1,62.9999980773926,8|0,0:0|3:0,0:0:0:0:
448,187,346115,1,8,0:0:0:0:
441,201,346225,2,0,L|461:243,2,31.4999990386963,0|0|8,3:0|3:0|0:0,0:0:0:0:
327,300,346556,86,0,P|342:235|354:163,1,125.999996154785,2|8,3:2|0:0,0:0:0:0:
291,109,347218,1,2,3:2:0:0:
291,109,347328,1,10,0:0:0:0:
291,109,347438,1,2,3:2:0:0:
223,254,347659,1,10,3:2:0:0:
129,188,347880,2,0,L|121:144,1,31.4999990386963,0|0,3:0|3:0,0:0:0:0:
112,77,348100,1,10,0:0:0:0:
223,254,348321,6,0,P|165:283|139:365,1,140,2|8,3:2|0:0,0:0:0:0:
251,361,348983,1,2,3:2:0:0:
251,361,349093,1,8,0:0:0:0:
251,361,349203,2,0,L|312:377,1,35,2|0,0:2|0:0,0:0:0:0:
359,342,349424,2,0,L|375:281,1,35,0|0,3:0|3:0,0:0:0:0:
460,252,349644,1,8,0:0:0:0:
455,235,349754,1,0,3:0:0:0:
451,218,349864,1,0,3:0:0:0:
446,201,349974,1,8,0:0:0:0:
442,184,350086,86,0,L|282:157,1,140,2|8,3:2|0:0,0:0:0:0:
197,95,350747,1,2,3:2:0:0:
189,60,350857,1,10,0:2:0:0:
182,26,350967,1,2,3:2:0:0:
277,45,351188,1,10,3:2:0:0:
154,176,351409,1,0,3:0:0:0:
138,167,351519,1,0,3:0:0:0:
123,159,351629,1,10,0:0:0:0:
106,154,351739,1,0,3:0:0:0:
89,150,351850,5,2,3:2:0:0:
89,150,352071,1,0,3:0:0:0:
0,68,352291,2,0,L|20:-16,1,70,8|2,0:0|3:2,0:0:0:0:
33,2,352622,1,8,0:0:0:0:
52,9,352733,2,0,P|88:21|98:26,3,35,2|0|0|0,0:2|0:0|3:0|3:0,0:0:0:0:
170,51,353174,2,0,P|176:34|181:17,1,35,8|0,0:0|3:0,0:0:0:0:
78,116,353394,2,0,P|82:132|88:149,1,35,0|8,3:0|0:0,0:0:0:0:
190,256,353615,6,0,L|368:215,1,154.000004699707,2|8,3:2|0:0,0:0:0:0:
451,307,354277,1,2,3:2:0:0:
451,307,354387,1,10,0:2:0:0:
451,307,354497,1,2,3:2:0:0:
504,177,354718,1,10,3:2:0:0:
280,342,354938,2,0,P|225:120|215:102,1,210,8|0,0:0|0:0,0:0:0:0:
254,46,355380,54,0,L|426:85,1,168,6|0,3:2|0:0,0:0:0:0:
425,96,355821,2,0,P|489:75|516:70,1,90.9999958343508,8|0,0:0|0:0,0:0:0:0:
382,254,356262,2,0,P|338:239|294:229,1,90.9999958343508,2|0,3:2|0:0,0:0:0:0:
112,324,356703,1,8,0:0:0:0:
227,162,356924,1,2,0:0:0:0:
20,141,357144,2,0,P|107:194|184:254,1,181.999991668702,2|8,3:2|0:0,0:0:0:0:
186,384,357806,1,2,0:0:0:0:
208,378,357916,1,2,0:0:0:0:
230,373,358027,2,0,L|242:313,1,45.4999979171754,2|0,3:2|0:0,0:0:0:0:
302,209,358247,2,0,L|310:253,1,45.4999979171754,2|0,0:0|0:0,0:0:0:0:
419,384,358469,1,8,0:0:0:0:
452,377,358579,1,0,0:0:0:0:
479,357,358689,1,2,0:0:0:0:
494,327,358799,1,0,0:0:0:0:
494,293,358909,54,0,P|479:216|527:103,1,181.999991668702,2|8,3:2|0:0,0:0:0:0:
361,26,359571,1,2,0:0:0:0:
361,26,359681,1,2,0:0:0:0:
361,26,359791,2,0,L|376:123,1,90.9999958343508,2|0,3:2|0:0,0:0:0:0:
389,213,360233,1,10,0:0:0:0:
214,146,360453,53,2,0:0:0:0:
215,134,360563,1,0,0:0:0:0:
217,123,360673,1,2,3:2:0:0:
219,112,360783,1,0,0:0:0:0:
220,101,360894,1,2,0:0:0:0:
102,17,361115,1,10,0:0:0:0:
29,72,361336,1,2,0:0:0:0:
25,94,361446,1,2,0:0:0:0:
22,116,361556,1,2,3:2:0:0:
18,139,361666,1,0,0:0:0:0:
15,161,361777,2,0,P|67:169|112:181,1,90.9999958343508,2|8,0:0|0:0,0:0:0:0:
163,274,362218,1,2,0:0:0:0:
313,180,362438,86,0,P|323:92|338:-10,1,181.999991668702,2|8,3:2|0:0,0:0:0:0:
482,115,363100,1,2,0:0:0:0:
401,195,363321,1,2,3:2:0:0:
393,216,363431,1,0,0:0:0:0:
393,239,363541,1,0,0:0:0:0:
398,261,363651,1,0,0:0:0:0:
410,280,363762,2,0,P|476:265|512:261,1,90.9999958343508,8|0,0:0|0:0,0:0:0:0:
330,380,364203,54,0,P|285:373|240:362,1,90.9999958343508,2|0,3:2|0:0,0:0:0:0:
230,351,364534,1,0,0:0:0:0:
218,336,364644,1,8,0:0:0:0:
211,173,364865,1,2,0:2:0:0:
244,178,364975,1,2,0:2:0:0:
272,197,365085,1,2,3:2:0:0:
290,226,365195,1,2,0:0:0:0:
294,260,365306,1,2,0:0:0:0:
139,341,365527,2,0,L|127:286,1,45.4999979171754,10|0,0:0|0:0,0:0:0:0:
121,291,365747,2,0,L|66:279,1,45.4999979171754,2|0,0:0|0:0,0:0:0:0:
1,197,365968,53,2,3:2:0:0:
57,82,366188,1,2,0:0:0:0:
62,104,366299,1,2,0:0:0:0:
177,206,366519,1,2,0:0:0:0:
182,184,366630,1,2,0:0:0:0:
216,154,366740,1,2,0:0:0:0:
210,132,366851,1,2,3:2:0:0:
328,50,367071,1,2,0:0:0:0:
323,72,367182,1,2,0:0:0:0:
385,197,367402,1,2,0:0:0:0:
407,192,367513,1,2,0:0:0:0:
437,158,367623,1,2,0:0:0:0:
459,164,367733,2,0,L|484:264,1,90.9999958343508,2|2,3:2|0:0,0:0:0:0:
477,271,368063,1,2,0:0:0:0:
472,293,368174,1,10,0:0:0:0:
361,384,368394,1,2,0:0:0:0:
345,353,368504,1,2,0:0:0:0:
319,331,368614,1,2,3:2:0:0:
287,320,368724,1,0,0:0:0:0:
253,322,368835,1,2,0:0:0:0:
136,383,369056,2,0,L|126:323,1,45.4999979171754,10|2,0:0|0:0,0:0:0:0:
222,243,369277,2,0,L|232:183,1,45.4999979171754,2|2,0:0|0:0,0:0:0:0:
147,63,369497,86,0,P|236:82|351:82,1,181.999991668702,6|8,3:2|0:0,0:0:0:0:
450,37,370159,1,2,0:0:0:0:
450,37,370269,1,0,0:0:0:0:
450,37,370380,2,0,L|464:118,2,45.4999979171754,2|0|0,3:2|0:0|0:0,0:0:0:0:
366,259,370821,2,0,L|376:147,1,90.9999958343508,10|0,0:0|0:0,0:0:0:0:
181,153,371262,54,0,P|120:147|-38:152,1,181.999991668702,2|8,3:2|0:0,0:0:0:0:
106,0,371924,1,2,0:2:0:0:
105,31,372034,1,2,0:2:0:0:
102,62,372144,1,2,0:2:0:0:
99,93,372255,1,0,0:0:0:0:
94,124,372365,1,2,0:0:0:0:
188,255,372586,2,0,P|246:253|283:253,1,90.9999958343508,8|2,0:0|0:0,0:0:0:0:
43,384,373027,54,0,L|68:198,1,181.999991668702,2|8,3:2|0:0,0:0:0:0:
221,73,373688,1,2,0:0:0:0:
221,73,373799,1,2,0:0:0:0:
221,73,373909,2,0,P|228:144|226:188,1,90.9999958343508,2|0,3:2|0:0,0:0:0:0:
219,301,374350,1,8,0:0:0:0:
330,274,374571,2,0,P|380:271|471:269,1,136.499993751526,2|0,0:0|0:0,0:0:0:0:
488,245,375012,86,0,L|479:143,1,90.9999958343508,2|8,0:0|0:0,0:0:0:0:
387,9,375453,1,2,0:0:0:0:
387,9,375563,1,2,0:0:0:0:
387,9,375674,1,2,0:0:0:0:
286,112,375894,2,0,L|344:103,1,45.4999979171754,2|0,0:0|0:0,0:0:0:0:
205,83,376115,2,0,L|151:63,1,45.4999979171754,8|0,0:0|0:0,0:0:0:0:
222,161,376336,2,0,L|204:210,1,45.4999979171754,2|0,0:0|0:0,0:0:0:0:
24,115,376556,54,0,P|16:179|19:305,1,181.999991668702,2|8,3:2|0:0,0:0:0:0:
148,384,377218,1,2,0:2:0:0:
149,352,377328,1,0,0:0:0:0:
151,320,377438,1,2,0:2:0:0:
150,287,377549,1,0,0:0:0:0:
148,255,377659,1,0,0:0:0:0:
344,308,377880,2,0,P|269:303|237:304,1,90.9999958343508,8|2,0:2|0:2,0:0:0:0:
390,146,378321,54,0,P|413:207|531:256,1,181.999991668702,2|8,3:2|0:0,0:0:0:0:
300,76,378983,1,2,0:2:0:0:
299,108,379093,1,2,0:2:0:0:
297,140,379203,1,2,3:2:0:0:
298,173,379314,1,0,0:0:0:0:
300,205,379424,1,2,0:0:0:0:
479,90,379644,2,0,P|478:26|471:-26,1,90.9999958343508,8|2,0:0|0:0,0:0:0:0:
192,143,380086,85,2,3:2:0:0:
192,143,380527,1,8,0:0:0:0:
117,7,380747,2,0,P|98:72|-16:111,1,181.999991668702,2|0,0:0|0:0,0:0:0:0:
82,263,381409,1,8,0:0:0:0:
113,262,381519,1,0,0:0:0:0:
145,261,381630,1,0,0:0:0:0:
176,260,381740,1,0,0:0:0:0:
207,261,381850,54,0,L|300:274,1,90.9999958343508,2|0,3:2|0:0,0:0:0:0:
163,160,382291,2,0,L|72:147,1,90.9999958343508,8|2,0:0|0:0,0:0:0:0:
268,153,382733,2,0,L|277:91,3,45.4999979171754,2|0|2|0,3:2|0:0|0:0|0:0,0:0:0:0:
304,89,383174,2,0,L|324:-24,1,90.9999958343508,8|2,0:0|0:0,0:0:0:0:
423,241,383615,22,0,B|424:258|424:258|391:325|391:325|433:302|433:302|466:350,1,157.500006008148,14|0,0:3|0:0,0:0:0:0:
512,278,384056,2,0,P|416:303|265:225,1,262.5,10|0,0:3|0:0,0:0:0:0:
264,152,384497,1,10,0:3:0:0:
138,49,384718,1,10,0:3:0:0:
152,90,384828,1,10,0:3:0:0:
123,230,385049,1,10,0:3:0:0:
151,197,385159,1,10,0:3:0:0:
443,0,385380,86,0,B|365:36|416:59|295:111,1,157.500006008148,10|0,0:3|0:0,0:0:0:0:
259,19,385821,2,0,P|422:42|472:148,1,262.5,10|0,0:3|0:0,0:0:0:0:
473,236,386262,1,10,0:3:0:0:
429,236,386372,1,0,0:0:0:0:
412,195,386483,1,10,0:3:0:0:
397,153,386593,1,10,0:3:0:0:
245,225,386813,1,10,0:3:0:0:
227,265,386924,1,10,0:3:0:0:
186,282,387034,1,10,0:3:0:0:
146,297,387144,86,0,B|100:292|100:292|76:227|76:227|108:177,1,157.500006008148,10|0,0:3|0:0,0:0:0:0:
5,299,387586,2,0,B|121:262|121:262|236:342,1,262.5,10|0,0:3|0:0,0:0:0:0:
236,342,388027,1,10,0:3:0:0:
96,349,388247,1,10,0:3:0:0:
55,364,388358,1,10,0:3:0:0:
173,202,388578,1,10,0:3:0:0:
165,157,388689,1,10,0:3:0:0:
417,335,388909,22,0,B|417:383|548:405|571:260|485:256|505:367,1,210,10|0,0:3|0:0,0:0:0:0:
499,219,389350,2,0,P|479:320|294:347,1,262.5,10|0,0:3|0:0,0:0:0:0:
263,350,389791,1,10,0:3:0:0:
254,298,389902,1,0,0:0:0:0:
244,246,390012,1,10,0:3:0:0:
201,234,390122,1,10,0:3:0:0:
313,174,390343,1,10,0:3:0:0:
288,127,390453,1,10,0:3:0:0:
297,75,390563,1,10,0:3:0:0:
307,23,390674,86,0,P|175:88|147:145,1,178.500003404617,10|0,0:3|0:0,0:0:0:0:
287,307,391115,2,0,P|419:242|447:185,1,178.500003404617,10|0,0:3|0:0,0:0:0:0:
415,92,391556,2,0,L|474:57,2,59.5000011348725,10|0|10,0:3|0:0|0:3,0:0:0:0:
328,148,391887,2,0,L|271:180,1,59.5000011348725,10|0,0:3|0:0,0:0:0:0:
182,227,392108,1,10,0:3:0:0:
182,227,392218,2,0,L|123:262,1,59.5000011348725,10|10,0:3|0:3,0:0:0:0:
0,168,392438,86,0,P|9:240|4:386,1,178.500003404617,10|0,0:3|0:0,0:0:0:0:
336,325,392880,2,0,P|327:253|332:107,1,178.500003404617,10|0,0:3|0:0,0:0:0:0:
162,64,393321,2,0,L|166:145,1,59.5000011348725,10|0,0:3|0:0,0:0:0:0:
50,281,393541,1,10,0:3:0:0:
50,281,393652,2,0,L|105:233,1,59.5000011348725,10|0,0:3|0:0,0:0:0:0:
298,251,393872,1,10,0:3:0:0:
298,251,393983,2,0,L|228:227,1,59.5000011348725,10|10,0:3|0:3,0:0:0:0:
69,115,394203,21,10,0:3:0:0:
56,81,394313,1,0,0:0:0:0:
53,45,394424,1,0,0:0:0:0:
298,251,394644,1,10,0:3:0:0:
311,285,394754,1,0,0:0:0:0:
314,321,394865,1,0,0:0:0:0:
94,241,395086,1,10,0:3:0:0:
59,247,395196,1,0,0:0:0:0:
280,121,395416,1,10,0:3:0:0:
315,115,395526,1,0,0:0:0:0:
185,169,395747,2,0,L|198:231,1,59.5000011348725,10|10,0:3|0:3,0:0:0:0:
376,372,395968,86,0,L|444:359,3,45.4999979171754,10|0|0|0,0:3|0:0|0:0|0:0,0:0:0:0:
510,204,396409,2,0,L|437:190,3,45.4999979171754,10|0|0|0,0:3|0:0|0:0|0:0,0:0:0:0:
400,271,396850,1,10,0:3:0:0:
366,99,397071,1,10,0:3:0:0:
366,99,397181,1,10,0:3:0:0:
366,99,397291,2,0,L|354:34,2,35,8|8|8,0:3|0:3|0:3,0:0:0:0:
275,45,397512,2,0,L|263:-20,2,35,8|0|8,0:3|0:0|0:3,0:0:0:0:
317,234,397733,22,0,B|197:197|288:157|80:98,1,262.5,12|2,0:3|0:0,0:0:0:0:
25,29,398174,2,0,L|67:203,1,175,10|0,0:3|0:0,0:0:0:0:
116,262,398505,1,2,0:0:0:0:
99,289,398615,2,0,P|57:300|10:326,1,52.5000020027161,10|0,0:3|0:0,0:0:0:0:
184,367,398836,1,10,0:3:0:0:
157,384,398946,2,0,P|114:376|60:379,1,52.5000020027161,10|0,0:3|0:0,0:0:0:0:
201,189,399167,1,10,0:3:0:0:
218,216,399277,2,0,P|210:258|213:312,1,52.5000020027161,10|10,0:3|0:3,0:0:0:0:
366,372,399497,86,0,P|396:273|272:162,1,262.5,10|2,0:3|0:0,0:0:0:0:
229,67,399938,2,0,P|299:142|457:90,1,262.5,10|2,0:3|0:0,0:0:0:0:
410,39,400380,2,0,L|461:29,1,52.5000020027161,10|0,0:3|0:0,0:0:0:0:
474,224,400600,1,10,0:3:0:0:
457,197,400711,2,0,L|366:181,1,52.5000020027161,10|0,0:3|0:0,0:0:0:0:
297,103,400931,1,10,0:3:0:0:
280,76,401042,2,0,L|189:60,1,52.5000020027161,10|10,0:3|0:3,0:0:0:0:
0,53,401262,86,0,B|55:310|93:197|127:375,2,350,10|10|10,0:3|0:3|0:3,0:0:0:0:
191,291,402365,1,10,0:3:0:0:
214,269,402476,2,0,L|225:201,1,52.5000020027161,10|2,0:3|0:0,0:0:0:0:
300,355,402696,1,10,0:3:0:0:
323,333,402807,2,0,L|334:265,1,52.5000020027161,10|10,0:3|0:3,0:0:0:0:
438,91,403027,22,0,P|332:127|300:187,1,157.500006008148,10|0,0:3|0:0,0:0:0:0:
372,208,403468,2,0,P|478:244|510:304,1,157.500006008148,10|2,0:3|0:0,0:0:0:0:
478,354,403909,2,0,L|469:297,1,52.5000020027161,10|0,0:3|0:0,0:0:0:0:
291,294,404130,1,10,0:3:0:0:
291,294,404240,2,0,L|300:237,1,52.5000020027161,10|10,0:3|0:3,0:0:0:0:
133,367,404461,1,10,0:3:0:0:
133,367,404571,1,10,0:3:0:0:
133,367,404681,1,10,0:3:0:0:
133,367,404791,86,0,P|112:252|14:110,1,262.5,10|2,0:3|0:0,0:0:0:0:
16,32,405233,2,0,B|137:54|86:92|186:116,1,175,10|2,0:3|0:0,0:0:0:0:
238,73,405563,1,2,0:0:0:0:
261,51,405674,2,0,L|248:-35,1,52.5000020027161,10|0,0:3|0:0,0:0:0:0:
113,10,405894,1,10,0:3:0:0:
90,32,406005,2,0,L|103:118,1,52.5000020027161,10|2,0:3|0:0,0:0:0:0:
311,170,406225,1,10,0:3:0:0:
289,147,406336,2,0,L|203:160,1,52.5000020027161,10|10,0:3|0:3,0:0:0:0:
16,259,406556,86,0,P|109:269|306:385,1,262.5,10|2,0:3|0:0,0:0:0:0:
346,373,406997,2,0,P|414:336|383:238,1,175,10|2,0:3|0:0,0:0:0:0:
335,205,407328,1,2,0:0:0:0:
312,227,407439,2,0,L|325:313,1,52.5000020027161,10|0,0:3|0:0,0:0:0:0:
453,105,407659,1,10,0:3:0:0:
422,115,407770,2,0,L|397:198,1,52.5000020027161,10|2,0:3|0:0,0:0:0:0:
491,329,407990,1,10,0:3:0:0:
466,307,408101,2,0,L|381:327,1,52.5000020027161,10|10,0:3|0:3,0:0:0:0:
197,367,408321,22,0,B|70:334|58:310|94:161,1,262.5,10|2,0:3|0:0,0:0:0:0:
92,167,408762,1,10,0:3:0:0:
122,173,408872,1,2,0:0:0:0:
153,180,408982,1,2,0:0:0:0:
184,187,409092,1,2,0:0:0:0:
215,193,409203,2,0,L|202:272,1,52.5000020027161,10|0,0:3|0:0,0:0:0:0:
237,53,409424,1,10,0:3:0:0:
206,59,409535,2,0,L|219:138,1,52.5000020027161,10|10,0:3|0:3,0:0:0:0:
270,321,409755,1,10,0:3:0:0:
270,321,409865,1,10,0:3:0:0:
270,321,409975,1,10,0:3:0:0:
270,321,410086,38,0,B|301:329|301:329|304:340|304:340|336:348,3,70,6|2|2|2,0:2|0:0|0:0|0:0,0:0:0:0:
496,40,411850,22,0,L|326:78,1,157.500006008148,6|0,3:2|0:0,0:0:0:0:
333,85,412291,1,8,0:0:0:0:
227,161,412512,1,2,0:0:0:0:
112,0,412733,2,0,P|76:63|98:124,1,125.999996154785,2|0,3:2|0:0,0:0:0:0:
101,119,413174,1,8,0:0:0:0:
223,39,413394,1,2,0:0:0:0:
192,231,413615,70,0,L|11:265,1,167.999994873047,2|8,3:2|0:0,0:0:0:0:
235,304,414277,1,2,0:0:0:0:
254,296,414387,1,2,0:0:0:0:
269,281,414497,1,2,3:2:0:0:
277,262,414607,1,0,0:0:0:0:
278,241,414718,1,2,0:0:0:0:
151,319,414938,2,0,P|159:348|164:382,1,41.9999987182618,8|0,0:0|0:0,0:0:0:0:
39,320,415159,2,0,P|34:299|28:279,1,41.9999987182618,2|0,0:0|0:0,0:0:0:0:
82,123,415380,86,0,P|192:151|270:176,1,167.999994873047,2|8,3:2|0:0,0:0:0:0:
358,250,416041,2,0,L|373:196,1,41.9999987182618,2|2,0:0|0:0,0:0:0:0:
437,162,416262,1,2,3:2:0:0:
431,141,416372,1,0,0:0:0:0:
425,121,416482,1,0,0:0:0:0:
397,22,416703,1,8,0:2:0:0:
512,122,416924,1,2,0:0:0:0:
351,259,417144,38,0,P|289:198|281:98,1,167.999994873047,2|10,3:2|0:2,0:0:0:0:
459,240,417806,1,2,0:0:0:0:
480,246,417916,1,2,0:0:0:0:
500,252,418027,2,0,L|488:310,1,41.9999987182618,2|0,3:2|0:0,0:0:0:0:
432,383,418247,2,0,L|423:341,1,41.9999987182618,2|0,0:0|0:0,0:0:0:0:
307,325,418468,2,0,L|299:367,1,41.9999987182618,8|0,0:0|0:0,0:0:0:0:
370,159,418688,2,0,L|328:168,1,41.9999987182618,2|0,0:0|0:0,0:0:0:0:
209,193,418909,70,0,P|327:221|363:265,1,167.999994873047,2|8,3:2|0:0,0:0:0:0:
228,304,419571,2,0,L|186:312,1,41.9999987182618,2|0,0:0|0:0,0:0:0:0:
126,364,419791,1,2,3:2:0:0:
105,360,419901,1,0,0:0:0:0:
84,356,420011,1,0,0:0:0:0:
63,352,420123,1,0,0:0:0:0:
42,348,420233,2,0,L|24:265,1,83.9999974365235,8|2,0:0|0:0,0:0:0:0:
143,44,420674,86,0,L|106:220,1,167.999994873047,2|8,3:2|0:0,0:0:0:0:
251,96,421336,1,2,0:0:0:0:
253,75,421446,1,2,0:0:0:0:
251,54,421556,1,2,3:2:0:0:
244,34,421666,1,0,0:0:0:0:
233,17,421777,1,2,0:0:0:0:
94,117,421997,2,0,L|24:130,1,41.9999987182618,8|0,0:0|0:0,0:0:0:0:
216,173,422218,2,0,L|286:186,1,41.9999987182618,2|0,0:0|0:0,0:0:0:0:
316,249,422438,37,2,3:2:0:0:
457,101,422659,1,2,0:0:0:0:
447,76,422769,1,2,0:0:0:0:
425,256,422990,1,2,0:0:0:0:
415,231,423100,1,2,0:0:0:0:
405,206,423211,1,2,0:0:0:0:
395,181,423321,1,2,3:2:0:0:
385,157,423431,1,0,0:0:0:0:
361,148,423541,1,2,0:0:0:0:
336,138,423651,1,2,0:0:0:0:
141,288,423872,1,2,0:0:0:0:
166,278,423982,1,2,0:0:0:0:
191,268,424093,1,0,0:0:0:0:
216,258,424203,1,2,3:2:0:0:
303,159,424424,2,0,L|291:86,1,41.9999987182618,2|0,0:2|0:0,0:0:0:0:
202,92,424644,2,0,L|214:19,1,41.9999987182618,10|0,0:2|0:0,0:0:0:0:
293,4,424865,1,2,0:0:0:0:
161,178,425086,2,0,P|95:196|48:219,1,83.9999974365235,2|2,3:2|0:0,0:0:0:0:
68,218,425416,1,0,0:0:0:0:
56,241,425527,1,8,0:0:0:0:
72,64,425747,1,2,0:0:0:0:
59,48,425858,1,0,0:0:0:0:
47,25,425968,70,0,P|128:18|190:14,1,125.999996154785,4|0,3:2|0:0,0:0:0:0:
224,77,426409,2,0,P|212:110|207:148,1,41.9999987182618,8|0,0:0|0:0,0:0:0:0:
306,216,426630,1,2,0:0:0:0:
306,216,426740,1,0,0:0:0:0:
306,216,426850,2,0,P|372:210|411:208,1,83.9999974365235,2|0,3:2|0:0,0:0:0:0:
474,68,427291,2,0,P|408:74|369:76,1,83.9999974365235,8|2,0:0|0:0,0:0:0:0:
220,261,427733,86,0,P|158:251|93:148,1,167.999994873047,2|8,3:2|0:0,0:0:0:0:
111,21,428394,1,2,0:0:0:0:
89,43,428504,1,2,0:0:0:0:
62,59,428614,1,2,3:2:0:0:
32,67,428724,1,0,0:0:0:0:
0,65,428835,1,2,0:0:0:0:
95,172,429056,1,8,0:0:0:0:
117,194,429166,1,0,0:0:0:0:
133,221,429276,1,2,0:0:0:0:
141,251,429386,1,0,0:0:0:0:
139,283,429497,38,0,B|32:294|78:326|-30:336,1,167.999994873047,2|8,3:2|0:0,0:0:0:0:
136,384,430159,1,2,0:0:0:0:
136,384,430269,1,2,0:0:0:0:
136,384,430380,2,0,P|214:375|254:368,1,83.9999974365235,2|0,3:2|0:0,0:0:0:0:
242,192,430821,2,0,P|233:262|230:292,1,83.9999974365235,8|2,0:2|0:0,0:0:0:0:
412,374,431262,70,0,P|468:361|505:241,1,167.999994873047,2|10,3:2|0:2,0:0:0:0:
354,69,431924,1,2,0:0:0:0:
354,69,432034,1,2,0:0:0:0:
354,69,432144,1,2,3:2:0:0:
424,137,432365,2,0,L|404:200,1,41.9999987182618,2|0,0:0|0:0,0:0:0:0:
252,148,432586,2,0,L|323:136,1,41.9999987182618,8|0,0:0|0:0,0:0:0:0:
444,0,432806,2,0,L|453:66,1,41.9999987182618,2|0,0:0|0:0,0:0:0:0:
279,244,433027,86,0,P|209:235|104:231,1,167.999994873047,0|10,3:2|0:2,0:0:0:0:
0,100,433688,1,2,0:0:0:0:
0,100,433799,1,2,0:0:0:0:
0,100,433909,2,0,P|55:105|88:110,1,83.9999974365235,2|2,3:2|0:0,0:0:0:0:
247,47,434350,2,0,P|192:42|159:37,1,83.9999974365235,8|2,0:0|0:0,0:0:0:0:
90,217,434791,38,0,P|90:277|88:385,1,167.999994873047,2|8,3:2|0:0,0:0:0:0:
297,372,435453,1,2,0:0:0:0:
278,346,435563,1,2,0:0:0:0:
254,326,435673,1,2,3:2:0:0:
226,312,435783,1,0,0:0:0:0:
195,305,435894,1,2,0:0:0:0:
287,141,436115,1,8,0:0:0:0:
306,167,436225,1,0,0:0:0:0:
330,187,436335,1,2,0:0:0:0:
358,201,436445,1,0,0:0:0:0:
389,208,436556,69,2,3:2:0:0:
481,129,436777,1,2,0:2:0:0:
485,100,436887,1,2,0:2:0:0:
363,2,437108,1,2,0:2:0:0:
365,31,437218,1,2,0:2:0:0:
367,60,437328,1,2,0:2:0:0:
370,89,437438,1,2,3:2:0:0:
303,159,437659,1,2,0:2:0:0:
274,155,437769,1,2,0:2:0:0:
117,68,437990,1,2,0:2:0:0:
115,97,438100,1,2,0:2:0:0:
113,126,438210,1,2,0:2:0:0:
110,155,438320,1,2,3:2:0:0:
177,225,438541,1,2,0:2:0:0:
206,221,438651,1,2,0:2:0:0:
301,349,438872,1,2,0:2:0:0:
272,347,438982,1,2,0:2:0:0:
243,345,439092,1,2,0:2:0:0:
214,342,439202,85,2,3:2:0:0:
180,349,439313,1,0,0:0:0:0:
147,341,439424,1,2,0:2:0:0:
124,316,439534,1,2,0:2:0:0:
118,282,439644,1,10,0:2:0:0:
114,248,439755,1,2,0:2:0:0:
96,219,439865,1,2,0:2:0:0:
64,206,439975,1,2,0:2:0:0:
30,212,440086,37,6,3:2:0:0:
30,212,440527,1,8,0:0:0:0:
41,335,440747,1,0,0:0:0:0:
164,319,440968,2,0,P|217:311|268:302,1,83.9999974365235,2|0,3:2|0:0,0:0:0:0:
259,177,441409,2,0,P|217:183|176:190,1,83.9999974365235,8|2,0:0|0:0,0:0:0:0:
372,384,441850,54,0,L|408:212,1,167.999994873047,2|8,3:2|0:0,0:0:0:0:
499,140,442512,1,2,0:0:0:0:
499,140,442622,1,2,0:0:0:0:
499,140,442733,1,2,3:2:0:0:
414,74,442953,1,2,0:0:0:0:
311,114,443174,1,8,0:0:0:0:
220,54,443394,1,2,0:0:0:0:
99,107,443615,37,2,3:2:0:0:
99,107,444056,1,8,0:0:0:0:
212,52,444277,1,2,0:0:0:0:
206,82,444387,1,2,0:0:0:0:
200,113,444497,1,2,3:2:0:0:
195,144,444607,1,0,0:0:0:0:
189,175,444718,1,0,0:0:0:0:
304,235,444938,2,0,L|293:148,1,83.9999974365235,10|2,0:0|0:0,0:0:0:0:
68,191,445380,54,0,P|20:238|7:358,1,167.999994873047,2|10,3:2|0:0,0:0:0:0:
216,308,446041,1,2,0:0:0:0:
185,302,446152,1,2,0:0:0:0:
154,297,446262,1,2,3:2:0:0:
123,291,446372,1,0,0:0:0:0:
93,285,446482,1,2,0:0:0:0:
196,201,446703,1,8,0:0:0:0:
309,243,446924,1,2,0:0:0:0:
442,165,447144,38,0,P|455:112|449:-18,1,167.999994873047,2|8,3:2|0:0,0:0:0:0:
286,90,447806,1,2,0:0:0:0:
286,90,447916,1,0,0:0:0:0:
286,90,448027,2,0,L|371:81,1,83.9999974365235,2|0,3:2|0:0,0:0:0:0:
342,229,448468,1,8,0:0:0:0:
235,168,448688,1,0,0:0:0:0:
125,225,448909,53,2,3:2:0:0:
125,225,449350,1,8,0:0:0:0:
15,154,449571,1,2,0:2:0:0:
11,122,449681,1,2,0:2:0:0:
7,91,449791,1,2,3:2:0:0:
4,60,449901,1,2,0:0:0:0:
0,28,450012,1,2,0:0:0:0:
144,0,450233,2,0,L|125:93,1,83.9999974365235,10|2,0:0|0:0,0:0:0:0:
235,168,450674,37,2,3:2:0:0:
308,105,450894,1,2,0:0:0:0:
340,95,451005,1,2,0:0:0:0:
290,250,451225,1,2,0:0:0:0:
295,283,451336,1,2,0:0:0:0:
300,316,451446,1,2,0:0:0:0:
306,348,451556,1,2,3:2:0:0:
173,239,451777,1,2,0:0:0:0:
141,249,451888,1,2,0:0:0:0:
167,111,452108,1,2,0:0:0:0:
162,78,452219,1,2,0:0:0:0:
157,45,452329,1,2,0:0:0:0:
151,13,452439,1,2,3:2:0:0:
308,105,452659,1,2,0:0:0:0:
340,95,452770,1,2,0:0:0:0:
306,348,452990,1,0,0:0:0:0:
300,316,453100,1,2,0:0:0:0:
295,283,453210,1,2,0:0:0:0:
290,250,453321,1,2,3:2:0:0:
235,168,453541,1,2,0:0:0:0:
118,256,453762,1,10,0:0:0:0:
87,262,453872,1,2,0:0:0:0:
56,256,453982,1,2,0:0:0:0:
30,238,454092,1,2,0:0:0:0:
14,212,454203,54,0,L|48:26,1,167.999994873047,6|8,3:2|0:0,0:0:0:0:
179,36,454865,1,2,0:0:0:0:
198,43,454975,1,0,0:0:0:0:
218,50,455086,2,0,P|207:106|199:146,2,83.9999974365235,2|0|10,3:2|0:0|0:0,0:0:0:0:
210,254,455747,2,0,L|276:241,1,41.9999987182618
327,117,455968,38,0,P|390:156|413:232,1,125.999996154785,2|0,3:2|0:0,0:0:0:0:
399,211,456409,2,0,L|500:234,1,83.9999974365235,8|2,0:0|0:2,0:0:0:0:
490,239,456740,1,2,0:2:0:0:
498,250,456850,2,0,L|486:302,1,41.9999987182618,2|0,0:2|0:0,0:0:0:0:
401,340,457071,2,0,L|412:392,1,41.9999987182618,2|0,0:0|0:0,0:0:0:0:
259,379,457291,1,8,0:0:0:0:
263,358,457401,1,0,0:0:0:0:
268,338,457511,1,2,0:0:0:0:
272,317,457621,1,0,0:0:0:0:
277,297,457733,54,0,B|173:307|217:342|108:355,1,167.999994873047,2|8,3:2|0:0,0:0:0:0:
30,206,458394,2,0,L|39:139,1,41.9999987182618,2|2,0:0|0:0,0:0:0:0:
57,63,458615,1,2,3:2:0:0:
88,66,458725,1,0,0:0:0:0:
115,81,458835,1,0,0:0:0:0:
134,106,458945,1,0,0:0:0:0:
142,136,459056,1,8,0:0:0:0:
128,272,459277,2,0,L|61:281,1,41.9999987182618,2|0,0:0|0:0,0:0:0:0:
150,140,459497,38,0,P|227:156|319:170,1,167.999994873047,2|8,3:2|0:0,0:0:0:0:
487,66,460159,1,2,0:0:0:0:
487,66,460269,1,2,0:0:0:0:
487,66,460380,2,0,L|393:91,1,83.9999974365235,2|2,0:0|0:0,0:0:0:0:
402,102,460711,1,0,0:0:0:0:
396,117,460821,2,0,L|354:92,1,41.9999987182618,8|0,0:0|0:0,0:0:0:0:
512,192,461041,1,2,0:0:0:0:
493,202,461151,1,0,0:0:0:0:
475,213,461262,54,0,P|452:273|434:338,1,125.999996154785,2|0,3:2|0:0,0:0:0:0:
427,348,461703,2,0,L|343:359,1,83.9999974365235,8|2,0:0|0:2,0:0:0:0:
336,370,462034,1,0,0:0:0:0:
330,381,462144,2,0,P|287:322|281:291,1,83.9999974365235,2|0,0:2|0:0,0:0:0:0:
202,250,462586,2,0,P|159:309|153:340,1,83.9999974365235,8|2,0:0|0:2,0:0:0:0:
212,380,462916,1,0,0:0:0:0:
212,380,463027,38,0,L|32:342,1,167.999994873047,2|8,3:2|0:0,0:0:0:0:
73,180,463688,1,2,0:2:0:0:
78,200,463798,1,2,0:2:0:0:
83,220,463909,2,0,P|130:183|143:138,1,83.9999974365235,2|2,3:2|0:0,0:0:0:0:
18,29,464350,2,0,L|59:21,1,41.9999987182618,8|0,0:0|0:0,0:0:0:0:
163,63,464571,2,0,L|204:70,1,41.9999987182618,2|0,0:0|0:0,0:0:0:0:
271,25,464791,53,2,3:2:0:0:
376,145,465012,1,2,0:2:0:0:
353,180,465122,1,2,0:2:0:0:
240,264,465343,1,2,0:2:0:0:
280,276,465453,1,2,0:2:0:0:
314,299,465563,1,2,0:2:0:0:
340,332,465673,1,2,3:2:0:0:
472,351,465894,1,2,0:2:0:0:
495,316,466004,1,2,0:2:0:0:
503,177,466226,1,2,0:2:0:0:
463,165,466336,1,2,0:2:0:0:
429,142,466446,1,2,0:2:0:0:
403,109,466556,1,2,3:2:0:0:
509,54,466777,1,2,0:2:0:0:
509,54,466887,1,2,0:2:0:0:
275,137,467108,1,2,0:2:0:0:
275,137,467218,1,2,0:2:0:0:
275,137,467328,1,2,0:2:0:0:
275,137,467438,2,0,L|262:197,1,41.9999987182618,2|0,3:2|0:0,0:0:0:0:
149,195,467659,1,2,0:2:0:0:
149,195,467769,2,0,L|162:255,1,41.9999987182618,2|8,0:2|0:0,0:0:0:0:
86,384,467990,1,2,0:2:0:0:
48,365,468100,1,2,0:2:0:0:
23,331,468210,1,2,0:2:0:0:
16,290,468321,6,0,L|195:330,1,167.999994873047,4|8,3:2|0:0,0:0:0:0:
105,121,468983,1,2,0:0:0:0:
105,121,469093,1,0,0:0:0:0:
105,121,469203,2,0,P|64:155|62:201,2,83.9999974365235,0|2|8,3:0|0:2|0:0,0:0:0:0:
209,251,469865,1,2,0:0:0:0:
350,89,470086,22,0,L|179:172,1,167.999994873047,0|8,3:0|0:0,0:0:0:0:
386,15,470747,1,2,0:0:0:0:
406,19,470857,1,2,0:0:0:0:
424,29,470968,2,0,L|452:126,1,83.9999974365235,2|2,3:2|0:0,0:0:0:0:
512,180,471409,2,0,L|484:277,1,83.9999974365235,8|2,0:0|0:0,0:0:0:0:
357,384,471850,70,0,B|255:357|313:323|208:305,1,167.999994873047,0|8,3:2|0:0,0:0:0:0:
85,370,472512,1,2,0:0:0:0:
85,370,472622,1,2,0:0:0:0:
85,370,472733,2,0,P|90:328|106:268,1,83.9999974365235,0|2,3:2|0:0,0:0:0:0:
15,151,473174,2,0,P|9:192|-6:253,1,83.9999974365235,8|2,0:0|0:0,0:0:0:0:
206,307,473615,22,0,P|227:244|150:152,1,167.999994873047,2|8,3:2|0:0,0:0:0:0:
267,41,474277,1,2,0:0:0:0:
267,41,474387,1,2,0:0:0:0:
267,41,474497,2,0,L|373:70,1,83.9999974365235,2|2,3:2|0:0,0:0:0:0:
489,103,474938,1,8,0:0:0:0:
371,181,475159,1,2,0:0:0:0:
476,308,475380,70,0,P|361:323|280:337,1,167.999994873047,2|8,3:2|0:0,0:0:0:0:
193,374,476041,1,0,0:0:0:0:
193,374,476152,1,2,0:2:0:0:
193,374,476262,2,0,P|170:326|172:284,1,83.9999974365235,2|2,3:2|0:2,0:0:0:0:
55,172,476703,2,0,L|157:145,1,83.9999974365235,8|0,0:0|0:0,0:0:0:0:
216,130,477034,1,2,0:2:0:0:
216,130,477144,22,0,P|265:169|247:273,1,167.999994873047,2|8,3:2|0:0,0:0:0:0:
92,364,477806,1,0,0:0:0:0:
78,357,477916,1,2,0:2:0:0:
64,350,478027,2,0,L|77:265,1,83.9999974365235,2|2,3:2|0:2,0:0:0:0:
188,212,478468,1,8,0:0:0:0:
278,64,478688,1,2,0:2:0:0:
482,149,478909,70,0,B|457:264|450:321,1,167.999994873047,0|8,3:2|0:0,0:0:0:0:
336,303,479571,2,0,L|280:316,1,41.9999987182618,2|2,0:0|0:0,0:0:0:0:
242,372,479791,2,0,P|211:328|219:208,1,167.999994873047,0|8,3:2|0:0,0:0:0:0:
213,217,480453,1,2,0:0:0:0:
210,36,480674,22,0,B|287:59|263:78|364:118,1,167.999994873047,0|8,3:2|0:0,0:0:0:0:
192,133,481336,1,2,0:0:0:0:
192,133,481446,1,2,0:0:0:0:
192,133,481556,2,0,L|102:159,1,83.9999974365235,0|2,3:2|0:0,0:0:0:0:
36,98,481997,1,8,0:0:0:0:
285,173,482218,1,2,0:0:0:0:
311,270,482438,70,0,P|379:265|509:261,1,167.999994873047,6|8,3:2|0:0,0:0:0:0:
478,261,483100,1,2,0:0:0:0:
262,384,483321,2,0,P|231:316|240:208,2,167.999994873047,2|8|2,3:2|0:0|3:2,0:0:0:0:
512,139,484644,1,8,0:0:0:0:
433,91,484865,1,2,0:0:0:0:
433,91,484975,1,2,0:0:0:0:
433,91,485086,1,2,3:2:0:0:
337,131,485306,1,2,0:0:0:0:
263,73,485527,2,0,L|168:54,1,83.9999974365235,8|2,0:0|0:0,0:0:0:0:
22,185,485968,22,0,P|69:158|218:165,1,167.999994873047,2|8,3:2|0:0,0:0:0:0:
180,151,486630,1,2,0:0:0:0:
87,289,486850,2,0,L|60:401,1,83.9999974365235,2|0,3:2|0:0,0:0:0:0:
199,321,487291,2,0,L|226:209,1,83.9999974365235,8|0,0:0|0:0,0:0:0:0:
241,32,487733,70,0,P|189:102|86:91,1,167.999994873047,2|8,3:2|0:0,0:0:0:0:
5,37,488394,1,2,0:0:0:0:
25,34,488504,1,2,0:0:0:0:
46,31,488614,1,2,3:2:0:0:
67,29,488724,1,0,0:0:0:0:
88,26,488835,1,2,0:0:0:0:
146,130,489056,1,8,0:0:0:0:
253,113,489277,1,2,0:0:0:0:
363,219,489497,22,0,P|369:276|342:415,1,167.999994873047,2|8,3:2|0:0,0:0:0:0:
353,384,490159,1,2,0:0:0:0:
414,303,490380,2,0,L|507:293,1,83.9999974365235,2|0,3:2|0:0,0:0:0:0:
509,145,490821,2,0,L|425:153,1,83.9999974365235,8|0,0:0|0:0,0:0:0:0:
260,329,491262,70,0,P|200:324|69:325,1,167.999994873047,2|8,3:2|0:0,0:0:0:0:
0,187,491924,1,2,0:0:0:0:
0,187,492034,1,2,0:0:0:0:
0,187,492144,1,2,3:2:0:0:
77,238,492365,1,2,0:0:0:0:
162,185,492586,1,8,0:0:0:0:
256,227,492806,1,2,0:0:0:0:
361,155,493027,22,0,L|376:59,1,83.9999974365235,2|2,3:2|0:0,0:0:0:0:
368,56,493358,1,2,0:0:0:0:
218,5,493578,2,0,L|149:-4,2,41.9999987182618,2|2|2,0:0|0:0|0:0,0:0:0:0:
216,21,493909,2,0,L|231:132,1,83.9999974365235,2|2,3:2|0:0,0:0:0:0:
214,114,494240,2,0,L|103:135,1,83.9999974365235,2|2,0:0|0:0,0:0:0:0:
114,130,494571,1,2,0:0:0:0:
97,128,494681,1,2,0:0:0:0:
80,125,494791,2,0,L|54:227,1,83.9999974365235,2|2,3:2|0:0,0:0:0:0:
66,221,495122,2,0,L|178:249,1,83.9999974365235,2|2,0:0|0:0,0:0:0:0:
164,239,495453,1,2,0:0:0:0:
180,237,495563,1,2,0:0:0:0:
196,235,495674,69,2,3:2:0:0:
220,363,495894,1,2,0:0:0:0:
358,337,496115,1,10,0:0:0:0:
337,202,496336,1,2,0:0:0:0:
512,169,496556,5,4,3:2:0:0:
464,105,496777,1,2,0:0:0:0:
469,89,496887,1,2,0:0:0:0:
474,73,496997,1,8,0:0:0:0:
404,12,497218,1,2,0:0:0:0:
406,28,497328,1,2,0:0:0:0:
339,87,497549,1,2,0:0:0:0:
341,71,497659,1,2,0:0:0:0:
264,50,497880,1,8,0:0:0:0:
201,94,498100,1,2,0:0:0:0:
118,65,498321,5,0,0:0:0:0:
57,17,498541,1,0,0:0:0:0:
3,71,498762,1,8,0:0:0:0:
39,140,498983,1,2,0:0:0:0:
55,137,499093,1,2,0:0:0:0:
71,134,499203,1,2,0:0:0:0:
86,140,499313,1,2,0:0:0:0:
101,146,499424,1,2,0:0:0:0:
149,208,499644,1,8,0:0:0:0:
110,276,499865,1,2,0:0:0:0:
33,284,500086,85,2,0:0:0:0:
58,354,500306,1,0,0:0:0:0:
135,350,500527,1,8,0:0:0:0:
203,308,500747,1,2,0:0:0:0:
206,324,500858,1,2,0:0:0:0:
272,377,501078,1,2,0:0:0:0:
275,361,501189,1,2,0:0:0:0:
340,315,501409,1,8,0:0:0:0:
300,248,501630,1,2,0:0:0:0:
355,190,501850,5,0,0:0:0:0:
426,221,502071,1,0,0:0:0:0:
497,195,502291,1,8,0:0:0:0:
512,271,502512,1,2,0:2:0:0:
510,287,502622,1,2,0:2:0:0:
456,344,502843,1,2,0:2:0:0:
439,341,502953,1,2,0:2:0:0:
358,332,503174,1,10,0:2:0:0:
341,334,503284,1,0,0:0:0:0:
324,336,503394,1,2,0:2:0:0:
307,339,503505,1,0,0:0:0:0:
290,341,503615,85,0,0:0:0:0:
230,288,503836,1,0,0:0:0:0:
163,325,504056,1,8,0:0:0:0:
101,278,504277,1,2,0:0:0:0:
105,261,504387,1,2,0:0:0:0:
109,244,504497,1,0,0:0:0:0:
106,227,504608,1,2,0:0:0:0:
103,210,504718,1,2,0:0:0:0:
100,193,504828,1,0,0:0:0:0:
97,176,504938,1,8,0:0:0:0:
155,121,505159,1,2,0:0:0:0:
85,87,505380,5,2,0:0:0:0:
24,40,505600,1,0,0:0:0:0:
93,0,505821,1,8,0:0:0:0:
161,40,506041,1,2,0:0:0:0:
177,43,506152,1,2,0:0:0:0:
193,46,506262,1,2,0:0:0:0:
209,49,506372,1,2,0:0:0:0:
225,53,506483,1,2,0:0:0:0:
295,17,506703,1,8,0:0:0:0:
311,14,506814,1,0,0:0:0:0:
327,11,506924,1,2,0:0:0:0:
343,8,507034,1,0,0:0:0:0:
359,4,507145,85,2,0:0:0:0:
357,20,507255,1,0,0:0:0:0:
355,36,507365,1,0,0:0:0:0:
353,52,507475,1,0,0:0:0:0:
351,68,507586,1,8,0:0:0:0:
406,126,507806,1,2,0:0:0:0:
422,122,507916,1,2,0:0:0:0:
490,160,508137,1,2,0:0:0:0:
487,176,508247,1,2,0:0:0:0:
445,245,508468,1,8,0:0:0:0:
428,240,508578,1,0,0:0:0:0:
411,235,508688,1,2,0:0:0:0:
394,230,508799,1,0,0:0:0:0:
377,225,508909,5,0,0:0:0:0:
380,241,509019,1,0,0:0:0:0:
383,257,509130,1,0,0:0:0:0:
386,273,509240,1,0,0:0:0:0:
389,289,509350,1,8,0:0:0:0:
333,347,509571,1,2,0:0:0:0:
317,345,509681,1,2,0:0:0:0:
301,343,509791,1,0,0:0:0:0:
285,341,509901,1,2,0:0:0:0:
269,339,510012,1,2,0:0:0:0:
192,320,510233,1,8,0:0:0:0:
194,336,510343,1,0,0:0:0:0:
196,352,510453,1,2,0:0:0:0:
198,368,510563,1,0,0:0:0:0:
200,384,510674,70,0,L|99:366,1,83.9999974365235
0,246,511115,2,0,L|101:264,1,83.9999974365235,8|2,0:0|0:0,0:0:0:0:
97,254,511446,2,0,L|87:305,1,41.9999987182618,2|0,0:0|0:0,0:0:0:0:
201,167,511777,2,0,L|194:126,1,41.9999987182618,2|0,0:0|0:0,0:0:0:0:
223,35,511997,2,0,L|122:53,2,83.9999974365235,8|2|0,0:0|0:0|0:0,0:0:0:0:
223,35,512659,5,0,0:0:0:0:
318,22,512880,1,8,0:0:0:0:
291,114,513100,1,2,0:0:0:0:
291,114,513211,1,2,0:0:0:0:
400,144,513541,2,0,P|427:149|456:158,1,41.9999987182618,2|0,0:0|0:0,0:0:0:0:
484,77,513762,2,0,P|429:66|371:48,2,83.9999974365235,8|2|0,0:0|0:0|0:0,0:0:0:0:
484,77,514424,85,0,0:0:0:0:
393,147,514644,2,0,L|415:242,1,83.9999974365235,8|2,0:0|0:0,0:0:0:0:
411,228,514975,1,2,0:0:0:0:
411,228,515086,1,0,0:0:0:0:
494,358,515306,2,0,L|431:343,1,41.9999987182618,2|0,0:0|0:0,0:0:0:0:
380,307,515527,2,0,P|330:324|281:335,1,83.9999974365235,8|2,0:0|0:0,0:0:0:0:
187,183,515968,2,0,L|206:73,1,83.9999974365235
282,160,516409,2,0,L|263:270,1,83.9999974365235,8|2,0:0|0:0,0:0:0:0:
276,253,516740,2,0,L|166:272,1,83.9999974365235,2|2,0:0|0:0,0:0:0:0:
186,280,517071,1,2,0:0:0:0:
108,252,517291,1,8,0:0:0:0:
30,224,517512,1,2,0:0:0:0:
30,224,517733,6,0,L|15:141,1,83.9999974365235
119,57,518174,2,0,P|124:100|133:139,1,83.9999974365235,8|2,0:0|0:0,0:0:0:0:
133,139,518505,1,2,0:0:0:0:
133,139,518615,1,0,0:0:0:0:
271,79,518836,2,0,P|248:81|228:86,1,41.9999987182618,2|0,0:0|0:0,0:0:0:0:
229,86,519056,2,0,P|238:126|243:168,2,83.9999974365235,8|2|0,0:0|0:0|0:0,0:0:0:0:
229,86,519718,85,0,0:0:0:0:
266,0,519938,2,0,P|326:23|348:72,2,83.9999974365235,8|2|0,0:0|0:0|0:0,0:0:0:0:
432,13,520600,1,2,0:0:0:0:
432,13,520821,2,0,P|422:53|417:95,1,83.9999974365235,8|2,0:0|0:0,0:0:0:0:
331,127,521262,5,0,0:0:0:0:
331,127,521483,1,0,0:0:0:0:
399,184,521703,1,8,0:0:0:0:
322,230,521924,1,2,0:0:0:0:
322,230,522034,1,2,0:0:0:0:
485,361,522365,1,2,0:0:0:0:
423,310,522586,2,0,L|332:329,1,83.9999974365235,8|2,0:0|0:0,0:0:0:0:
256,192,523027,12,0,524791,0:0:0:0:
