osu file format v14

[General]
AudioFilename: moonlightmaiden.mp3
AudioLeadIn: 0
PreviewTime: 270988
Countdown: 0
SampleSet: Soft
StackLeniency: 0.3
Mode: 0
LetterboxInBreaks: 0
WidescreenStoryboard: 0

[Editor]
Bookmarks: 16870,30869,59202,87535,101576,115646,129811,143929,158091,172164,186202,214517,228635,242752,270988,285105,299223,313341,341576,355694,383929,398047,405105,409848,412164,440400,468635,482752,496870,510988,518047
DistanceSpacing: 0.9
BeatDivisor: 4
GridSize: 4
TimelineZoom: 1.7

[Metadata]
Title:Tsukikage Shoujo
TitleUnicode:月影少女
Artist:Syrufit feat. Ayakura Mei
ArtistUnicode:Syrufit feat. 綾倉盟
Creator:Jenny
Version:Redux
Source:東方永夜抄 ~ Imperishable Night.
Tags:trance techno electro vocal rearrangement over C80 Hakurei Reimu Maiden's Capriccio ~ Dream Battle Imperishable Night Marathon touhou project eiyashou moonlight maiden hakurei reimu Syrup Comfiture
BeatmapID:1733101
BeatmapSetID:345127

[Difficulty]
HPDrainRate:4
CircleSize:4.2
OverallDifficulty:7.7
ApproachRate:8
SliderMultiplier:1.7
SliderTickRate:1

[Events]
//Background and Video events
0,0,"moonlightmaiden.jpg",0,0
//Break Periods
2,314991,326394
//Storyboard Layer 0 (Background)
//Storyboard Layer 1 (Fail)
//Storyboard Layer 2 (Pass)
//Storyboard Layer 3 (Foreground)
//Storyboard Layer 4 (Overlay)
//Storyboard Sound Samples

[TimingPoints]
2439,441.176470588235,4,2,1,45,1,0
6299,-100,4,2,1,50,0,0
6519,-100,4,2,1,45,0,0
7181,-100,4,2,1,52,0,0
7402,-100,4,2,1,45,0,0
8063,-100,4,2,1,55,0,0
8284,-100,4,2,1,45,0,0
8946,-100,4,2,1,57,0,0
9166,-100,4,2,1,45,0,0
9497,-100,4,2,1,55,0,0
9828,-100,4,2,1,65,0,0
10049,-100,4,2,1,45,0,0
10269,-100,4,2,1,55,0,0
10711,-100,4,2,1,65,0,0
11152,-100,4,2,1,55,0,0
11593,-100,4,2,1,65,0,0
11813,-100,4,2,1,45,0,0
12144,-100,4,2,1,55,0,0
12255,-100,4,2,1,45,0,0
12475,-100,4,2,1,65,0,0
12696,-100,4,2,1,45,0,0
12916,-100,4,2,1,55,0,0
13358,-100,4,2,1,65,0,0
13578,-100,4,2,1,45,0,0
13799,-100,4,2,1,55,0,0
14240,-100,4,2,1,65,0,0
14681,-100,4,2,1,55,0,0
15122,-100,4,2,1,65,0,0
15343,-100,4,2,1,45,0,0
15674,-100,4,2,1,55,0,0
15784,-100,4,2,1,45,0,0
16005,-100,4,2,1,65,0,0
16225,-100,4,2,1,45,0,0
16556,-105.263157894737,4,2,1,50,0,0
16666,-105.263157894737,4,2,1,5,0,0
17108,-105.263157894737,4,2,1,20,0,0
17328,-105.263157894737,4,2,1,40,0,0
17549,-105.263157894737,4,2,1,5,0,0
17990,-105.263157894737,4,2,1,20,0,0
18211,-105.263157894737,4,2,1,40,0,0
18762,-105.263157894737,4,2,1,30,0,0
19093,-105.263157894737,4,2,1,35,0,0
19203,-105.263157894737,4,2,1,40,0,0
19313,-105.263157894737,4,2,1,30,0,0
19534,-105.263157894737,4,2,1,40,0,0
19755,-105.263157894737,4,2,1,30,0,0
20086,-105.263157894737,4,2,1,50,0,0
20196,-105.263157894737,4,2,1,5,0,0
20638,-105.263157894737,4,2,1,20,0,0
20858,-105.263157894737,4,2,1,40,0,0
21079,-105.263157894737,4,2,1,5,0,0
21520,-105.263157894737,4,2,1,20,0,0
21741,-105.263157894737,4,2,1,40,0,0
22292,-105.263157894737,4,2,1,30,0,0
22623,-105.263157894737,4,2,1,35,0,0
22733,-105.263157894737,4,2,1,40,0,0
22843,-105.263157894737,4,2,1,30,0,0
23064,-105.263157894737,4,2,1,40,0,0
23285,-105.263157894737,4,2,1,30,0,0
23615,-117.647058823529,4,2,1,40,0,0
23725,-117.647058823529,4,2,1,5,0,0
24166,-117.647058823529,4,2,1,20,0,0
24387,-117.647058823529,4,2,1,40,0,0
24608,-117.647058823529,4,2,1,35,0,0
24718,-117.647058823529,4,2,1,30,0,0
24828,-117.647058823529,4,2,1,25,0,0
24938,-117.647058823529,4,2,1,40,0,0
25049,-117.647058823529,4,2,1,35,0,0
25159,-117.647058823529,4,2,1,30,0,0
25269,-117.647058823529,4,2,1,25,0,0
25380,-117.647058823529,4,2,1,45,0,0
25490,-117.647058823529,4,2,1,40,0,0
25600,-117.647058823529,4,2,1,37,0,0
25711,-117.647058823529,4,2,1,35,0,0
25821,-117.647058823529,4,2,1,45,0,0
25931,-117.647058823529,4,2,1,40,0,0
26041,-117.647058823529,4,2,1,37,0,0
26152,-117.647058823529,4,2,1,35,0,0
26262,-117.647058823529,4,2,1,50,0,0
26372,-117.647058823529,4,2,1,35,0,0
26483,-117.647058823529,4,2,1,50,0,0
26593,-117.647058823529,4,2,1,35,0,0
26703,-117.647058823529,4,2,1,50,0,0
26813,-117.647058823529,4,2,1,35,0,0
26924,-117.647058823529,4,2,1,50,0,0
27034,-117.647058823529,4,2,1,35,0,0
27144,-117.647058823529,4,2,1,50,0,0
27586,-117.647058823529,4,2,1,55,0,0
28027,-117.647058823529,4,2,1,60,0,0
28468,-117.647058823529,4,2,1,65,0,0
28909,-117.647058823529,4,2,1,70,0,0
29350,-117.647058823529,4,2,1,80,0,0
29791,-117.647058823529,4,2,1,20,0,0
30674,-100,4,2,1,60,0,0
31005,-100,4,1,1,50,0,0
31225,-100,4,2,1,60,0,0
31887,-100,4,1,1,50,0,0
32108,-100,4,2,1,60,0,0
32769,-100,4,1,1,50,0,0
32990,-100,4,2,1,60,0,0
33652,-100,4,1,1,50,0,0
33872,-100,4,2,1,60,0,0
34534,-100,4,1,1,50,0,0
34755,-100,4,2,1,60,0,0
35416,-100,4,1,1,50,0,0
35637,-100,4,2,1,60,0,0
36299,-100,4,1,1,50,0,0
36519,-100,4,2,1,60,0,0
37181,-100,4,1,1,50,0,0
37402,-100,4,2,1,60,0,0
38063,-100,4,1,1,50,0,0
38284,-100,4,2,1,60,0,0
38946,-100,4,1,1,50,0,0
39166,-100,4,2,1,60,0,0
39828,-100,4,1,1,50,0,0
40049,-100,4,2,1,60,0,0
40711,-100,4,1,1,50,0,0
40931,-100,4,2,1,60,0,0
45122,-100,4,1,1,50,0,0
45343,-100,4,2,1,60,0,0
46005,-100,4,1,1,50,0,0
46225,-100,4,2,1,60,0,0
46887,-100,4,1,1,50,0,0
47108,-100,4,2,1,60,0,0
47769,-100,4,1,1,50,0,0
47990,-100,4,2,1,60,0,0
48652,-100,4,1,1,50,0,0
48872,-100,4,2,1,60,0,0
49534,-100,4,1,1,50,0,0
49755,-100,4,2,1,60,0,0
50416,-100,4,1,1,50,0,0
50637,-100,4,2,1,60,0,0
51299,-100,4,1,1,50,0,0
51519,-100,4,2,1,60,0,0
52181,-100,4,1,1,50,0,0
52402,-100,4,2,1,60,0,0
53063,-100,4,1,1,50,0,0
53284,-100,4,2,1,60,0,0
53946,-100,4,1,1,50,0,0
54166,-100,4,2,1,60,0,0
54828,-100,4,1,1,50,0,0
55049,-100,4,2,1,60,0,0
55380,-100,4,2,1,90,0,0
55490,-100,4,2,1,60,0,0
56262,-100,4,2,1,80,0,0
56372,-100,4,2,1,60,0,0
57144,-100,4,2,1,90,0,0
57255,-100,4,2,1,60,0,0
58027,-100,4,2,1,80,0,0
58137,-100,4,2,1,70,0,0
59240,-100,4,1,1,55,0,0
59461,-100,4,2,1,70,0,0
60122,-100,4,1,1,55,0,0
60343,-100,4,2,1,70,0,0
61005,-100,4,1,1,55,0,0
61225,-100,4,2,1,70,0,0
61887,-100,4,1,1,55,0,0
62108,-100,4,2,1,70,0,0
62769,-100,4,1,1,55,0,0
62990,-100,4,2,1,70,0,0
63652,-100,4,1,1,55,0,0
63872,-100,4,2,1,70,0,0
64534,-100,4,1,1,55,0,0
64755,-100,4,2,1,70,0,0
65416,-100,4,1,1,55,0,0
65637,-100,4,2,1,70,0,0
66299,-100,4,1,1,55,0,0
66519,-100,4,2,1,70,0,0
67181,-100,4,1,1,55,0,0
67402,-100,4,2,1,70,0,0
68063,-100,4,1,1,55,0,0
68284,-100,4,2,1,70,0,0
68946,-100,4,1,1,55,0,0
69166,-100,4,2,1,70,0,0
73358,-100,4,1,1,55,0,0
73578,-100,4,2,1,70,0,0
74240,-100,4,1,1,55,0,0
74461,-100,4,2,1,70,0,0
75122,-100,4,1,1,55,0,0
75343,-100,4,2,1,70,0,0
76005,-100,4,1,1,55,0,0
76225,-100,4,2,1,70,0,0
76887,-100,4,1,1,55,0,0
77108,-100,4,2,1,70,0,0
77769,-100,4,1,1,55,0,0
77990,-100,4,2,1,70,0,0
78652,-100,4,1,1,55,0,0
78872,-100,4,2,1,70,0,0
79534,-100,4,1,1,55,0,0
79755,-100,4,2,1,70,0,0
80416,-100,4,1,1,55,0,0
80637,-100,4,2,1,70,0,0
81299,-100,4,1,1,55,0,0
81519,-100,4,2,1,70,0,0
82181,-100,4,1,1,55,0,0
82402,-100,4,2,1,70,0,0
83063,-100,4,1,1,55,0,0
83284,-100,4,2,1,70,0,0
83615,-100,4,2,1,90,0,0
83725,-100,4,2,1,60,0,0
84497,-100,4,2,1,80,0,0
84608,-100,4,2,1,60,0,0
85380,-100,4,2,1,90,0,0
85490,-100,4,2,1,60,0,0
86262,-100,4,2,1,80,0,0
86372,-100,4,2,1,60,0,0
87144,-200,4,2,1,100,0,1
87255,-200,4,2,1,5,0,0
88799,-200,4,2,1,40,0,0
89019,-200,4,2,1,5,0,0
90563,-200,4,2,1,40,0,0
90784,-200,4,2,1,5,0,0
92328,-200,4,2,1,40,0,0
92549,-200,4,2,1,5,0,0
94093,-200,4,2,1,40,0,0
94313,-200,4,2,1,5,0,0
95858,-200,4,2,1,40,0,0
96078,-200,4,2,1,5,0,0
97622,-200,4,2,1,40,0,0
97843,-200,4,2,1,5,0,0
99387,-200,4,2,1,40,0,0
99608,-200,4,2,1,5,0,0
101152,-100,4,2,1,35,0,0
113505,-100,4,1,1,60,0,0
113725,-100,4,2,1,20,0,0
115269,-100,4,1,1,37,0,0
115490,-100,4,2,1,60,0,0
115711,-100,4,1,1,45,0,0
115931,-100,4,2,1,60,0,0
116593,-100,4,1,1,45,0,0
116813,-100,4,2,1,60,0,0
117034,-100,4,1,1,37,0,0
117255,-100,4,2,1,60,0,0
117475,-100,4,1,1,45,0,0
117696,-100,4,2,1,60,0,0
118358,-100,4,1,1,45,0,0
118578,-100,4,2,1,60,0,0
118799,-100,4,1,1,37,0,0
119019,-100,4,2,1,60,0,0
119240,-100,4,1,1,45,0,0
119461,-100,4,2,1,60,0,0
120122,-100,4,1,1,45,0,0
120343,-100,4,2,1,60,0,0
120563,-100,4,1,1,37,0,0
120784,-100,4,2,1,60,0,0
121005,-100,4,1,1,45,0,0
121225,-100,4,2,1,60,0,0
121887,-100,4,1,1,45,0,0
122108,-100,4,2,1,60,0,0
125968,-100,4,1,1,37,0,0
126078,-100,4,2,1,60,0,0
126299,-100,4,1,1,45,0,0
126519,-100,4,2,1,60,0,0
127181,-100,4,1,1,45,0,0
127402,-100,4,2,1,60,0,0
127622,-100,4,1,1,37,0,0
127843,-100,4,2,1,60,0,0
128063,-100,4,1,1,45,0,0
128284,-100,4,2,1,60,0,0
128946,-100,4,1,1,45,0,0
129166,-100,4,2,1,60,0,0
129387,-100,4,1,1,30,0,0
129828,-100,4,2,1,60,0,0
129938,-100,4,1,1,37,0,0
130049,-100,4,2,1,60,0,0
130269,-100,4,1,1,30,0,0
130711,-100,4,2,1,60,0,0
130821,-100,4,1,1,37,0,0
130931,-100,4,2,1,60,0,0
131152,-100,4,1,1,30,0,0
131593,-100,4,2,1,60,0,0
131703,-100,4,1,1,37,0,0
131813,-100,4,2,1,60,0,0
132034,-100,4,1,1,30,0,0
132255,-100,4,2,1,60,0,0
132475,-100,4,1,1,37,0,0
132696,-100,4,2,1,60,0,0
132916,-100,4,1,1,30,0,0
133358,-100,4,2,1,60,0,0
133468,-100,4,1,1,37,0,0
133578,-100,4,2,1,60,0,0
133799,-100,4,1,1,30,0,0
134240,-100,4,2,1,60,0,0
134350,-100,4,1,1,37,0,0
134461,-100,4,2,1,60,0,0
134681,-100,4,1,1,30,0,0
135122,-100,4,2,1,60,0,0
135233,-100,4,1,1,37,0,0
135343,-100,4,2,1,60,0,0
135563,-100,4,1,1,30,0,0
135784,-100,4,2,1,60,0,0
136005,-100,4,1,1,37,0,0
136225,-100,4,2,1,60,0,0
136446,-100,4,1,1,30,0,0
136666,-100,4,2,1,5,0,0
138100,-100,4,2,1,40,0,0
138211,-100,4,1,1,30,0,0
138431,-100,4,2,1,60,0,0
138652,-100,4,1,1,30,0,0
138872,-100,4,2,1,60,0,0
139534,-100,4,1,1,45,0,0
139755,-100,4,2,1,60,0,0
139975,-100,4,1,1,30,0,0
140196,-100,4,2,1,60,0,0
140416,-100,4,1,1,30,0,0
140637,-100,4,2,1,60,0,0
141299,-100,4,1,1,45,0,0
141519,-100,4,2,1,60,0,0
141740,-100,4,1,1,30,0,0
141961,-100,4,2,1,60,0,0
142181,-100,4,1,1,30,0,0
142402,-100,4,2,1,60,0,0
143063,-100,4,1,1,45,0,0
143284,-100,4,2,1,60,0,0
143505,-100,4,1,1,30,0,0
143946,-100,4,2,1,60,0,0
144056,-100,4,1,1,37,0,0
144166,-100,4,2,1,60,0,0
144387,-100,4,1,1,30,0,0
144828,-100,4,2,1,60,0,0
144938,-100,4,1,1,37,0,0
145049,-100,4,2,1,60,0,0
145269,-100,4,1,1,30,0,0
145711,-100,4,2,1,60,0,0
146152,-100,4,1,1,30,0,0
146372,-100,4,2,1,60,0,0
146593,-100,4,1,1,37,0,0
146813,-100,4,2,1,60,0,0
147034,-100,4,1,1,30,0,0
147255,-100,4,2,1,60,0,0
148799,-100,4,1,1,30,0,0
149019,-100,4,2,1,60,0,0
149240,-100,4,1,1,37,0,0
149461,-100,4,2,1,60,0,0
150122,-100,4,1,1,37,0,0
150343,-100,4,2,1,60,0,0
150563,-100,4,1,1,20,0,0
151115,-100,4,1,1,25,0,0
151225,-100,4,2,1,60,0,0
151446,-100,4,2,1,5,0,0
152328,-100,4,1,1,30,0,0
152549,-100,4,2,1,60,0,0
152769,-100,4,1,1,37,0,0
152990,-100,4,2,1,60,0,0
153652,-100,4,1,1,37,0,0
153872,-100,4,2,1,60,0,0
154093,-100,4,1,1,30,0,0
154424,-100,4,2,1,60,0,0
154975,-100,4,1,1,30,0,0
155306,-100,4,2,1,60,0,0
155858,-100,4,1,1,30,0,0
156078,-100,4,2,1,60,0,0
156299,-100,4,1,1,37,0,0
156519,-100,4,2,1,60,0,0
156740,-100,4,1,1,45,0,0
156961,-100,4,2,1,60,0,0
157181,-100,4,1,1,53,0,0
157402,-100,4,2,1,60,0,0
157622,-133.333333333333,4,2,1,100,0,0
157843,-133.333333333333,4,2,1,25,0,0
158725,-133.333333333333,4,2,1,5,0,0
159277,-133.333333333333,4,2,1,10,0,0
159387,-133.333333333333,4,2,1,30,0,0
159718,-133.333333333333,4,2,1,25,0,0
160490,-133.333333333333,4,2,1,20,0,0
160711,-133.333333333333,4,2,1,25,0,0
160931,-133.333333333333,4,2,1,20,0,0
161152,-133.333333333333,4,2,1,25,0,0
162255,-133.333333333333,4,2,1,5,0,0
162806,-133.333333333333,4,2,1,10,0,0
162916,-133.333333333333,4,2,1,30,0,0
163247,-133.333333333333,4,2,1,25,0,0
164019,-133.333333333333,4,2,1,20,0,0
164240,-133.333333333333,4,2,1,25,0,0
164461,-133.333333333333,4,2,1,20,0,0
164681,-133.333333333333,4,2,1,30,0,0
165012,-133.333333333333,4,2,1,25,0,0
165784,-133.333333333333,4,2,1,5,0,0
166336,-133.333333333333,4,2,1,10,0,0
166446,-133.333333333333,4,2,1,30,0,0
166777,-133.333333333333,4,2,1,25,0,0
167549,-133.333333333333,4,2,1,20,0,0
167769,-133.333333333333,4,2,1,25,0,0
167990,-133.333333333333,4,2,1,20,0,0
168211,-133.333333333333,4,2,1,30,0,0
168541,-133.333333333333,4,2,1,25,0,0
169313,-133.333333333333,4,2,1,5,0,0
169865,-133.333333333333,4,2,1,10,0,0
169975,-133.333333333333,4,2,1,30,0,0
170306,-133.333333333333,4,2,1,25,0,0
171078,-133.333333333333,4,2,1,20,0,0
171299,-133.333333333333,4,2,1,25,0,0
171519,-133.333333333333,4,2,1,20,0,0
171850,-100,4,2,1,35,0,0
179130,-100,4,2,1,37,0,0
179350,-100,4,2,1,40,0,0
179571,-100,4,2,1,43,0,0
179791,-100,4,2,1,45,0,0
180012,-100,4,2,1,47,0,0
180233,-100,4,2,1,50,0,0
180453,-100,4,2,1,53,0,0
180674,-100,4,1,1,30,0,0
180784,-100,4,1,1,29,0,0
180894,-100,4,1,1,28,0,0
181005,-100,4,1,1,27,0,0
181115,-100,4,1,1,31,0,0
181225,-100,4,1,1,30,0,0
181336,-100,4,1,1,29,0,0
181446,-100,4,1,1,28,0,0
181556,-100,4,1,1,32,0,0
181666,-100,4,1,1,31,0,0
181777,-100,4,1,1,30,0,0
181887,-100,4,1,1,29,0,0
181997,-100,4,1,1,33,0,0
182108,-100,4,1,1,32,0,0
182218,-100,4,1,1,31,0,0
182328,-100,4,1,1,30,0,0
182438,-100,4,1,1,35,0,0
182880,-100,4,1,1,40,0,0
183321,-100,4,1,1,45,0,0
183762,-100,4,1,1,50,0,0
184203,-100,4,1,1,55,0,0
184644,-100,4,1,1,60,0,0
185086,-100,4,1,1,65,0,0
185527,-100,4,1,1,70,0,0
185968,-100,4,2,1,60,0,0
186409,-100,4,1,1,45,0,0
186519,-100,4,2,1,60,0,0
187181,-100,4,1,1,45,0,0
187402,-100,4,2,1,60,0,0
188063,-100,4,1,1,45,0,0
188284,-100,4,2,1,60,0,0
188946,-100,4,1,1,45,0,0
189166,-100,4,2,1,60,0,0
189828,-100,4,1,1,45,0,0
190049,-100,4,2,1,60,0,0
190711,-100,4,1,1,45,0,0
190931,-100,4,2,1,60,0,0
191593,-100,4,1,1,45,0,0
191813,-100,4,2,1,60,0,0
192475,-100,4,1,1,45,0,0
192696,-100,4,2,1,60,0,0
193468,-100,4,1,1,45,0,0
193578,-100,4,2,1,60,0,0
194240,-100,4,1,1,45,0,0
194461,-100,4,2,1,60,0,0
195122,-100,4,1,1,45,0,0
195343,-100,4,2,1,60,0,0
196005,-100,4,1,1,45,0,0
196225,-100,4,2,1,60,0,0
200527,-100,4,1,1,45,0,0
200637,-100,4,2,1,60,0,0
201299,-100,4,1,1,45,0,0
201519,-100,4,2,1,60,0,0
202181,-100,4,1,1,45,0,0
202402,-100,4,2,1,60,0,0
203063,-100,4,1,1,45,0,0
203284,-100,4,2,1,60,0,0
203946,-100,4,1,1,45,0,0
204166,-100,4,2,1,60,0,0
204938,-100,4,1,1,45,0,0
205049,-100,4,2,1,60,0,0
205711,-100,4,1,1,45,0,0
205931,-100,4,2,1,60,0,0
206593,-100,4,1,1,45,0,0
206813,-100,4,2,1,60,0,0
207586,-100,4,1,1,45,0,0
207696,-100,4,2,1,60,0,0
208358,-100,4,1,1,45,0,0
208578,-100,4,2,1,60,0,0
209350,-100,4,1,1,45,0,0
209461,-100,4,2,1,65,0,0
209791,-100,4,2,1,70,0,0
210233,-100,4,1,1,45,0,0
210343,-100,4,2,1,75,0,0
210674,-100,4,1,1,30,0,0
211115,-100,4,1,1,35,0,0
211556,-100,4,1,1,40,0,0
211997,-100,4,1,1,45,0,0
212438,-100,4,1,1,50,0,0
212880,-100,4,1,1,55,0,0
213321,-100,4,1,1,60,0,0
213762,-100,4,1,1,65,0,0
214203,-100,4,1,1,70,0,1
214313,-100,4,1,1,60,0,1
214534,-100,4,2,1,5,0,1
214644,-100,4,1,1,60,0,1
214975,-100,4,2,1,5,0,1
215086,-100,4,1,1,50,0,1
215968,-100,4,1,1,70,0,1
216078,-100,4,1,1,60,0,1
216299,-100,4,2,1,5,0,1
216409,-100,4,1,1,60,0,1
216740,-100,4,2,1,5,0,1
216850,-100,4,1,1,50,0,1
217733,-100,4,1,1,70,0,1
217843,-100,4,1,1,60,0,1
218063,-100,4,2,1,5,0,1
218174,-100,4,1,1,60,0,1
218505,-100,4,2,1,5,0,1
218615,-100,4,1,1,50,0,1
219497,-100,4,1,1,70,0,1
219608,-100,4,1,1,60,0,1
219828,-100,4,2,1,5,0,1
219938,-100,4,1,1,60,0,1
220269,-100,4,2,1,5,0,1
220380,-100,4,1,1,50,0,1
221262,-100,4,1,1,70,0,1
221372,-100,4,1,1,60,0,1
221593,-100,4,2,1,5,0,1
221703,-100,4,1,1,60,0,1
222034,-100,4,2,1,5,0,1
222144,-100,4,1,1,50,0,1
223027,-100,4,1,1,70,0,1
223137,-100,4,1,1,60,0,1
223358,-100,4,2,1,5,0,1
223468,-100,4,1,1,60,0,1
223799,-100,4,2,1,5,0,1
223909,-100,4,1,1,50,0,1
224791,-100,4,1,1,70,0,1
224902,-100,4,1,1,60,0,1
225122,-100,4,2,1,5,0,1
225233,-100,4,1,1,60,0,1
225563,-100,4,2,1,5,0,1
225674,-100,4,1,1,50,0,1
226556,-100,4,1,1,70,0,1
226666,-100,4,1,1,60,0,1
226887,-100,4,2,1,5,0,1
226997,-100,4,1,1,60,0,1
227328,-100,4,2,1,5,0,1
227438,-100,4,1,1,60,0,1
228211,-100,4,1,1,60,0,0
228321,-100,4,1,1,70,0,1
228431,-100,4,1,1,60,0,1
235269,-100,4,1,1,60,0,1
235711,-100,4,1,1,5,0,1
235821,-100,4,1,1,60,0,1
236152,-100,4,2,1,5,0,1
236262,-100,4,1,1,60,0,1
237475,-100,4,2,1,5,0,1
237586,-100,4,1,1,60,0,1
237916,-100,4,2,1,5,0,1
238027,-100,4,1,1,60,0,1
239240,-100,4,2,1,5,0,1
239350,-100,4,1,1,60,0,1
239681,-100,4,2,1,5,0,1
239791,-100,4,1,1,60,0,1
241005,-100,4,1,1,30,0,1
241115,-100,4,1,1,60,0,1
241446,-100,4,1,1,30,0,1
241556,-100,4,1,1,60,0,1
241887,-100,4,1,1,30,0,1
241997,-100,4,1,1,60,0,1
242218,-100,4,1,1,80,0,1
242438,-100,4,2,1,60,0,0
242879,-100,4,1,1,45,0,0
242990,-100,4,2,1,60,0,0
243651,-100,4,1,1,45,0,0
243872,-100,4,2,1,60,0,0
244533,-100,4,1,1,45,0,0
244754,-100,4,2,1,60,0,0
245416,-100,4,1,1,45,0,0
245636,-100,4,2,1,60,0,0
246298,-100,4,1,1,45,0,0
246519,-100,4,2,1,60,0,0
247181,-100,4,1,1,45,0,0
247401,-100,4,2,1,60,0,0
248063,-100,4,1,1,45,0,0
248283,-100,4,2,1,60,0,0
248945,-100,4,1,1,45,0,0
249166,-100,4,2,1,60,0,0
249938,-100,4,1,1,45,0,0
250048,-100,4,2,1,60,0,0
250710,-100,4,1,1,45,0,0
250931,-100,4,2,1,60,0,0
251592,-100,4,1,1,45,0,0
251813,-100,4,2,1,60,0,0
252475,-100,4,1,1,45,0,0
252695,-100,4,2,1,60,0,0
256556,-100,4,1,1,37,0,0
256666,-100,4,2,1,60,0,0
256997,-100,4,1,1,45,0,0
257107,-100,4,2,1,60,0,0
257328,-100,4,1,1,37,0,0
257549,-100,4,2,1,60,0,0
257769,-100,4,1,1,45,0,0
257989,-100,4,2,1,60,0,0
258211,-100,4,1,1,37,0,0
258651,-100,4,1,1,45,0,0
258872,-100,4,2,1,60,0,0
259203,-100,4,1,1,37,0,0
259313,-100,4,2,1,60,0,0
259533,-100,4,1,1,45,0,0
259754,-100,4,2,1,60,0,0
259975,-100,4,1,1,37,0,0
260416,-100,4,1,1,45,0,0
260636,-100,4,2,1,60,0,0
260858,-100,4,1,1,37,0,0
261078,-100,4,2,1,60,0,0
261299,-100,4,1,1,45,0,0
261519,-100,4,2,1,60,0,0
261740,-100,4,1,1,37,0,0
262181,-100,4,1,1,45,0,0
262401,-100,4,2,1,60,0,0
262733,-100,4,1,1,37,0,0
262843,-100,4,2,1,60,0,0
263063,-100,4,1,1,45,0,0
263283,-100,4,2,1,60,0,0
263505,-100,4,1,1,37,0,0
264056,-100,4,1,1,45,0,0
264166,-100,4,2,1,60,0,0
264387,-100,4,1,1,37,0,0
264608,-100,4,2,1,60,0,0
264828,-100,4,1,1,45,0,0
265048,-100,4,2,1,60,0,0
265269,-100,4,1,1,37,0,0
265821,-100,4,1,1,45,0,0
265931,-100,4,2,1,60,0,0
266262,-100,4,1,1,37,0,0
266372,-100,4,2,1,60,0,0
266593,-100,4,1,1,45,0,0
266813,-100,4,2,1,60,0,0
270674,-100,4,1,1,37,0,0
270784,-100,4,2,1,60,0,0
271005,-100,4,1,1,45,0,0
271225,-100,4,2,1,60,0,0
271887,-100,4,1,1,45,0,0
272107,-100,4,2,1,60,0,0
272328,-100,4,1,1,37,0,0
272549,-100,4,2,1,60,0,0
272769,-100,4,1,1,45,0,0
272990,-100,4,2,1,60,0,0
273652,-100,4,1,1,45,0,0
273872,-100,4,2,1,60,0,0
274093,-100,4,1,1,37,0,0
274313,-100,4,2,1,60,0,0
274534,-100,4,1,1,45,0,0
274755,-100,4,2,1,60,0,0
275416,-100,4,1,1,45,0,0
275637,-100,4,2,1,60,0,0
275857,-100,4,1,1,37,0,0
276078,-100,4,2,1,60,0,0
276299,-100,4,1,1,45,0,0
276519,-100,4,2,1,60,0,0
277181,-100,4,1,1,45,0,0
277402,-100,4,2,1,60,0,0
281262,-100,4,1,1,37,0,0
281372,-100,4,2,1,60,0,0
281593,-100,4,1,1,45,0,0
281813,-100,4,2,1,60,0,0
282475,-100,4,1,1,45,0,0
282696,-100,4,2,1,60,0,0
282916,-100,4,1,1,37,0,0
283137,-100,4,2,1,60,0,0
283357,-100,4,1,1,45,0,0
283578,-100,4,2,1,60,0,0
284240,-100,4,1,1,45,0,0
284460,-100,4,2,1,60,0,0
284681,-100,4,1,1,30,0,0
284902,-100,4,2,1,60,0,0
285563,-100,4,1,1,30,0,0
285784,-100,4,2,1,60,0,0
286446,-100,4,1,1,30,0,0
286777,-100,4,2,1,60,0,0
287328,-100,4,1,1,30,0,0
287549,-100,4,2,1,60,0,0
287769,-100,4,1,1,30,0,0
287990,-100,4,2,1,60,0,0
288211,-100,4,1,1,30,0,0
288431,-100,4,2,1,60,0,0
289975,-100,4,1,1,30,0,0
290196,-100,4,2,1,60,0,0
290416,-100,4,1,1,30,0,0
290637,-100,4,2,1,60,0,0
291299,-100,4,1,1,30,0,0
291519,-100,4,2,1,60,0,0
291740,-100,4,1,1,20,0,0
292291,-100,4,1,1,25,0,0
292402,-100,4,2,1,60,0,0
292622,-100,4,2,1,5,0,0
293505,-100,4,1,1,30,0,0
293725,-100,4,2,1,60,0,0
293946,-100,4,1,1,45,0,0
294166,-100,4,2,1,60,0,0
294828,-100,4,1,1,45,0,0
295049,-100,4,2,1,60,0,0
295269,-100,4,1,1,30,0,0
295490,-100,4,2,1,60,0,0
296152,-100,4,1,1,30,0,0
296372,-100,4,2,1,60,0,0
297034,-100,4,1,1,30,0,0
297255,-100,4,2,1,60,0,0
297475,-100,4,1,1,45,0,0
297696,-100,4,2,1,60,0,0
298358,-100,4,1,1,45,0,0
298578,-100,4,2,1,60,0,0
298799,-100,4,1,1,30,0,0
299019,-100,4,2,1,60,0,0
299350,-100,4,1,1,45,0,0
299461,-100,4,2,1,60,0,0
299681,-100,4,1,1,30,0,0
299902,-100,4,2,1,60,0,0
300233,-100,4,1,1,45,0,0
300343,-100,4,2,1,60,0,0
300563,-100,4,1,1,30,0,0
300784,-100,4,2,1,60,0,0
301446,-100,4,1,1,30,0,0
301666,-100,4,2,1,60,0,0
301887,-100,4,1,1,45,0,0
302108,-100,4,2,1,60,0,0
302328,-100,4,1,1,30,0,0
302549,-100,4,2,1,60,0,0
304093,-100,4,1,1,30,0,0
304313,-100,4,2,1,60,0,0
304534,-100,4,1,1,45,0,0
304755,-100,4,2,1,60,0,0
305416,-100,4,1,1,45,0,0
305637,-100,4,2,1,60,0,0
305858,-100,4,1,1,20,0,0
306409,-100,4,1,1,25,0,0
306519,-100,4,2,1,60,0,0
306740,-100,4,2,1,5,0,0
307622,-100,4,1,1,30,0,0
307843,-100,4,2,1,60,0,0
308063,-100,4,1,1,45,0,0
308284,-100,4,2,1,60,0,0
308946,-100,4,1,1,45,0,0
309166,-100,4,2,1,60,0,0
309387,-100,4,1,1,30,0,0
309608,-100,4,2,1,60,0,0
310269,-100,4,1,1,30,0,0
310490,-100,4,2,1,60,0,0
311152,-100,4,1,1,45,0,0
311924,-133.333333333333,4,2,1,30,0,0
313137,-133.333333333333,4,2,1,5,0,0
326924,-133.333333333333,4,2,1,20,0,0
334093,-100,4,2,1,30,0,0
334534,-100,4,1,1,30,0,0
334755,-100,4,2,1,50,0,0
335196,-100,4,1,1,30,0,0
335416,-100,4,1,1,40,0,0
335637,-100,4,2,1,50,0,0
336299,-100,4,1,1,30,0,0
336519,-100,4,2,1,50,0,0
337181,-100,4,1,1,30,0,0
337402,-100,4,2,1,50,0,0
338174,-100,4,1,1,30,0,0
338284,-100,4,2,1,50,0,0
338836,-100,4,1,1,30,0,0
338946,-100,4,1,1,40,0,0
339166,-100,4,2,1,50,0,0
339828,-100,4,1,1,30,0,0
340049,-100,4,2,1,50,0,0
340711,-100,4,1,1,30,0,0
340931,-100,4,2,1,50,0,0
341152,-100,4,1,1,30,0,0
341372,-100,4,2,1,50,0,0
341703,-100,4,1,1,35,0,0
341813,-100,4,2,1,50,0,0
342365,-100,4,1,1,35,0,0
342475,-100,4,1,1,45,0,0
342696,-100,4,2,1,50,0,0
343027,-100,4,1,1,30,0,0
343137,-100,4,2,1,50,0,0
343358,-100,4,1,1,35,0,0
343578,-100,4,2,1,50,0,0
343909,-100,4,1,1,35,0,0
344019,-100,4,2,1,50,0,0
344240,-100,4,1,1,35,0,0
344461,-100,4,2,1,50,0,0
344681,-100,4,1,1,30,0,0
345122,-100,4,1,1,40,0,0
345343,-100,4,2,1,50,0,0
345894,-100,4,1,1,35,0,0
346005,-100,4,2,1,50,0,0
346115,-100,4,1,1,40,0,0
346225,-100,4,2,1,50,0,0
346446,-100,4,1,1,30,0,0
346666,-100,4,2,1,50,0,0
346887,-100,4,1,1,40,0,0
347108,-100,4,2,1,50,0,0
347438,-100,4,1,1,30,0,0
347549,-100,4,2,1,50,0,0
347769,-100,4,1,1,40,0,0
347990,-100,4,2,1,50,0,0
348652,-100,4,1,1,40,0,0
348872,-100,4,2,1,50,0,0
349424,-100,4,1,1,30,0,0
349534,-100,4,1,1,25,0,0
349644,-100,4,1,1,40,0,0
349755,-100,4,2,1,50,0,0
350527,-100,4,1,1,35,0,0
351740,-100,4,2,1,50,0,0
352291,-100,4,2,1,60,0,0
352733,-100,4,2,1,70,0,0
353174,-100,4,2,1,80,0,0
353615,-100,4,2,1,100,0,0
354938,-100,4,2,1,40,0,0
355380,-100,4,2,1,60,0,1
355490,-100,4,2,1,60,0,0
355821,-100,4,1,1,45,0,0
355931,-100,4,2,1,60,0,0
356593,-100,4,1,1,45,0,0
356813,-100,4,2,1,60,0,0
357475,-100,4,1,1,45,0,0
357696,-100,4,2,1,60,0,0
358358,-100,4,1,1,45,0,0
358578,-100,4,2,1,60,0,0
359240,-100,4,1,1,45,0,0
359461,-100,4,2,1,60,0,0
360122,-100,4,1,1,45,0,0
360343,-100,4,2,1,60,0,0
361005,-100,4,1,1,45,0,0
361225,-100,4,2,1,60,0,0
361887,-100,4,1,1,45,0,0
362108,-100,4,2,1,60,0,0
362880,-100,4,1,1,45,0,0
362990,-100,4,2,1,60,0,0
363652,-100,4,1,1,45,0,0
363872,-100,4,2,1,60,0,0
364534,-100,4,1,1,45,0,0
364755,-100,4,2,1,60,0,0
365416,-100,4,1,1,45,0,0
365637,-100,4,2,1,60,0,0
369938,-100,4,1,1,45,0,0
370049,-100,4,2,1,60,0,0
370711,-100,4,1,1,45,0,0
370931,-100,4,2,1,60,0,0
371593,-100,4,1,1,45,0,0
371813,-100,4,2,1,60,0,0
372586,-100,4,1,1,45,0,0
372696,-100,4,2,1,60,0,0
373468,-100,4,1,1,45,0,0
373578,-100,4,2,1,60,0,0
374240,-100,4,1,1,45,0,0
374461,-100,4,2,1,60,0,0
375122,-100,4,1,1,45,0,0
375343,-100,4,2,1,60,0,0
376005,-100,4,1,1,45,0,0
376225,-100,4,2,1,60,0,0
376887,-100,4,1,1,45,0,0
377108,-100,4,2,1,60,0,0
377769,-100,4,1,1,45,0,0
377990,-100,4,2,1,60,0,0
378652,-100,4,1,1,45,0,0
378872,-100,4,2,1,60,0,0
379534,-100,4,1,1,45,0,0
379755,-100,4,2,1,60,0,0
380527,-100,4,1,1,45,0,0
380637,-100,4,2,1,60,0,0
381409,-100,4,1,1,45,0,0
381519,-100,4,2,1,60,0,0
382291,-100,4,1,1,45,0,0
382402,-100,4,2,1,60,0,0
383174,-100,4,1,1,45,0,0
383284,-100,4,2,1,60,0,0
383615,-100,4,1,1,60,0,1
383946,-100,4,2,1,5,0,1
384056,-100,4,1,1,60,0,1
384387,-100,4,2,1,5,0,1
384498,-100,4,1,1,50,0,1
385269,-100,4,1,1,40,0,1
385380,-100,4,1,1,60,0,1
385711,-100,4,2,1,5,0,1
385821,-100,4,1,1,60,0,1
386152,-100,4,2,1,5,0,1
386262,-100,4,1,1,50,0,1
387034,-100,4,1,1,40,0,1
387145,-100,4,1,1,60,0,1
387475,-100,4,2,1,5,0,1
387586,-100,4,1,1,60,0,1
387917,-100,4,2,1,5,0,1
388027,-100,4,1,1,50,0,1
388799,-100,4,1,1,40,0,1
388909,-100,4,1,1,60,0,1
389240,-100,4,2,1,5,0,1
389350,-100,4,1,1,60,0,1
389681,-100,4,2,1,5,0,1
389792,-100,4,1,1,50,0,1
390563,-100,4,1,1,40,0,1
390674,-100,4,1,1,60,0,1
391005,-100,4,2,1,5,0,1
391115,-100,4,1,1,60,0,1
391446,-100,4,2,1,5,0,1
391556,-100,4,1,1,50,0,1
392439,-100,4,1,1,60,0,1
392770,-100,4,2,1,5,0,1
392880,-100,4,1,1,60,0,1
393211,-100,4,2,1,5,0,1
393321,-100,4,1,1,50,0,1
394203,-100,4,1,1,60,0,1
394534,-100,4,2,1,5,0,1
394645,-100,4,1,1,60,0,1
394975,-100,4,2,1,5,0,1
395086,-100,4,1,1,50,0,1
395968,-100,4,1,1,60,0,1
396299,-100,4,2,1,5,0,1
396409,-100,4,1,1,60,0,1
396740,-100,4,2,1,5,0,1
396850,-100,4,1,1,60,0,1
396961,-100,4,1,1,45,0,1
397071,-100,4,1,1,60,0,1
397181,-100,4,1,1,45,0,1
397291,-100,4,1,1,75,0,1
397347,-100,4,1,1,60,0,1
397512,-100,4,1,1,75,0,1
397567,-100,4,1,1,60,0,1
397622,-100,4,1,1,60,0,0
397733,-100,4,1,1,60,0,1
397843,-100,4,1,1,45,0,1
397953,-100,4,1,1,60,0,1
398284,-100,4,1,1,45,0,1
398394,-100,4,1,1,60,0,1
398725,-100,4,1,1,45,0,1
398836,-100,4,1,1,60,0,1
399608,-100,4,1,1,45,0,1
399718,-100,4,1,1,60,0,1
400049,-100,4,1,1,45,0,1
400159,-100,4,1,1,60,0,1
400490,-100,4,1,1,45,0,1
400600,-100,4,1,1,60,0,1
401372,-100,4,1,1,45,0,1
401483,-100,4,1,1,60,0,1
401813,-100,4,1,1,45,0,1
401924,-100,4,1,1,60,0,1
402255,-100,4,1,1,45,0,1
402365,-100,4,1,1,60,0,1
403137,-100,4,1,1,45,0,1
403247,-100,4,1,1,60,0,1
403578,-100,4,1,1,45,0,1
403688,-100,4,1,1,60,0,1
404019,-100,4,1,1,45,0,1
404130,-100,4,1,1,60,0,1
405012,-100,4,1,1,45,0,1
405233,-100,4,1,1,60,0,1
405453,-100,4,1,1,45,0,1
405674,-100,4,1,1,60,0,1
405784,-100,4,1,1,45,0,1
405894,-100,4,1,1,60,0,1
406777,-100,4,1,1,45,0,1
406997,-100,4,1,1,60,0,1
407218,-100,4,1,1,45,0,1
407438,-100,4,1,1,60,0,1
407549,-100,4,1,1,45,0,1
407659,-100,4,1,1,60,0,1
408541,-100,4,1,1,45,0,1
408762,-100,4,1,1,60,0,1
408983,-100,4,1,1,45,0,1
409203,-100,4,1,1,60,0,1
409644,-100,4,1,1,30,0,1
410086,-100,4,2,1,20,0,1
411740,-100,4,2,1,60,0,0
411850,-100,4,2,1,60,0,0
412291,-100,4,1,1,45,0,0
412402,-100,4,2,1,60,0,0
413063,-100,4,1,1,45,0,0
413284,-100,4,2,1,60,0,0
413945,-100,4,1,1,45,0,0
414166,-100,4,2,1,60,0,0
414828,-100,4,1,1,45,0,0
415048,-100,4,2,1,60,0,0
415710,-100,4,1,1,45,0,0
415931,-100,4,2,1,60,0,0
416593,-100,4,1,1,45,0,0
416813,-100,4,2,1,60,0,0
417475,-100,4,1,1,45,0,0
417695,-100,4,2,1,60,0,0
418357,-100,4,1,1,45,0,0
418578,-100,4,2,1,60,0,0
419350,-100,4,1,1,45,0,0
419460,-100,4,2,1,60,0,0
420122,-100,4,1,1,45,0,0
420343,-100,4,2,1,60,0,0
421004,-100,4,1,1,45,0,0
421225,-100,4,2,1,60,0,0
421887,-100,4,1,1,45,0,0
422107,-100,4,2,1,60,0,0
426409,-100,4,1,1,45,0,0
426519,-100,4,2,1,60,0,0
426740,-100,4,1,1,37,0,0
426961,-100,4,2,1,60,0,0
427181,-100,4,1,1,45,0,0
427401,-100,4,2,1,60,0,0
427623,-100,4,1,1,37,0,0
428063,-100,4,1,1,45,0,0
428284,-100,4,2,1,60,0,0
428615,-100,4,1,1,37,0,0
428725,-100,4,2,1,60,0,0
428945,-100,4,1,1,45,0,0
429166,-100,4,2,1,60,0,0
429387,-100,4,1,1,37,0,0
429828,-100,4,1,1,45,0,0
430048,-100,4,2,1,60,0,0
430270,-100,4,1,1,37,0,0
430490,-100,4,2,1,60,0,0
430711,-100,4,1,1,45,0,0
430931,-100,4,2,1,60,0,0
431152,-100,4,1,1,37,0,0
431593,-100,4,1,1,45,0,0
431813,-100,4,2,1,60,0,0
432145,-100,4,1,1,37,0,0
432255,-100,4,2,1,60,0,0
432475,-100,4,1,1,45,0,0
432695,-100,4,2,1,60,0,0
432917,-100,4,1,1,37,0,0
433468,-100,4,1,1,45,0,0
433578,-100,4,2,1,60,0,0
433799,-100,4,1,1,37,0,0
434020,-100,4,2,1,60,0,0
434240,-100,4,1,1,45,0,0
434460,-100,4,2,1,60,0,0
434681,-100,4,1,1,37,0,0
435233,-100,4,1,1,45,0,0
435343,-100,4,2,1,60,0,0
435674,-100,4,1,1,37,0,0
435784,-100,4,2,1,60,0,0
436005,-100,4,1,1,45,0,0
436225,-100,4,2,1,60,0,0
440086,-100,4,1,1,37,0,0
440196,-100,4,2,1,60,0,0
440416,-100,4,1,1,45,0,0
440637,-100,4,2,1,60,0,0
441299,-100,4,1,1,45,0,0
441519,-100,4,2,1,60,0,0
442181,-100,4,1,1,45,0,0
442402,-100,4,2,1,60,0,0
443063,-100,4,1,1,45,0,0
443284,-100,4,2,1,60,0,0
443946,-100,4,1,1,45,0,0
444166,-100,4,2,1,60,0,0
444828,-100,4,1,1,45,0,0
445049,-100,4,2,1,60,0,0
445711,-100,4,1,1,45,0,0
445931,-100,4,2,1,60,0,0
446593,-100,4,1,1,45,0,0
446813,-100,4,2,1,60,0,0
447475,-100,4,1,1,45,0,0
447696,-100,4,2,1,60,0,0
448358,-100,4,1,1,45,0,0
448578,-100,4,2,1,60,0,0
449240,-100,4,1,1,45,0,0
449461,-100,4,2,1,60,0,0
450122,-100,4,1,1,45,0,0
450343,-100,4,2,1,60,0,0
451115,-100,4,1,1,45,0,0
451225,-100,4,2,1,60,0,0
451997,-100,4,1,1,45,0,0
452108,-100,4,2,1,60,0,0
452880,-100,4,1,1,45,0,0
452990,-100,4,2,1,60,0,0
453762,-100,4,1,1,45,0,0
453872,-100,4,2,1,60,0,0
454534,-100,4,1,1,45,0,0
454755,-100,4,2,1,60,0,0
455416,-100,4,1,1,45,0,0
455637,-100,4,2,1,60,0,0
457181,-100,4,1,1,45,0,0
457402,-100,4,2,1,60,0,0
458063,-100,4,1,1,45,0,0
458284,-100,4,2,1,60,0,0
458946,-100,4,1,1,45,0,0
459166,-100,4,2,1,60,0,0
459828,-100,4,1,1,45,0,0
460049,-100,4,2,1,60,0,0
460711,-100,4,1,1,45,0,0
460931,-100,4,2,1,60,0,0
461593,-100,4,1,1,45,0,0
461813,-100,4,2,1,60,0,0
462475,-100,4,1,1,45,0,0
462696,-100,4,2,1,60,0,0
463358,-100,4,1,1,45,0,0
463578,-100,4,2,1,60,0,0
464240,-100,4,1,1,45,0,0
464461,-100,4,2,1,60,0,0
465233,-100,4,1,1,45,0,0
465343,-100,4,2,1,60,0,0
466115,-100,4,1,1,45,0,0
466225,-100,4,2,1,60,0,0
466997,-100,4,1,1,45,0,0
467108,-100,4,2,1,60,0,0
467880,-100,4,1,1,45,0,0
467990,-100,4,2,1,60,0,0
468321,-100,4,2,1,60,0,1
468431,-100,4,1,1,30,0,0
468652,-100,4,1,1,45,0,0
468872,-100,4,2,1,45,0,0
469313,-100,4,2,1,37,0,0
469534,-100,4,1,1,45,0,0
469755,-100,4,2,1,45,0,0
470196,-100,4,1,1,30,0,0
470416,-100,4,1,1,45,0,0
470637,-100,4,2,1,45,0,0
471078,-100,4,2,1,37,0,0
471299,-100,4,1,1,45,0,0
471519,-100,4,2,1,45,0,0
471961,-100,4,1,1,30,0,0
472181,-100,4,1,1,45,0,0
472402,-100,4,2,1,45,0,0
472843,-100,4,2,1,37,0,0
473063,-100,4,1,1,45,0,0
473284,-100,4,2,1,45,0,0
473725,-100,4,1,1,30,0,0
473946,-100,4,1,1,45,0,0
474166,-100,4,2,1,45,0,0
474608,-100,4,2,1,37,0,0
474828,-100,4,1,1,45,0,0
475049,-100,4,2,1,45,0,0
475490,-100,4,1,1,30,0,0
475711,-100,4,1,1,45,0,0
475931,-100,4,2,1,45,0,0
476372,-100,4,2,1,37,0,0
476593,-100,4,1,1,45,0,0
476813,-100,4,2,1,45,0,0
477255,-100,4,1,1,30,0,0
477475,-100,4,1,1,45,0,0
477696,-100,4,2,1,45,0,0
478137,-100,4,2,1,37,0,0
478358,-100,4,1,1,45,0,0
478578,-100,4,2,1,45,0,0
479019,-100,4,1,1,30,0,0
479240,-100,4,1,1,45,0,0
479461,-100,4,2,1,45,0,0
479902,-100,4,2,1,37,0,0
480122,-100,4,1,1,45,0,0
480343,-100,4,2,1,45,0,0
480784,-100,4,1,1,30,0,0
481005,-100,4,1,1,45,0,0
481225,-100,4,2,1,45,0,0
481666,-100,4,2,1,37,0,0
481887,-100,4,1,1,45,0,0
482108,-100,4,2,1,45,0,0
482769,-100,4,1,1,45,0,0
482990,-100,4,2,1,45,0,0
483652,-100,4,1,1,45,0,0
483872,-100,4,2,1,45,0,0
484534,-100,4,1,1,45,0,0
484755,-100,4,2,1,45,0,0
485416,-100,4,1,1,45,0,0
485637,-100,4,2,1,45,0,0
486299,-100,4,1,1,45,0,0
486519,-100,4,2,1,45,0,0
487181,-100,4,1,1,45,0,0
487402,-100,4,2,1,45,0,0
488063,-100,4,1,1,45,0,0
488284,-100,4,2,1,45,0,0
488946,-100,4,1,1,45,0,0
489166,-100,4,2,1,45,0,0
489828,-100,4,1,1,45,0,0
490049,-100,4,2,1,45,0,0
490711,-100,4,1,1,45,0,0
490931,-100,4,2,1,45,0,0
491593,-100,4,1,1,45,0,0
491813,-100,4,2,1,45,0,0
492475,-100,4,1,1,45,0,0
492696,-100,4,2,1,45,0,0
496556,-100,4,2,1,30,0,0
496666,-100,4,2,1,37,0,0
496887,-100,4,1,1,45,0,0
497108,-100,4,2,1,37,0,0
497769,-100,4,1,1,45,0,0
497990,-100,4,2,1,37,0,0
498652,-100,4,1,1,45,0,0
498872,-100,4,2,1,37,0,0
499534,-100,4,1,1,45,0,0
499755,-100,4,2,1,37,0,0
500416,-100,4,1,1,45,0,0
500637,-100,4,2,1,37,0,0
501299,-100,4,1,1,45,0,0
501519,-100,4,2,1,37,0,0
502181,-100,4,1,1,45,0,0
502402,-100,4,2,1,37,0,0
503063,-100,4,1,1,45,0,0
503284,-100,4,2,1,37,0,0
503946,-100,4,1,1,45,0,0
504166,-100,4,2,1,37,0,0
504828,-100,4,1,1,45,0,0
505049,-100,4,2,1,37,0,0
505711,-100,4,1,1,45,0,0
505931,-100,4,2,1,37,0,0
506593,-100,4,1,1,45,0,0
506813,-100,4,2,1,37,0,0
507475,-100,4,1,1,45,0,0
507696,-100,4,2,1,37,0,0
508358,-100,4,1,1,45,0,0
508578,-100,4,2,1,37,0,0
509240,-100,4,1,1,45,0,0
509461,-100,4,2,1,37,0,0
510122,-100,4,1,1,45,0,0
510343,-100,4,2,1,37,0,0
511005,-100,4,1,1,45,0,0
511225,-100,4,2,1,37,0,0
511887,-100,4,1,1,45,0,0
512108,-100,4,2,1,37,0,0
512769,-100,4,1,1,45,0,0
512990,-100,4,2,1,37,0,0
513652,-100,4,1,1,45,0,0
513872,-100,4,2,1,37,0,0
514534,-100,4,1,1,45,0,0
514755,-100,4,2,1,37,0,0
515416,-100,4,1,1,45,0,0
515637,-100,4,2,1,37,0,0
516299,-100,4,1,1,45,0,0
516519,-100,4,2,1,37,0,0
517181,-100,4,1,1,45,0,0
517402,-100,4,2,1,37,0,0
518063,-100,4,1,1,45,0,0
518284,-100,4,2,1,37,0,0
518946,-100,4,1,1,45,0,0
519166,-100,4,2,1,37,0,0
519828,-100,4,1,1,45,0,0
520049,-100,4,2,1,37,0,0
520711,-100,4,1,1,45,0,0
520931,-100,4,2,1,37,0,0
521593,-100,4,1,1,45,0,0
521813,-100,4,2,1,37,0,0
522475,-100,4,1,1,45,0,0
522696,-100,4,2,1,37,0,0
523137,-100,4,2,1,18,0,0
523247,-100,4,2,1,37,0,0
523468,-100,4,1,1,45,0,0
523578,-100,4,2,1,37,0,0
524350,-100,4,1,1,45,0,0
524461,-100,4,2,1,37,0,0

[Colours]
Combo1 : 255,128,64
Combo2 : 132,188,251
Combo3 : 128,128,255
Combo4 : 240,5,5
Combo5 : 255,150,0

[HitObjects]
87,226,2438,6,0,L|97:178,2,42.5
33,303,2880,2,0,P|71:319|126:311,1,85
125,338,3211,2,0,P|176:313|267:349,1,127.5
386,251,3762,2,0,L|376:161,1,85
352,174,4093,2,0,L|367:40,1,127.5
507,180,4644,2,0,P|464:178|419:204,1,85
429,170,4975,2,0,P|375:201|315:186,1,127.5
171,111,5527,2,0,B|164:67|164:67|182:16,1,85
151,31,5858,2,0,B|189:44|189:44|310:22,1,127.5
368,7,6409,5,0,0:0:0:0:
442,119,6630,1,0,0:0:0:0:
442,119,6740,2,0,P|442:173|397:241,1,127.5
312,264,7291,1,0,0:0:0:0:
193,214,7512,1,0,0:0:0:0:
193,214,7622,2,0,B|155:216|134:238|134:238|96:232|69:256,1,127.5
6,189,8174,1,0,0:0:0:0:
61,72,8394,1,0,0:0:0:0:
61,72,8505,2,0,P|123:96|192:83,1,127.5
267,48,9056,1,0,0:0:0:0:
377,125,9277,1,0,0:0:0:0:
374,141,9387,1,0,0:0:0:0:
371,157,9497,6,0,P|292:137|221:193,1,170
215,318,10159,1,0,0:0:0:0:
215,318,10380,2,0,P|294:338|365:282,1,170
418,344,11262,2,0,P|384:291|400:188,1,170
480,132,11924,1,0,0:0:0:0:
480,132,12034,1,0,0:0:0:0:
480,132,12144,2,0,L|460:34,1,85
345,101,12586,2,0,L|274:53,1,85
227,174,13027,6,0,P|166:222|68:201,1,170
17,101,13688,1,0,0:0:0:0:
17,101,13909,2,0,P|78:53|176:74,1,170
221,11,14791,2,0,P|189:67|225:172,1,170
302,226,15453,1,0,0:0:0:0:
302,226,15563,1,0,0:0:0:0:
302,226,15674,2,0,L|403:204,1,85
189,318,16115,2,0,L|88:296,1,85
14,209,16556,6,0,P|94:136|218:181,1,242.249993531227
259,237,17438,2,0,P|368:275|456:200,1,242.249993531227
474,123,18321,1,0,0:0:0:0:
474,123,18983,1,0,0:0:0:0:
471,130,19093,1,0,0:0:0:0:
467,137,19203,2,0,L|470:42,1,80.7499978437424
350,162,19644,2,0,L|347:257,1,80.7499978437424
474,342,20086,6,0,P|388:274|261:305,1,242.249993531227
207,348,20968,2,0,P|94:376|0:307,1,242.249993531227
0,229,21850,1,0,0:0:0:0:
0,229,22512,1,0,0:0:0:0:
2,236,22622,1,0,0:0:0:0:
4,243,22733,2,0,L|-2:140,1,80.7499978437424
96,39,23174,2,0,L|102:142,1,80.7499978437424
172,215,23615,6,0,P|278:233|367:155,1,216.750004134178
424,138,24497,2,0,L|414:84,3,36.1250006890297
320,100,24938,2,0,L|330:46,3,36.1250006890297
488,73,25380,6,0,L|464:23,3,36.1250006890297
256,35,25821,2,0,L|279:-14,3,36.1250006890297
372,89,26262,6,0,P|383:112|386:142,1,36.1250006890297
316,162,26483,2,0,P|307:186|288:209,1,36.1250006890297
224,174,26703,2,0,P|200:185|171:188,1,36.1250006890297
150,117,26924,2,0,P|125:108|102:89,1,36.1250006890297
53,28,27144,5,0,0:0:0:0:
25,52,27255,1,0,0:0:0:0:
13,86,27365,1,0,0:0:0:0:
13,122,27475,1,0,0:0:0:0:
28,154,27586,1,0,0:0:0:0:
56,175,27696,1,0,0:0:0:0:
90,183,27806,1,0,0:0:0:0:
125,177,27916,1,0,0:0:0:0:
160,171,28027,1,0,0:0:0:0:
195,174,28137,1,0,0:0:0:0:
229,184,28247,1,0,0:0:0:0:
258,205,28358,1,0,0:0:0:0:
275,236,28468,1,0,0:0:0:0:
282,271,28578,1,0,0:0:0:0:
272,305,28688,1,0,0:0:0:0:
246,332,28799,1,0,0:0:0:0:
211,343,28909,1,0,0:0:0:0:
175,335,29019,1,0,0:0:0:0:
147,311,29130,1,0,0:0:0:0:
135,277,29240,1,0,0:0:0:0:
141,241,29350,1,0,0:0:0:0:
166,215,29461,1,0,0:0:0:0:
201,213,29571,1,0,0:0:0:0:
225,239,29681,1,0,0:0:0:0:
207,271,29791,1,0,0:0:0:0:
207,271,30674,6,0,L|235:88,1,170
246,25,31336,1,0,0:0:0:0:
95,82,31556,2,0,L|112:196,1,85
2,287,31997,2,0,L|19:173,1,85
238,24,32438,2,0,P|247:99|180:174,1,170
26,215,33100,1,0,0:0:0:0:
20,209,33211,1,0,0:0:0:0:
14,202,33321,2,0,P|62:194|113:222,1,85
259,361,33762,2,0,P|211:369|160:341,1,85
105,384,34203,6,0,P|151:321|129:235,1,170
54,178,34865,2,0,P|32:98|79:30,1,170
171,4,35527,1,0,0:0:0:0:
269,86,35747,2,0,L|256:179,1,85
217,237,36188,1,0,0:0:0:0:
93,204,36409,1,0,0:0:0:0:
251,313,36630,2,0,P|297:317|345:294,1,85
392,254,37071,1,0,0:0:0:0:
367,29,37291,2,0,P|351:75|358:117,1,85
487,330,37733,6,0,P|519:253|495:172,1,170
425,136,38394,1,0,0:0:0:0:
315,252,38615,2,0,P|356:260|397:246,1,85
461,66,39056,2,0,P|420:58|379:72,1,85
269,310,39497,2,0,B|251:116,1,170
145,26,40159,1,0,0:0:0:0:
151,20,40269,1,0,0:0:0:0:
156,13,40380,2,0,L|142:114,1,85
14,279,40821,2,0,L|28:178,1,85
45,66,41262,5,2,0:0:0:0:
126,130,41483,1,0,0:0:0:0:
126,130,41593,2,0,P|120:179|94:219,1,85,2|0,0:0|0:0,0:0:0:0:
90,221,41924,1,2,0:0:0:0:
46,344,42144,1,2,0:0:0:0:
141,381,42365,1,0,0:0:0:0:
141,381,42475,2,0,L|226:364,1,85,2|0,0:0|0:0,0:0:0:0:
241,361,42806,1,2,0:0:0:0:
474,252,43027,5,2,0:0:0:0:
404,318,43247,1,0,0:0:0:0:
404,318,43358,2,0,P|354:321|307:294,1,85,2|0,0:0|0:0,0:0:0:0:
310,295,43688,1,2,0:0:0:0:
248,180,43909,1,2,0:0:0:0:
177,248,44130,1,0,0:0:0:0:
177,248,44240,2,0,L|193:336,1,85,2|0,0:0|0:0,0:0:0:0:
198,347,44571,1,2,0:0:0:0:
39,382,44791,6,0,P|5:327|26:226,1,170
92,185,45453,1,0,0:0:0:0:
234,263,45674,2,0,P|194:283|134:273,1,85
37,126,46115,2,0,P|77:106|137:116,1,85
254,23,46556,2,0,L|226:197,1,170
340,307,47218,1,0,0:0:0:0:
344,314,47328,1,0,0:0:0:0:
348,321,47438,2,0,L|338:226,1,85
452,41,47880,2,0,L|462:136,1,85
510,188,48321,6,0,P|452:147|349:174,1,170
290,235,48983,2,0,P|209:255|139:211,1,170
100,121,49644,1,0,0:0:0:0:
225,19,49865,2,0,L|214:106,1,85
240,178,50306,1,0,0:0:0:0:
335,158,50527,1,0,0:0:0:0:
158,238,50747,2,0,P|113:220|68:220,1,85
16,270,51188,1,0,0:0:0:0:
215,375,51409,2,0,P|257:372|296:355,1,85
301,33,51850,6,0,L|268:200,1,170
245,276,52512,1,0,0:0:0:0:
58,227,52733,2,0,L|154:207,1,85
460,173,53174,2,0,L|364:153,1,85
83,23,53615,2,0,P|76:108|148:174,1,170
350,122,54277,1,0,0:0:0:0:
357,118,54387,1,0,0:0:0:0:
364,114,54497,2,0,P|319:95|275:97,1,85
90,266,54938,2,0,P|135:285|179:283,1,85
247,345,55380,5,0,0:0:0:0:
261,305,55490,1,0,0:0:0:0:
296,281,55600,1,0,0:0:0:0:
338,280,55711,1,0,0:0:0:0:
376,298,55821,1,0,0:0:0:0:
414,316,55931,1,0,0:0:0:0:
456,315,56042,1,0,0:0:0:0:
491,291,56152,1,0,0:0:0:0:
505,251,56262,1,0,0:0:0:0:
500,208,56372,1,0,0:0:0:0:
474,173,56483,1,0,0:0:0:0:
437,151,56593,1,0,0:0:0:0:
407,120,56703,1,0,0:0:0:0:
387,82,56813,1,0,0:0:0:0:
386,39,56924,1,0,0:0:0:0:
415,9,57034,1,0,0:0:0:0:
457,12,57144,1,0,0:0:0:0:
489,40,57255,1,0,0:0:0:0:
497,81,57365,1,0,0:0:0:0:
484,121,57475,1,0,0:0:0:0:
456,154,57586,1,0,0:0:0:0:
416,168,57696,1,0,0:0:0:0:
373,167,57806,1,0,0:0:0:0:
332,155,57916,1,0,0:0:0:0:
291,140,58027,1,0,0:0:0:0:
249,130,58137,1,0,0:0:0:0:
206,126,58247,1,0,0:0:0:0:
163,133,58358,1,0,0:0:0:0:
125,153,58468,1,0,0:0:0:0:
98,185,58578,1,0,0:0:0:0:
85,225,58688,1,0,0:0:0:0:
92,267,58799,1,0,0:0:0:0:
120,298,58909,6,0,L|302:277,1,170
368,268,59571,1,0,0:0:0:0:
208,378,59791,2,0,L|217:288,1,85
106,60,60233,2,0,L|115:150,1,85
311,264,60674,2,0,P|314:204|245:114,1,170
78,205,61336,1,0,0:0:0:0:
71,209,61446,1,0,0:0:0:0:
64,214,61556,2,0,P|102:236|172:227,1,85
395,195,61997,2,0,P|357:173|287:182,1,85
207,369,62438,6,0,B|222:193,1,170
228,123,63100,1,0,0:0:0:0:
56,20,63321,2,0,L|64:118,1,85
177,292,63762,2,0,L|185:193,1,85
317,25,64203,2,0,P|406:13|472:71,1,170
441,219,64865,1,0,0:0:0:0:
440,227,64975,1,0,0:0:0:0:
438,235,65086,2,0,P|423:193|426:151,1,85
238,26,65527,2,0,P|253:68|250:110,1,85
111,363,65968,6,0,L|127:177,1,170
131,116,66630,1,0,0:0:0:0:
1,301,66850,2,0,L|89:280,1,85
297,357,67291,2,0,L|209:336,1,85
252,82,67733,2,0,P|269:135|216:234,1,170
34,195,68394,1,0,0:0:0:0:
27,189,68505,1,0,0:0:0:0:
20,183,68615,2,0,P|62:171|116:177,1,85
244,350,69056,2,0,P|202:362|148:356,1,85
85,380,69497,5,2,0:0:0:0:
9,274,69718,1,0,0:0:0:0:
9,274,69828,2,0,L|24:167,1,85,2|0,0:0|0:0,0:0:0:0:
24,173,70159,1,2,0:0:0:0:
126,47,70380,1,2,0:0:0:0:
202,153,70601,1,0,0:0:0:0:
202,153,70711,2,0,L|187:260,1,85,2|0,0:0|0:0,0:0:0:0:
187,254,71042,1,2,0:0:0:0:
289,380,71262,5,2,0:0:0:0:
317,252,71483,1,0,0:0:0:0:
317,252,71593,2,0,L|332:145,1,85,2|0,0:0|0:0,0:0:0:0:
332,151,71924,1,2,0:0:0:0:
434,25,72145,1,2,0:0:0:0:
510,131,72366,1,0,0:0:0:0:
510,131,72476,2,0,L|495:238,1,85,2|0,0:0|0:0,0:0:0:0:
495,232,72807,1,2,0:0:0:0:
354,314,73027,6,0,P|302:268|191:291,1,170
150,332,73688,1,0,0:0:0:0:
21,233,73909,2,0,L|29:146,1,85
174,21,74350,2,0,L|166:108,1,85
325,266,74791,2,0,B|310:89,1,170
491,33,75453,1,0,0:0:0:0:
496,38,75563,1,0,0:0:0:0:
502,44,75674,2,0,P|462:63|391:57,1,85
133,38,76115,2,0,P|173:19|244:25,1,85
331,170,76556,6,0,L|305:359,1,170
238,374,77218,1,0,0:0:0:0:
104,282,77438,2,0,L|120:162,1,85
0,41,77880,2,0,L|16:161,1,85
197,254,78321,2,0,P|284:270|364:214,1,170
336,37,78983,1,0,0:0:0:0:
331,29,79093,1,0,0:0:0:0:
325,22,79203,2,0,P|315:66|325:105,1,85
470,318,79644,2,0,P|480:274|470:235,1,85
258,157,80086,6,0,L|78:188,1,170
15,203,80747,1,0,0:0:0:0:
89,24,80968,2,0,L|108:120,1,85
53,360,81409,2,0,L|34:264,1,85
307,176,81850,2,0,P|240:229|144:209,1,170
27,79,82512,1,0,0:0:0:0:
23,71,82622,1,0,0:0:0:0:
18,63,82733,2,0,P|68:46|116:56,1,85
350,107,83174,2,0,P|300:124|252:114,1,85
203,76,83615,5,0,0:0:0:0:
164,93,83725,1,0,0:0:0:0:
140,128,83836,1,0,0:0:0:0:
129,168,83946,1,0,0:0:0:0:
133,210,84056,1,0,0:0:0:0:
149,249,84166,1,0,0:0:0:0:
180,277,84277,1,0,0:0:0:0:
219,293,84387,1,0,0:0:0:0:
261,287,84497,1,0,0:0:0:0:
298,266,84608,1,0,0:0:0:0:
335,245,84718,1,0,0:0:0:0:
377,239,84828,1,0,0:0:0:0:
416,255,84938,1,0,0:0:0:0:
445,286,85049,1,0,0:0:0:0:
457,326,85159,1,0,0:0:0:0:
443,366,85269,1,0,0:0:0:0:
416,332,85380,1,0,0:0:0:0:
412,289,85490,1,0,0:0:0:0:
426,249,85600,1,0,0:0:0:0:
456,219,85711,1,0,0:0:0:0:
470,179,85821,1,0,0:0:0:0:
466,136,85931,1,0,0:0:0:0:
439,102,86042,1,0,0:0:0:0:
398,89,86152,1,0,0:0:0:0:
355,92,86262,1,0,0:0:0:0:
317,112,86372,1,0,0:0:0:0:
279,133,86483,1,0,0:0:0:0:
238,146,86593,1,0,0:0:0:0:
195,148,86703,1,0,0:0:0:0:
154,136,86813,1,0,0:0:0:0:
127,102,86924,1,0,0:0:0:0:
124,59,87034,1,0,0:0:0:0:
147,23,87144,6,0,B|207:-14|308:14|255:66|367:98|423:59,1,297.5
502,0,88909,2,0,P|446:84|503:263,1,297.5
438,338,90674,6,0,B|380:296|266:304|307:350|202:362|153:324,1,297.5
76,386,92438,2,0,P|97:243|232:267,1,297.5
288,327,94203,6,0,B|292:297|308:278|308:278|283:239|285:153|322:196|333:93|299:44,1,297.5
202,64,95968,2,0,B|182:60|168:71|168:71|92:20|-37:62|-22:178,1,297.5
26,249,97733,6,0,B|56:241|86:195|73:137|73:137|104:163|177:179|227:140,1,297.5
302,77,99497,2,0,P|260:136|361:317,1,297.5
447,334,101262,5,0,0:0:0:0:
455,342,101593,1,0,0:0:0:0:
455,342,101703,2,0,L|442:252,1,85,2|0,0:0|0:0,0:0:0:0:
497,180,102144,1,0,0:0:0:0:
471,164,102255,1,8,0:0:0:0:
456,138,102365,1,0,0:0:0:0:
456,108,102475,1,0,0:0:0:0:
471,82,102586,1,8,0:0:0:0:
492,8,102806,1,0,0:0:0:0:
418,28,103027,5,0,0:0:0:0:
422,32,103358,1,0,0:0:0:0:
422,32,103468,1,2,0:0:0:0:
345,92,103688,1,0,0:0:0:0:
274,61,103909,1,0,0:0:0:0:
256,85,104019,1,8,0:0:0:0:
228,96,104130,1,0,0:0:0:0:
198,98,104240,1,0,0:0:0:0:
170,86,104350,2,0,P|131:75|80:86,1,85,8|0,0:0|0:0,0:0:0:0:
12,145,104791,5,0,0:0:0:0:
33,218,105012,2,0,L|56:311,1,85,2|0,0:0|0:0,0:0:0:0:
145,335,105453,1,2,0:0:0:0:
201,282,105674,1,0,0:0:0:0:
205,252,105784,1,8,0:0:0:0:
194,224,105894,1,0,0:0:0:0:
171,203,106005,1,0,0:0:0:0:
141,199,106115,1,8,0:0:0:0:
69,227,106336,1,2,0:0:0:0:
80,151,106556,6,0,P|156:170|253:163,1,170,0|2,0:0|0:0,0:0:0:0:
486,69,107438,2,0,P|410:50|313:57,1,170,0|2,0:0|0:0,0:0:0:0:
250,90,108100,1,0,0:0:0:0:
328,195,108321,6,0,P|328:257|258:326,1,127.5
276,316,108762,1,2,0:0:0:0:
201,334,108983,1,0,0:0:0:0:
222,260,109203,1,0,0:0:0:0:
200,239,109313,1,8,0:0:0:0:
189,210,109424,1,0,0:0:0:0:
192,180,109534,1,0,0:0:0:0:
209,155,109644,1,8,0:0:0:0:
280,127,109865,1,0,0:0:0:0:
219,79,110086,6,0,P|146:98|70:87,1,127.5
77,91,110527,1,2,0:0:0:0:
15,46,110747,1,0,0:0:0:0:
2,176,111078,1,8,0:0:0:0:
4,188,111188,1,0,0:0:0:0:
7,200,111299,1,0,0:0:0:0:
9,212,111409,1,8,0:0:0:0:
60,268,111630,1,0,0:0:0:0:
156,245,111850,6,0,P|167:187|144:118,1,127.5,0|2,0:0|0:0,0:0:0:0:
133,112,112291,1,0,0:0:0:0:
181,52,112512,1,2,0:0:0:0:
255,71,112733,1,0,0:0:0:0:
273,94,112843,1,8,0:0:0:0:
300,103,112953,1,0,0:0:0:0:
329,102,113063,1,0,0:0:0:0:
355,87,113174,1,8,0:0:0:0:
398,24,113394,1,0,0:0:0:0:
473,168,113615,5,0,0:0:0:0:
256,192,113725,12,0,115159,0:0:0:0:
473,168,115380,5,0,0:0:0:0:
377,148,115600,1,2,0:0:0:0:
488,157,115821,1,0,0:0:0:0:
362,159,116041,1,2,0:0:0:0:
362,159,116152,2,0,P|356:204|377:247,1,85
382,252,116483,1,2,0:0:0:0:
484,88,116703,1,0,0:0:0:0:
405,334,116924,1,2,0:0:0:0:
286,280,117144,5,0,0:0:0:0:
334,194,117365,1,2,0:0:0:0:
257,286,117586,1,0,0:0:0:0:
363,188,117806,1,2,0:0:0:0:
363,188,117916,2,0,P|369:233|354:275,1,85
346,283,118247,1,2,0:0:0:0:
153,258,118468,1,0,0:0:0:0:
470,207,118688,1,2,0:0:0:0:
387,107,118909,6,0,P|343:104|306:125,1,85,0|2,0:0|0:0,0:0:0:0:
402,363,119350,2,0,P|446:366|483:345,1,85,0|2,0:0|0:0,0:0:0:0:
487,331,119681,1,0,0:0:0:0:
504,235,119902,1,0,0:0:0:0:
504,235,120012,1,2,0:0:0:0:
359,362,120233,1,0,0:0:0:0:
432,81,120453,1,2,0:0:0:0:
480,202,120674,6,0,P|436:215|385:204,1,85,0|2,0:0|0:0,0:0:0:0:
208,34,121115,2,0,P|252:21|303:32,1,85,0|2,0:0|0:0,0:0:0:0:
304,34,121446,1,0,0:0:0:0:
375,107,121666,1,0,0:0:0:0:
375,107,121777,1,2,0:0:0:0:
93,170,121997,1,0,0:0:0:0:
316,199,122218,1,2,0:0:0:0:
241,304,122438,5,2,0:0:0:0:
126,255,122659,1,0,0:0:0:0:
130,234,122769,1,2,0:0:0:0:
106,143,122990,1,2,0:0:0:0:
285,71,123211,1,2,0:0:0:0:
268,84,123321,1,0,0:0:0:0:
248,211,123541,1,0,0:0:0:0:
265,198,123651,1,2,0:0:0:0:
359,180,123872,1,2,0:0:0:0:
310,368,124093,5,0,0:0:0:0:
305,338,124203,1,2,0:0:0:0:
144,329,124424,1,0,0:0:0:0:
149,299,124534,1,2,0:0:0:0:
214,227,124755,1,2,0:0:0:0:
425,301,124975,1,2,0:0:0:0:
400,283,125085,1,0,0:0:0:0:
29,262,125306,1,0,0:0:0:0:
54,244,125416,1,2,0:0:0:0:
182,223,125637,1,2,0:0:0:0:
207,251,125747,1,0,0:0:0:0:
245,256,125858,1,2,0:0:0:0:
282,249,125968,5,0,0:0:0:0:
313,156,126188,1,2,0:0:0:0:
294,284,126409,1,0,0:0:0:0:
301,121,126630,1,2,0:0:0:0:
301,121,126740,2,0,P|286:164|293:205,1,85
302,215,127071,1,2,0:0:0:0:
456,170,127291,1,0,0:0:0:0:
171,124,127512,1,2,0:0:0:0:
226,43,127733,5,0,0:0:0:0:
101,74,127953,1,2,0:0:0:0:
261,56,128174,1,0,0:0:0:0:
66,61,128394,1,2,0:0:0:0:
66,61,128505,2,0,P|112:58|154:80,1,85
158,86,128836,1,2,0:0:0:0:
97,234,129056,1,0,0:0:0:0:
336,141,129277,1,2,0:0:0:0:
289,208,129497,6,0,P|285:278|335:348,1,127.5,0|2,0:0|0:0,0:0:0:0:
325,336,129938,1,0,0:0:0:0:
399,367,130159,1,2,0:0:0:0:
317,228,130380,2,0,P|363:280|448:294,1,127.5,0|2,0:0|0:0,0:0:0:0:
432,293,130821,1,0,0:0:0:0:
507,262,131041,1,2,0:0:0:0:
350,221,131262,2,0,P|420:224|489:175,1,127.5,0|2,0:0|0:0,0:0:0:0:
478,186,131703,1,0,0:0:0:0:
509,111,131924,1,2,0:0:0:0:
368,193,132144,2,0,P|420:146|435:103,1,85,0|2,0:0|0:0,0:0:0:0:
318,14,132586,2,0,P|265:60|251:104,1,85,0|2,0:0|0:0,0:0:0:0:
241,265,133027,6,0,P|209:327|131:363,1,127.5,0|2,0:0|0:0,0:0:0:0:
145,357,133468,1,0,0:0:0:0:
66,347,133689,1,2,0:0:0:0:
206,268,133910,2,0,P|139:289|58:259,1,127.5,0|2,0:0|0:0,0:0:0:0:
74,267,134351,1,0,0:0:0:0:
25,202,134571,1,2,0:0:0:0:
181,245,134792,2,0,P|118:213|82:135,1,127.5,0|2,0:0|0:0,0:0:0:0:
88,151,135233,1,0,0:0:0:0:
98,70,135454,1,2,0:0:0:0:
180,212,135674,2,0,P|158:145|166:100,1,85,0|2,0:0|0:0,0:0:0:0:
312,82,136116,2,0,P|333:148|325:193,1,85,0|2,0:0|0:0,0:0:0:0:
220,360,136556,6,0,B|168:365|111:303|126:219|193:177|273:188|313:248|294:312|294:312|337:270|420:272|398:312|477:316|503:275,1,595
466,208,138321,6,0,L|458:113,1,85,0|2,0:0|0:0,0:0:0:0:
343,10,138762,2,0,L|351:105,1,85,0|2,0:0|0:0,0:0:0:0:
350,111,139093,1,0,0:0:0:0:
284,183,139313,1,0,0:0:0:0:
284,183,139424,1,2,0:0:0:0:
221,70,139644,1,0,0:0:0:0:
470,133,139865,1,2,0:0:0:0:
433,202,140086,6,0,P|394:218|335:213,1,85,0|2,0:0|0:0,0:0:0:0:
105,145,140527,2,0,P|144:129|203:134,1,85,0|2,0:0|0:0,0:0:0:0:
202,134,140858,1,0,0:0:0:0:
236,229,141078,1,0,0:0:0:0:
236,229,141188,1,2,0:0:0:0:
141,317,141409,1,0,0:0:0:0:
181,62,141630,1,2,0:0:0:0:
236,119,141850,6,0,B|242:164|242:164|229:206,1,85,0|2,0:0|0:0,0:0:0:0:
5,326,142291,2,0,B|-1:281|-1:281|12:239,1,85,0|2,0:0|0:0,0:0:0:0:
20,228,142622,1,0,0:0:0:0:
104,179,142843,1,0,0:0:0:0:
104,179,142953,1,2,0:0:0:0:
84,340,143174,1,0,0:0:0:0:
36,88,143394,1,2,0:0:0:0:
94,143,143615,6,0,P|150:161|238:149,1,127.5,0|2,0:0|0:0,0:0:0:0:
232,171,144056,2,0,L|224:79,1,85,0|2,0:0|0:0,0:0:0:0:
119,208,144497,2,0,L|130:339,1,127.5,0|2,0:0|0:0,0:0:0:0:
132,356,144938,1,0,0:0:0:0:
202,319,145159,1,2,0:0:0:0:
50,266,145380,2,0,P|31:206|43:134,2,127.5,0|2|2,0:0|0:0|0:0,0:0:0:0:
62,344,146262,2,0,L|160:322,1,85,0|2,0:0|0:0,0:0:0:0:
205,277,146703,1,0,0:0:0:0:
168,119,146924,1,2,0:0:0:0:
247,174,147144,5,0,0:0:0:0:
84,164,147365,2,0,P|74:122|81:75,1,85,2|0,0:0|0:0,0:0:0:0:
222,5,147806,2,0,P|232:47|225:94,1,85,2|0,0:0|0:0,0:0:0:0:
346,241,148247,2,0,P|336:199|343:152,1,85,2|0,0:0|0:0,0:0:0:0:
490,34,148688,1,2,0:0:0:0:
456,192,148909,5,0,0:0:0:0:
420,101,149130,1,2,0:0:0:0:
456,225,149350,1,0,0:0:0:0:
420,68,149571,1,2,0:0:0:0:
420,68,149681,2,0,P|418:117|398:153,1,85
388,158,150012,1,2,0:0:0:0:
507,109,150233,1,0,0:0:0:0:
226,179,150453,1,2,0:0:0:0:
273,263,150674,6,0,P|348:249|422:305,1,170
506,258,151336,2,0,B|537:291|536:337|499:369|452:374|399:343|385:280|430:245|469:216|468:171|425:134,1,340
341,30,152438,6,0,L|350:126,1,85,0|2,0:0|0:0,0:0:0:0:
206,245,152880,2,0,L|215:149,1,85,0|2,0:0|0:0,0:0:0:0:
216,139,153211,1,0,0:0:0:0:
281,68,153431,1,0,0:0:0:0:
281,68,153541,1,2,0:0:0:0:
91,29,153762,1,0,0:0:0:0:
319,146,153983,1,2,0:0:0:0:
384,98,154203,6,0,P|441:95|517:123,2,127.5,0|2|2,0:0|0:0|0:0,0:0:0:0:
269,157,155086,2,0,P|212:160|136:132,2,127.5,0|2|2,0:0|0:0|0:0,0:0:0:0:
360,192,155968,2,0,L|349:90,1,85,0|2,0:0|0:0,0:0:0:0:
148,10,156409,2,0,L|159:112,1,85,0|2,0:0|0:0,0:0:0:0:
442,242,156850,2,0,L|431:140,1,85,0|2,0:0|0:0,0:0:0:0:
99,276,157291,2,0,L|110:378,1,85,0|2,0:0|0:0,0:0:0:0:
184,383,157733,5,0,0:0:0:0:
184,383,158394,1,2,0:0:0:0:
217,313,158615,2,0,P|305:284|381:349,1,191.250007295609
469,369,159497,1,2,0:0:0:0:
478,378,160159,1,2,0:0:0:0:
478,378,160269,1,0,0:0:0:0:
478,378,160379,2,0,L|466:298,1,63.7500024318696,0|2,0:0|0:0,0:0:0:0:
394,293,160821,2,0,L|406:213,1,63.7500024318696,0|2,0:0|0:0,0:0:0:0:
418,135,161262,5,0,0:0:0:0:
418,135,161924,1,2,0:0:0:0:
349,168,162144,2,0,P|270:181|162:147,1,191.250007295609
73,119,163027,1,2,0:0:0:0:
80,126,163688,1,2,0:0:0:0:
80,126,163799,1,0,0:0:0:0:
80,126,163909,2,0,P|75:92|85:60,1,63.7500024318696,0|2,0:0|0:0,0:0:0:0:
170,22,164350,2,0,P|177:52|172:83,1,63.7500024318696,0|2,0:0|0:0,0:0:0:0:
194,178,164791,5,0,0:0:0:0:
194,178,165453,1,2,0:0:0:0:
256,222,165674,2,0,P|332:162|417:200,1,191.250007295609
505,168,166556,1,2,0:0:0:0:
512,175,167218,1,2,0:0:0:0:
512,175,167328,1,0,0:0:0:0:
512,175,167438,2,0,L|504:248,1,63.7500024318696,0|2,0:0|0:0,0:0:0:0:
428,244,167880,2,0,L|436:317,1,63.7500024318696,0|2,0:0|0:0,0:0:0:0:
504,375,168321,5,0,0:0:0:0:
504,375,168983,1,2,0:0:0:0:
439,334,169203,2,0,P|351:316|260:363,1,191.250007295609
169,338,170086,1,2,0:0:0:0:
176,345,170747,1,2,0:0:0:0:
176,345,170858,1,0,0:0:0:0:
176,345,170968,2,0,P|169:310|178:272,1,63.7500024318696,0|2,0:0|0:0,0:0:0:0:
262,247,171409,2,0,P|269:282|260:320,1,63.7500024318696,0|2,0:0|0:0,0:0:0:0:
342,367,171850,6,0,P|357:311|347:229,1,127.5,0|2,0:0|0:0,0:0:0:0:
344,226,172291,1,8,0:0:0:0:
344,226,172733,1,2,0:0:0:0:
323,205,172843,1,8,0:0:0:0:
313,177,172953,1,0,0:0:0:0:
313,147,173063,1,0,0:0:0:0:
327,120,173174,1,8,0:0:0:0:
396,87,173394,1,0,0:0:0:0:
489,176,173615,5,2,0:0:0:0:
454,367,174056,1,8,0:0:0:0:
411,304,174277,1,2,0:0:0:0:
424,277,174387,1,0,0:0:0:0:
427,247,174497,1,0,0:0:0:0:
419,218,174608,1,8,0:0:0:0:
400,195,174718,1,0,0:0:0:0:
373,182,174828,1,0,0:0:0:0:
343,184,174938,1,8,0:0:0:0:
280,228,175159,1,2,0:0:0:0:
153,209,175380,6,0,P|146:150|170:75,1,127.5,0|2,0:0|0:0,0:0:0:0:
177,74,175821,1,8,0:0:0:0:
177,74,176262,1,2,0:0:0:0:
154,93,176372,1,8,0:0:0:0:
124,100,176483,1,0,0:0:0:0:
94,98,176593,1,0,0:0:0:0:
68,83,176703,1,8,0:0:0:0:
23,20,176924,1,0,0:0:0:0:
5,145,177144,5,2,0:0:0:0:
195,198,177475,1,0,0:0:0:0:
195,198,177586,1,8,0:0:0:0:
134,247,177806,1,2,0:0:0:0:
113,225,177916,1,0,0:0:0:0:
103,196,178027,1,0,0:0:0:0:
103,166,178137,1,8,0:0:0:0:
114,138,178247,1,0,0:0:0:0:
136,118,178358,1,0,0:0:0:0:
164,109,178468,1,8,0:0:0:0:
240,124,178688,1,2,0:0:0:0:
169,17,178909,6,0,L|127:26,3,42.5
287,50,179350,2,0,L|329:59,3,42.5
107,103,179791,2,0,L|65:112,3,42.5
352,146,180233,2,0,L|394:155,3,42.5
268,192,180674,5,0,0:0:0:0:
250,221,180784,1,0,0:0:0:0:
245,254,180894,1,0,0:0:0:0:
250,287,181005,1,0,0:0:0:0:
263,317,181115,1,0,0:0:0:0:
289,338,181225,1,0,0:0:0:0:
322,346,181336,1,0,0:0:0:0:
355,346,181446,1,0,0:0:0:0:
385,330,181556,1,0,0:0:0:0:
406,303,181666,1,0,0:0:0:0:
418,271,181777,1,0,0:0:0:0:
417,237,181887,1,0,0:0:0:0:
402,206,181997,1,0,0:0:0:0:
382,178,182108,1,0,0:0:0:0:
365,148,182218,1,0,0:0:0:0:
361,114,182328,1,0,0:0:0:0:
375,83,182438,1,0,0:0:0:0:
405,68,182549,1,0,0:0:0:0:
438,70,182659,1,0,0:0:0:0:
466,88,182769,1,0,0:0:0:0:
481,118,182880,1,0,0:0:0:0:
484,151,182990,1,0,0:0:0:0:
477,184,183100,1,0,0:0:0:0:
454,209,183211,1,0,0:0:0:0:
423,223,183321,1,0,0:0:0:0:
389,226,183431,1,0,0:0:0:0:
356,217,183541,1,0,0:0:0:0:
327,198,183652,1,0,0:0:0:0:
297,181,183762,1,0,0:0:0:0:
265,167,183872,1,0,0:0:0:0:
231,159,183983,1,0,0:0:0:0:
197,161,184093,1,0,0:0:0:0:
166,175,184203,1,0,0:0:0:0:
141,198,184313,1,0,0:0:0:0:
127,229,184424,1,0,0:0:0:0:
128,262,184534,1,0,0:0:0:0:
139,293,184644,1,0,0:0:0:0:
150,325,184755,1,0,0:0:0:0:
139,357,184865,1,0,0:0:0:0:
109,374,184975,1,0,0:0:0:0:
74,372,185086,1,0,0:0:0:0:
44,354,185196,1,0,0:0:0:0:
28,323,185306,1,0,0:0:0:0:
29,289,185416,1,0,0:0:0:0:
40,256,185527,1,0,0:0:0:0:
53,224,185637,1,0,0:0:0:0:
55,190,185747,1,0,0:0:0:0:
50,156,185858,1,0,0:0:0:0:
33,126,185968,6,0,P|87:150|172:131,1,127.5
168,134,186409,1,0,0:0:0:0:
234,62,186630,1,0,0:0:0:0:
278,183,186850,2,0,L|274:276,1,85
446,180,187291,2,0,L|450:87,1,85
342,24,187733,2,0,P|252:9|172:54,1,170
89,22,188394,1,0,0:0:0:0:
91,30,188505,1,0,0:0:0:0:
94,37,188615,2,0,L|78:140,1,85
164,260,189056,2,0,L|180:157,1,85
10,78,189497,6,0,P|81:124|162:98,1,170
267,32,190159,2,0,P|346:9|415:55,1,170
448,148,190821,1,0,0:0:0:0:
403,303,191041,2,0,L|382:199,1,85
332,167,191483,1,0,0:0:0:0:
268,279,191703,1,0,0:0:0:0:
482,350,191924,2,0,P|494:309|480:254,1,85
431,217,192365,1,0,0:0:0:0:
375,370,192586,1,0,0:0:0:0:
324,116,192806,1,0,0:0:0:0:
274,200,193027,6,0,P|334:214|412:155,1,127.5
404,175,193468,1,0,0:0:0:0:
440,84,193688,1,0,0:0:0:0:
325,24,193909,2,0,L|233:15,1,85
40,120,194350,2,0,L|132:111,1,85
274,173,194791,2,0,P|286:241|225:321,1,170
147,371,195453,1,0,0:0:0:0:
139,367,195563,1,0,0:0:0:0:
131,362,195674,2,0,L|145:277,1,85
17,91,196115,2,0,L|31:176,1,85
57,302,196556,5,2,0:0:0:0:
118,226,196777,1,0,0:0:0:0:
113,204,196887,1,2,0:0:0:0:
89,75,197108,1,2,0:0:0:0:
225,162,197328,1,2,0:0:0:0:
220,182,197438,1,0,0:0:0:0:
317,268,197659,1,0,0:0:0:0:
312,248,197769,1,2,0:0:0:0:
369,194,197990,1,2,0:0:0:0:
393,211,198100,1,0,0:0:0:0:
422,213,198211,1,2,0:0:0:0:
451,204,198321,1,0,0:0:0:0:
500,119,198541,1,0,0:0:0:0:
489,90,198652,1,2,0:0:0:0:
314,6,198872,1,2,0:0:0:0:
300,32,198983,1,0,0:0:0:0:
299,61,199093,1,2,0:0:0:0:
310,88,199203,1,0,0:0:0:0:
232,191,199424,1,0,0:0:0:0:
236,161,199534,1,2,0:0:0:0:
80,203,199755,1,0,0:0:0:0:
51,193,199865,1,2,0:0:0:0:
32,169,199975,1,0,0:0:0:0:
25,139,200086,6,0,L|43:50,1,85
132,20,200527,1,0,0:0:0:0:
233,100,200747,1,0,0:0:0:0:
113,252,200968,2,0,P|72:241|31:252,1,85
224,369,201409,2,0,P|265:380|306:369,1,85
507,161,201850,2,0,L|328:190,1,170
182,150,202512,1,0,0:0:0:0:
176,143,202622,1,0,0:0:0:0:
170,136,202733,2,0,P|169:88|189:49,1,85
403,2,203174,2,0,P|404:50|384:89,1,85
61,212,203615,6,0,P|137:184|212:238,1,170
273,341,204277,2,0,P|341:385|419:357,1,170
482,284,204938,1,0,0:0:0:0:
417,102,205159,2,0,L|409:196,1,85
400,262,205600,1,0,0:0:0:0:
508,191,205821,1,0,0:0:0:0:
287,133,206041,2,0,P|237:125|177:137,1,85
134,163,206483,1,0,0:0:0:0:
159,322,206703,1,0,0:0:0:0:
37,95,206924,1,0,0:0:0:0:
111,31,207144,6,0,P|132:88|101:170,1,127.5
105,164,207586,1,0,0:0:0:0:
14,198,207806,1,0,0:0:0:0:
119,361,208027,2,0,L|110:243,1,85
278,79,208468,2,0,L|269:197,1,85
229,252,208909,5,0,0:0:0:0:
257,243,209019,1,0,0:0:0:0:
286,246,209130,1,0,0:0:0:0:
313,256,209240,1,0,0:0:0:0:
333,277,209350,1,0,0:0:0:0:
353,298,209461,1,0,0:0:0:0:
380,308,209571,1,0,0:0:0:0:
409,311,209682,1,0,0:0:0:0:
437,302,209792,1,0,0:0:0:0:
460,284,209902,1,0,0:0:0:0:
477,259,210012,1,0,0:0:0:0:
483,230,210122,1,0,0:0:0:0:
478,200,210233,1,0,0:0:0:0:
464,173,210343,1,0,0:0:0:0:
441,153,210453,1,0,0:0:0:0:
412,145,210563,1,0,0:0:0:0:
382,147,210674,1,0,0:0:0:0:
349,166,210784,1,0,0:0:0:0:
318,188,210894,1,0,0:0:0:0:
280,198,211005,1,0,0:0:0:0:
241,200,211115,1,0,0:0:0:0:
203,191,211225,1,0,0:0:0:0:
171,169,211336,1,0,0:0:0:0:
153,134,211446,1,0,0:0:0:0:
151,95,211556,1,0,0:0:0:0:
163,58,211666,1,0,0:0:0:0:
191,32,211777,1,0,0:0:0:0:
228,22,211887,1,0,0:0:0:0:
264,33,211997,1,0,0:0:0:0:
291,60,212108,1,0,0:0:0:0:
302,96,212218,1,0,0:0:0:0:
302,134,212328,1,0,0:0:0:0:
289,170,212438,1,0,0:0:0:0:
273,214,212549,1,0,0:0:0:0:
271,260,212659,1,0,0:0:0:0:
291,302,212769,1,0,0:0:0:0:
329,328,212880,1,0,0:0:0:0:
373,342,212990,1,0,0:0:0:0:
419,343,213100,1,0,0:0:0:0:
464,329,213211,1,0,0:0:0:0:
494,294,213321,1,0,0:0:0:0:
444,268,213431,1,0,0:0:0:0:
388,266,213541,1,0,0:0:0:0:
333,274,213652,1,0,0:0:0:0:
280,291,213762,1,0,0:0:0:0:
227,308,213872,1,0,0:0:0:0:
172,316,213983,1,0,0:0:0:0:
116,314,214093,1,0,0:0:0:0:
66,288,214203,6,2,B|48:229|48:229|66:166,1,127.5
211,37,214644,2,2,B|229:96|229:96|211:159,1,127.5,2|0,0:0|0:0,0:0:0:0:
322,355,215086,1,2,0:0:0:0:
454,264,215306,1,0,0:0:0:0:
446,235,215416,1,2,0:0:0:0:
270,153,215637,1,0,0:0:0:0:
278,124,215747,1,2,0:0:0:0:
510,15,215968,6,2,P|454:44|371:30,1,127.5
102,43,216409,2,2,P|158:14|241:28,1,127.5,2|0,0:0|0:0,0:0:0:0:
347,121,216850,1,2,0:0:0:0:
175,207,217071,1,0,0:0:0:0:
183,235,217181,1,2,0:0:0:0:
331,298,217402,1,0,0:0:0:0:
323,326,217512,1,2,0:0:0:0:
36,371,217733,6,2,L|61:244,1,127.5,2|0,0:0|0:0,0:0:0:0:
346,291,218174,2,2,L|321:164,1,127.5,2|0,0:0|0:0,0:0:0:0:
157,66,218615,1,2,0:0:0:0:
54,184,218836,1,0,0:0:0:0:
82,193,218946,1,2,0:0:0:0:
186,355,219166,1,0,0:0:0:0:
214,346,219276,1,2,0:0:0:0:
415,186,219497,6,2,P|418:120|388:45,1,127.5,2|0,0:0|0:0,0:0:0:0:
147,9,219938,2,2,P|144:75|174:150,1,127.5,2|0,0:0|0:0,0:0:0:0:
290,233,220380,1,2,0:0:0:0:
399,164,220600,1,0,0:0:0:0:
394,134,220711,1,2,0:0:0:0:
133,260,220931,1,0,0:0:0:0:
138,290,221042,1,2,0:0:0:0:
490,253,221262,6,2,B|431:235|431:235|368:253,1,127.5,2|0,0:0|0:0,0:0:0:0:
52,194,221703,2,2,B|111:212|111:212|174:194,1,127.5,2|0,0:0|0:0,0:0:0:0:
297,153,222144,1,2,0:0:0:0:
138,41,222365,1,0,0:0:0:0:
128,69,222475,1,2,0:0:0:0:
378,125,222696,1,0,0:0:0:0:
388,153,222806,1,2,0:0:0:0:
143,362,223027,6,2,P|123:308|134:228,1,127.5,2|0,0:0|0:0,0:0:0:0:
260,17,223468,2,2,P|280:71|269:151,1,127.5,2|0,0:0|0:0,0:0:0:0:
331,290,223909,1,2,0:0:0:0:
508,150,224130,1,0,0:0:0:0:
479,158,224240,1,2,0:0:0:0:
169,71,224461,1,0,0:0:0:0:
198,79,224571,1,2,0:0:0:0:
510,1,224791,6,2,L|494:133,1,127.5,2|0,0:0|0:0,0:0:0:0:
245,63,225233,2,2,L|261:195,1,127.5,2|0,0:0|0:0,0:0:0:0:
388,289,225674,1,2,0:0:0:0:
180,371,225894,1,0,0:0:0:0:
151,362,226005,1,2,0:0:0:0:
18,141,226225,1,0,0:0:0:0:
47,150,226336,1,2,0:0:0:0:
301,11,226556,6,2,P|321:67|305:153,1,127.5,2|0,0:0|0:0,0:0:0:0:
171,349,226997,2,2,P|151:293|167:207,1,127.5,2|0,0:0|0:0,0:0:0:0:
5,107,227438,1,0,0:0:0:0:
12,69,227549,1,0,0:0:0:0:
43,47,227659,1,0,0:0:0:0:
81,45,227769,1,0,0:0:0:0:
114,63,227880,2,0,L|122:93,3,21.25
199,28,228100,2,0,L|207:-2,2,21.25
269,156,228321,6,2,P|256:199|260:264,1,85,2|0,0:0|0:0,0:0:0:0:
438,371,228762,2,2,P|451:328|447:263,1,85,2|0,0:0|0:0,0:0:0:0:
341,19,229203,1,2,0:0:0:0:
253,113,229424,1,0,0:0:0:0:
232,109,229534,1,2,0:0:0:0:
106,136,229755,1,0,0:0:0:0:
93,118,229865,1,2,0:0:0:0:
257,15,230086,6,2,P|270:56|266:113,1,85,2|0,0:0|0:0,0:0:0:0:
66,304,230527,2,2,P|53:263|57:206,1,85,2|0,0:0|0:0,0:0:0:0:
257,15,230968,1,2,0:0:0:0:
355,98,231188,1,0,0:0:0:0:
347,117,231299,1,2,0:0:0:0:
357,244,231519,1,0,0:0:0:0:
338,252,231630,1,2,0:0:0:0:
43,224,231850,6,2,P|88:209|141:217,1,85,2|0,0:0|0:0,0:0:0:0:
377,356,232291,2,2,P|332:371|279:363,1,85,2|0,0:0|0:0,0:0:0:0:
64,144,232733,1,2,0:0:0:0:
161,60,232953,1,0,0:0:0:0:
166,39,233063,1,2,0:0:0:0:
293,48,233284,1,0,0:0:0:0:
312,36,233394,1,2,0:0:0:0:
438,263,233615,6,2,P|428:218|438:179,1,85,2|0,0:0|0:0,0:0:0:0:
199,15,234056,2,2,P|209:60|199:99,1,85,2|0,0:0|0:0,0:0:0:0:
17,229,234497,1,2,0:0:0:0:
105,323,234718,1,0,0:0:0:0:
112,343,234828,1,2,0:0:0:0:
240,347,235049,1,0,0:0:0:0:
259,356,235159,1,2,0:0:0:0:
503,147,235380,6,2,P|452:125|358:143,1,127.5,2|0,0:0|0:0,0:0:0:0:
133,194,235821,2,2,P|191:217|254:209,1,127.5,2|0,0:0|0:0,0:0:0:0:
366,52,236262,1,2,0:0:0:0:
210,94,236483,1,0,0:0:0:0:
188,88,236593,1,2,0:0:0:0:
408,222,236813,1,0,0:0:0:0:
430,228,236923,1,2,0:0:0:0:
176,366,237144,6,2,B|160:334|160:334|167:240,1,127.5,2|0,0:0|0:0,0:0:0:0:
326,39,237586,2,2,B|342:71|342:71|335:165,1,127.5,2|0,0:0|0:0,0:0:0:0:
240,330,238027,1,2,0:0:0:0:
151,157,238247,1,0,0:0:0:0:
158,128,238358,1,2,0:0:0:0:
333,317,238578,1,0,0:0:0:0:
326,346,238689,1,2,0:0:0:0:
8,292,238909,6,2,L|142:273,1,127.5,2|0,0:0|0:0,0:0:0:0:
450,332,239350,2,2,L|316:313,1,127.5,2|0,0:0|0:0,0:0:0:0:
180,183,239791,1,2,0:0:0:0:
423,98,240012,1,0,0:0:0:0:
417,127,240122,1,2,0:0:0:0:
112,24,240343,1,0,0:0:0:0:
118,53,240453,1,2,0:0:0:0:
469,15,240674,6,2,P|429:51|326:68,1,127.5,2|0,0:0|0:0,0:0:0:0:
420,221,241115,2,2,P|366:218|281:157,1,127.5,2|0,0:0|0:0,0:0:0:0:
239,332,241556,2,2,P|203:292|186:189,1,127.5,2|0,0:0|0:0,0:0:0:0:
216,128,241997,1,0,0:0:0:0:
228,100,242108,1,0,0:0:0:0:
228,70,242218,1,0,0:0:0:0:
216,42,242328,1,0,0:0:0:0:
189,28,242438,6,0,L|52:43,1,127.5
45,45,242880,1,0,0:0:0:0:
13,170,243100,1,0,0:0:0:0:
155,246,243321,2,0,P|171:205|170:147,1,85
34,30,243762,2,0,P|18:71|19:129,1,85
84,293,244203,2,0,L|256:256,1,170
422,164,244865,1,0,0:0:0:0:
422,164,244975,1,0,0:0:0:0:
422,164,245086,2,0,P|431:206|422:247,1,85
240,113,245527,2,0,P|231:71|240:30,1,85
465,18,245968,6,0,P|412:80|330:71,1,170
208,32,246630,1,0,0:0:0:0:
125,171,246850,2,0,L|223:151,1,85
452,239,247291,2,0,L|354:219,1,85
52,279,247733,2,0,P|104:341|186:332,1,170
304,280,248394,1,0,0:0:0:0:
309,286,248505,1,0,0:0:0:0:
314,292,248615,2,0,L|303:204,1,85
443,30,249056,2,0,L|432:118,1,85
220,200,249497,6,0,B|83:185,1,127.5
76,182,249938,1,0,0:0:0:0:
44,57,250159,1,0,0:0:0:0:
197,6,250380,2,0,P|209:48|197:88,1,85
53,260,250821,2,0,P|41:218|53:178,1,85
311,51,251262,2,0,B|321:243,1,170
218,300,251924,1,0,0:0:0:0:
212,306,252034,1,0,0:0:0:0:
206,312,252144,2,0,P|245:328|300:324,1,85
512,201,252586,2,0,P|473:185|418:189,1,85
314,253,253027,5,2,0:0:0:0:
236,194,253248,1,0,0:0:0:0:
241,172,253358,1,2,0:0:0:0:
381,91,253578,1,2,0:0:0:0:
254,59,253799,1,2,0:0:0:0:
234,54,253909,1,0,0:0:0:0:
65,148,254130,1,0,0:0:0:0:
85,143,254240,1,2,0:0:0:0:
163,246,254461,1,2,0:0:0:0:
50,362,254682,1,2,0:0:0:0:
43,332,254791,1,0,0:0:0:0:
88,212,255012,1,0,0:0:0:0:
95,242,255122,1,2,0:0:0:0:
239,313,255343,1,2,0:0:0:0:
392,106,255564,1,2,0:0:0:0:
403,133,255674,1,0,0:0:0:0:
325,236,255895,1,0,0:0:0:0:
329,206,256005,1,2,0:0:0:0:
164,103,256226,1,0,0:0:0:0:
135,113,256336,1,2,0:0:0:0:
116,137,256446,1,2,0:0:0:0:
109,167,256557,6,0,L|127:256,1,85
193,321,256997,1,0,0:0:0:0:
71,366,257218,1,0,0:0:0:0:
0,220,257438,2,0,P|41:207|82:220,1,85
323,138,257880,2,0,P|282:151|241:138,1,85
168,33,258321,2,0,P|208:87|170:190,1,170
13,272,258983,1,0,0:0:0:0:
8,264,259093,1,0,0:0:0:0:
3,256,259203,2,0,L|98:271,1,85
333,197,259644,2,0,L|238:212,1,85
132,364,260086,6,0,P|167:294|140:209,1,170
60,154,260747,1,0,0:0:0:0:
156,25,260968,2,0,L|168:116,1,85
40,332,261409,2,0,L|52:241,1,85
261,169,261850,2,0,P|350:159|419:215,1,170
359,355,262512,1,0,0:0:0:0:
357,363,262622,1,0,0:0:0:0:
354,371,262733,2,0,P|344:329|348:278,1,85
476,66,263174,2,0,P|486:108|482:159,1,85
202,230,263615,6,0,L|23:214,1,170
0,122,264277,1,0,0:0:0:0:
126,21,264497,2,0,B|138:63|138:63|126:102,1,85
14,335,264938,2,0,B|2:293|2:293|14:254,1,85
359,174,265380,2,0,P|303:217|207:200,1,170
115,221,266041,1,0,0:0:0:0:
110,213,266152,1,0,0:0:0:0:
105,206,266262,2,0,L|121:117,1,85
279,12,266703,2,0,L|263:101,1,85
426,199,267144,5,2,0:0:0:0:
494,131,267365,1,0,0:0:0:0:
471,111,267475,1,2,0:0:0:0:
442,102,267586,1,0,0:0:0:0:
412,101,267696,1,0,0:0:0:0:
383,109,267806,1,2,0:0:0:0:
359,126,267916,1,0,0:0:0:0:
342,150,268027,1,2,0:0:0:0:
295,236,268247,1,0,0:0:0:0:
278,260,268358,1,2,0:0:0:0:
254,277,268468,1,0,0:0:0:0:
225,285,268578,1,0,0:0:0:0:
195,284,268688,1,2,0:0:0:0:
166,275,268799,1,0,0:0:0:0:
143,255,268909,1,2,0:0:0:0:
36,328,269130,1,0,0:0:0:0:
56,305,269240,1,2,0:0:0:0:
65,276,269351,1,0,0:0:0:0:
66,246,269461,1,0,0:0:0:0:
58,217,269571,1,2,0:0:0:0:
41,193,269681,1,0,0:0:0:0:
17,176,269792,1,2,0:0:0:0:
145,188,270012,1,0,0:0:0:0:
125,165,270122,1,2,0:0:0:0:
116,136,270233,1,0,0:0:0:0:
115,106,270343,1,0,0:0:0:0:
123,77,270453,1,2,0:0:0:0:
140,53,270563,1,0,0:0:0:0:
164,36,270674,6,0,L|255:44,1,85,0|2,0:0|0:0,0:0:0:0:
454,139,271115,2,0,L|363:131,1,85,0|2,0:0|0:0,0:0:0:0:
352,129,271446,1,0,0:0:0:0:
287,243,271666,1,0,0:0:0:0:
287,243,271777,1,2,0:0:0:0:
409,202,271997,1,0,0:0:0:0:
189,158,272218,1,2,0:0:0:0:
121,228,272438,6,0,P|116:267|125:319,1,85,0|2,0:0|0:0,0:0:0:0:
282,202,272880,2,0,P|287:163|278:111,1,85,0|2,0:0|0:0,0:0:0:0:
273,102,273211,1,0,0:0:0:0:
178,21,273431,1,0,0:0:0:0:
178,21,273541,1,2,0:0:0:0:
155,143,273762,1,0,0:0:0:0:
443,186,273983,1,2,0:0:0:0:
372,127,274203,6,0,L|286:136,1,85,0|2,0:0|0:0,0:0:0:0:
77,216,274644,2,0,L|163:225,1,85,0|2,0:0|0:0,0:0:0:0:
178,226,274975,1,0,0:0:0:0:
252,122,275196,1,0,0:0:0:0:
252,122,275306,1,2,0:0:0:0:
289,285,275527,1,0,0:0:0:0:
114,200,275747,1,2,0:0:0:0:
201,240,275968,6,0,P|209:201|198:148,1,85,0|2,0:0|0:0,0:0:0:0:
27,14,276409,2,0,P|19:53|30:106,1,85,0|2,0:0|0:0,0:0:0:0:
34,112,276740,1,0,0:0:0:0:
107,224,276961,1,0,0:0:0:0:
107,224,277071,1,2,0:0:0:0:
120,95,277291,1,0,0:0:0:0:
21,295,277512,1,2,0:0:0:0:
178,263,277733,5,2,0:0:0:0:
232,318,277953,1,0,0:0:0:0:
230,334,278063,1,2,0:0:0:0:
315,236,278284,1,2,0:0:0:0:
266,176,278505,1,2,0:0:0:0:
272,160,278615,1,0,0:0:0:0:
276,31,278836,1,0,0:0:0:0:
270,47,278946,1,2,0:0:0:0:
188,97,279166,1,2,0:0:0:0:
365,173,279387,1,0,0:0:0:0:
381,170,279497,1,2,0:0:0:0:
494,105,279718,1,0,0:0:0:0:
478,108,279828,1,2,0:0:0:0:
413,68,280049,1,2,0:0:0:0:
494,209,280269,1,2,0:0:0:0:
493,226,280380,1,0,0:0:0:0:
407,321,280600,1,0,0:0:0:0:
408,304,280711,1,2,0:0:0:0:
354,248,280931,1,2,0:0:0:0:
326,236,281041,1,0,0:0:0:0:
296,237,281152,1,2,0:0:0:0:
272,254,281262,6,0,L|286:345,1,85,0|2,0:0|0:0,0:0:0:0:
104,203,281703,2,0,L|118:112,1,85,0|2,0:0|0:0,0:0:0:0:
120,102,282034,1,0,0:0:0:0:
11,41,282255,1,0,0:0:0:0:
11,41,282365,1,2,0:0:0:0:
27,137,282586,1,0,0:0:0:0:
217,101,282806,1,2,0:0:0:0:
276,176,283027,6,0,P|278:223|261:271,1,85,0|2,0:0|0:0,0:0:0:0:
57,341,283468,2,0,P|55:294|72:246,1,85,0|2,0:0|0:0,0:0:0:0:
76,245,283799,1,0,0:0:0:0:
196,194,284019,1,0,0:0:0:0:
196,194,284130,1,2,0:0:0:0:
165,286,284350,1,0,0:0:0:0:
115,65,284571,1,2,0:0:0:0:
188,18,284791,6,0,P|253:14|322:40,2,127.5,0|2|2,0:0|0:0|0:0,0:0:0:0:
123,90,285674,2,0,P|58:94|-11:68,2,127.5,0|2|2,0:0|0:0|0:0,0:0:0:0:
189,160,286556,1,0,0:0:0:0:
340,103,286887,1,2,0:0:0:0:
449,229,287218,1,2,0:0:0:0:
449,229,287438,2,0,L|438:325,1,85,0|2,0:0|0:0,0:0:0:0:
335,149,287880,2,0,L|346:53,1,85,0|2,0:0|0:0,0:0:0:0:
287,10,288321,5,0,0:0:0:0:
287,10,288541,1,2,0:0:0:0:
167,120,288983,1,2,0:0:0:0:
8,86,289424,1,2,0:0:0:0:
60,247,289865,1,2,0:0:0:0:
60,247,290086,2,0,P|99:262|155:255,1,85,0|2,0:0|0:0,0:0:0:0:
305,157,290527,2,0,P|266:142|210:149,1,85,0|2,0:0|0:0,0:0:0:0:
207,151,290858,1,0,0:0:0:0:
247,276,291078,1,0,0:0:0:0:
247,276,291188,1,2,0:0:0:0:
330,227,291409,1,0,0:0:0:0:
76,184,291630,1,2,0:0:0:0:
29,99,291850,6,0,P|87:139|194:114,1,170
247,14,292512,2,0,B|194:76|214:192|272:157|301:277|247:332,1,340
160,376,293615,6,0,L|168:274,1,85,0|2,0:0|0:0,0:0:0:0:
45,139,294056,2,0,L|53:241,1,85,0|2,0:0|0:0,0:0:0:0:
53,242,294387,1,0,0:0:0:0:
131,308,294608,1,0,0:0:0:0:
131,308,294718,1,2,0:0:0:0:
42,100,294938,1,0,0:0:0:0:
154,171,295159,1,2,0:0:0:0:
223,129,295380,6,0,P|235:73|223:4,2,127.5,0|2|2,0:0|0:0|0:0,0:0:0:0:
292,197,296262,2,0,P|280:253|292:322,2,127.5,0|2|2,0:0|0:0|0:0,0:0:0:0:
376,147,297144,6,0,L|466:168,1,85,0|2,0:0|0:0,0:0:0:0:
221,67,297586,2,0,L|131:88,1,85,0|2,0:0|0:0,0:0:0:0:
122,91,297916,1,0,0:0:0:0:
33,52,298137,1,0,0:0:0:0:
33,52,298247,1,2,0:0:0:0:
85,205,298468,1,0,0:0:0:0:
215,21,298688,1,2,0:0:0:0:
278,73,298909,6,0,P|286:140|267:211,1,127.5,0|2,0:0|0:0,0:0:0:0:
264,213,299350,1,0,0:0:0:0:
175,174,299571,1,2,0:0:0:0:
375,335,299791,2,0,P|367:268|386:197,1,127.5,0|2,0:0|0:0,0:0:0:0:
389,195,300232,1,0,0:0:0:0:
478,234,300453,1,2,0:0:0:0:
404,90,300674,6,0,L|264:106,2,127.5,0|2|2,0:0|0:0|0:0,0:0:0:0:
486,143,301556,2,0,P|496:184|486:224,1,85,0|2,0:0|0:0,0:0:0:0:
426,277,301997,1,0,0:0:0:0:
240,226,302218,1,2,0:0:0:0:
329,320,302438,1,0,0:0:0:0:
387,265,302659,2,0,P|349:244|308:244,1,85,2|0,0:0|0:0,0:0:0:0:
64,327,303100,2,0,P|101:347|142:347,1,85,2|0,0:0|0:0,0:0:0:0:
312,154,303541,2,0,P|274:133|233:133,1,85,2|0,0:0|0:0,0:0:0:0:
163,171,303983,1,2,0:0:0:0:
18,99,304203,6,0,L|31:8,1,85,0|2,0:0|0:0,0:0:0:0:
129,253,304644,2,0,L|116:344,1,85,0|2,0:0|0:0,0:0:0:0:
114,355,304975,1,0,0:0:0:0:
29,307,305196,1,0,0:0:0:0:
29,307,305306,1,2,0:0:0:0:
68,150,305527,1,0,0:0:0:0:
119,370,305747,1,2,0:0:0:0:
172,311,305968,6,0,P|246:273|328:288,1,170
415,384,306630,2,0,P|375:330|489:119,1,340
372,51,307733,6,0,L|270:62,1,85,0|2,0:0|0:0,0:0:0:0:
47,153,308174,2,0,L|149:164,1,85,0|2,0:0|0:0,0:0:0:0:
148,164,308505,1,0,0:0:0:0:
121,70,308725,1,0,0:0:0:0:
121,70,308836,1,2,0:0:0:0:
60,254,309056,1,0,0:0:0:0:
187,233,309277,1,2,0:0:0:0:
141,297,309497,6,0,P|82:294|12:310,2,127.5,0|2|2,0:0|0:0|0:0,0:0:0:0:
224,347,310380,2,0,P|283:350|353:334,2,127.5,0|2|2,0:0|0:0|0:0,0:0:0:0:
141,297,311262,1,0,0:0:0:0:
141,297,312144,2,0,P|143:348|125:395,2,95.6250036478044
52,216,313027,6,0,B|99:120|334:159|203:314|408:389|482:307,1,510.000019454957,4|0,0:0|0:0,0:0:0:0:
481,307,327144,5,0,0:0:0:0:
481,307,327806,1,2,0:0:0:0:
454,236,328027,2,0,P|450:201|464:106,1,127.500004863739
356,35,328909,1,2,0:0:0:0:
356,35,329571,1,2,0:0:0:0:
358,41,329681,1,0,0:0:0:0:
360,46,329791,2,0,L|347:111,1,63.7500024318696,0|2,0:0|0:0,0:0:0:0:
240,183,330233,2,0,L|227:118,1,63.7500024318696,0|2,0:0|0:0,0:0:0:0:
169,72,330674,5,0,0:0:0:0:
169,72,331336,1,2,0:0:0:0:
209,136,331556,2,0,P|213:171|199:266,1,127.500004863739
95,338,332438,1,2,0:0:0:0:
95,338,333100,1,2,0:0:0:0:
98,343,333211,1,0,0:0:0:0:
101,348,333321,2,0,L|173:327,1,63.7500024318696,0|2,0:0|0:0,0:0:0:0:
257,242,333762,2,0,L|185:221,1,63.7500024318696,0|2,0:0|0:0,0:0:0:0:
72,186,334203,6,0,P|67:141|82:92,1,85
220,29,334644,2,0,P|225:74|210:123,1,85
215,112,334975,1,0,0:0:0:0:
215,112,335086,1,0,0:0:0:0:
274,202,335306,1,0,0:0:0:0:
390,145,335527,2,0,L|437:150,2,42.5
318,78,335968,6,0,P|274:91|222:85,1,85
87,26,336409,2,0,P|131:13|183:19,1,85
169,15,336740,1,0,0:0:0:0:
169,15,336850,1,0,0:0:0:0:
231,104,337071,1,0,0:0:0:0:
126,179,337291,2,0,L|72:174,2,42.5
195,248,337733,6,0,P|196:301|172:377,1,127.5
174,371,338174,1,0,0:0:0:0:
272,353,338394,1,0,0:0:0:0:
368,369,338615,1,0,0:0:0:0:
384,364,338725,1,0,0:0:0:0:
400,360,338836,1,0,0:0:0:0:
473,253,339056,2,0,P|431:241|382:244,1,85
327,168,339497,6,0,P|349:240|288:330,1,170
215,351,340159,1,0,0:0:0:0:
199,343,340269,1,0,0:0:0:0:
183,335,340380,1,0,0:0:0:0:
87,346,340600,1,0,0:0:0:0:
14,238,340821,2,0,P|6:197|14:155,1,85
161,30,341262,6,0,P|169:71|161:113,1,85
161,112,341593,1,0,0:0:0:0:
161,112,341703,1,0,0:0:0:0:
121,205,341924,1,0,0:0:0:0:
198,308,342144,1,0,0:0:0:0:
213,301,342255,1,0,0:0:0:0:
228,294,342365,1,0,0:0:0:0:
374,225,342586,1,0,0:0:0:0:
345,242,342696,1,0,0:0:0:0:
311,247,342806,1,0,0:0:0:0:
279,234,342916,1,0,0:0:0:0:
261,204,343027,6,0,L|279:115,1,85
164,7,343468,2,0,L|146:96,1,85
147,90,343799,1,0,0:0:0:0:
147,90,343909,1,0,0:0:0:0:
129,190,344130,1,0,0:0:0:0:
14,131,344350,2,0,L|-36:137,2,42.5
122,60,344791,6,0,P|212:52|287:100,1,170
373,67,345453,1,0,0:0:0:0:
359,98,345563,1,0,0:0:0:0:
356,132,345674,1,0,0:0:0:0:
365,164,345784,1,0,0:0:0:0:
384,191,345894,1,0,0:0:0:0:
413,209,346005,1,0,0:0:0:0:
446,215,346115,1,0,0:0:0:0:
503,164,346336,1,0,0:0:0:0:
459,319,346556,6,0,P|417:333|366:323,1,85
211,228,346997,2,0,P|253:214|304:224,1,85
292,219,347328,1,0,0:0:0:0:
292,219,347438,1,0,0:0:0:0:
282,323,347659,1,0,0:0:0:0:
399,268,347880,1,0,0:0:0:0:
432,263,347990,1,0,0:0:0:0:
462,277,348100,1,0,0:0:0:0:
512,194,348321,5,0,0:0:0:0:
425,98,348541,1,0,0:0:0:0:
385,221,348762,1,0,0:0:0:0:
321,151,348983,1,0,0:0:0:0:
305,181,349093,1,0,0:0:0:0:
278,202,349203,1,0,0:0:0:0:
245,212,349313,1,0,0:0:0:0:
211,216,349424,1,0,0:0:0:0:
178,207,349534,1,0,0:0:0:0:
151,185,349644,2,0,L|163:140,1,42.5
133,78,349865,1,0,0:0:0:0:
16,232,350086,5,0,0:0:0:0:
143,205,350306,1,0,0:0:0:0:
103,328,350527,1,0,0:0:0:0:
103,328,350858,1,0,0:0:0:0:
106,332,350968,2,0,P|146:342|199:341,1,85
266,285,351409,1,0,0:0:0:0:
262,272,351519,1,0,0:0:0:0:
258,259,351630,1,0,0:0:0:0:
256,192,351850,12,4,354938,0:0:0:0:
258,259,355380,6,0,L|396:282,1,127.5
400,283,355821,1,0,0:0:0:0:
489,150,356041,1,0,0:0:0:0:
347,18,356262,2,0,P|336:66|353:113,1,85
486,231,356703,2,0,P|498:191|489:150,1,85
274,228,357144,2,0,P|214:269|100:234,1,170
5,197,357806,1,0,0:0:0:0:
7,188,357916,1,0,0:0:0:0:
9,179,358027,2,0,L|101:156,1,85
349,310,358468,2,0,L|257:287,1,85
222,22,358909,6,0,P|252:104|190:179,1,170
15,54,359571,2,0,P|95:37|158:91,1,170
149,283,360233,1,0,0:0:0:0:
80,212,360453,2,0,P|69:172|72:130,1,85
182,12,360894,1,0,0:0:0:0:
334,129,361115,1,0,0:0:0:0:
21,197,361336,2,0,P|82:146|170:180,1,170
198,359,361997,1,0,0:0:0:0:
99,230,362218,1,0,0:0:0:0:
308,320,362438,6,0,P|400:333|457:272,1,170
492,162,363100,1,0,0:0:0:0:
354,28,363321,2,0,L|372:120,1,85
276,351,363762,2,0,L|258:259,1,85
158,102,364203,2,0,P|66:89|9:150,1,170
61,256,364865,1,0,0:0:0:0:
69,258,364975,1,0,0:0:0:0:
76,261,365086,2,0,P|118:261|170:227,1,85
387,122,365527,2,0,P|349:103|307:103,1,85
240,352,365968,5,2,0:0:0:0:
194,267,366188,1,0,0:0:0:0:
201,251,366299,1,2,0:0:0:0:
325,217,366519,1,2,0:0:0:0:
196,119,366740,1,0,0:0:0:0:
203,103,366851,1,2,0:0:0:0:
365,84,367071,1,0,0:0:0:0:
372,68,367182,1,2,0:0:0:0:
471,150,367402,1,2,0:0:0:0:
373,230,367622,1,0,0:0:0:0:
357,223,367733,1,2,0:0:0:0:
323,99,367953,1,0,0:0:0:0:
307,92,368063,1,2,0:0:0:0:
209,221,368284,1,2,0:0:0:0:
190,59,368505,1,0,0:0:0:0:
174,52,368616,1,2,0:0:0:0:
40,190,368836,1,0,0:0:0:0:
24,183,368946,1,2,0:0:0:0:
0,57,369166,1,2,0:0:0:0:
154,8,369387,1,2,0:0:0:0:
170,15,369497,6,0,P|179:58|156:108,1,85
0,248,369938,2,0,P|-9:205|14:155,1,85
226,211,370380,2,0,L|423:244,1,170
475,186,371041,1,0,0:0:0:0:
374,21,371262,2,0,P|295:70|290:153,1,170
413,276,371924,1,0,0:0:0:0:
420,280,372034,1,0,0:0:0:0:
426,285,372144,2,0,L|309:276,1,85
117,358,372586,2,0,L|234:349,1,85
419,130,373027,6,0,P|337:100|262:162,1,170
387,337,373689,2,0,P|404:257|350:194,1,170
158,203,374351,1,0,0:0:0:0:
229,272,374571,2,0,P|269:283|311:280,1,85
429,170,375012,1,0,0:0:0:0:
312,18,375233,1,0,0:0:0:0:
244,331,375454,2,0,P|295:270|261:182,1,170
82,154,376115,1,0,0:0:0:0:
211,253,376336,1,0,0:0:0:0:
461,163,376556,6,0,L|449:76,1,85
377,15,376997,1,0,0:0:0:0:
148,38,377218,1,0,0:0:0:0:
322,119,377438,2,0,P|364:131|426:126,1,85
117,164,377880,2,0,P|76:152|33:152,1,85
43,376,378321,2,0,P|91:310|60:235,1,170
204,304,378983,1,0,0:0:0:0:
211,307,379093,1,0,0:0:0:0:
218,310,379203,2,0,L|308:303,1,85
381,245,379644,1,0,0:0:0:0:
274,10,379865,1,0,0:0:0:0:
414,170,380086,5,2,0:0:0:0:
482,102,380307,1,0,0:0:0:0:
459,82,380417,1,2,0:0:0:0:
430,73,380528,1,0,0:0:0:0:
400,72,380638,1,0,0:0:0:0:
371,80,380748,1,2,0:0:0:0:
347,97,380858,1,0,0:0:0:0:
330,121,380969,1,2,0:0:0:0:
283,207,381189,1,0,0:0:0:0:
266,231,381300,1,2,0:0:0:0:
242,248,381410,1,0,0:0:0:0:
213,256,381520,1,0,0:0:0:0:
183,255,381630,1,2,0:0:0:0:
154,246,381741,1,0,0:0:0:0:
131,226,381851,1,2,0:0:0:0:
24,299,382072,1,0,0:0:0:0:
44,276,382182,1,2,0:0:0:0:
53,247,382291,1,0,0:0:0:0:
54,217,382402,1,0,0:0:0:0:
46,188,382513,1,2,0:0:0:0:
29,164,382623,1,0,0:0:0:0:
5,147,382734,1,2,0:0:0:0:
133,159,382954,1,0,0:0:0:0:
113,136,383064,1,2,0:0:0:0:
104,107,383175,1,0,0:0:0:0:
103,77,383285,1,0,0:0:0:0:
111,48,383395,1,2,0:0:0:0:
128,24,383505,1,0,0:0:0:0:
152,7,383615,6,2,L|286:18,1,127.5,2|0,0:0|0:0,0:0:0:0:
496,313,384056,2,2,L|362:302,1,127.5,2|0,0:0|0:0,0:0:0:0:
103,24,384497,2,0,L|220:34,1,85,2|0,0:0|0:0,0:0:0:0:
346,141,384828,2,0,L|463:151,1,85,2|0,0:0|0:0,0:0:0:0:
40,186,385159,2,0,L|120:194,1,42.5,2|0,0:0|0:0,0:0:0:0:
464,370,385380,6,2,L|453:236,1,127.5,2|0,0:0|0:0,0:0:0:0:
244,9,385821,2,2,L|255:137,1,127.5,2|0,0:0|0:0,0:0:0:0:
503,384,386262,2,0,L|495:288,1,85,2|0,0:0|0:0,0:0:0:0:
296,193,386593,2,0,L|288:97,1,85,2|0,0:0|0:0,0:0:0:0:
81,384,386924,2,0,L|77:326,1,42.5,2|0,0:0|0:0,0:0:0:0:
130,33,387144,6,2,L|6:60,1,127.5,2|0,0:0|0:0,0:0:0:0:
507,267,387586,2,2,L|382:293,1,127.5,2|0,0:0|0:0,0:0:0:0:
0,95,388027,2,0,L|108:72,1,85,2|0,0:0|0:0,0:0:0:0:
341,108,388358,2,0,L|449:85,1,85,2|0,0:0|0:0,0:0:0:0:
129,292,388688,2,0,L|177:282,1,42.5,2|0,0:0|0:0,0:0:0:0:
482,235,388909,6,2,L|469:361,1,127.5,2|0,0:0|0:0,0:0:0:0:
262,3,389350,2,2,L|249:129,1,127.5,2|0,0:0|0:0,0:0:0:0:
440,383,389791,2,0,L|447:298,1,85,2|0,0:0|0:0,0:0:0:0:
220,151,390122,2,0,L|227:66,1,85,2|0,0:0|0:0,0:0:0:0:
21,349,390453,2,0,L|25:297,1,42.5,2|0,0:0|0:0,0:0:0:0:
1,20,390674,6,2,P|70:6|120:57,1,127.5,2|0,0:0|0:0,0:0:0:0:
322,327,391115,2,2,P|253:341|203:290,1,127.5,2|0,0:0|0:0,0:0:0:0:
10,25,391556,2,0,P|57:24|95:53,1,85,2|0,0:0|0:0,0:0:0:0:
308,320,391887,2,0,P|261:321|223:292,1,85,2|0,0:0|0:0,0:0:0:0:
487,167,392218,1,2,0:0:0:0:
171,36,392438,6,2,P|157:105|208:155,1,127.5,2|0,0:0|0:0,0:0:0:0:
478,357,392880,2,2,P|492:288|442:237,1,127.5,2|0,0:0|0:0,0:0:0:0:
176,45,393320,2,0,P|175:92|204:130,1,85,2|0,0:0|0:0,0:0:0:0:
471,343,393651,2,0,P|472:296|443:258,1,85,2|0,0:0|0:0,0:0:0:0:
114,368,393983,1,2,0:0:0:0:
375,152,394203,6,2,P|444:138|494:189,1,127.5,2|0,0:0|0:0,0:0:0:0:
119,274,394644,2,2,P|50:288|0:237,1,127.5,2|0,0:0|0:0,0:0:0:0:
384,157,395085,2,0,P|431:156|469:185,1,85,2|0,0:0|0:0,0:0:0:0:
105,267,395416,2,0,P|58:268|20:239,1,85,2|0,0:0|0:0,0:0:0:0:
123,8,395747,1,2,0:0:0:0:
396,269,395968,6,2,P|391:339|329:374,1,127.5,2|0,0:0|0:0,0:0:0:0:
150,118,396409,2,2,P|154:47|216:12,1,127.5,2|0,0:0|0:0,0:0:0:0:
326,300,396850,1,0,0:0:0:0:
326,300,396961,1,0,0:0:0:0:
203,261,397071,1,0,0:0:0:0:
203,261,397182,1,0,0:0:0:0:
386,206,397291,2,0,L|419:220,2,21.25
121,93,397512,2,0,L|86:106,3,21.25
235,31,397733,6,0,P|273:32|287:41,1,42.5,4|0,0:0|0:0,0:0:0:0:
456,218,397953,1,0,0:0:0:0:
452,230,398174,6,0,P|414:229|400:220,1,42.5,4|0,0:0|0:0,0:0:0:0:
231,43,398394,1,0,0:0:0:0:
224,32,398615,6,0,L|216:83,1,42.5,4|0,0:0|0:0,0:0:0:0:
159,298,398836,1,0,0:0:0:0:
159,298,398946,1,4,0:0:0:0:
446,245,399166,1,0,0:0:0:0:
446,245,399276,1,4,0:0:0:0:
454,255,399497,6,0,L|445:308,1,42.5,4|0,0:0|0:0,0:0:0:0:
159,202,399718,1,0,0:0:0:0:
150,212,399938,6,0,L|159:265,1,42.5,4|0,0:0|0:0,0:0:0:0:
493,139,400159,1,0,0:0:0:0:
502,149,400380,6,0,L|493:202,1,42.5,4|0,0:0|0:0,0:0:0:0:
386,354,400600,1,0,0:0:0:0:
386,354,400711,1,4,0:0:0:0:
275,87,400931,1,0,0:0:0:0:
275,87,401041,1,4,0:0:0:0:
283,97,401262,6,0,P|253:107|226:107,1,42.5,4|0,0:0|0:0,0:0:0:0:
23,62,401483,1,0,0:0:0:0:
20,74,401703,6,0,P|46:91|72:98,1,42.5,4|0,0:0|0:0,0:0:0:0:
279,221,401924,1,0,0:0:0:0:
282,233,402144,6,0,P|255:250|229:257,1,42.5,4|0,0:0|0:0,0:0:0:0:
12,361,402365,1,0,0:0:0:0:
12,361,402476,1,4,0:0:0:0:
130,135,402696,1,0,0:0:0:0:
130,135,402806,1,4,0:0:0:0:
142,146,403027,6,0,L|100:135,1,42.5,4|0,0:0|0:0,0:0:0:0:
441,209,403247,1,0,0:0:0:0:
432,222,403468,6,0,L|473:211,1,42.5,4|0,0:0|0:0,0:0:0:0:
94,294,403688,1,0,0:0:0:0:
104,306,403909,6,0,L|62:295,1,42.5,4|0,0:0|0:0,0:0:0:0:
445,383,404129,1,0,0:0:0:0:
445,383,404240,1,4,0:0:0:0:
363,105,404461,1,0,0:0:0:0:
363,105,404572,1,4,0:0:0:0:
374,112,404791,6,0,P|374:183|322:231,1,127.5,4|0,0:0|0:0,0:0:0:0:
25,142,405233,2,0,P|25:71|77:23,1,127.5,4|0,0:0|0:0,0:0:0:0:
136,9,405674,2,0,L|180:18,1,42.5,4|0,0:0|0:0,0:0:0:0:
435,62,405894,1,0,0:0:0:0:
435,62,406005,1,4,0:0:0:0:
53,145,406225,1,0,0:0:0:0:
53,145,406336,1,4,0:0:0:0:
56,158,406556,6,0,L|197:194,1,127.5,4|0,0:0|0:0,0:0:0:0:
512,76,406997,2,0,L|371:40,1,127.5,4|0,0:0|0:0,0:0:0:0:
319,81,407438,2,0,L|326:134,1,42.5,4|0,0:0|0:0,0:0:0:0:
356,348,407659,1,0,0:0:0:0:
356,348,407769,1,4,0:0:0:0:
508,228,407990,1,0,0:0:0:0:
508,228,408100,1,4,0:0:0:0:
499,218,408321,6,0,B|483:255|483:255|497:343,1,127.5,4|0,0:0|0:0,0:0:0:0:
230,157,408762,2,0,B|246:120|246:120|232:32,1,127.5,4|0,0:0|0:0,0:0:0:0:
157,12,409203,2,0,L|111:20,1,42.5,4|0,0:0|0:0,0:0:0:0:
2,215,409424,1,0,0:0:0:0:
2,215,409534,1,4,0:0:0:0:
478,138,409755,1,0,0:0:0:0:
478,138,409865,1,0,0:0:0:0:
270,338,410086,1,0,0:3:0:0:
256,192,410196,12,0,411409,0:0:0:0:
270,338,411850,6,0,P|351:362|408:306,1,170
496,266,412512,1,0,0:0:0:0:
393,61,412733,2,0,B|379:103|379:103|397:148,1,85
260,333,413174,2,0,B|274:291|274:291|256:246,1,85
3,118,413615,2,0,P|63:172|140:147,1,170
235,173,414277,1,0,0:0:0:0:
237,164,414387,1,0,0:0:0:0:
239,155,414497,2,0,L|228:64,1,85
441,0,414938,2,0,L|430:91,1,85
390,371,415380,6,0,P|364:293|418:233,1,170
479,156,416041,1,0,0:0:0:0:
278,7,416262,2,0,B|292:49|292:49|274:94,1,85
126,259,416703,2,0,B|110:221|110:221|124:179,1,85
306,255,417144,2,0,P|383:280|443:226,1,170
512,135,417806,1,0,0:0:0:0:
504,138,417916,1,0,0:0:0:0:
496,141,418027,2,0,L|403:132,1,85
99,48,418468,2,0,L|192:39,1,85
428,152,418909,6,0,P|432:233|364:277,1,170
284,332,419571,1,0,0:0:0:0:
169,176,419791,2,0,B|155:134|155:134|173:89,1,85
374,3,420233,2,0,B|388:45|388:45|370:90,1,85
52,130,420674,2,0,P|129:104|189:158,1,170
291,139,421336,1,0,0:0:0:0:
288,147,421446,1,0,0:0:0:0:
285,155,421556,2,0,L|302:246,1,85
97,365,421997,2,0,L|114:274,1,85
23,35,422438,5,2,0:0:0:0:
1,129,422659,1,0,0:0:0:0:
13,173,422769,1,2,0:0:0:0:
93,227,422990,1,2,0:0:0:0:
188,209,423211,1,0,0:0:0:0:
228,185,423321,1,2,0:0:0:0:
314,145,423541,1,0,0:0:0:0:
361,142,423652,1,2,0:0:0:0:
450,178,423872,1,2,0:0:0:0:
493,264,424093,1,0,0:0:0:0:
490,310,424203,1,2,0:0:0:0:
414,369,424424,1,0,0:0:0:0:
368,377,424534,1,2,0:0:0:0:
278,343,424755,1,2,0:0:0:0:
224,264,424975,1,0,0:0:0:0:
218,217,425086,1,2,0:0:0:0:
236,123,425306,1,0,0:0:0:0:
260,83,425416,1,2,0:0:0:0:
340,30,425637,1,2,0:0:0:0:
436,41,425858,1,0,0:0:0:0:
469,74,425968,6,0,P|484:153|423:206,1,170
325,203,426630,1,0,0:0:0:0:
233,31,426850,2,0,B|273:16|273:16|312:31,1,85
198,261,427291,2,0,B|158:276|158:276|119:261,1,85
63,13,427733,2,0,P|78:92|17:145,1,170
0,240,428394,1,0,0:0:0:0:
5,246,428505,1,0,0:0:0:0:
10,252,428615,2,0,L|108:242,1,85
267,363,429056,2,0,L|169:353,1,85
312,148,429497,6,0,P|388:123|448:177,1,170
474,272,430159,1,0,0:0:0:0:
307,370,430380,2,0,B|292:330|292:330|307:291,1,85
129,95,430821,2,0,B|144:135|144:135|129:174,1,85
46,348,431262,2,0,P|105:292|183:317,1,170
278,364,431924,1,0,0:0:0:0:
280,355,432034,1,0,0:0:0:0:
281,346,432144,2,0,L|265:252,1,85
448,88,432586,2,0,L|432:182,1,85
160,80,433027,6,0,P|219:24|297:49,1,170
386,11,433688,1,0,0:0:0:0:
459,293,433909,2,0,B|474:253|474:253|459:214,1,85
297,49,434350,2,0,B|282:89|282:89|297:128,1,85
511,358,434791,2,0,P|451:302|373:327,1,170
290,277,435453,1,0,0:0:0:0:
282,281,435563,1,0,0:0:0:0:
275,286,435674,2,0,L|187:269,1,85
0,162,436115,2,0,L|88:145,1,85
240,32,436556,5,2,0:0:0:0:
194,117,436776,1,0,0:0:0:0:
201,133,436887,1,2,0:0:0:0:
325,167,437107,1,2,0:0:0:0:
196,265,437328,1,2,0:0:0:0:
203,281,437439,1,0,0:0:0:0:
365,300,437659,1,0,0:0:0:0:
372,316,437770,1,2,0:0:0:0:
471,234,437990,1,2,0:0:0:0:
373,154,438210,1,2,0:0:0:0:
357,161,438321,1,0,0:0:0:0:
323,285,438541,1,0,0:0:0:0:
307,292,438651,1,2,0:0:0:0:
209,163,438872,1,2,0:0:0:0:
190,325,439093,1,2,0:0:0:0:
174,332,439204,1,0,0:0:0:0:
40,194,439424,1,0,0:0:0:0:
24,201,439534,1,2,0:0:0:0:
0,327,439754,1,2,0:0:0:0:
154,376,439975,1,2,0:0:0:0:
170,369,440086,6,0,P|179:326|156:276,1,85
0,136,440527,1,0,0:0:0:0:
38,260,440747,1,0,0:0:0:0:
279,125,440968,2,0,P|236:116|186:139,1,85
330,350,441409,2,0,P|373:359|423:336,1,85
347,119,441850,2,0,P|319:196|363:265,1,170
478,331,442512,1,0,0:0:0:0:
480,323,442622,1,0,0:0:0:0:
482,314,442733,2,0,L|469:231,1,85
300,30,443174,2,0,L|313:113,1,85
145,321,443615,6,0,P|164:281|155:227,1,85
41,51,444056,1,0,0:0:0:0:
10,177,444276,1,0,0:0:0:0:
212,78,444497,2,0,P|251:58|305:67,1,85
478,236,444938,2,0,P|438:255|384:246,1,85
401,17,445380,2,0,P|447:84|422:162,1,170
337,209,446041,1,0,0:0:0:0:
329,212,446152,1,0,0:0:0:0:
320,214,446262,2,0,L|225:202,1,85
17,322,446703,2,0,L|101:332,1,85
391,371,447144,6,0,P|400:328|377:278,1,85
267,343,447586,1,0,0:0:0:0:
489,319,447806,1,0,0:0:0:0:
358,139,448027,2,0,P|349:182|372:232,1,85
202,379,448468,2,0,P|211:336|188:286,1,85
0,131,448909,2,0,P|64:181|144:160,1,170
240,199,449571,1,0,0:0:0:0:
238,190,449681,1,0,0:0:0:0:
237,181,449791,2,0,L|253:97,1,85
499,15,450233,2,0,L|483:99,1,85
440,298,450674,5,2,0:0:0:0:
368,364,450894,1,0,0:0:0:0:
342,347,451005,1,2,0:0:0:0:
325,322,451115,1,0,0:0:0:0:
315,293,451225,1,0,0:0:0:0:
315,263,451336,1,2,0:0:0:0:
321,233,451446,1,0,0:0:0:0:
338,208,451556,1,2,0:0:0:0:
425,166,451777,1,0,0:0:0:0:
442,141,451887,1,2,0:0:0:0:
448,111,451997,1,0,0:0:0:0:
448,81,452108,1,0,0:0:0:0:
438,52,452218,1,2,0:0:0:0:
421,27,452328,1,0,0:0:0:0:
395,10,452439,1,2,0:0:0:0:
351,108,452659,1,0,0:0:0:0:
334,82,452770,1,2,0:0:0:0:
309,65,452880,1,0,0:0:0:0:
280,55,452990,1,0,0:0:0:0:
250,55,453101,1,2,0:0:0:0:
220,61,453211,1,0,0:0:0:0:
195,78,453321,1,2,0:0:0:0:
94,158,453541,1,0,0:0:0:0:
111,184,453652,1,2,0:0:0:0:
136,201,453762,1,0,0:0:0:0:
165,211,453872,1,0,0:0:0:0:
195,211,453983,1,2,0:0:0:0:
225,205,454093,1,0,0:0:0:0:
250,188,454203,6,0,L|241:97,1,85
142,20,454644,1,0,0:0:0:0:
69,199,454865,1,0,0:0:0:0:
323,166,455086,2,0,P|369:162|411:186,1,85
271,361,455527,2,0,P|225:365|183:341,1,85
16,206,455968,1,0,0:0:0:0:
22,212,456630,1,0,0:0:0:0:
28,217,456740,1,0,0:0:0:0:
34,223,456851,2,0,L|132:211,1,85
370,355,457291,2,0,L|272:343,1,85
445,30,457733,6,0,P|485:75|450:190,1,170
354,240,458394,1,0,0:0:0:0:
230,91,458615,2,0,L|249:6,1,85
52,174,459056,2,0,L|71:259,1,85
226,367,459497,1,0,0:0:0:0:
220,360,460159,1,0,0:0:0:0:
216,352,460269,1,0,0:0:0:0:
212,344,460380,2,0,P|210:299|233:257,1,85
481,290,460821,2,0,P|483:335|460:377,1,85
183,105,461262,6,0,P|228:65|343:100,1,170
422,59,461924,1,0,0:0:0:0:
278,232,462144,2,0,P|261:194|264:152,1,85
477,8,462586,2,0,P|494:46|491:88,1,85
206,39,463027,2,0,P|125:21|62:73,1,170
0,149,463688,1,0,0:0:0:0:
2,157,463799,1,0,0:0:0:0:
4,165,463909,2,0,L|98:186,1,85
372,68,464350,2,0,L|278:89,1,85
140,258,464791,5,2,0:0:0:0:
215,197,465012,1,0,0:0:0:0:
240,183,465123,1,2,0:0:0:0:
269,181,465233,1,0,0:0:0:0:
298,186,465343,1,0,0:0:0:0:
323,200,465453,1,2,0:0:0:0:
344,222,465564,1,0,0:0:0:0:
353,250,465674,1,2,0:0:0:0:
442,377,465894,1,0,0:0:0:0:
424,346,466005,1,2,0:0:0:0:
422,310,466115,1,0,0:0:0:0:
428,273,466225,1,0,0:0:0:0:
445,242,466335,1,2,0:0:0:0:
473,216,466446,1,0,0:0:0:0:
508,205,466556,1,2,0:0:0:0:
383,18,466777,1,0,0:0:0:0:
401,49,466888,1,2,0:0:0:0:
403,85,466998,1,0,0:0:0:0:
397,122,467108,1,0,0:0:0:0:
380,153,467218,1,2,0:0:0:0:
352,179,467329,1,0,0:0:0:0:
317,190,467439,1,2,0:0:0:0:
36,251,467659,1,0,0:0:0:0:
66,220,467770,1,2,0:0:0:0:
107,210,467880,1,0,0:0:0:0:
149,209,467990,1,0,0:0:0:0:
189,222,468100,1,2,0:0:0:0:
221,249,468211,1,0,0:0:0:0:
239,287,468321,6,0,L|225:374,1,85,4|0,0:2|0:1,0:1:0:0:
363,233,468762,1,0,0:0:0:0:
291,164,468983,1,0,0:0:0:0:
291,164,469093,1,0,0:0:0:0:
291,164,469203,2,0,P|232:153|191:158,1,85,0|2,0:0|0:3,0:0:0:0:
3,281,469644,2,0,P|62:292|103:287,1,85
214,141,470086,6,0,L|201:46,1,85
77,18,470527,1,0,0:0:0:0:
22,205,470747,1,0,0:0:0:0:
22,205,470858,1,0,0:0:0:0:
22,205,470968,2,0,P|81:216|122:211,1,85,0|2,0:0|0:3,0:0:0:0:
345,137,471409,2,0,P|286:126|245:131,1,85
477,314,471850,6,0,L|491:221,1,85
345,358,472291,1,0,0:0:0:0:
214,212,472512,1,0,0:0:0:0:
214,212,472622,1,0,0:0:0:0:
214,212,472733,2,0,P|273:201|314:206,1,85,0|2,0:0|0:3,0:0:0:0:
136,362,473174,2,0,P|93:362|52:352,1,85
5,112,473615,6,0,L|15:207,1,85
122,266,474056,1,0,0:0:0:0:
277,130,474277,1,0,0:0:0:0:
277,130,474387,1,0,0:0:0:0:
277,130,474498,2,0,P|218:119|177:124,1,85,0|2,0:0|0:3,0:0:0:0:
355,280,474939,2,0,P|398:280|439:270,1,85
509,104,475380,6,0,L|493:16,1,85
398,0,475821,1,0,0:0:0:0:
300,169,476041,1,0,0:0:0:0:
300,169,476152,1,0,0:0:0:0:
300,169,476262,2,0,P|300:212|310:253,1,85,0|2,0:0|0:3,0:0:0:0:
483,353,476703,2,0,P|483:310|473:269,1,85
227,343,477144,6,0,L|345:333,1,85
175,247,477586,1,0,0:0:0:0:
95,297,477806,1,0,0:0:0:0:
95,297,477916,1,0,0:0:0:0:
95,297,478027,2,0,P|98:338|92:380,1,85,0|2,0:0|0:3,0:0:0:0:
0,178,478468,2,0,P|-4:136|2:94,1,85
283,71,478909,6,0,L|170:97,1,85
107,63,479350,1,0,0:0:0:0:
220,259,479571,1,0,0:0:0:0:
220,259,479681,1,0,0:0:0:0:
220,259,479791,2,0,P|226:217|222:174,1,85,0|2,0:0|0:3,0:0:0:0:
73,7,480233,2,0,P|66:48|70:91,1,85
258,241,480674,6,0,L|353:225,1,85
154,187,481115,1,0,0:0:0:0:
401,362,481336,1,0,0:0:0:0:
401,362,481446,1,0,0:0:0:0:
401,362,481556,2,0,P|407:320|403:277,1,85,0|2,0:0|0:3,0:0:0:0:
285,45,481997,2,0,P|278:86|282:129,1,85
471,219,482438,6,0,P|411:190|313:261,1,170
304,307,483100,1,0,0:0:0:0:
90,182,483321,2,0,L|183:169,1,85,0|2,0:0|0:3,0:0:0:0:
426,76,483762,2,0,L|333:63,1,85
120,28,484203,1,0,0:0:0:0:
120,28,484644,1,0,0:0:0:0:
211,132,484865,1,0,0:0:0:0:
211,132,484975,1,0,0:0:0:0:
211,132,485086,2,0,P|207:178|185:224,1,85
17,300,485527,2,0,P|20:253|43:208,1,85
215,303,485968,6,0,P|279:321|363:234,1,170
364,188,486630,1,0,0:0:0:0:
246,17,486850,2,0,L|234:110,1,85,0|2,0:0|0:3,0:0:0:0:
101,324,487291,2,0,L|89:231,1,85
65,48,487733,1,0,0:0:0:0:
65,48,488174,1,0,0:0:0:0:
136,116,488394,1,0,0:0:0:0:
171,131,488505,1,0,0:0:0:0:
208,126,488615,1,0,0:0:0:0:
208,126,488836,1,0,0:0:0:0:
10,230,489056,1,0,0:0:0:0:
10,230,489277,1,0,0:0:0:0:
252,345,489497,6,0,P|277:283|201:189,1,170
156,183,490159,1,0,0:0:0:0:
265,63,490380,2,0,L|355:52,1,85,0|2,0:0|0:3,0:0:0:0:
509,175,490821,2,0,L|419:164,1,85
181,249,491262,1,0,0:0:0:0:
181,249,491703,1,0,0:0:0:0:
239,171,491924,1,0,0:0:0:0:
239,171,492034,1,0,0:0:0:0:
239,171,492144,2,0,P|235:125|213:79,1,85
47,235,492586,2,0,P|51:281|73:327,1,85
136,41,493027,5,2,0:0:0:0:
48,80,493247,1,0,0:0:0:0:
27,122,493358,1,2,0:0:0:0:
35,218,493578,1,2,0:0:0:0:
96,293,493799,1,0,0:0:0:0:
137,314,493909,1,2,0:0:0:0:
233,298,494130,1,0,0:0:0:0:
274,277,494240,1,2,0:0:0:0:
335,202,494461,1,2,0:0:0:0:
339,106,494681,1,0,0:0:0:0:
318,63,494791,1,2,0:0:0:0:
230,23,495012,1,0,0:0:0:0:
183,21,495122,1,2,0:0:0:0:
94,59,495343,1,2,0:0:0:0:
32,133,495563,1,0,0:0:0:0:
22,179,495674,1,2,0:0:0:0:
35,275,495894,1,0,0:0:0:0:
67,308,496005,1,2,0:0:0:0:
157,342,496225,1,2,0:0:0:0:
254,333,496446,1,0,0:0:0:0:
294,309,496556,6,0,L|280:220,1,85,4|2,0:0|0:0,0:0:0:0:
417,99,496997,2,0,L|403:188,1,85
400,199,497328,1,0,0:0:0:0:
303,32,497549,1,0,0:0:0:0:
303,32,497659,1,2,3:0:0:0:
420,82,497880,1,0,0:0:0:0:
303,32,498100,1,0,0:0:0:0:
202,112,498321,6,0,P|156:121|89:120,1,85,0|2,0:0|0:0,0:0:0:0:
0,232,498762,2,0,P|46:241|113:240,1,85
100,240,499093,1,0,0:0:0:0:
236,101,499313,1,0,0:0:0:0:
236,101,499424,1,2,3:0:0:0:
113,134,499644,1,0,0:0:0:0:
236,101,499865,1,0,0:0:0:0:
321,198,500086,6,0,L|306:294,1,85,0|2,0:0|0:0,0:0:0:0:
453,214,500527,2,0,L|438:118,1,85
437,113,500858,1,0,0:0:0:0:
322,168,501078,1,0,0:0:0:0:
322,168,501188,1,2,3:0:0:0:
437,113,501409,1,0,0:0:0:0:
322,168,501630,1,0,0:0:0:0:
217,95,501850,6,0,P|263:86|330:87,1,85,0|2,0:0|0:0,0:0:0:0:
441,214,502291,2,0,P|395:205|328:206,1,85
341,206,502622,1,0,0:0:0:0:
234,275,502843,1,0,0:0:0:0:
234,275,502953,1,2,3:0:0:0:
341,206,503174,1,0,0:0:0:0:
234,275,503394,1,0,0:0:0:0:
118,219,503615,6,0,L|137:133,1,85,0|2,0:0|0:0,0:0:0:0:
0,25,504056,2,0,L|19:111,1,85
22,124,504387,1,0,0:0:0:0:
151,100,504608,1,0,0:0:0:0:
151,100,504718,1,2,3:0:0:0:
22,124,504938,1,0,0:0:0:0:
151,100,505159,1,0,0:0:0:0:
222,208,505380,6,0,P|268:217|335:216,1,85,0|2,0:0|0:0,0:0:0:0:
510,145,505821,2,0,P|464:154|397:153,1,85
409,150,506152,1,0,0:0:0:0:
331,48,506372,1,0,0:0:0:0:
331,48,506483,1,2,3:0:0:0:
409,150,506703,1,0,0:0:0:0:
331,48,506924,1,0,0:0:0:0:
209,89,507144,6,0,L|217:177,1,85,0|2,0:0|0:0,0:0:0:0:
100,118,507586,2,0,L|108:30,1,85
110,16,507916,1,0,0:0:0:0:
3,90,508137,1,0,0:0:0:0:
3,90,508247,1,2,3:0:0:0:
110,16,508468,1,0,0:0:0:0:
3,90,508688,1,0,0:0:0:0:
27,217,508909,6,0,P|73:213|138:195,1,85,0|2,0:0|0:0,0:0:0:0:
282,323,509350,2,0,P|235:319|170:301,1,85
181,307,509681,1,0,0:0:0:0:
108,202,509902,1,0,0:0:0:0:
108,202,510012,1,2,3:0:0:0:
181,307,510233,1,0,0:0:0:0:
108,202,510453,1,0,0:0:0:0:
164,86,510674,6,0,L|248:100,1,85,0|2,0:0|0:0,0:0:0:0:
443,28,511115,2,0,L|359:42,1,85,0|2,0:0|0:0,0:0:0:0:
342,46,511446,1,0,0:0:0:0:
256,141,511666,1,0,0:0:0:0:
256,141,511777,1,2,3:0:0:0:
342,46,511997,1,0,0:0:0:0:
256,141,512218,1,2,0:0:0:0:
126,122,512438,6,0,P|169:106|227:72,1,85,0|2,0:0|0:0,0:0:0:0:
91,203,512880,2,0,P|47:187|-10:153,1,85,0|2,0:0|0:0,0:0:0:0:
6,153,513211,1,0,0:0:0:0:
23,284,513431,1,0,0:0:0:0:
23,284,513541,1,2,3:0:0:0:
6,153,513762,1,0,0:0:0:0:
110,78,513983,1,2,0:0:0:0:
226,133,514203,6,0,L|210:237,1,85,0|2,0:0|0:0,0:0:0:0:
332,104,514644,2,0,L|316:0,1,85,0|2,0:0|0:0,0:0:0:0:
316,2,514975,1,0,0:0:0:0:
192,34,515196,1,0,0:0:0:0:
192,34,515306,1,2,3:0:0:0:
316,2,515527,1,0,0:0:0:0:
408,92,515747,1,2,0:0:0:0:
399,220,515968,6,0,P|414:263|448:321,1,85,0|2,0:0|0:0,0:0:0:0:
291,373,516409,2,0,P|310:335|324:295,1,85,0|2,0:0|0:0,0:0:0:0:
329,278,516740,1,0,0:0:0:0:
202,297,516961,1,0,0:0:0:0:
202,297,517071,1,2,3:0:0:0:
329,278,517291,1,0,0:0:0:0:
426,363,517512,1,2,0:0:0:0:
511,266,517733,6,0,L|493:169,1,85,0|2,0:0|0:0,0:0:0:0:
368,211,518174,2,0,L|386:114,1,85,0|2,0:0|0:0,0:0:0:0:
385,110,518505,1,0,0:0:0:0:
400,34,518725,1,0,0:0:0:0:
400,34,518836,1,2,3:0:0:0:
466,143,519056,1,0,0:0:0:0:
313,96,519277,1,2,0:0:0:0:
244,161,519497,6,0,P|255:205|284:266,1,85,0|2,0:0|0:0,0:0:0:0:
398,210,519938,2,0,P|386:254|357:315,1,85,0|2,0:0|0:0,0:0:0:0:
361,304,520269,1,0,0:0:0:0:
292,342,520490,1,0,0:0:0:0:
292,342,520600,1,2,3:0:0:0:
225,231,520821,1,0,0:0:0:0:
379,275,521041,1,2,0:0:0:0:
415,186,521262,6,0,L|320:195,1,85,0|2,0:0|0:0,0:0:0:0:
338,323,521703,2,0,L|243:314,1,85,0|2,0:0|0:0,0:0:0:0:
236,313,522034,1,0,0:0:0:0:
174,266,522255,1,0,0:0:0:0:
174,266,522365,1,2,3:0:0:0:
214,145,522586,1,0,0:0:0:0:
33,211,522806,1,0,0:0:0:0:
80,150,523027,6,0,L|124:156,1,42.5
190,124,523247,1,0,3:0:0:0:
188,115,523358,1,0,0:0:0:0:
187,106,523468,1,0,0:0:0:0:
282,191,523688,1,0,3:0:0:0:
275,215,523799,1,0,0:0:0:0:
397,176,524019,1,0,0:0:0:0:
372,152,524130,1,0,3:0:0:0:
366,118,524240,1,0,0:0:0:0:
375,85,524350,1,0,0:0:0:0:
503,307,524571,1,0,3:0:0:0:
499,323,524681,1,0,0:0:0:0:
