osu file format v14

[General]
AudioFilename: audio.mp3
AudioLeadIn: 0
PreviewTime: 31222
Countdown: 0
SampleSet: Normal
StackLeniency: 0.7
Mode: 3
LetterboxInBreaks: 0
SpecialStyle: 0
WidescreenStoryboard: 1

[Editor]
DistanceSpacing: 1
BeatDivisor: 4
GridSize: 4
TimelineZoom: 2.899999

[Metadata]
Title:Mad Machine
TitleUnicode:Mad Machine
Artist:Syrsa
ArtistUnicode:Syrsa
Creator:Niko_Plays
Version:Insane | Displeased
Source:osu!
Tags:maxim-miau speedcore electronic instrumental
BeatmapID:4011269
BeatmapSetID:1940073

[Difficulty]
HPDrainRate:8
CircleSize:4
OverallDifficulty:8
ApproachRate:5
SliderMultiplier:1.4
SliderTickRate:1

[Events]
//Background and Video events
0,0,"Tqdd.png",0,0
//Break Periods
//Storyboard Layer 0 (Background)
//Storyboard Layer 1 (Fail)
//Storyboard Layer 2 (Pass)
//Storyboard Layer 3 (Foreground)
//Storyboard Layer 4 (Overlay)
//Storyboard Sound Samples

[TimingPoints]
1000,222.222222222222,4,1,1,40,1,0

[HitObjects]
64,192,1000,5,0,0:0:0:0:
192,192,1000,1,0,0:0:0:0:
192,192,1111,1,0,0:0:0:0:
320,192,1222,1,0,0:0:0:0:
448,192,1222,1,0,0:0:0:0:
448,192,1333,1,0,0:0:0:0:
192,192,1444,1,0,0:0:0:0:
64,192,1444,1,0,0:0:0:0:
64,192,1555,1,0,0:0:0:0:
320,192,1666,1,0,0:0:0:0:
448,192,1666,1,0,0:0:0:0:
320,192,1777,1,0,0:0:0:0:
64,192,1888,1,0,0:0:0:0:
448,192,1888,1,0,0:0:0:0:
64,192,1999,1,0,0:0:0:0:
192,192,2111,1,0,0:0:0:0:
320,192,2111,1,0,0:0:0:0:
320,192,2222,1,0,0:0:0:0:
448,192,2333,1,0,0:0:0:0:
64,192,2333,1,0,0:0:0:0:
448,192,2444,1,0,0:0:0:0:
320,192,2555,1,0,0:0:0:0:
192,192,2555,1,0,0:0:0:0:
192,192,2666,1,0,0:0:0:0:
64,192,2777,1,0,0:0:0:0:
320,192,2777,1,0,0:0:0:0:
320,192,2888,1,0,0:0:0:0:
192,192,2999,1,0,0:0:0:0:
448,192,2999,1,0,0:0:0:0:
448,192,3111,1,0,0:0:0:0:
320,192,3222,1,0,0:0:0:0:
64,192,3222,1,0,0:0:0:0:
64,192,3333,1,0,0:0:0:0:
192,192,3444,1,0,0:0:0:0:
448,192,3444,1,0,0:0:0:0:
192,192,3555,1,0,0:0:0:0:
448,192,3666,1,0,0:0:0:0:
320,192,3666,1,0,0:0:0:0:
320,192,3777,1,0,0:0:0:0:
192,192,3888,1,0,0:0:0:0:
64,192,3888,1,0,0:0:0:0:
64,192,3999,1,0,0:0:0:0:
320,192,4111,1,0,0:0:0:0:
448,192,4111,1,0,0:0:0:0:
448,192,4222,1,0,0:0:0:0:
192,192,4333,1,0,0:0:0:0:
64,192,4333,1,0,0:0:0:0:
320,192,4388,1,0,0:0:0:0:
448,192,4388,1,0,0:0:0:0:
192,192,4444,1,0,0:0:0:0:
64,192,4444,1,0,0:0:0:0:
320,192,4499,1,0,0:0:0:0:
448,192,4555,1,0,0:0:0:0:
192,192,4555,1,0,0:0:0:0:
64,192,4555,1,0,0:0:0:0:
448,192,4666,1,0,0:0:0:0:
64,192,4777,1,0,0:0:0:0:
192,192,4777,1,0,0:0:0:0:
192,192,4888,1,0,0:0:0:0:
448,192,4999,1,0,0:0:0:0:
320,192,4999,1,0,0:0:0:0:
64,192,4999,1,0,0:0:0:0:
320,192,5111,1,0,0:0:0:0:
448,192,5222,1,0,0:0:0:0:
64,192,5222,1,0,0:0:0:0:
448,192,5333,1,0,0:0:0:0:
320,192,5444,1,0,0:0:0:0:
192,192,5444,1,0,0:0:0:0:
64,192,5444,1,0,0:0:0:0:
192,192,5555,1,0,0:0:0:0:
64,192,5666,1,0,0:0:0:0:
320,192,5666,1,0,0:0:0:0:
320,192,5777,1,0,0:0:0:0:
448,192,5777,1,0,0:0:0:0:
448,192,5888,1,0,0:0:0:0:
192,192,5888,1,0,0:0:0:0:
64,192,5888,1,0,0:0:0:0:
192,192,5999,1,0,0:0:0:0:
64,192,6111,1,0,0:0:0:0:
320,192,6111,1,0,0:0:0:0:
320,192,6222,1,0,0:0:0:0:
64,192,6333,1,0,0:0:0:0:
192,192,6333,1,0,0:0:0:0:
448,192,6333,1,0,0:0:0:0:
64,192,6444,1,0,0:0:0:0:
448,192,6555,1,0,0:0:0:0:
192,192,6555,1,0,0:0:0:0:
448,192,6666,1,0,0:0:0:0:
320,192,6666,1,0,0:0:0:0:
320,192,6777,1,0,0:0:0:0:
192,192,6777,1,0,0:0:0:0:
64,192,6777,1,0,0:0:0:0:
320,192,6888,1,0,0:0:0:0:
448,192,6888,1,0,0:0:0:0:
64,192,6999,1,0,0:0:0:0:
192,192,6999,1,0,0:0:0:0:
448,192,6999,1,0,0:0:0:0:
192,192,7111,1,0,0:0:0:0:
64,192,7222,1,0,0:0:0:0:
320,192,7222,1,0,0:0:0:0:
448,192,7222,1,0,0:0:0:0:
320,192,7333,1,0,0:0:0:0:
448,192,7444,1,0,0:0:0:0:
64,192,7444,1,0,0:0:0:0:
64,192,7555,1,0,0:0:0:0:
192,192,7666,1,0,0:0:0:0:
448,192,7666,1,0,0:0:0:0:
448,192,7777,1,0,0:0:0:0:
320,192,7777,1,0,0:0:0:0:
320,192,7888,1,0,0:0:0:0:
192,192,7888,1,0,0:0:0:0:
64,192,7888,1,0,0:0:0:0:
192,192,7999,1,0,0:0:0:0:
64,192,8111,1,0,0:0:0:0:
320,192,8111,1,0,0:0:0:0:
448,192,8111,1,0,0:0:0:0:
320,192,8222,1,0,0:0:0:0:
64,192,8333,1,0,0:0:0:0:
192,192,8333,1,0,0:0:0:0:
64,192,8444,1,0,0:0:0:0:
192,192,8555,1,0,0:0:0:0:
320,192,8555,1,0,0:0:0:0:
448,192,8555,1,0,0:0:0:0:
448,192,8666,1,0,0:0:0:0:
320,192,8777,1,0,0:0:0:0:
192,192,8777,1,0,0:0:0:0:
192,192,8888,1,0,0:0:0:0:
320,192,8999,1,0,0:0:0:0:
448,192,8999,1,0,0:0:0:0:
64,192,8999,1,0,0:0:0:0:
320,192,9111,1,0,0:0:0:0:
448,192,9222,1,0,0:0:0:0:
64,192,9222,1,0,0:0:0:0:
64,192,9333,1,0,0:0:0:0:
192,192,9333,1,0,0:0:0:0:
192,192,9444,1,0,0:0:0:0:
320,192,9444,1,0,0:0:0:0:
448,192,9444,1,0,0:0:0:0:
320,192,9555,1,0,0:0:0:0:
192,192,9666,1,0,0:0:0:0:
448,192,9666,1,0,0:0:0:0:
192,192,9777,1,0,0:0:0:0:
320,192,9888,1,0,0:0:0:0:
448,192,9888,1,0,0:0:0:0:
64,192,9888,1,0,0:0:0:0:
448,192,9999,1,0,0:0:0:0:
64,192,10111,1,0,0:0:0:0:
320,192,10111,1,0,0:0:0:0:
320,192,10222,1,0,0:0:0:0:
192,192,10222,1,0,0:0:0:0:
64,192,10333,1,0,0:0:0:0:
448,192,10333,1,0,0:0:0:0:
192,192,10333,1,0,0:0:0:0:
192,192,10444,1,0,0:0:0:0:
320,192,10444,1,0,0:0:0:0:
64,192,10555,1,0,0:0:0:0:
320,192,10555,1,0,0:0:0:0:
448,192,10555,1,0,0:0:0:0:
64,192,10666,1,0,0:0:0:0:
192,192,10777,1,0,0:0:0:0:
320,192,10777,1,0,0:0:0:0:
448,192,10777,1,0,0:0:0:0:
448,192,10888,1,0,0:0:0:0:
320,192,10999,1,0,0:0:0:0:
64,192,10999,1,0,0:0:0:0:
64,192,11111,1,0,0:0:0:0:
320,192,11222,1,0,0:0:0:0:
448,192,11222,1,0,0:0:0:0:
192,192,11222,1,0,0:0:0:0:
320,192,11333,1,0,0:0:0:0:
448,192,11333,1,0,0:0:0:0:
64,192,11444,1,0,0:0:0:0:
192,192,11444,1,0,0:0:0:0:
320,192,11499,1,0,0:0:0:0:
448,192,11499,1,0,0:0:0:0:
192,192,11555,1,0,0:0:0:0:
64,192,11555,1,0,0:0:0:0:
320,192,11611,1,0,0:0:0:0:
192,192,11666,1,0,0:0:0:0:
64,192,11666,1,0,0:0:0:0:
448,192,11666,1,0,0:0:0:0:
448,192,11777,1,0,0:0:0:0:
192,192,11888,1,0,0:0:0:0:
64,192,11888,1,0,0:0:0:0:
192,192,11999,1,0,0:0:0:0:
64,192,12111,1,0,0:0:0:0:
320,192,12111,1,0,0:0:0:0:
448,192,12111,1,0,0:0:0:0:
320,192,12222,1,0,0:0:0:0:
64,192,12333,1,0,0:0:0:0:
448,192,12333,1,0,0:0:0:0:
64,192,12444,1,0,0:0:0:0:
192,192,12555,1,0,0:0:0:0:
320,192,12555,1,0,0:0:0:0:
448,192,12555,1,0,0:0:0:0:
320,192,12666,1,0,0:0:0:0:
64,192,12777,1,0,0:0:0:0:
192,192,12777,1,0,0:0:0:0:
192,192,12888,1,0,0:0:0:0:
320,192,12888,1,0,0:0:0:0:
64,192,12999,1,0,0:0:0:0:
320,192,12999,1,0,0:0:0:0:
448,192,12999,1,0,0:0:0:0:
448,192,13111,1,0,0:0:0:0:
320,192,13222,1,0,0:0:0:0:
64,192,13222,1,0,0:0:0:0:
64,192,13333,1,0,0:0:0:0:
192,192,13444,1,0,0:0:0:0:
320,192,13444,1,0,0:0:0:0:
448,192,13444,1,0,0:0:0:0:
320,192,13555,1,0,0:0:0:0:
448,192,13666,1,0,0:0:0:0:
192,192,13666,1,0,0:0:0:0:
192,192,13777,1,0,0:0:0:0:
320,192,13777,1,0,0:0:0:0:
64,192,13888,1,0,0:0:0:0:
320,192,13888,1,0,0:0:0:0:
448,192,13888,1,0,0:0:0:0:
192,192,13999,1,0,0:0:0:0:
320,192,13999,1,0,0:0:0:0:
192,192,14111,1,0,0:0:0:0:
64,192,14111,1,0,0:0:0:0:
448,192,14111,1,0,0:0:0:0:
448,192,14222,1,0,0:0:0:0:
320,192,14333,1,0,0:0:0:0:
192,192,14333,1,0,0:0:0:0:
64,192,14333,1,0,0:0:0:0:
64,192,14444,1,0,0:0:0:0:
192,192,14555,1,0,0:0:0:0:
320,192,14555,1,0,0:0:0:0:
320,192,14666,1,0,0:0:0:0:
448,192,14777,1,0,0:0:0:0:
192,192,14777,1,0,0:0:0:0:
192,192,14888,1,0,0:0:0:0:
64,192,14888,1,0,0:0:0:0:
64,192,14999,1,0,0:0:0:0:
320,192,14999,1,0,0:0:0:0:
448,192,14999,1,0,0:0:0:0:
448,192,15111,1,0,0:0:0:0:
320,192,15222,1,0,0:0:0:0:
192,192,15222,1,0,0:0:0:0:
64,192,15222,1,0,0:0:0:0:
192,192,15333,1,0,0:0:0:0:
64,192,15444,1,0,0:0:0:0:
320,192,15444,1,0,0:0:0:0:
320,192,15555,1,0,0:0:0:0:
448,192,15666,1,0,0:0:0:0:
192,192,15666,1,0,0:0:0:0:
64,192,15666,1,0,0:0:0:0:
64,192,15777,1,0,0:0:0:0:
448,192,15888,1,0,0:0:0:0:
320,192,15888,1,0,0:0:0:0:
448,192,15999,1,0,0:0:0:0:
320,192,16111,1,0,0:0:0:0:
192,192,16111,1,0,0:0:0:0:
64,192,16111,1,0,0:0:0:0:
192,192,16222,1,0,0:0:0:0:
64,192,16333,1,0,0:0:0:0:
320,192,16333,1,0,0:0:0:0:
320,192,16444,1,0,0:0:0:0:
448,192,16444,1,0,0:0:0:0:
192,192,16555,1,0,0:0:0:0:
448,192,16555,1,0,0:0:0:0:
64,192,16555,1,0,0:0:0:0:
64,192,16666,1,0,0:0:0:0:
192,192,16777,1,0,0:0:0:0:
448,192,16777,1,0,0:0:0:0:
448,192,16888,1,0,0:0:0:0:
320,192,16999,1,0,0:0:0:0:
192,192,16999,1,0,0:0:0:0:
64,192,16999,1,0,0:0:0:0:
192,192,17111,1,0,0:0:0:0:
320,192,17222,1,0,0:0:0:0:
448,192,17222,1,0,0:0:0:0:
320,192,17333,1,0,0:0:0:0:
192,192,17333,1,0,0:0:0:0:
64,192,17444,1,0,0:0:0:0:
192,192,17444,1,0,0:0:0:0:
448,192,17444,1,0,0:0:0:0:
192,192,17555,1,0,0:0:0:0:
320,192,17555,1,0,0:0:0:0:
64,192,17666,1,0,0:0:0:0:
320,192,17666,1,0,0:0:0:0:
448,192,17666,1,0,0:0:0:0:
448,192,17777,1,0,0:0:0:0:
64,192,17888,1,0,0:0:0:0:
192,192,17888,1,0,0:0:0:0:
448,192,18037,1,0,0:0:0:0:
64,192,18111,1,0,0:0:0:0:
192,192,18111,128,0,18333:0:0:0:0:
448,192,18333,1,0,0:0:0:0:
320,192,18388,1,0,0:0:0:0:
192,192,18444,1,0,0:0:0:0:
448,192,18499,1,0,0:0:0:0:
64,192,18555,1,0,0:0:0:0:
192,192,18611,1,0,0:0:0:0:
320,192,18666,1,0,0:0:0:0:
448,192,18722,1,0,0:0:0:0:
64,192,18777,1,0,0:0:0:0:
192,192,18777,1,0,0:0:0:0:
320,192,18999,128,0,19222:0:0:0:0:
64,192,19222,1,0,0:0:0:0:
192,192,19222,1,0,0:0:0:0:
64,192,19444,128,0,19666:0:0:0:0:
192,192,19666,1,0,0:0:0:0:
448,192,19666,1,0,0:0:0:0:
192,192,19777,1,0,0:0:0:0:
448,192,19777,1,0,0:0:0:0:
320,192,19888,128,0,19999:0:0:0:0:
64,192,19999,1,0,0:0:0:0:
192,192,19999,1,0,0:0:0:0:
64,192,20111,1,0,0:0:0:0:
192,192,20111,1,0,0:0:0:0:
64,192,20222,1,0,0:0:0:0:
192,192,20222,1,0,0:0:0:0:
320,192,20333,128,0,20444:0:0:0:0:
448,192,20444,1,0,0:0:0:0:
64,192,20444,1,0,0:0:0:0:
64,192,20555,1,0,0:0:0:0:
448,192,20555,1,0,0:0:0:0:
64,192,20777,128,0,20999:0:0:0:0:
192,192,20999,1,0,0:0:0:0:
448,192,20999,1,0,0:0:0:0:
448,192,21222,128,0,21444:0:0:0:0:
64,192,21444,1,0,0:0:0:0:
192,192,21444,1,0,0:0:0:0:
320,192,21592,1,0,0:0:0:0:
448,192,21666,1,0,0:0:0:0:
64,192,21666,128,0,21888:0:0:0:0:
192,192,21888,1,0,0:0:0:0:
320,192,21944,1,0,0:0:0:0:
448,192,21999,1,0,0:0:0:0:
64,192,22055,1,0,0:0:0:0:
192,192,22111,1,0,0:0:0:0:
448,192,22166,1,0,0:0:0:0:
320,192,22222,1,0,0:0:0:0:
64,192,22277,1,0,0:0:0:0:
448,192,22333,1,0,0:0:0:0:
192,192,22333,1,0,0:0:0:0:
448,192,22555,128,0,22777:0:0:0:0:
192,192,22777,1,0,0:0:0:0:
320,192,22777,1,0,0:0:0:0:
320,192,22999,128,0,23222:0:0:0:0:
64,192,23222,1,0,0:0:0:0:
192,192,23222,1,0,0:0:0:0:
64,192,23333,1,0,0:0:0:0:
192,192,23333,1,0,0:0:0:0:
320,192,23444,128,0,23555:0:0:0:0:
448,192,23555,1,0,0:0:0:0:
64,192,23555,1,0,0:0:0:0:
448,192,23666,1,0,0:0:0:0:
64,192,23666,1,0,0:0:0:0:
64,192,23777,1,0,0:0:0:0:
448,192,23777,1,0,0:0:0:0:
192,192,23888,128,0,23999:0:0:0:0:
320,192,23999,1,0,0:0:0:0:
64,192,23999,1,0,0:0:0:0:
64,192,24111,1,0,0:0:0:0:
320,192,24111,1,0,0:0:0:0:
320,192,24333,128,0,24555:0:0:0:0:
192,192,24555,1,0,0:0:0:0:
64,192,24555,1,0,0:0:0:0:
64,192,24777,128,0,24999:0:0:0:0:
320,192,24999,1,0,0:0:0:0:
448,192,24999,1,0,0:0:0:0:
192,192,25148,1,0,0:0:0:0:
64,192,25222,1,0,0:0:0:0:
448,192,25222,128,0,25444:0:0:0:0:
64,192,25444,1,0,0:0:0:0:
192,192,25472,1,0,0:0:0:0:
448,192,25555,1,0,0:0:0:0:
320,192,25583,1,0,0:0:0:0:
64,192,25666,1,0,0:0:0:0:
192,192,25694,1,0,0:0:0:0:
448,192,25777,1,0,0:0:0:0:
320,192,25805,1,0,0:0:0:0:
64,192,25888,1,0,0:0:0:0:
192,192,25888,1,0,0:0:0:0:
64,192,26111,128,0,26333:0:0:0:0:
320,192,26333,1,0,0:0:0:0:
448,192,26333,1,0,0:0:0:0:
448,192,26555,128,0,26777:0:0:0:0:
192,192,26777,1,0,0:0:0:0:
64,192,26777,1,0,0:0:0:0:
64,192,26888,1,0,0:0:0:0:
192,192,26888,1,0,0:0:0:0:
320,192,26999,128,0,27111:0:0:0:0:
448,192,27111,1,0,0:0:0:0:
192,192,27111,1,0,0:0:0:0:
448,192,27222,1,0,0:0:0:0:
192,192,27222,1,0,0:0:0:0:
192,192,27333,1,0,0:0:0:0:
448,192,27333,1,0,0:0:0:0:
64,192,27444,128,0,27555:0:0:0:0:
320,192,27555,1,0,0:0:0:0:
448,192,27555,1,0,0:0:0:0:
448,192,27666,1,0,0:0:0:0:
320,192,27666,1,0,0:0:0:0:
448,192,27888,128,0,28111:0:0:0:0:
320,192,28111,1,0,0:0:0:0:
64,192,28111,1,0,0:0:0:0:
64,192,28333,128,0,28555:0:0:0:0:
320,192,28555,1,0,0:0:0:0:
448,192,28555,1,0,0:0:0:0:
192,192,28703,1,0,0:0:0:0:
448,192,28777,1,0,0:0:0:0:
64,192,28777,128,0,28999:0:0:0:0:
320,192,28999,1,0,0:0:0:0:
448,192,29055,1,0,0:0:0:0:
64,192,29111,1,0,0:0:0:0:
192,192,29166,1,0,0:0:0:0:
448,192,29222,1,0,0:0:0:0:
320,192,29277,1,0,0:0:0:0:
192,192,29333,1,0,0:0:0:0:
64,192,29388,1,0,0:0:0:0:
320,192,29444,1,0,0:0:0:0:
448,192,29444,1,0,0:0:0:0:
320,192,29666,128,0,29888:0:0:0:0:
64,192,29888,1,0,0:0:0:0:
448,192,29888,1,0,0:0:0:0:
64,192,30111,128,0,30333:0:0:0:0:
192,192,30333,1,0,0:0:0:0:
320,192,30333,1,0,0:0:0:0:
192,192,30444,1,0,0:0:0:0:
320,192,30444,1,0,0:0:0:0:
448,192,30555,128,0,30666:0:0:0:0:
64,192,30666,1,0,0:0:0:0:
192,192,30666,1,0,0:0:0:0:
64,192,30777,1,0,0:0:0:0:
192,192,30777,1,0,0:0:0:0:
64,192,30888,1,0,0:0:0:0:
192,192,30888,1,0,0:0:0:0:
448,192,30999,128,0,31111:0:0:0:0:
192,192,31111,1,0,0:0:0:0:
320,192,31111,1,0,0:0:0:0:
64,192,31222,5,0,0:0:0:0:
192,192,31277,1,0,0:0:0:0:
448,192,31333,1,0,0:0:0:0:
320,192,31388,1,0,0:0:0:0:
64,192,31444,1,0,0:0:0:0:
192,192,31499,1,0,0:0:0:0:
448,192,31555,1,0,0:0:0:0:
320,192,31611,1,0,0:0:0:0:
64,192,31666,1,0,0:0:0:0:
192,192,31722,1,0,0:0:0:0:
448,192,31777,1,0,0:0:0:0:
320,192,31833,1,0,0:0:0:0:
64,192,31888,1,0,0:0:0:0:
192,192,31944,1,0,0:0:0:0:
448,192,31999,1,0,0:0:0:0:
320,192,32055,1,0,0:0:0:0:
64,192,32111,1,0,0:0:0:0:
192,192,32166,1,0,0:0:0:0:
448,192,32222,1,0,0:0:0:0:
64,192,32277,1,0,0:0:0:0:
320,192,32333,1,0,0:0:0:0:
448,192,32388,1,0,0:0:0:0:
192,192,32444,1,0,0:0:0:0:
64,192,32499,1,0,0:0:0:0:
320,192,32555,1,0,0:0:0:0:
192,192,32611,1,0,0:0:0:0:
448,192,32666,1,0,0:0:0:0:
320,192,32722,1,0,0:0:0:0:
64,192,32777,1,0,0:0:0:0:
448,192,32833,1,0,0:0:0:0:
192,192,32888,1,0,0:0:0:0:
320,192,32944,1,0,0:0:0:0:
64,192,32999,1,0,0:0:0:0:
192,192,33055,1,0,0:0:0:0:
320,192,33111,1,0,0:0:0:0:
448,192,33166,1,0,0:0:0:0:
64,192,33222,1,0,0:0:0:0:
192,192,33277,1,0,0:0:0:0:
320,192,33333,1,0,0:0:0:0:
448,192,33388,1,0,0:0:0:0:
64,192,33444,1,0,0:0:0:0:
192,192,33499,1,0,0:0:0:0:
320,192,33555,1,0,0:0:0:0:
448,192,33611,1,0,0:0:0:0:
64,192,33666,1,0,0:0:0:0:
192,192,33722,1,0,0:0:0:0:
320,192,33777,1,0,0:0:0:0:
448,192,33833,1,0,0:0:0:0:
192,192,33888,1,0,0:0:0:0:
64,192,33888,1,0,0:0:0:0:
320,192,34111,1,0,0:0:0:0:
448,192,34111,128,0,34333:0:0:0:0:
192,192,34333,1,0,0:0:0:0:
64,192,34388,1,0,0:0:0:0:
448,192,34444,1,0,0:0:0:0:
320,192,34499,1,0,0:0:0:0:
64,192,34555,1,0,0:0:0:0:
448,192,34611,1,0,0:0:0:0:
192,192,34666,1,0,0:0:0:0:
320,192,34722,1,0,0:0:0:0:
64,192,34777,1,0,0:0:0:0:
192,192,34833,1,0,0:0:0:0:
320,192,34888,1,0,0:0:0:0:
448,192,34944,1,0,0:0:0:0:
64,192,34999,1,0,0:0:0:0:
192,192,35055,1,0,0:0:0:0:
320,192,35111,1,0,0:0:0:0:
448,192,35166,1,0,0:0:0:0:
64,192,35222,1,0,0:0:0:0:
192,192,35277,1,0,0:0:0:0:
320,192,35333,1,0,0:0:0:0:
448,192,35388,1,0,0:0:0:0:
64,192,35444,1,0,0:0:0:0:
192,192,35499,1,0,0:0:0:0:
320,192,35555,1,0,0:0:0:0:
448,192,35611,1,0,0:0:0:0:
192,192,35666,1,0,0:0:0:0:
64,192,35666,1,0,0:0:0:0:
320,192,35814,1,0,0:0:0:0:
64,192,35888,128,0,36111:0:0:0:0:
448,192,35888,1,0,0:0:0:0:
320,192,36111,1,0,0:0:0:0:
192,192,36138,1,0,0:0:0:0:
448,192,36222,1,0,0:0:0:0:
64,192,36249,1,0,0:0:0:0:
320,192,36333,1,0,0:0:0:0:
192,192,36361,1,0,0:0:0:0:
448,192,36444,1,0,0:0:0:0:
64,192,36472,1,0,0:0:0:0:
448,192,36555,1,0,0:0:0:0:
320,192,36611,1,0,0:0:0:0:
192,192,36666,1,0,0:0:0:0:
64,192,36722,1,0,0:0:0:0:
448,192,36777,1,0,0:0:0:0:
320,192,36833,1,0,0:0:0:0:
192,192,36888,1,0,0:0:0:0:
64,192,36944,1,0,0:0:0:0:
448,192,36999,1,0,0:0:0:0:
320,192,37055,1,0,0:0:0:0:
192,192,37111,1,0,0:0:0:0:
64,192,37166,1,0,0:0:0:0:
448,192,37222,1,0,0:0:0:0:
320,192,37277,1,0,0:0:0:0:
192,192,37333,1,0,0:0:0:0:
64,192,37388,1,0,0:0:0:0:
320,192,37444,1,0,0:0:0:0:
448,192,37444,1,0,0:0:0:0:
192,192,37592,1,0,0:0:0:0:
64,192,37666,1,0,0:0:0:0:
448,192,37666,128,0,37888:0:0:0:0:
64,192,37888,1,0,0:0:0:0:
192,192,37944,1,0,0:0:0:0:
448,192,37999,1,0,0:0:0:0:
64,192,38055,1,0,0:0:0:0:
320,192,38111,1,0,0:0:0:0:
192,192,38166,1,0,0:0:0:0:
448,192,38222,1,0,0:0:0:0:
320,192,38277,1,0,0:0:0:0:
64,192,38333,1,0,0:0:0:0:
192,192,38388,1,0,0:0:0:0:
320,192,38444,1,0,0:0:0:0:
448,192,38499,1,0,0:0:0:0:
64,192,38555,1,0,0:0:0:0:
192,192,38611,1,0,0:0:0:0:
320,192,38666,1,0,0:0:0:0:
448,192,38722,1,0,0:0:0:0:
64,192,38777,1,0,0:0:0:0:
192,192,38833,1,0,0:0:0:0:
320,192,38888,1,0,0:0:0:0:
448,192,38944,1,0,0:0:0:0:
64,192,38999,1,0,0:0:0:0:
192,192,39055,1,0,0:0:0:0:
320,192,39111,1,0,0:0:0:0:
448,192,39166,1,0,0:0:0:0:
192,192,39222,1,0,0:0:0:0:
64,192,39277,1,0,0:0:0:0:
320,192,39333,1,0,0:0:0:0:
448,192,39388,1,0,0:0:0:0:
192,192,39444,1,0,0:0:0:0:
64,192,39499,1,0,0:0:0:0:
320,192,39555,1,0,0:0:0:0:
448,192,39611,1,0,0:0:0:0:
64,192,39666,1,0,0:0:0:0:
192,192,39722,1,0,0:0:0:0:
448,192,39777,1,0,0:0:0:0:
64,192,39833,1,0,0:0:0:0:
320,192,39888,1,0,0:0:0:0:
192,192,39944,1,0,0:0:0:0:
448,192,39999,1,0,0:0:0:0:
320,192,40055,1,0,0:0:0:0:
64,192,40111,1,0,0:0:0:0:
192,192,40111,1,0,0:0:0:0:
192,192,40222,1,0,0:0:0:0:
64,192,40222,1,0,0:0:0:0:
448,192,40333,1,0,0:0:0:0:
320,192,40333,1,0,0:0:0:0:
448,192,40444,1,0,0:0:0:0:
320,192,40444,1,0,0:0:0:0:
192,192,40555,1,0,0:0:0:0:
64,192,40555,1,0,0:0:0:0:
192,192,40666,1,0,0:0:0:0:
64,192,40666,1,0,0:0:0:0:
320,192,40777,1,0,0:0:0:0:
448,192,40777,1,0,0:0:0:0:
448,192,40888,1,0,0:0:0:0:
320,192,40888,1,0,0:0:0:0:
192,192,40999,1,0,0:0:0:0:
64,192,40999,1,0,0:0:0:0:
320,192,41148,1,0,0:0:0:0:
448,192,41222,1,0,0:0:0:0:
64,192,41222,128,0,41444:0:0:0:0:
320,192,41444,1,0,0:0:0:0:
192,192,41499,1,0,0:0:0:0:
448,192,41555,1,0,0:0:0:0:
320,192,41611,1,0,0:0:0:0:
64,192,41666,1,0,0:0:0:0:
192,192,41722,1,0,0:0:0:0:
320,192,41777,1,0,0:0:0:0:
64,192,41833,1,0,0:0:0:0:
448,192,41888,1,0,0:0:0:0:
320,192,41944,1,0,0:0:0:0:
192,192,41999,1,0,0:0:0:0:
64,192,42055,1,0,0:0:0:0:
448,192,42111,1,0,0:0:0:0:
320,192,42166,1,0,0:0:0:0:
192,192,42222,1,0,0:0:0:0:
64,192,42277,1,0,0:0:0:0:
320,192,42333,1,0,0:0:0:0:
448,192,42388,1,0,0:0:0:0:
192,192,42444,1,0,0:0:0:0:
320,192,42499,1,0,0:0:0:0:
64,192,42555,1,0,0:0:0:0:
448,192,42611,1,0,0:0:0:0:
320,192,42666,1,0,0:0:0:0:
192,192,42722,1,0,0:0:0:0:
64,192,42777,1,0,0:0:0:0:
448,192,42777,1,0,0:0:0:0:
192,192,42925,1,0,0:0:0:0:
64,192,42999,1,0,0:0:0:0:
448,192,42999,128,0,43222:0:0:0:0:
64,192,43222,1,0,0:0:0:0:
192,192,43249,1,0,0:0:0:0:
448,192,43333,1,0,0:0:0:0:
320,192,43361,1,0,0:0:0:0:
64,192,43444,1,0,0:0:0:0:
192,192,43472,1,0,0:0:0:0:
448,192,43555,1,0,0:0:0:0:
320,192,43583,1,0,0:0:0:0:
64,192,43666,1,0,0:0:0:0:
192,192,43666,1,0,0:0:0:0:
64,192,43777,1,0,0:0:0:0:
192,192,43777,1,0,0:0:0:0:
320,192,43888,1,0,0:0:0:0:
448,192,43888,1,0,0:0:0:0:
320,192,43999,1,0,0:0:0:0:
448,192,43999,1,0,0:0:0:0:
192,192,44111,1,0,0:0:0:0:
64,192,44111,1,0,0:0:0:0:
192,192,44222,1,0,0:0:0:0:
64,192,44222,1,0,0:0:0:0:
320,192,44333,1,0,0:0:0:0:
448,192,44333,1,0,0:0:0:0:
320,192,44444,1,0,0:0:0:0:
448,192,44444,1,0,0:0:0:0:
192,192,44555,1,0,0:0:0:0:
64,192,44555,1,0,0:0:0:0:
320,192,44703,1,0,0:0:0:0:
448,192,44777,1,0,0:0:0:0:
64,192,44777,128,0,44999:0:0:0:0:
320,192,44999,1,0,0:0:0:0:
192,192,45055,1,0,0:0:0:0:
448,192,45111,1,0,0:0:0:0:
64,192,45166,1,0,0:0:0:0:
192,192,45222,1,0,0:0:0:0:
320,192,45277,1,0,0:0:0:0:
64,192,45333,1,0,0:0:0:0:
192,192,45388,1,0,0:0:0:0:
448,192,45444,1,0,0:0:0:0:
320,192,45499,1,0,0:0:0:0:
192,192,45555,1,0,0:0:0:0:
64,192,45611,1,0,0:0:0:0:
448,192,45666,1,0,0:0:0:0:
320,192,45722,1,0,0:0:0:0:
192,192,45777,1,0,0:0:0:0:
64,192,45833,1,0,0:0:0:0:
448,192,45888,1,0,0:0:0:0:
320,192,45944,1,0,0:0:0:0:
64,192,45999,1,0,0:0:0:0:
448,192,46055,1,0,0:0:0:0:
192,192,46111,1,0,0:0:0:0:
320,192,46166,1,0,0:0:0:0:
64,192,46222,1,0,0:0:0:0:
192,192,46277,1,0,0:0:0:0:
448,192,46333,1,0,0:0:0:0:
320,192,46333,1,0,0:0:0:0:
192,192,46481,1,0,0:0:0:0:
64,192,46555,1,0,0:0:0:0:
448,192,46555,128,0,46777:0:0:0:0:
192,192,46777,1,0,0:0:0:0:
320,192,46805,1,0,0:0:0:0:
64,192,46888,1,0,0:0:0:0:
448,192,46916,1,0,0:0:0:0:
192,192,46999,1,0,0:0:0:0:
320,192,47027,1,0,0:0:0:0:
64,192,47111,1,0,0:0:0:0:
448,192,47138,1,0,0:0:0:0:
192,192,47222,1,0,0:0:0:0:
320,192,47222,1,0,0:0:0:0:
320,192,47444,128,0,47666:0:0:0:0:
64,192,47666,1,0,0:0:0:0:
192,192,47666,1,0,0:0:0:0:
192,192,47888,128,0,48111:0:0:0:0:
320,192,48111,1,0,0:0:0:0:
448,192,48111,1,0,0:0:0:0:
320,192,48222,1,0,0:0:0:0:
448,192,48222,1,0,0:0:0:0:
64,192,48333,128,0,48444:0:0:0:0:
192,192,48444,1,0,0:0:0:0:
320,192,48444,1,0,0:0:0:0:
192,192,48555,1,0,0:0:0:0:
320,192,48555,1,0,0:0:0:0:
192,192,48666,1,0,0:0:0:0:
320,192,48666,1,0,0:0:0:0:
64,192,48777,128,0,48888:0:0:0:0:
320,192,48888,1,0,0:0:0:0:
448,192,48888,1,0,0:0:0:0:
320,192,48999,1,0,0:0:0:0:
448,192,48999,1,0,0:0:0:0:
320,192,49222,128,0,49444:0:0:0:0:
64,192,49444,1,0,0:0:0:0:
448,192,49444,1,0,0:0:0:0:
64,192,49666,128,0,49888:0:0:0:0:
320,192,49888,1,0,0:0:0:0:
448,192,49888,1,0,0:0:0:0:
192,192,50037,1,0,0:0:0:0:
64,192,50111,1,0,0:0:0:0:
448,192,50111,128,0,50333:0:0:0:0:
64,192,50333,1,0,0:0:0:0:
192,192,50388,1,0,0:0:0:0:
448,192,50444,1,0,0:0:0:0:
320,192,50499,1,0,0:0:0:0:
64,192,50555,1,0,0:0:0:0:
448,192,50611,1,0,0:0:0:0:
192,192,50666,1,0,0:0:0:0:
320,192,50722,1,0,0:0:0:0:
64,192,50777,1,0,0:0:0:0:
448,192,50777,1,0,0:0:0:0:
192,192,50999,128,0,51222:0:0:0:0:
448,192,51222,1,0,0:0:0:0:
64,192,51222,1,0,0:0:0:0:
448,192,51444,128,0,51666:0:0:0:0:
192,192,51666,1,0,0:0:0:0:
320,192,51666,1,0,0:0:0:0:
192,192,51777,1,0,0:0:0:0:
320,192,51777,1,0,0:0:0:0:
64,192,51888,128,0,51999:0:0:0:0:
320,192,51999,1,0,0:0:0:0:
448,192,51999,1,0,0:0:0:0:
320,192,52111,1,0,0:0:0:0:
448,192,52111,1,0,0:0:0:0:
320,192,52222,1,0,0:0:0:0:
448,192,52222,1,0,0:0:0:0:
192,192,52333,128,0,52444:0:0:0:0:
448,192,52444,1,0,0:0:0:0:
64,192,52444,1,0,0:0:0:0:
448,192,52555,1,0,0:0:0:0:
64,192,52555,1,0,0:0:0:0:
64,192,52777,128,0,52999:0:0:0:0:
320,192,52999,1,0,0:0:0:0:
448,192,52999,1,0,0:0:0:0:
192,192,53222,128,0,53444:0:0:0:0:
448,192,53444,1,0,0:0:0:0:
64,192,53499,1,0,0:0:0:0:
192,192,53555,1,0,0:0:0:0:
320,192,53611,1,0,0:0:0:0:
64,192,53666,1,0,0:0:0:0:
448,192,53722,1,0,0:0:0:0:
320,192,53777,1,0,0:0:0:0:
192,192,53833,1,0,0:0:0:0:
448,192,53888,1,0,0:0:0:0:
448,192,54111,1,0,0:0:0:0:
320,192,54333,1,0,0:0:0:0:
64,192,54333,1,0,0:0:0:0:
192,192,54555,1,0,0:0:0:0:
320,192,54777,1,0,0:0:0:0:
448,192,54777,1,0,0:0:0:0:
64,192,54999,1,0,0:0:0:0:
192,192,55222,1,0,0:0:0:0:
320,192,55222,1,0,0:0:0:0:
448,192,55444,1,0,0:0:0:0:
64,192,55555,1,0,0:0:0:0:
192,192,55555,1,0,0:0:0:0:
320,192,55666,1,0,0:0:0:0:
448,192,55666,1,0,0:0:0:0:
192,192,55888,1,0,0:0:0:0:
448,192,56111,1,0,0:0:0:0:
64,192,56111,1,0,0:0:0:0:
320,192,56333,1,0,0:0:0:0:
192,192,56444,1,0,0:0:0:0:
64,192,56444,1,0,0:0:0:0:
320,192,56555,1,0,0:0:0:0:
448,192,56555,1,0,0:0:0:0:
192,192,56666,1,0,0:0:0:0:
64,192,56666,1,0,0:0:0:0:
448,192,56777,1,0,0:0:0:0:
320,192,56777,1,0,0:0:0:0:
192,192,56999,1,0,0:0:0:0:
320,192,56999,1,0,0:0:0:0:
64,192,57222,1,0,0:0:0:0:
320,192,57444,1,0,0:0:0:0:
64,192,57555,1,0,0:0:0:0:
448,192,57555,1,0,0:0:0:0:
192,192,57666,1,0,0:0:0:0:
320,192,57666,1,0,0:0:0:0:
64,192,57888,1,0,0:0:0:0:
320,192,57888,1,0,0:0:0:0:
192,192,58111,1,0,0:0:0:0:
320,192,58333,1,0,0:0:0:0:
448,192,58333,1,0,0:0:0:0:
192,192,58555,1,0,0:0:0:0:
64,192,58777,1,0,0:0:0:0:
320,192,58777,1,0,0:0:0:0:
448,192,58999,1,0,0:0:0:0:
192,192,59111,1,0,0:0:0:0:
320,192,59111,1,0,0:0:0:0:
64,192,59222,1,0,0:0:0:0:
448,192,59222,1,0,0:0:0:0:
192,192,59444,1,0,0:0:0:0:
320,192,59666,1,0,0:0:0:0:
448,192,59666,1,0,0:0:0:0:
64,192,59888,1,0,0:0:0:0:
448,192,59999,1,0,0:0:0:0:
192,192,59999,1,0,0:0:0:0:
320,192,60111,1,0,0:0:0:0:
64,192,60111,1,0,0:0:0:0:
448,192,60222,1,0,0:0:0:0:
192,192,60222,1,0,0:0:0:0:
320,192,60333,1,0,0:0:0:0:
64,192,60333,1,0,0:0:0:0:
448,192,60555,1,0,0:0:0:0:
320,192,60611,1,0,0:0:0:0:
192,192,60666,1,0,0:0:0:0:
64,192,60722,1,0,0:0:0:0:
448,192,60777,1,0,0:0:0:0:
320,192,60833,1,0,0:0:0:0:
192,192,60888,1,0,0:0:0:0:
64,192,60944,1,0,0:0:0:0:
448,192,61222,128,0,61444:0:0:0:0:
192,192,61444,1,0,0:0:0:0:
64,192,61444,1,0,0:0:0:0:
192,192,61666,128,0,61888:0:0:0:0:
320,192,61888,1,0,0:0:0:0:
448,192,61888,1,0,0:0:0:0:
448,192,62111,128,0,62333:0:0:0:0:
192,192,62333,1,0,0:0:0:0:
64,192,62333,1,0,0:0:0:0:
64,192,62444,1,0,0:0:0:0:
320,192,62555,1,0,0:0:0:0:
192,192,62555,1,0,0:0:0:0:
320,192,62666,1,0,0:0:0:0:
64,192,62666,1,0,0:0:0:0:
64,192,62777,1,0,0:0:0:0:
192,192,62777,1,0,0:0:0:0:
448,192,62777,1,0,0:0:0:0:
448,192,62888,1,0,0:0:0:0:
192,192,62999,1,0,0:0:0:0:
320,192,62999,1,0,0:0:0:0:
192,192,63111,1,0,0:0:0:0:
320,192,63222,1,0,0:0:0:0:
448,192,63222,1,0,0:0:0:0:
64,192,63222,1,0,0:0:0:0:
320,192,63333,1,0,0:0:0:0:
448,192,63333,1,0,0:0:0:0:
64,192,63444,128,0,63555:0:0:0:0:
192,192,63555,1,0,0:0:0:0:
320,192,63555,1,0,0:0:0:0:
320,192,63666,1,0,0:0:0:0:
448,192,63666,1,0,0:0:0:0:
64,192,63666,1,0,0:0:0:0:
448,192,63777,1,0,0:0:0:0:
192,192,63777,1,0,0:0:0:0:
320,192,63888,128,0,63999:0:0:0:0:
192,192,63999,1,0,0:0:0:0:
64,192,63999,1,0,0:0:0:0:
64,192,64111,1,0,0:0:0:0:
320,192,64111,1,0,0:0:0:0:
448,192,64111,1,0,0:0:0:0:
320,192,64222,1,0,0:0:0:0:
448,192,64333,1,0,0:0:0:0:
192,192,64333,1,0,0:0:0:0:
192,192,64444,1,0,0:0:0:0:
64,192,64555,1,0,0:0:0:0:
448,192,64555,1,0,0:0:0:0:
448,192,64666,1,0,0:0:0:0:
320,192,64666,1,0,0:0:0:0:
64,192,64777,1,0,0:0:0:0:
320,192,64777,1,0,0:0:0:0:
192,192,64777,1,0,0:0:0:0:
64,192,64888,1,0,0:0:0:0:
448,192,64999,1,0,0:0:0:0:
192,192,64999,1,0,0:0:0:0:
320,192,64999,1,0,0:0:0:0:
64,192,65222,128,0,65444:0:0:0:0:
320,192,65444,1,0,0:0:0:0:
192,192,65444,1,0,0:0:0:0:
320,192,65666,128,0,65888:0:0:0:0:
64,192,65888,1,0,0:0:0:0:
192,192,65888,1,0,0:0:0:0:
192,192,65999,1,0,0:0:0:0:
448,192,66111,1,0,0:0:0:0:
64,192,66111,1,0,0:0:0:0:
320,192,66222,1,0,0:0:0:0:
448,192,66222,1,0,0:0:0:0:
320,192,66333,1,0,0:0:0:0:
64,192,66333,1,0,0:0:0:0:
192,192,66333,1,0,0:0:0:0:
64,192,66444,1,0,0:0:0:0:
192,192,66555,1,0,0:0:0:0:
448,192,66555,1,0,0:0:0:0:
448,192,66666,1,0,0:0:0:0:
192,192,66777,1,0,0:0:0:0:
64,192,66777,1,0,0:0:0:0:
320,192,66777,1,0,0:0:0:0:
192,192,66888,1,0,0:0:0:0:
320,192,66999,1,0,0:0:0:0:
448,192,66999,1,0,0:0:0:0:
320,192,67111,1,0,0:0:0:0:
64,192,67111,1,0,0:0:0:0:
64,192,67222,1,0,0:0:0:0:
192,192,67222,1,0,0:0:0:0:
448,192,67222,1,0,0:0:0:0:
320,192,67333,1,0,0:0:0:0:
448,192,67333,1,0,0:0:0:0:
192,192,67444,1,0,0:0:0:0:
320,192,67444,1,0,0:0:0:0:
192,192,67555,1,0,0:0:0:0:
448,192,67666,1,0,0:0:0:0:
64,192,67666,1,0,0:0:0:0:
320,192,67666,1,0,0:0:0:0:
448,192,67777,1,0,0:0:0:0:
64,192,67777,1,0,0:0:0:0:
320,192,67777,1,0,0:0:0:0:
448,192,67888,1,0,0:0:0:0:
64,192,67888,1,0,0:0:0:0:
192,192,67888,1,0,0:0:0:0:
448,192,67999,1,0,0:0:0:0:
64,192,67999,1,0,0:0:0:0:
192,192,67999,1,0,0:0:0:0:
192,192,68111,1,0,0:0:0:0:
320,192,68333,1,0,0:0:0:0:
448,192,68333,1,0,0:0:0:0:
192,192,68388,1,0,0:0:0:0:
64,192,68388,1,0,0:0:0:0:
320,192,68444,1,0,0:0:0:0:
448,192,68444,1,0,0:0:0:0:
192,192,68499,1,0,0:0:0:0:
320,192,68555,1,0,0:0:0:0:
448,192,68555,1,0,0:0:0:0:
64,192,68555,1,0,0:0:0:0:
320,192,68777,128,0,68999:0:0:0:0:
64,192,68999,1,0,0:0:0:0:
192,192,68999,1,0,0:0:0:0:
192,192,69222,128,0,69444:0:0:0:0:
320,192,69444,1,0,0:0:0:0:
448,192,69444,1,0,0:0:0:0:
448,192,69555,1,0,0:0:0:0:
320,192,69666,1,0,0:0:0:0:
64,192,69666,1,0,0:0:0:0:
64,192,69777,1,0,0:0:0:0:
192,192,69777,1,0,0:0:0:0:
192,192,69888,1,0,0:0:0:0:
448,192,69888,1,0,0:0:0:0:
320,192,69888,1,0,0:0:0:0:
448,192,69999,1,0,0:0:0:0:
320,192,70111,1,0,0:0:0:0:
64,192,70111,1,0,0:0:0:0:
64,192,70222,1,0,0:0:0:0:
320,192,70333,1,0,0:0:0:0:
192,192,70333,1,0,0:0:0:0:
448,192,70333,1,0,0:0:0:0:
192,192,70444,1,0,0:0:0:0:
64,192,70444,1,0,0:0:0:0:
320,192,70555,128,0,70666:0:0:0:0:
64,192,70666,1,0,0:0:0:0:
192,192,70666,1,0,0:0:0:0:
448,192,70777,1,0,0:0:0:0:
192,192,70777,1,0,0:0:0:0:
320,192,70777,1,0,0:0:0:0:
64,192,70888,1,0,0:0:0:0:
448,192,70888,1,0,0:0:0:0:
320,192,70999,128,0,71111:0:0:0:0:
64,192,71111,1,0,0:0:0:0:
192,192,71111,1,0,0:0:0:0:
64,192,71222,1,0,0:0:0:0:
320,192,71222,1,0,0:0:0:0:
448,192,71222,1,0,0:0:0:0:
320,192,71333,1,0,0:0:0:0:
192,192,71444,1,0,0:0:0:0:
448,192,71444,1,0,0:0:0:0:
192,192,71555,1,0,0:0:0:0:
448,192,71666,1,0,0:0:0:0:
64,192,71666,1,0,0:0:0:0:
448,192,71777,1,0,0:0:0:0:
320,192,71777,1,0,0:0:0:0:
320,192,71888,1,0,0:0:0:0:
64,192,71888,1,0,0:0:0:0:
192,192,71888,1,0,0:0:0:0:
64,192,71999,1,0,0:0:0:0:
448,192,72111,1,0,0:0:0:0:
192,192,72111,1,0,0:0:0:0:
320,192,72111,1,0,0:0:0:0:
64,192,72333,128,0,72555:0:0:0:0:
320,192,72555,1,0,0:0:0:0:
448,192,72555,1,0,0:0:0:0:
320,192,72777,128,0,72999:0:0:0:0:
64,192,72999,1,0,0:0:0:0:
192,192,72999,1,0,0:0:0:0:
192,192,73111,1,0,0:0:0:0:
64,192,73222,1,0,0:0:0:0:
448,192,73222,1,0,0:0:0:0:
448,192,73333,1,0,0:0:0:0:
320,192,73333,1,0,0:0:0:0:
64,192,73444,1,0,0:0:0:0:
320,192,73444,1,0,0:0:0:0:
192,192,73444,1,0,0:0:0:0:
64,192,73555,1,0,0:0:0:0:
448,192,73666,1,0,0:0:0:0:
192,192,73666,1,0,0:0:0:0:
448,192,73777,1,0,0:0:0:0:
192,192,73888,1,0,0:0:0:0:
320,192,73888,1,0,0:0:0:0:
64,192,73888,1,0,0:0:0:0:
192,192,73999,1,0,0:0:0:0:
64,192,74111,1,0,0:0:0:0:
320,192,74111,1,0,0:0:0:0:
448,192,74222,1,0,0:0:0:0:
320,192,74222,1,0,0:0:0:0:
64,192,74333,1,0,0:0:0:0:
448,192,74333,1,0,0:0:0:0:
192,192,74333,1,0,0:0:0:0:
64,192,74444,1,0,0:0:0:0:
320,192,74444,1,0,0:0:0:0:
192,192,74555,1,0,0:0:0:0:
320,192,74555,1,0,0:0:0:0:
448,192,74555,1,0,0:0:0:0:
192,192,74666,1,0,0:0:0:0:
320,192,74777,1,0,0:0:0:0:
448,192,74777,1,0,0:0:0:0:
192,192,74925,1,0,0:0:0:0:
448,192,74999,1,0,0:0:0:0:
64,192,74999,128,0,75222:0:0:0:0:
448,192,75222,1,0,0:0:0:0:
192,192,75277,1,0,0:0:0:0:
320,192,75333,1,0,0:0:0:0:
64,192,75388,1,0,0:0:0:0:
448,192,75444,1,0,0:0:0:0:
320,192,75499,1,0,0:0:0:0:
192,192,75555,1,0,0:0:0:0:
64,192,75611,1,0,0:0:0:0:
320,192,75666,1,0,0:0:0:0:
448,192,75666,1,0,0:0:0:0:
192,192,76555,5,0,0:0:0:0:
64,192,76611,1,0,0:0:0:0:
320,192,76666,1,0,0:0:0:0:
448,192,76722,1,0,0:0:0:0:
192,192,76777,1,0,0:0:0:0:
64,192,76833,1,0,0:0:0:0:
320,192,76888,1,0,0:0:0:0:
448,192,76944,1,0,0:0:0:0:
64,192,76999,1,0,0:0:0:0:
192,192,77055,1,0,0:0:0:0:
448,192,77111,1,0,0:0:0:0:
64,192,77166,1,0,0:0:0:0:
320,192,77222,1,0,0:0:0:0:
192,192,77277,1,0,0:0:0:0:
448,192,77333,1,0,0:0:0:0:
320,192,77388,1,0,0:0:0:0:
64,192,77444,128,0,77499:0:0:0:0:
192,192,77499,128,0,77555:0:0:0:0:
320,192,77555,128,0,77611:0:0:0:0:
448,192,77611,128,0,77666:0:0:0:0:
192,192,77666,1,0,0:0:0:0:
320,192,77722,1,0,0:0:0:0:
64,192,77777,1,0,0:0:0:0:
448,192,77833,1,0,0:0:0:0:
320,192,77888,128,0,77944:0:0:0:0:
192,192,77944,128,0,77999:0:0:0:0:
448,192,77999,128,0,78055:0:0:0:0:
64,192,78055,128,0,78111:0:0:0:0:
192,192,78111,1,0,0:0:0:0:
320,192,78166,1,0,0:0:0:0:
448,192,78222,1,0,0:0:0:0:
192,192,78277,1,0,0:0:0:0:
64,192,78333,1,0,0:0:0:0:
320,192,78388,1,0,0:0:0:0:
192,192,78444,1,0,0:0:0:0:
448,192,78499,1,0,0:0:0:0:
64,192,78555,1,0,0:0:0:0:
192,192,78611,1,0,0:0:0:0:
320,192,78666,1,0,0:0:0:0:
448,192,78722,1,0,0:0:0:0:
192,192,78777,1,0,0:0:0:0:
64,192,78805,1,0,0:0:0:0:
320,192,78888,1,0,0:0:0:0:
448,192,78916,1,0,0:0:0:0:
192,192,78999,1,0,0:0:0:0:
64,192,79027,1,0,0:0:0:0:
320,192,79111,1,0,0:0:0:0:
448,192,79138,1,0,0:0:0:0:
192,192,79222,128,0,79277:0:0:0:0:
64,192,79277,128,0,79333:0:0:0:0:
448,192,79333,128,0,79388:0:0:0:0:
320,192,79388,128,0,79444:0:0:0:0:
192,192,79444,1,0,0:0:0:0:
448,192,79499,1,0,0:0:0:0:
64,192,79555,1,0,0:0:0:0:
192,192,79611,1,0,0:0:0:0:
320,192,79666,128,0,79722:0:0:0:0:
64,192,79722,128,0,79777:0:0:0:0:
192,192,79777,128,0,79833:0:0:0:0:
448,192,79833,128,0,79888:0:0:0:0:
320,192,79888,1,0,0:0:0:0:
64,192,79944,1,0,0:0:0:0:
448,192,79999,1,0,0:0:0:0:
320,192,80055,1,0,0:0:0:0:
64,192,80111,1,0,0:0:0:0:
192,192,80111,1,0,0:0:0:0:
320,192,80259,1,0,0:0:0:0:
64,192,80333,1,0,0:0:0:0:
448,192,80333,128,0,80555:0:0:0:0:
192,192,80555,1,0,0:0:0:0:
64,192,80583,1,0,0:0:0:0:
320,192,80666,1,0,0:0:0:0:
448,192,80694,1,0,0:0:0:0:
192,192,80777,1,0,0:0:0:0:
64,192,80805,1,0,0:0:0:0:
320,192,80888,1,0,0:0:0:0:
448,192,80916,1,0,0:0:0:0:
192,192,80999,128,0,81055:0:0:0:0:
320,192,81055,128,0,81111:0:0:0:0:
64,192,81111,128,0,81166:0:0:0:0:
192,192,81166,128,0,81222:0:0:0:0:
320,192,81222,1,0,0:0:0:0:
448,192,81277,1,0,0:0:0:0:
192,192,81333,1,0,0:0:0:0:
64,192,81388,1,0,0:0:0:0:
448,192,81444,128,0,81499:0:0:0:0:
320,192,81499,128,0,81555:0:0:0:0:
192,192,81555,128,0,81611:0:0:0:0:
448,192,81611,128,0,81666:0:0:0:0:
64,192,81666,1,0,0:0:0:0:
192,192,81722,1,0,0:0:0:0:
320,192,81777,1,0,0:0:0:0:
64,192,81833,1,0,0:0:0:0:
448,192,81888,1,0,0:0:0:0:
320,192,81944,1,0,0:0:0:0:
192,192,81999,1,0,0:0:0:0:
448,192,82055,1,0,0:0:0:0:
64,192,82111,1,0,0:0:0:0:
192,192,82166,1,0,0:0:0:0:
320,192,82222,1,0,0:0:0:0:
448,192,82277,1,0,0:0:0:0:
64,192,82333,1,0,0:0:0:0:
192,192,82361,1,0,0:0:0:0:
448,192,82444,1,0,0:0:0:0:
320,192,82472,1,0,0:0:0:0:
64,192,82555,1,0,0:0:0:0:
192,192,82583,1,0,0:0:0:0:
448,192,82666,1,0,0:0:0:0:
320,192,82694,1,0,0:0:0:0:
64,192,82777,128,0,82833:0:0:0:0:
192,192,82833,128,0,82888:0:0:0:0:
320,192,82888,128,0,82944:0:0:0:0:
448,192,82944,128,0,82999:0:0:0:0:
192,192,82999,1,0,0:0:0:0:
320,192,83055,1,0,0:0:0:0:
64,192,83111,1,0,0:0:0:0:
448,192,83166,1,0,0:0:0:0:
320,192,83222,128,0,83277:0:0:0:0:
192,192,83277,128,0,83333:0:0:0:0:
448,192,83333,128,0,83388:0:0:0:0:
320,192,83388,128,0,83444:0:0:0:0:
64,192,83444,1,0,0:0:0:0:
192,192,83499,1,0,0:0:0:0:
320,192,83555,1,0,0:0:0:0:
448,192,83611,1,0,0:0:0:0:
64,192,83666,1,0,0:0:0:0:
192,192,83666,1,0,0:0:0:0:
320,192,83814,1,0,0:0:0:0:
448,192,83888,1,0,0:0:0:0:
64,192,83888,128,0,84111:0:0:0:0:
192,192,84111,1,0,0:0:0:0:
320,192,84138,1,0,0:0:0:0:
64,192,84222,1,0,0:0:0:0:
448,192,84249,1,0,0:0:0:0:
192,192,84333,1,0,0:0:0:0:
320,192,84361,1,0,0:0:0:0:
64,192,84444,1,0,0:0:0:0:
448,192,84472,1,0,0:0:0:0:
192,192,84555,1,0,0:0:0:0:
320,192,84555,1,0,0:0:0:0:
64,192,84555,1,0,0:0:0:0:
