osu file format v14

[General]
AudioFilename: audio.mp3
AudioLeadIn: 0
PreviewTime: 31222
Countdown: 0
SampleSet: Normal
StackLeniency: 0.7
Mode: 3
LetterboxInBreaks: 0
SpecialStyle: 0
WidescreenStoryboard: 1

[Editor]
Bookmarks: 8111,46333,72111,74777
DistanceSpacing: 1
BeatDivisor: 4
GridSize: 4
TimelineZoom: 2.1

[Metadata]
Title:Mad Machine
TitleUnicode:Mad Machine
Artist:Syrsa
ArtistUnicode:Syrsa
Creator:Niko_Plays
Version:Advanced | Maxim's Chill
Source:osu!
Tags:maxim-miau speedcore electronic instrumental
BeatmapID:4011268
BeatmapSetID:1940073

[Difficulty]
HPDrainRate:7
CircleSize:4
OverallDifficulty:7
ApproachRate:5
SliderMultiplier:1.4
SliderTickRate:1

[Events]
//Background and Video events
0,0,"new.png",0,0
//Break Periods
//Storyboard Layer 0 (Background)
//Storyboard Layer 1 (Fail)
//Storyboard Layer 2 (Pass)
//Storyboard Layer 3 (Foreground)
//Storyboard Layer 4 (Overlay)
//Storyboard Sound Samples

[TimingPoints]
1000,222.222222222222,4,1,1,40,1,0

[HitObjects]
64,192,1000,5,0,0:0:0:0:
448,192,1222,1,0,0:0:0:0:
64,192,1444,1,0,0:0:0:0:
448,192,1666,1,0,0:0:0:0:
192,192,1888,1,0,0:0:0:0:
320,192,2111,1,0,0:0:0:0:
192,192,2333,1,0,0:0:0:0:
320,192,2555,1,0,0:0:0:0:
64,192,2777,1,0,0:0:0:0:
448,192,2999,1,0,0:0:0:0:
64,192,3222,1,0,0:0:0:0:
448,192,3444,1,0,0:0:0:0:
192,192,3666,1,0,0:0:0:0:
320,192,3888,1,0,0:0:0:0:
192,192,4111,1,0,0:0:0:0:
320,192,4333,128,0,4555:0:0:0:0:
192,192,4555,1,0,0:0:0:0:
64,192,4555,1,0,0:0:0:0:
320,192,4777,1,0,0:0:0:0:
448,192,4999,1,0,0:0:0:0:
64,192,4999,1,0,0:0:0:0:
192,192,5222,1,0,0:0:0:0:
448,192,5444,1,0,0:0:0:0:
320,192,5444,1,0,0:0:0:0:
64,192,5666,1,0,0:0:0:0:
192,192,5777,1,0,0:0:0:0:
320,192,5777,1,0,0:0:0:0:
64,192,5888,1,0,0:0:0:0:
448,192,5888,1,0,0:0:0:0:
320,192,6111,1,0,0:0:0:0:
192,192,6333,1,0,0:0:0:0:
64,192,6333,1,0,0:0:0:0:
448,192,6555,1,0,0:0:0:0:
320,192,6666,1,0,0:0:0:0:
192,192,6666,1,0,0:0:0:0:
64,192,6777,1,0,0:0:0:0:
320,192,6888,1,0,0:0:0:0:
448,192,6888,1,0,0:0:0:0:
192,192,6999,1,0,0:0:0:0:
64,192,7222,1,0,0:0:0:0:
448,192,7222,1,0,0:0:0:0:
320,192,7444,1,0,0:0:0:0:
192,192,7666,1,0,0:0:0:0:
320,192,7777,1,0,0:0:0:0:
448,192,7777,1,0,0:0:0:0:
64,192,7888,1,0,0:0:0:0:
320,192,8111,1,0,0:0:0:0:
448,192,8111,1,0,0:0:0:0:
192,192,8333,1,0,0:0:0:0:
448,192,8555,1,0,0:0:0:0:
64,192,8555,1,0,0:0:0:0:
320,192,8777,1,0,0:0:0:0:
192,192,8999,1,0,0:0:0:0:
64,192,8999,1,0,0:0:0:0:
448,192,9222,1,0,0:0:0:0:
192,192,9333,1,0,0:0:0:0:
320,192,9333,1,0,0:0:0:0:
64,192,9444,1,0,0:0:0:0:
448,192,9444,1,0,0:0:0:0:
192,192,9666,1,0,0:0:0:0:
448,192,9888,1,0,0:0:0:0:
320,192,9888,1,0,0:0:0:0:
64,192,10111,1,0,0:0:0:0:
320,192,10222,1,0,0:0:0:0:
192,192,10222,1,0,0:0:0:0:
448,192,10333,1,0,0:0:0:0:
64,192,10444,1,0,0:0:0:0:
192,192,10444,1,0,0:0:0:0:
320,192,10555,1,0,0:0:0:0:
64,192,10777,1,0,0:0:0:0:
448,192,10777,1,0,0:0:0:0:
192,192,10999,1,0,0:0:0:0:
320,192,11222,1,0,0:0:0:0:
64,192,11333,1,0,0:0:0:0:
192,192,11333,1,0,0:0:0:0:
448,192,11444,128,0,11666:0:0:0:0:
64,192,11666,1,0,0:0:0:0:
192,192,11666,1,0,0:0:0:0:
320,192,11888,1,0,0:0:0:0:
448,192,12111,1,0,0:0:0:0:
64,192,12111,1,0,0:0:0:0:
192,192,12333,1,0,0:0:0:0:
448,192,12555,1,0,0:0:0:0:
320,192,12555,1,0,0:0:0:0:
64,192,12777,1,0,0:0:0:0:
192,192,12888,1,0,0:0:0:0:
320,192,12888,1,0,0:0:0:0:
64,192,12999,1,0,0:0:0:0:
448,192,12999,1,0,0:0:0:0:
320,192,13222,1,0,0:0:0:0:
192,192,13444,1,0,0:0:0:0:
64,192,13444,1,0,0:0:0:0:
448,192,13666,1,0,0:0:0:0:
320,192,13777,1,0,0:0:0:0:
192,192,13777,1,0,0:0:0:0:
64,192,13888,1,0,0:0:0:0:
320,192,13999,1,0,0:0:0:0:
448,192,13999,1,0,0:0:0:0:
192,192,14111,1,0,0:0:0:0:
64,192,14333,1,0,0:0:0:0:
448,192,14333,1,0,0:0:0:0:
320,192,14555,1,0,0:0:0:0:
192,192,14777,1,0,0:0:0:0:
320,192,14888,1,0,0:0:0:0:
448,192,14888,1,0,0:0:0:0:
64,192,14999,1,0,0:0:0:0:
320,192,15222,1,0,0:0:0:0:
448,192,15222,1,0,0:0:0:0:
192,192,15444,1,0,0:0:0:0:
448,192,15666,1,0,0:0:0:0:
64,192,15666,1,0,0:0:0:0:
320,192,15888,1,0,0:0:0:0:
192,192,16111,1,0,0:0:0:0:
64,192,16111,1,0,0:0:0:0:
448,192,16333,1,0,0:0:0:0:
192,192,16444,1,0,0:0:0:0:
320,192,16444,1,0,0:0:0:0:
64,192,16555,1,0,0:0:0:0:
448,192,16555,1,0,0:0:0:0:
192,192,16777,1,0,0:0:0:0:
448,192,16999,1,0,0:0:0:0:
320,192,16999,1,0,0:0:0:0:
64,192,17222,1,0,0:0:0:0:
320,192,17333,1,0,0:0:0:0:
192,192,17333,1,0,0:0:0:0:
448,192,17444,1,0,0:0:0:0:
64,192,17555,1,0,0:0:0:0:
192,192,17555,1,0,0:0:0:0:
320,192,17666,1,0,0:0:0:0:
64,192,17888,1,0,0:0:0:0:
192,192,18111,1,0,0:0:0:0:
448,192,18333,128,0,18777:0:0:0:0:
64,192,18777,1,0,0:0:0:0:
192,192,18777,1,0,0:0:0:0:
320,192,19222,1,0,0:0:0:0:
64,192,19666,1,0,0:0:0:0:
192,192,19666,1,0,0:0:0:0:
320,192,19777,1,0,0:0:0:0:
448,192,19999,1,0,0:0:0:0:
64,192,20111,1,0,0:0:0:0:
192,192,20111,1,0,0:0:0:0:
448,192,20222,1,0,0:0:0:0:
192,192,20444,1,0,0:0:0:0:
320,192,20555,1,0,0:0:0:0:
448,192,20555,1,0,0:0:0:0:
64,192,20999,1,0,0:0:0:0:
448,192,21444,1,0,0:0:0:0:
320,192,21666,1,0,0:0:0:0:
64,192,21888,128,0,22333:0:0:0:0:
320,192,22333,1,0,0:0:0:0:
448,192,22333,1,0,0:0:0:0:
192,192,22777,1,0,0:0:0:0:
448,192,23222,1,0,0:0:0:0:
320,192,23222,1,0,0:0:0:0:
192,192,23333,1,0,0:0:0:0:
64,192,23555,1,0,0:0:0:0:
448,192,23666,1,0,0:0:0:0:
320,192,23666,1,0,0:0:0:0:
64,192,23777,1,0,0:0:0:0:
320,192,23999,1,0,0:0:0:0:
64,192,24111,1,0,0:0:0:0:
192,192,24111,1,0,0:0:0:0:
448,192,24555,1,0,0:0:0:0:
64,192,24999,1,0,0:0:0:0:
192,192,25222,1,0,0:0:0:0:
448,192,25444,1,0,0:0:0:0:
192,192,25555,1,0,0:0:0:0:
320,192,25666,1,0,0:0:0:0:
448,192,25777,1,0,0:0:0:0:
64,192,25888,1,0,0:0:0:0:
192,192,25888,1,0,0:0:0:0:
320,192,26333,1,0,0:0:0:0:
64,192,26777,1,0,0:0:0:0:
192,192,26777,1,0,0:0:0:0:
320,192,26888,1,0,0:0:0:0:
448,192,27111,1,0,0:0:0:0:
64,192,27222,1,0,0:0:0:0:
192,192,27222,1,0,0:0:0:0:
448,192,27333,1,0,0:0:0:0:
192,192,27555,1,0,0:0:0:0:
320,192,27666,1,0,0:0:0:0:
448,192,27666,1,0,0:0:0:0:
64,192,28111,1,0,0:0:0:0:
448,192,28555,1,0,0:0:0:0:
320,192,28777,1,0,0:0:0:0:
64,192,28999,128,0,29444:0:0:0:0:
320,192,29444,1,0,0:0:0:0:
448,192,29444,1,0,0:0:0:0:
192,192,29888,1,0,0:0:0:0:
448,192,30333,1,0,0:0:0:0:
320,192,30333,1,0,0:0:0:0:
192,192,30444,1,0,0:0:0:0:
64,192,30666,1,0,0:0:0:0:
448,192,30777,1,0,0:0:0:0:
320,192,30777,1,0,0:0:0:0:
64,192,30888,1,0,0:0:0:0:
320,192,31111,1,0,0:0:0:0:
64,192,31222,1,0,0:0:0:0:
192,192,31277,1,0,0:0:0:0:
320,192,31333,1,0,0:0:0:0:
448,192,31388,1,0,0:0:0:0:
64,192,31444,128,0,31888:0:0:0:0:
448,192,31888,1,0,0:0:0:0:
320,192,31944,1,0,0:0:0:0:
192,192,31999,1,0,0:0:0:0:
64,192,32055,1,0,0:0:0:0:
448,192,32111,128,0,32999:0:0:0:0:
64,192,32999,1,0,0:0:0:0:
192,192,33055,1,0,0:0:0:0:
320,192,33111,1,0,0:0:0:0:
448,192,33166,1,0,0:0:0:0:
64,192,33222,128,0,33666:0:0:0:0:
448,192,33666,1,0,0:0:0:0:
320,192,33722,1,0,0:0:0:0:
192,192,33777,1,0,0:0:0:0:
64,192,33833,1,0,0:0:0:0:
320,192,33888,1,0,0:0:0:0:
448,192,33888,1,0,0:0:0:0:
192,192,34111,1,0,0:0:0:0:
448,192,34333,128,0,34777:0:0:0:0:
64,192,34777,1,0,0:0:0:0:
192,192,34833,1,0,0:0:0:0:
320,192,34888,1,0,0:0:0:0:
448,192,34944,1,0,0:0:0:0:
64,192,34999,128,0,35444:0:0:0:0:
448,192,35444,1,0,0:0:0:0:
320,192,35499,1,0,0:0:0:0:
192,192,35555,1,0,0:0:0:0:
64,192,35611,1,0,0:0:0:0:
320,192,35666,1,0,0:0:0:0:
448,192,35666,1,0,0:0:0:0:
192,192,35888,1,0,0:0:0:0:
448,192,36111,1,0,0:0:0:0:
64,192,36222,1,0,0:0:0:0:
320,192,36333,1,0,0:0:0:0:
192,192,36444,1,0,0:0:0:0:
448,192,36555,1,0,0:0:0:0:
320,192,36611,1,0,0:0:0:0:
192,192,36666,1,0,0:0:0:0:
64,192,36722,1,0,0:0:0:0:
448,192,36777,128,0,37222:0:0:0:0:
64,192,37222,1,0,0:0:0:0:
192,192,37277,1,0,0:0:0:0:
320,192,37333,1,0,0:0:0:0:
448,192,37388,1,0,0:0:0:0:
192,192,37444,1,0,0:0:0:0:
64,192,37444,1,0,0:0:0:0:
320,192,37666,1,0,0:0:0:0:
64,192,37888,128,0,38333:0:0:0:0:
448,192,38333,1,0,0:0:0:0:
320,192,38388,1,0,0:0:0:0:
192,192,38444,1,0,0:0:0:0:
64,192,38499,1,0,0:0:0:0:
448,192,38555,128,0,38999:0:0:0:0:
64,192,38999,1,0,0:0:0:0:
192,192,39055,1,0,0:0:0:0:
320,192,39111,1,0,0:0:0:0:
448,192,39166,1,0,0:0:0:0:
64,192,39222,128,0,39444:0:0:0:0:
448,192,39444,1,0,0:0:0:0:
320,192,39499,1,0,0:0:0:0:
192,192,39555,1,0,0:0:0:0:
64,192,39611,1,0,0:0:0:0:
448,192,39666,128,0,40111:0:0:0:0:
192,192,40111,1,0,0:0:0:0:
320,192,40222,1,0,0:0:0:0:
192,192,40333,1,0,0:0:0:0:
320,192,40444,1,0,0:0:0:0:
64,192,40555,1,0,0:0:0:0:
448,192,40666,1,0,0:0:0:0:
64,192,40777,1,0,0:0:0:0:
448,192,40888,1,0,0:0:0:0:
64,192,40999,1,0,0:0:0:0:
192,192,40999,1,0,0:0:0:0:
320,192,41222,1,0,0:0:0:0:
64,192,41444,128,0,41888:0:0:0:0:
448,192,41888,1,0,0:0:0:0:
320,192,41944,1,0,0:0:0:0:
192,192,41999,1,0,0:0:0:0:
64,192,42055,1,0,0:0:0:0:
448,192,42111,128,0,42333:0:0:0:0:
64,192,42333,128,0,42777:0:0:0:0:
320,192,42777,1,0,0:0:0:0:
448,192,42777,1,0,0:0:0:0:
192,192,42999,1,0,0:0:0:0:
448,192,43222,1,0,0:0:0:0:
192,192,43333,1,0,0:0:0:0:
320,192,43444,1,0,0:0:0:0:
64,192,43555,1,0,0:0:0:0:
320,192,43666,1,0,0:0:0:0:
192,192,43777,1,0,0:0:0:0:
320,192,43888,1,0,0:0:0:0:
192,192,43999,1,0,0:0:0:0:
448,192,44111,1,0,0:0:0:0:
64,192,44222,1,0,0:0:0:0:
448,192,44333,1,0,0:0:0:0:
64,192,44444,1,0,0:0:0:0:
448,192,44555,1,0,0:0:0:0:
320,192,44555,1,0,0:0:0:0:
192,192,44777,1,0,0:0:0:0:
448,192,44999,128,0,45444:0:0:0:0:
64,192,45444,1,0,0:0:0:0:
192,192,45499,1,0,0:0:0:0:
320,192,45555,1,0,0:0:0:0:
448,192,45611,1,0,0:0:0:0:
64,192,45666,128,0,45888:0:0:0:0:
448,192,45888,128,0,46333:0:0:0:0:
64,192,46333,1,0,0:0:0:0:
192,192,46333,1,0,0:0:0:0:
320,192,46555,1,0,0:0:0:0:
64,192,46777,1,0,0:0:0:0:
448,192,46888,1,0,0:0:0:0:
320,192,46999,1,0,0:0:0:0:
192,192,47111,1,0,0:0:0:0:
448,192,47222,1,0,0:0:0:0:
320,192,47222,1,0,0:0:0:0:
192,192,47666,1,0,0:0:0:0:
448,192,48111,1,0,0:0:0:0:
320,192,48111,1,0,0:0:0:0:
192,192,48222,1,0,0:0:0:0:
64,192,48444,1,0,0:0:0:0:
448,192,48555,1,0,0:0:0:0:
320,192,48555,1,0,0:0:0:0:
64,192,48666,1,0,0:0:0:0:
320,192,48888,1,0,0:0:0:0:
192,192,48999,1,0,0:0:0:0:
64,192,48999,1,0,0:0:0:0:
448,192,49444,1,0,0:0:0:0:
64,192,49888,1,0,0:0:0:0:
192,192,50111,1,0,0:0:0:0:
448,192,50333,128,0,50777:0:0:0:0:
64,192,50777,1,0,0:0:0:0:
192,192,50777,1,0,0:0:0:0:
320,192,51222,1,0,0:0:0:0:
64,192,51666,1,0,0:0:0:0:
192,192,51666,1,0,0:0:0:0:
320,192,51777,1,0,0:0:0:0:
448,192,51999,1,0,0:0:0:0:
64,192,52111,1,0,0:0:0:0:
192,192,52111,1,0,0:0:0:0:
448,192,52222,1,0,0:0:0:0:
192,192,52444,1,0,0:0:0:0:
320,192,52555,1,0,0:0:0:0:
448,192,52555,1,0,0:0:0:0:
64,192,52999,1,0,0:0:0:0:
448,192,53444,128,0,53888:0:0:0:0:
64,192,53888,1,0,0:0:0:0:
64,192,54111,1,0,0:0:0:0:
448,192,54333,1,0,0:0:0:0:
320,192,54333,1,0,0:0:0:0:
192,192,54777,1,0,0:0:0:0:
192,192,55222,1,0,0:0:0:0:
320,192,55555,1,0,0:0:0:0:
192,192,55666,1,0,0:0:0:0:
192,192,56111,1,0,0:0:0:0:
448,192,56444,1,0,0:0:0:0:
192,192,56555,1,0,0:0:0:0:
320,192,56666,1,0,0:0:0:0:
192,192,56777,1,0,0:0:0:0:
320,192,56999,1,0,0:0:0:0:
448,192,57555,1,0,0:0:0:0:
64,192,57666,1,0,0:0:0:0:
320,192,57888,1,0,0:0:0:0:
320,192,58333,1,0,0:0:0:0:
320,192,58777,1,0,0:0:0:0:
192,192,59111,1,0,0:0:0:0:
320,192,59222,1,0,0:0:0:0:
320,192,59666,1,0,0:0:0:0:
64,192,59999,1,0,0:0:0:0:
320,192,60111,1,0,0:0:0:0:
192,192,60222,1,0,0:0:0:0:
320,192,60333,1,0,0:0:0:0:
192,192,60555,128,0,61222:0:0:0:0:
320,192,61222,128,0,61444:0:0:0:0:
64,192,61444,1,0,0:0:0:0:
192,192,61444,1,0,0:0:0:0:
320,192,61888,1,0,0:0:0:0:
64,192,62333,1,0,0:0:0:0:
448,192,62555,1,0,0:0:0:0:
192,192,62666,1,0,0:0:0:0:
64,192,62666,1,0,0:0:0:0:
320,192,62777,1,0,0:0:0:0:
192,192,62999,1,0,0:0:0:0:
448,192,63222,1,0,0:0:0:0:
320,192,63333,1,0,0:0:0:0:
64,192,63444,1,0,0:0:0:0:
448,192,63555,1,0,0:0:0:0:
64,192,63666,1,0,0:0:0:0:
192,192,63777,1,0,0:0:0:0:
448,192,63888,1,0,0:0:0:0:
64,192,63999,1,0,0:0:0:0:
448,192,64111,1,0,0:0:0:0:
192,192,64111,1,0,0:0:0:0:
320,192,64333,1,0,0:0:0:0:
64,192,64555,1,0,0:0:0:0:
320,192,64666,1,0,0:0:0:0:
192,192,64666,1,0,0:0:0:0:
448,192,64777,1,0,0:0:0:0:
192,192,64999,1,0,0:0:0:0:
64,192,64999,1,0,0:0:0:0:
320,192,65444,1,0,0:0:0:0:
64,192,65888,1,0,0:0:0:0:
448,192,66111,1,0,0:0:0:0:
192,192,66222,1,0,0:0:0:0:
64,192,66222,1,0,0:0:0:0:
320,192,66333,1,0,0:0:0:0:
192,192,66555,1,0,0:0:0:0:
448,192,66777,1,0,0:0:0:0:
320,192,66777,1,0,0:0:0:0:
64,192,66999,1,0,0:0:0:0:
448,192,67111,1,0,0:0:0:0:
320,192,67111,1,0,0:0:0:0:
192,192,67222,1,0,0:0:0:0:
448,192,67333,1,0,0:0:0:0:
64,192,67333,1,0,0:0:0:0:
320,192,67444,1,0,0:0:0:0:
64,192,67666,1,0,0:0:0:0:
448,192,67777,1,0,0:0:0:0:
64,192,67888,1,0,0:0:0:0:
448,192,67999,1,0,0:0:0:0:
192,192,68111,1,0,0:0:0:0:
64,192,68333,128,0,68555:0:0:0:0:
448,192,68555,1,0,0:0:0:0:
320,192,68555,1,0,0:0:0:0:
192,192,68999,1,0,0:0:0:0:
448,192,69444,1,0,0:0:0:0:
64,192,69666,1,0,0:0:0:0:
448,192,69777,1,0,0:0:0:0:
320,192,69777,1,0,0:0:0:0:
192,192,69888,1,0,0:0:0:0:
320,192,70111,1,0,0:0:0:0:
64,192,70333,1,0,0:0:0:0:
192,192,70444,1,0,0:0:0:0:
448,192,70555,1,0,0:0:0:0:
64,192,70666,1,0,0:0:0:0:
448,192,70777,1,0,0:0:0:0:
320,192,70888,1,0,0:0:0:0:
64,192,70999,1,0,0:0:0:0:
448,192,71111,1,0,0:0:0:0:
320,192,71222,1,0,0:0:0:0:
64,192,71222,1,0,0:0:0:0:
192,192,71444,1,0,0:0:0:0:
448,192,71666,1,0,0:0:0:0:
320,192,71777,1,0,0:0:0:0:
192,192,71777,1,0,0:0:0:0:
64,192,71888,1,0,0:0:0:0:
448,192,72111,1,0,0:0:0:0:
320,192,72111,1,0,0:0:0:0:
192,192,72555,1,0,0:0:0:0:
448,192,72999,1,0,0:0:0:0:
64,192,73222,1,0,0:0:0:0:
320,192,73333,1,0,0:0:0:0:
448,192,73333,1,0,0:0:0:0:
192,192,73444,1,0,0:0:0:0:
320,192,73666,1,0,0:0:0:0:
64,192,73888,1,0,0:0:0:0:
192,192,73888,1,0,0:0:0:0:
448,192,74111,1,0,0:0:0:0:
64,192,74222,1,0,0:0:0:0:
192,192,74222,1,0,0:0:0:0:
320,192,74333,1,0,0:0:0:0:
64,192,74444,1,0,0:0:0:0:
448,192,74444,1,0,0:0:0:0:
192,192,74555,1,0,0:0:0:0:
448,192,74777,1,0,0:0:0:0:
320,192,74999,1,0,0:0:0:0:
64,192,75222,128,0,75666:0:0:0:0:
320,192,75666,1,0,0:0:0:0:
448,192,75666,1,0,0:0:0:0:
192,192,76555,128,0,76999:0:0:0:0:
320,192,76999,128,0,77444:0:0:0:0:
64,192,77444,1,0,0:0:0:0:
192,192,77499,1,0,0:0:0:0:
320,192,77555,1,0,0:0:0:0:
448,192,77611,128,0,77888:0:0:0:0:
64,192,77888,1,0,0:0:0:0:
192,192,77944,1,0,0:0:0:0:
320,192,77999,1,0,0:0:0:0:
448,192,78055,128,0,78333:0:0:0:0:
192,192,78333,128,0,78777:0:0:0:0:
320,192,78777,1,0,0:0:0:0:
192,192,78888,1,0,0:0:0:0:
320,192,78999,1,0,0:0:0:0:
192,192,79111,1,0,0:0:0:0:
448,192,79222,1,0,0:0:0:0:
320,192,79277,1,0,0:0:0:0:
192,192,79333,1,0,0:0:0:0:
64,192,79388,128,0,79666:0:0:0:0:
448,192,79666,1,0,0:0:0:0:
320,192,79722,1,0,0:0:0:0:
192,192,79777,1,0,0:0:0:0:
64,192,79833,128,0,80111:0:0:0:0:
320,192,80111,1,0,0:0:0:0:
448,192,80111,1,0,0:0:0:0:
64,192,80333,1,0,0:0:0:0:
192,192,80555,1,0,0:0:0:0:
320,192,80666,1,0,0:0:0:0:
192,192,80777,1,0,0:0:0:0:
320,192,80888,1,0,0:0:0:0:
64,192,80999,1,0,0:0:0:0:
192,192,81055,1,0,0:0:0:0:
320,192,81111,1,0,0:0:0:0:
448,192,81166,128,0,81444:0:0:0:0:
64,192,81444,1,0,0:0:0:0:
192,192,81499,1,0,0:0:0:0:
320,192,81555,1,0,0:0:0:0:
448,192,81611,128,0,81888:0:0:0:0:
64,192,81888,128,0,82333:0:0:0:0:
320,192,82333,1,0,0:0:0:0:
448,192,82444,1,0,0:0:0:0:
192,192,82555,1,0,0:0:0:0:
64,192,82666,1,0,0:0:0:0:
448,192,82777,1,0,0:0:0:0:
320,192,82833,1,0,0:0:0:0:
192,192,82888,1,0,0:0:0:0:
64,192,82944,128,0,83222:0:0:0:0:
448,192,83222,1,0,0:0:0:0:
320,192,83277,1,0,0:0:0:0:
192,192,83333,1,0,0:0:0:0:
64,192,83388,128,0,83666:0:0:0:0:
320,192,83666,1,0,0:0:0:0:
448,192,83666,1,0,0:0:0:0:
64,192,83888,1,0,0:0:0:0:
320,192,84111,1,0,0:0:0:0:
192,192,84222,1,0,0:0:0:0:
320,192,84333,1,0,0:0:0:0:
192,192,84444,1,0,0:0:0:0:
64,192,84555,1,0,0:0:0:0:
448,192,84555,1,0,0:0:0:0:
