osu file format v14

[General]
AudioFilename: audio.mp3
AudioLeadIn: 0
PreviewTime: 62496
Countdown: 0
SampleSet: Soft
StackLeniency: 0.7
Mode: 2
LetterboxInBreaks: 0
WidescreenStoryboard: 1

[Editor]
DistanceSpacing: 2.9
BeatDivisor: 4
GridSize: 8
TimelineZoom: 1.9

[Metadata]
Title:A Hero Someday (TV Size)
TitleUnicode:未来のヒーローたちへ (TV Size)
Artist:Syou Takeyaki
ArtistUnicode:タケヤキ翔
Creator:rew0825
Version:Platter
Source:組長娘と世話係
Tags:Mirai no Hero-tachi e Kumichou Musume to Sewagakari The Yakuza's Guide to Babysitting Anime OP Opening Japanese Rock Pop J-Rock JRock J-Pop JPop Male Vocal Vocals ANCHOR
BeatmapID:3730757
BeatmapSetID:1817757

[Difficulty]
HPDrainRate:4
CircleSize:3.5
OverallDifficulty:8
ApproachRate:8
SliderMultiplier:1.6
SliderTickRate:2

[Events]
//Background and Video events
0,0,"bg.jpg",0,0
Video,-50,"vdo.m4v"
//Break Periods
//Storyboard Layer 0 (Background)
//Storyboard Layer 1 (Fail)
//Storyboard Layer 2 (Pass)
//Storyboard Layer 3 (Foreground)
//Storyboard Layer 4 (Overlay)
//Storyboard Sound Samples

[TimingPoints]
389,324.324324324324,4,2,25,70,1,0
1037,324.324324324324,4,2,25,75,1,0
11415,-100,4,2,25,80,0,0
12388,-100,4,2,35,70,0,0
12469,-100,4,2,25,80,0,0
13685,-100,4,2,35,70,0,0
13766,-100,4,2,25,80,0,0
14982,-100,4,2,35,70,0,0
15063,-100,4,2,25,80,0,0
16280,-100,4,2,35,70,0,0
16361,-100,4,2,25,80,0,0
17577,-100,4,2,35,70,0,0
17658,-100,4,2,25,80,0,0
18874,-100,4,2,35,70,0,0
18955,-100,4,2,25,80,0,0
20172,-100,4,2,35,70,0,0
20253,-100,4,2,25,80,0,0
21793,-100,4,2,26,75,0,0
25847,-100,4,2,35,65,0,0
25928,-100,4,2,26,75,0,0
26172,-100,4,2,37,65,0,0
26253,-100,4,2,26,75,0,0
27955,-100,4,2,35,65,0,0
28036,-100,4,2,26,75,0,0
28442,-100,4,2,35,65,0,0
28523,-100,4,2,26,75,0,0
28766,-100,4,2,37,65,0,0
28847,-100,4,2,26,75,0,0
33631,-100,4,2,35,65,0,0
33712,-100,4,2,26,75,0,0
36226,-100,4,2,35,65,0,0
36307,-100,4,2,26,75,0,0
38820,-100,4,2,35,65,0,0
38901,-100,4,2,26,75,0,0
39145,-100,4,2,37,65,0,0
39226,-100,4,2,26,75,0,0
40118,-100,4,2,35,65,0,0
40199,-100,4,2,26,75,0,0
41253,-100,4,2,25,75,0,0
42226,-100,4,2,27,75,0,0
42550,-100,4,2,25,80,0,0
44658,-100,4,2,35,70,0,0
44739,-100,4,2,25,80,0,0
47253,-100,4,2,35,70,0,0
47334,-100,4,2,25,80,0,0
49523,-100,4,2,36,70,0,0
49604,-100,4,2,25,80,0,0
50820,-100,4,2,36,70,0,0
50901,-100,4,2,25,80,0,0
52928,-100,4,2,25,75,0,0
54388,-100,4,2,35,65,0,0
54469,-100,4,2,25,75,0,0
56009,-100,4,2,35,65,0,0
56090,-100,4,2,25,75,0,0
57469,-100,4,2,27,75,0,0
57631,-100,4,2,25,75,0,0
57793,-100,4,2,27,75,0,0
58118,-100,4,2,25,75,0,0
58280,-100,4,2,35,65,0,0
58361,-100,4,2,25,75,0,0
58766,-100,4,2,25,65,0,0
59091,-100,4,2,25,70,0,0
59415,-100,4,2,25,75,0,0
59739,-100,4,2,25,80,0,0
62496,-100,4,2,25,70,0,0
63307,-100,4,2,25,85,0,1
64280,-100,4,2,35,75,0,1
64361,-100,4,2,25,85,0,1
65091,-100,4,2,36,75,0,1
65172,-100,4,2,25,85,0,1
66874,-100,4,2,35,75,0,1
66955,-100,4,2,25,85,0,1
67685,-100,4,2,36,75,0,1
67766,-100,4,2,25,85,0,1
68172,-100,4,2,35,75,0,1
68253,-100,4,2,25,85,0,1
69469,-100,4,2,35,75,0,1
69550,-100,4,2,25,85,0,1
70766,-100,4,2,35,75,0,1
70847,-100,4,2,25,85,0,1
71739,-100,4,2,35,75,0,1
71820,-100,4,2,25,85,0,1
74658,-100,4,2,35,75,0,1
74739,-100,4,2,25,85,0,1
75469,-100,4,2,36,75,0,1
75550,-100,4,2,25,85,0,1
77253,-100,4,2,35,75,0,1
77334,-100,4,2,25,85,0,1
79847,-100,4,2,35,75,0,1
79928,-100,4,2,25,85,0,1
81145,-100,4,2,35,75,0,1
81226,-100,4,2,25,85,0,1
82442,-100,4,2,35,75,0,1
82523,-100,4,2,25,85,0,1
83739,-100,4,2,27,85,0,1
84064,-100,4,2,25,85,0,1
86982,-100,4,2,25,75,0,1
87469,-100,4,2,25,85,0,1
87955,-100,4,2,25,65,0,0

[Colours]
Combo1 : 222,92,219
Combo2 : 84,108,226
Combo3 : 227,62,107
Combo4 : 102,199,227

[HitObjects]
192,336,551,6,0,L|107:336,2,80,2|2|2,0:0|0:0|0:0,0:0:0:0:
344,336,1037,6,0,P|396:290|342:242,1,160,2|0,0:0|0:0,0:0:0:0:
262,242,1523,2,0,L|261:160,1,80,2|2,0:0|0:0,0:0:0:0:
348,162,1847,2,0,P|419:154|437:77,1,160,2|2,0:0|0:0,0:0:0:0:
284,77,2334,6,0,P|210:95|186:171,1,160,2|2,0:0|0:0,0:0:0:0:
265,169,2820,1,0,0:0:0:0:
352,169,2982,2,0,P|410:175|445:261,1,160,2|2,0:0|0:0,0:0:0:0:
364,261,3469,1,2,0:0:0:0:
212,261,3631,6,0,P|166:221|222:162,1,160,2|2,0:0|0:0,0:0:0:0:
301,162,4118,2,0,L|302:78,1,80,2|2,0:0|0:0,0:0:0:0:
222,82,4442,2,0,P|158:92|125:174,1,160,2|2,0:0|0:0,0:0:0:0:
276,173,4928,6,0,L|447:172,2,160,2|2|2,0:0|0:0|0:0,0:0:0:0:
115,173,5901,2,0,L|114:255,1,80,2|2,0:0|0:0,0:0:0:0:
266,252,6226,6,0,P|314:209|258:156,1,160,2|2,0:0|0:0,0:0:0:0:
185,156,6712,1,2,0:0:0:0:
257,156,6874,1,2,0:0:0:0:
337,156,7036,2,0,P|398:149|427:62,1,160,2|2,0:0|0:0,0:0:0:0:
275,64,7523,6,0,L|109:64,2,160,2|2|0,0:0|0:0|0:0,0:0:0:0:
355,64,8334,2,0,P|406:113|351:165,1,160,2|2,0:0|0:0,0:0:0:0:
202,165,8820,1,2,0:0:0:0:
202,165,10766,5,2,0:0:0:0:
353,165,10928,2,0,P|408:158|458:73,1,160,2|2,1:2|0:0,0:0:0:0:
225,71,11415,6,0,P|176:100|232:160,1,160,4|2,1:2|1:2,0:0:0:0:
308,160,11901,2,0,L|310:241,1,80,2|2,3:2|1:2,0:0:0:0:
157,239,12226,2,0,P|90:230|67:147,1,160,2|0,1:2|3:2,0:0:0:0:
217,150,12712,6,0,P|305:140|344:81,1,160,2|2,1:2|1:2,0:0:0:0:
262,85,13199,2,0,L|181:83,1,80,2|2,3:2|1:2,0:0:0:0:
333,83,13523,2,0,P|382:112|325:167,1,160,2|0,1:2|3:2,0:0:0:0:
93,167,14009,6,0,P|96:213|193:245,1,160,6|2,1:2|1:2,0:0:0:0:
110,246,14496,2,0,L|107:326,1,80,2|2,3:2|1:2,0:0:0:0:
258,325,14820,2,0,L|96:325,1,160,2|0,1:2|3:2,0:0:0:0:
250,325,15307,6,0,P|302:283|242:234,1,160,2|2,1:2|1:2,0:0:0:0:
167,232,15793,2,0,L|168:152,1,80,2|2,3:2|1:2,0:0:0:0:
320,152,16118,2,0,P|386:143|423:58,1,160,2|0,1:2|3:2,0:0:0:0:
192,48,16604,6,0,P|140:84|196:133,1,160,6|0,1:2|1:2,0:0:0:0:
277,132,17091,2,0,L|278:218,1,80,0|0,3:2|1:2,0:0:0:0:
126,211,17415,2,0,P|78:161|138:118,1,160,2|0,1:2|3:2,0:0:0:0:
287,117,17901,6,0,P|335:152|279:209,1,160,2|0,1:2|1:2,0:0:0:0:
198,209,18388,2,0,L|198:292,1,80,0|0,3:2|1:2,0:0:0:0:
349,289,18712,2,0,P|404:284|429:190,1,160,2|0,1:2|3:2,0:0:0:0:
198,194,19199,6,0,P|151:149|208:97,1,160,6|0,1:2|1:2,0:0:0:0:
287,97,19685,2,0,L|288:179,1,80,0|0,3:2|1:2,0:0:0:0:
136,176,20009,2,0,P|82:212|146:266,1,160,0|0,1:2|3:2,0:0:0:0:
365,269,20496,6,0,P|413:231|351:174,1,160,6|0,1:2|1:2,0:0:0:0:
206,172,20982,2,0,P|154:128|210:75,1,160,0|2,3:2|1:2,0:0:0:0:
358,172,21469,1,2,3:2:0:0:
402,172,21550,1,0,3:2:0:0:
358,172,21631,1,2,3:2:0:0:
126,172,21793,6,0,P|75:202|132:255,1,160,6|2,1:2|0:0,0:0:0:0:
211,255,22280,2,0,L|293:254,1,80,2|2,3:2|3:2,0:0:0:0:
211,255,22604,2,0,P|140:247|121:168,1,160,2|2,0:0|3:2,0:0:0:0:
273,170,23091,6,0,P|319:144|266:77,1,160,2|2,0:0|0:0,0:0:0:0:
188,76,23577,1,0,3:2:0:0:
274,76,23739,2,0,P|355:92|371:166,1,160,2|0,3:2|0:0,0:0:0:0:
292,158,24226,1,2,3:2:0:0:
140,158,24388,6,0,P|87:202|143:247,1,160,2|2,1:2|0:0,0:0:0:0:
222,247,24874,2,0,L|223:166,1,80,2|2,3:2|3:2,0:0:0:0:
142,167,25199,2,0,P|92:137|152:80,1,160,2|2,0:0|3:2,0:0:0:0:
297,77,25685,6,0,L|468:76,2,160,2|2|0,0:0|0:0|3:2,0:0:0:0:
136,77,26658,2,0,L|134:157,1,80,2|2,1:2|3:2,0:0:0:0:
285,156,26982,6,0,P|336:202|277:243,1,160,2|2,1:2|0:0,0:0:0:0:
197,243,27469,2,0,L|196:329,1,80,2|2,3:2|3:2,0:0:0:0:
275,322,27793,2,0,P|348:317|382:242,1,160,2|2,0:0|3:2,0:0:0:0:
229,245,28280,6,0,L|63:245,2,160,2|2|0,0:0|0:0|3:2,0:0:0:0:
148,245,29091,1,2,0:0:0:0:
102,179,29253,1,2,1:2:0:0:
157,121,29415,1,2,3:2:0:0:
308,121,29577,1,2,1:2:0:0:
308,121,31523,5,0,0:0:0:0:
156,121,31685,2,0,P|146:179|223:225,1,160,2|0,0:0|0:0,0:0:0:0:
456,225,32172,6,0,P|498:183|450:108,1,160,2|2,1:2|0:0,0:0:0:0:
372,108,32658,1,2,3:2:0:0:
292,107,32820,2,0,L|458:107,1,160,0|2,3:2|1:2,0:0:0:0:
171,107,33469,6,0,P|123:143|176:206,1,160,2|2,0:0|1:2,0:0:0:0:
254,206,33955,1,2,3:2:0:0:
342,206,34118,2,0,P|390:242|337:305,1,160,0|0,3:2|1:2,0:0:0:0:
259,305,34604,1,2,3:2:0:0:
107,305,34766,6,0,P|59:253|112:198,1,160,2|2,1:2|1:2,0:0:0:0:
190,198,35253,1,2,3:2:0:0:
269,199,35415,2,0,L|80:198,1,160,0|0,3:2|1:2,0:0:0:0:
381,198,36064,6,0,P|431:160|369:108,1,160,2|2,0:0|1:2,0:0:0:0:
295,106,36550,2,0,L|294:189,1,80,2|0,3:2|3:2,0:0:0:0:
373,185,36874,2,0,L|467:184,2,80,2|2|2,0:0|1:2|3:2,0:0:0:0:
220,185,37361,6,0,P|169:140|227:94,1,160,2|2,1:2|1:2,0:0:0:0:
305,93,37847,2,0,L|307:185,1,80,2|2,1:2|0:0,0:0:0:0:
226,172,38172,2,0,P|160:182|135:264,1,160,2|2,1:2|3:2,0:0:0:0:
286,262,38658,6,0,L|458:260,2,160,2|2|0,0:0|0:0|3:2,0:0:0:0:
366,262,39469,1,2,1:2:0:0:
414,196,39631,1,2,0:0:0:0:
366,123,39793,1,2,3:2:0:0:
214,123,39955,6,0,P|165:162|218:222,1,160,2|2,0:0|0:0,0:0:0:0:
297,222,40442,2,0,L|299:130,1,80,2|0,3:2|3:2,0:0:0:0:
218,142,40766,2,0,P|144:129|127:37,1,160,0|0,1:2|3:2,0:0:0:0:
353,55,41253,6,0,P|406:98|350:146,1,160,6|0,1:2|1:2,0:0:0:0:
263,146,41739,2,0,L|261:240,1,80,2|0,3:2|0:0,0:0:0:0:
414,225,42064,1,2,3:2:0:0:
438,193,42145,1,0,3:2:0:0:
414,225,42226,1,8,0:3:0:0:
334,225,42388,1,6,0:3:0:0:
102,225,42550,6,0,P|50:182|107:138,1,160,6|2,1:2|1:2,0:0:0:0:
258,137,43036,2,0,L|352:135,2,80,2|2|2,3:2|3:2|1:2,0:0:0:0:
177,137,43523,2,0,L|176:219,1,80,2|0,1:2|3:2,0:0:0:0:
327,216,43847,6,0,P|386:206|403:118,1,160,2|2,1:2|1:2,0:0:0:0:
322,118,44334,1,2,3:2:0:0:
171,118,44496,2,0,P|112:128|95:216,1,160,0|0,3:2|1:2,0:0:0:0:
176,216,44982,1,2,3:2:0:0:
409,216,45145,6,0,P|460:268|404:313,1,160,2|2,1:2|1:2,0:0:0:0:
254,313,45631,2,0,L|169:313,2,80,2|2|2,3:2|3:2|1:2,0:0:0:0:
334,313,46118,2,0,L|334:232,1,80,2|0,1:2|3:2,0:0:0:0:
175,233,46442,6,0,P|133:174|187:120,1,160,2|2,1:2|1:2,0:0:0:0:
265,120,46928,1,2,3:2:0:0:
417,120,47091,2,0,P|459:179|405:233,1,160,0|0,3:2|1:2,0:0:0:0:
327,233,47577,1,2,3:2:0:0:
95,233,47739,6,0,L|267:231,1,160,6|2,1:2|1:2,0:0:0:0:
102,231,48226,2,0,L|28:197,2,80,2|2|2,3:2|3:2|1:2,0:0:0:0:
181,231,48712,1,2,1:2:0:0:
101,231,48874,1,0,3:2:0:0:
252,231,49036,6,0,L|253:149,1,80,2|0,1:2|0:0,0:0:0:0:
172,151,49361,2,0,P|122:108|180:57,1,160,2|2,1:2|3:2,0:0:0:0:
329,56,49847,2,0,L|412:57,2,80,2|0|2,1:2|1:2|3:2,0:0:0:0:
96,56,50334,6,0,L|95:137,1,80,2|0,1:2|0:0,0:0:0:0:
182,135,50658,2,0,P|238:149|260:244,1,160,2|2,1:2|3:2,0:0:0:0:
109,239,51145,2,0,L|22:240,2,80,2|2|2,1:2|1:2|3:2,0:0:0:0:
267,239,51631,6,0,P|331:233|362:148,1,160,2|0,1:2|1:2,0:0:0:0:
282,151,52118,2,0,L|197:151,1,80,2|0,3:2|1:2,0:0:0:0:
353,151,52442,2,0,L|460:151,2,80,2|0|2,3:2|1:2|3:2,0:0:0:0:
121,151,52928,6,0,P|69:111|128:65,1,160,6|2,1:2|0:0,0:0:0:0:
206,64,53415,2,0,L|309:64,1,80,2|2,1:2|0:0,0:0:0:0:
198,64,53739,2,0,L|93:64,2,80,2|2|0,1:2|0:0|1:2,0:0:0:0:
359,64,54226,6,0,P|409:108|349:158,1,160,2|0,0:0|0:0,0:0:0:0:
265,158,54712,2,0,P|215:202|275:252,1,160,2|0,1:2|1:2,0:0:0:0:
358,252,55199,2,0,L|442:253,1,80,0|2,3:2|1:2,0:0:0:0:
205,252,55523,6,0,L|204:171,1,80,6|0,3:2|1:2,0:0:0:0:
291,172,55847,2,0,P|346:165|374:73,1,160,2|2,0:0|0:0,0:0:0:0:
286,75,56334,2,0,L|127:75,1,160,2|2,1:2|1:2,0:0:0:0:
269,75,56820,6,0,L|270:154,1,80,2|0,0:0|1:2,0:0:0:0:
125,154,57145,2,0,L|124:250,1,80,4|2,3:2|1:2,0:0:0:0:
212,233,57469,2,0,L|311:233,2,80,4|0|10,0:3|1:2|0:3,0:0:0:0:
120,325,57955,1,6,0:3:0:0:
353,325,58118,6,0,P|415:314|439:222,1,160,6|0,0:0|0:0,0:0:0:0:
362,229,58604,1,0,1:2:0:0:
210,229,58766,1,0,3:2:0:0:
190,193,58847,1,0,3:2:0:0:
211,159,58928,1,0,1:2:0:0:
291,159,59091,1,0,3:2:0:0:
434,159,59253,2,0,L|435:73,1,80,2|0,1:2|3:2,0:0:0:0:
291,79,59577,5,2,1:2:0:0:
211,79,59739,1,0,3:2:0:0:
185,108,59820,1,0,3:2:0:0:
212,137,59901,1,2,1:2:0:0:
357,137,60064,5,2,3:2:0:0:
397,142,60145,1,0,3:2:0:0:
422,173,60226,1,0,1:2:0:0:
279,173,60388,1,2,3:2:0:0:
239,178,60469,1,0,3:2:0:0:
214,209,60550,1,0,3:2:0:0:
445,209,60712,6,0,P|474:267|401:295,1,160,6|2,1:2|3:2,0:0:0:0:
249,295,61199,2,0,L|249:212,1,80,2|0,3:2|1:2,0:0:0:0:
400,215,61523,1,0,3:2:0:0:
419,179,61604,1,0,3:2:0:0:
398,145,61685,1,0,3:2:0:0:
318,145,61847,1,0,1:2:0:0:
83,226,62009,1,2,3:2:0:0:
83,226,62496,6,0,P|94:171|187:149,1,160,2|2,0:0|0:0,0:0:0:0:
96,147,62982,2,0,L|95:64,1,80,2|0,0:0|0:0,0:0:0:0:
328,61,63307,6,0,P|381:102|323:141,1,160,6|2,1:2|1:2,0:0:0:0:
178,140,63793,2,0,L|177:221,1,80,2|2,3:2|1:2,0:0:0:0:
321,219,64118,2,0,P|376:215|419:124,1,160,2|2,1:2|3:2,0:0:0:0:
187,129,64604,6,0,L|186:210,1,80,2|0,1:2|0:0,0:0:0:0:
329,208,64928,2,0,P|380:244|320:296,1,160,2|2,1:2|1:2,0:0:0:0:
180,297,65415,2,0,L|95:297,2,80,2|2|2,1:2|1:2|3:2,0:0:0:0:
412,297,65901,6,0,L|239:297,1,160,6|0,1:2|1:2,0:0:0:0:
396,297,66388,2,0,L|398:204,1,80,2|0,3:2|1:2,0:0:0:0:
253,217,66712,2,0,L|419:215,1,160,2|2,1:2|3:2,0:0:0:0:
179,215,67199,6,0,L|177:131,1,80,2|0,1:2|0:0,0:0:0:0:
320,135,67523,2,0,P|389:129|413:42,1,160,2|0,1:2|1:2,0:0:0:0:
272,51,68009,2,0,L|111:50,1,160,2|2,1:2|3:2,0:0:0:0:
345,50,68496,6,0,P|397:82|332:132,1,160,6|2,1:2|1:2,0:0:0:0:
198,136,68982,2,0,L|197:222,1,80,2|0,3:2|1:2,0:0:0:0:
341,215,69307,2,0,P|406:206|432:114,1,160,2|2,1:2|3:2,0:0:0:0:
204,125,69793,6,0,L|375:125,1,160,2|0,1:2|1:2,0:0:0:0:
219,125,70280,2,0,L|218:208,1,80,2|0,3:2|1:2,0:0:0:0:
361,204,70604,2,0,P|408:235|347:294,1,160,2|2,1:2|3:2,0:0:0:0:
120,295,71091,6,0,P|74:246|138:192,1,160,6|0,1:2|1:2,0:0:0:0:
280,190,71577,2,0,P|328:161|274:100,1,160,0|0,3:2|1:2,0:0:0:0:
121,99,72064,2,0,L|47:69,1,80,2|2,1:2|3:2,0:0:0:0:
280,99,72388,6,0,P|341:108|363:200,1,160,6|0,1:2|1:2,0:0:0:0:
222,193,72874,2,0,L|220:279,1,80,0|0,3:2|1:2,0:0:0:0:
364,272,73199,1,2,3:2:0:0:
407,270,73280,1,0,3:2:0:0:
425,232,73361,1,2,3:2:0:0:
407,270,73442,1,0,3:2:0:0:
364,272,73523,1,0,3:2:0:0:
132,272,73685,6,0,L|309:272,1,160,6|2,1:2|1:2,0:0:0:0:
147,272,74172,2,0,L|145:184,1,80,2|0,3:2|0:0,0:0:0:0:
289,192,74496,2,0,P|350:186|377:95,1,160,2|2,1:2|3:2,0:0:0:0:
148,101,74982,6,0,L|147:186,1,80,2|0,1:2|0:0,0:0:0:0:
291,180,75307,2,0,P|337:212|270:267,1,160,2|2,1:2|0:0,0:0:0:0:
136,271,75793,2,0,L|237:270,2,80,2|2|2,1:2|1:2|3:2,0:0:0:0:
369,271,76280,6,0,P|421:240|363:180,1,160,6|0,1:2|1:2,0:0:0:0:
227,178,76766,2,0,L|226:96,1,80,2|0,3:2|0:0,0:0:0:0:
368,98,77091,2,0,P|425:99|469:187,1,160,2|2,1:2|3:2,0:0:0:0:
238,181,77577,6,0,L|407:180,2,160,2|2|2,1:2|1:2|3:2,0:0:0:0:
318,181,78388,1,2,0:0:0:0:
461,181,78550,2,0,L|374:181,1,80,2|2,3:2|3:2,0:0:0:0:
149,181,78874,6,0,P|106:136|165:78,1,160,6|0,1:2|1:2,0:0:0:0:
252,78,79361,2,0,L|252:161,1,80,0|0,3:2|1:2,0:0:0:0:
100,158,79685,2,0,P|47:201|107:247,1,160,2|2,1:2|3:2,0:0:0:0:
334,248,80172,6,0,P|387:217|331:165,1,160,2|0,1:2|1:2,0:0:0:0:
188,164,80658,2,0,L|187:79,1,80,2|0,3:2|1:2,0:0:0:0:
331,84,80982,2,0,L|145:84,1,160,2|2,1:2|3:2,0:0:0:0:
405,84,81469,6,0,P|454:128|394:179,1,160,6|0,1:2|1:2,0:0:0:0:
246,179,81955,2,0,L|245:269,1,80,0|0,3:2|1:2,0:0:0:0:
333,258,82280,2,0,P|387:255|437:161,1,160,0|0,1:2|3:2,0:0:0:0:
205,171,82766,6,0,P|151:214|206:263,1,160,4|0,1:2|1:2,0:0:0:0:
348,263,83253,2,0,L|349:177,1,80,0|2,3:2|1:2,0:0:0:0:
205,183,83577,1,0,3:2:0:0:
161,178,83658,1,0,3:2:0:0:
144,137,83739,1,10,0:3:0:0:
161,178,83820,1,8,0:3:0:0:
205,183,83901,1,6,0:3:0:0:
438,183,84064,6,0,P|487:147|431:89,1,160,6|0,1:2|1:2,0:0:0:0:
289,88,84550,2,0,L|288:176,1,80,0|0,3:2|1:2,0:0:0:0:
431,167,84874,2,0,L|343:166,2,80,2|0|2,3:2|1:2|3:2,0:0:0:0:
197,167,85361,6,0,P|123:182|100:255,1,160,6|0,1:2|1:2,0:0:0:0:
243,255,85847,2,0,L|245:164,1,80,2|0,3:2|1:2,0:0:0:0:
99,175,86172,2,0,L|188:176,2,80,2|0|2,3:2|1:2|3:2,0:0:0:0:
331,175,86658,6,0,P|379:138|324:79,1,160,6|0,1:2|3:2,0:0:0:0:
171,78,87145,2,0,L|79:78,2,80,2|0|0,3:2|3:2|3:2,0:0:0:0:
322,78,87631,2,0,L|403:79,1,80,0|0,3:2|3:2,0:0:0:0:
171,78,87955,6,0,P|97:117|177:208,1,240,2|2,3:2|0:0,0:0:0:0:
263,208,88604,1,2,0:0:0:0:
175,208,88766,2,0,P|102:199|74:125,1,160,2|2,0:0|0:0,0:0:0:0:
226,125,89253,6,0,P|336:143|380:254,1,240,2|0,0:0|0:0,0:0:0:0:
