osu file format v14

[General]
AudioFilename: audio.mp3
AudioLeadIn: 0
PreviewTime: 62496
Countdown: 0
SampleSet: Soft
StackLeniency: 0.7
Mode: 2
LetterboxInBreaks: 0
WidescreenStoryboard: 1

[Editor]
DistanceSpacing: 1
BeatDivisor: 4
GridSize: 8
TimelineZoom: 1.9

[Metadata]
Title:A Hero Someday (TV Size)
TitleUnicode:未来のヒーローたちへ (TV Size)
Artist:Syou Takeyaki
ArtistUnicode:タケヤキ翔
Creator:rew0825
Version:Cup
Source:組長娘と世話係
Tags:Mirai no Hero-tachi e Kumichou Musume to Sewagakari The Yakuza's Guide to Babysitting Anime OP Opening Japanese Rock Pop J-Rock JRock J-Pop JPop Male Vocal Vocals ANCHOR
BeatmapID:3731032
BeatmapSetID:1817757

[Difficulty]
HPDrainRate:2
CircleSize:2.5
OverallDifficulty:6
ApproachRate:6
SliderMultiplier:1.3
SliderTickRate:1

[Events]
//Background and Video events
0,0,"bg.jpg",0,0
Video,-50,"vdo.m4v"
//Break Periods
//Storyboard Layer 0 (Background)
//Storyboard Layer 1 (Fail)
//Storyboard Layer 2 (Pass)
//Storyboard Layer 3 (Foreground)
//Storyboard Layer 4 (Overlay)
//Storyboard Sound Samples

[TimingPoints]
389,324.324324324324,4,2,25,70,1,0
1037,324.324324324324,4,2,25,75,1,0
11415,-100,4,2,25,80,0,0
21793,-100,4,2,26,75,0,0
41253,-100,4,2,25,75,0,0
42226,-100,4,2,27,75,0,0
42550,-100,4,2,25,80,0,0
52928,-100,4,2,25,75,0,0
57469,-100,4,2,27,75,0,0
57631,-100,4,2,25,75,0,0
57793,-100,4,2,27,75,0,0
58118,-100,4,2,25,75,0,0
58766,-100,4,2,25,65,0,0
59091,-100,4,2,25,70,0,0
59415,-100,4,2,25,75,0,0
59739,-100,4,2,25,80,0,0
62496,-100,4,2,25,70,0,0
63307,-100,4,2,25,85,0,1
83739,-100,4,2,27,85,0,1
84064,-100,4,2,25,85,0,1
86982,-100,4,2,25,75,0,1
87469,-100,4,2,25,85,0,1
87955,-100,4,2,25,65,0,0

[Colours]
Combo1 : 222,92,219
Combo2 : 84,108,226
Combo3 : 227,62,107
Combo4 : 102,199,227

[HitObjects]
146,344,551,5,2,0:0:0:0:
341,344,1037,6,0,P|401:306|331:237,1,195,2|2,0:0|0:0,0:0:0:0:
204,236,1847,1,2,0:0:0:0:
398,235,2334,6,0,L|402:94,1,130,2|2,0:0|0:0,0:0:0:0:
272,106,2982,2,0,L|405:106,1,130,2|2,0:0|0:0,0:0:0:0:
271,106,3631,6,0,P|206:139|271:207,1,195,2|2,0:0|0:0,0:0:0:0:
399,207,4442,1,2,0:0:0:0:
204,207,4928,6,0,L|62:205,2,130,2|2|2,0:0|0:0|0:0,0:0:0:0:
334,207,5901,1,2,0:0:0:0:
203,207,6226,6,0,P|137:169|202:106,1,195,2|2,0:0|0:0,0:0:0:0:
332,106,7036,1,2,0:0:0:0:
136,106,7523,6,0,L|133:252,1,130,2|2,0:0|0:0,0:0:0:0:
328,235,8334,1,2,0:0:0:0:
133,235,8820,1,2,0:0:0:0:
386,235,10928,5,2,1:2:0:0:
190,235,11415,6,0,P|133:192|214:121,1,195,4|2,1:2|3:2,0:0:0:0:
328,116,12226,1,2,1:2:0:0:
133,116,12712,6,0,L|333:113,1,195,2|2,1:2|3:2,0:0:0:0:
197,113,13523,1,2,1:2:0:0:
391,113,14009,6,0,P|453:163|372:224,1,195,6|2,1:2|3:2,0:0:0:0:
256,228,14820,1,2,1:2:0:0:
60,228,15307,6,0,L|265:228,1,195,2|2,1:2|3:2,0:0:0:0:
124,228,16118,1,2,1:2:0:0:
318,228,16604,6,0,P|377:182|309:113,1,195,6|0,1:2|3:2,0:0:0:0:
179,112,17415,1,2,1:2:0:0:
373,112,17901,6,0,P|378:174|262:229,1,195,2|0,1:2|3:2,0:0:0:0:
144,234,18712,1,2,1:2:0:0:
339,234,19199,6,0,L|124:213,1,195,6|0,1:2|3:2,0:0:0:0:
274,215,20009,1,0,1:2:0:0:
469,215,20496,6,0,P|491:140|397:84,1,195,6|0,1:2|3:2,0:0:0:0:
275,82,21307,1,2,1:2:0:0:
80,82,21793,6,0,P|37:141|127:195,1,195,6|2,1:2|3:2,0:0:0:0:
249,198,22604,1,2,0:0:0:0:
53,198,23091,6,0,L|50:66,1,130,2|2,0:0|0:0,0:0:0:0:
179,68,23739,1,2,3:2:0:0:
308,69,24064,1,0,0:0:0:0:
178,69,24388,6,0,P|78:107|79:189,1,195,2|2,1:2|3:2,0:0:0:0:
206,182,25199,1,2,0:0:0:0:
400,182,25685,6,0,L|398:311,1,130,2|2,0:0|0:0,0:0:0:0:
268,312,26334,1,0,3:2:0:0:
138,314,26658,1,2,1:2:0:0:
267,314,26982,6,0,P|330:282|259:221,1,195,2|2,1:2|3:2,0:0:0:0:
131,219,27793,1,2,0:0:0:0:
326,219,28280,6,0,L|328:86,1,130,2|2,0:0|0:0,0:0:0:0:
133,90,29091,1,2,0:0:0:0:
328,90,29577,1,2,1:2:0:0:
74,90,31685,5,2,0:0:0:0:
269,90,32172,6,0,P|332:153|263:206,1,195,2|2,1:2|3:2,0:0:0:0:
71,206,33145,1,2,1:2:0:0:
200,206,33469,6,0,P|287:189|316:95,1,195,2|2,0:0|3:2,0:0:0:0:
121,96,34442,1,0,1:2:0:0:
250,96,34766,6,0,P|224:185|133:205,1,195,2|2,1:2|3:2,0:0:0:0:
328,205,35739,1,0,1:2:0:0:
197,205,36064,6,0,P|112:184|104:82,1,195,2|2,0:0|3:2,0:0:0:0:
229,209,36874,1,2,0:0:0:0:
424,209,37361,6,0,P|464:156|382:79,1,195,2|2,1:2|1:2,0:0:0:0:
257,78,38172,1,2,1:2:0:0:
62,78,38658,6,0,L|59:219,1,130,2|2,0:0|0:0,0:0:0:0:
254,207,39469,1,2,1:2:0:0:
59,207,39955,6,0,L|265:242,1,195,2|2,0:0|3:2,0:0:0:0:
120,239,40766,1,0,1:2:0:0:
315,239,41253,6,0,P|365:202|296:119,1,195,6|2,1:2|3:2,0:0:0:0:
168,118,42064,1,2,3:2:0:0:
362,118,42550,6,0,L|168:86,1,195,6|2,1:2|3:2,0:0:0:0:
299,86,43361,1,2,1:2:0:0:
104,86,43847,6,0,P|70:148|159:197,1,195,2|2,1:2|3:2,0:0:0:0:
354,196,44820,1,0,1:2:0:0:
223,196,45145,6,0,P|163:143|237:95,1,195,2|2,1:2|3:2,0:0:0:0:
367,95,45955,1,2,1:2:0:0:
171,95,46442,6,0,L|368:95,1,195,2|2,1:2|3:2,0:0:0:0:
170,95,47415,1,0,1:2:0:0:
300,225,47739,6,0,P|368:173|303:117,1,195,6|2,1:2|3:2,0:0:0:0:
173,116,48550,1,2,1:2:0:0:
367,116,49036,6,0,L|369:257,1,130,2|2,1:2|1:2,0:0:0:0:
173,245,49847,1,2,1:2:0:0:
368,245,50334,6,0,L|370:109,1,130,2|2,1:2|1:2,0:0:0:0:
240,115,50982,2,0,L|105:109,1,130,2|2,3:2|1:2,0:0:0:0:
240,109,51631,6,0,P|302:166|230:220,1,195,2|2,1:2|3:2,0:0:0:0:
103,220,52442,1,2,3:2:0:0:
297,220,52928,6,0,P|367:208|387:97,1,195,6|2,1:2|1:2,0:0:0:0:
258,99,53739,1,2,1:2:0:0:
62,99,54226,6,0,P|42:152|157:202,1,195,2|2,0:0|1:2,0:0:0:0:
336,211,55199,1,0,3:2:0:0:
206,211,55523,6,0,L|204:344,1,130,6|2,3:2|0:0,0:0:0:0:
399,340,56334,1,2,1:2:0:0:
204,340,56820,6,0,L|203:206,1,130,2|4,0:0|3:2,0:0:0:0:
333,210,57469,2,0,L|184:210,1,130,4|10,0:3|0:3,0:0:0:0:
333,210,58118,6,0,P|398:245|330:306,1,195,6|0,0:0|1:2,0:0:0:0:
200,306,58928,2,0,L|197:167,1,130,0|2,1:2|1:2,0:0:0:0:
327,176,59577,6,0,P|386:137|316:66,1,195,2|2,1:2|3:2,0:0:0:0:
189,65,60388,1,2,3:2:0:0:
318,65,60712,6,0,P|330:137|227:178,1,195,6|2,1:2|3:2,0:0:0:0:
102,180,61523,1,0,3:2:0:0:
296,180,62009,1,2,3:2:0:0:
100,180,62496,6,0,P|35:226|110:282,1,195,2|2,0:0|0:0,0:0:0:0:
232,284,63307,6,0,P|318:278|372:182,1,195,6|2,1:2|3:2,0:0:0:0:
241,191,64118,1,2,1:2:0:0:
46,191,64604,6,0,L|48:48,1,130,2|2,1:2|1:2,0:0:0:0:
243,61,65415,1,2,1:2:0:0:
47,61,65901,6,0,P|77:134|185:155,1,195,6|2,1:2|3:2,0:0:0:0:
313,155,66712,1,2,1:2:0:0:
117,155,67199,6,0,L|118:295,1,130,2|2,1:2|1:2,0:0:0:0:
312,284,68009,1,2,1:2:0:0:
116,284,68496,6,0,L|317:236,1,195,6|2,1:2|3:2,0:0:0:0:
175,238,69307,1,2,1:2:0:0:
369,238,69793,6,0,P|432:193|359:134,1,195,2|2,1:2|3:2,0:0:0:0:
233,132,70604,1,2,1:2:0:0:
428,132,71091,6,0,L|240:71,1,195,6|0,1:2|3:2,0:0:0:0:
437,71,72064,1,2,1:2:0:0:
307,71,72388,6,0,P|226:80|184:184,1,195,6|0,1:2|3:2,0:0:0:0:
312,175,73199,1,2,3:2:0:0:
117,175,73685,6,0,L|342:154,1,195,6|2,1:2|3:2,0:0:0:0:
180,156,74496,1,2,1:2:0:0:
374,156,74982,6,0,L|376:294,1,130,2|2,1:2|1:2,0:0:0:0:
180,285,75793,1,2,1:2:0:0:
375,285,76280,6,0,P|345:218|235:173,1,195,6|2,1:2|3:2,0:0:0:0:
109,171,77091,1,2,1:2:0:0:
303,171,77577,6,0,L|306:29,1,130,2|2,1:2|1:2,0:0:0:0:
175,41,78226,1,2,3:2:0:0:
305,41,78550,1,2,3:2:0:0:
175,41,78874,6,0,P|111:84|190:139,1,195,6|0,1:2|3:2,0:0:0:0:
309,143,79685,1,2,1:2:0:0:
113,143,80172,6,0,P|97:200|211:241,1,195,2|2,1:2|3:2,0:0:0:0:
330,248,80982,1,2,1:2:0:0:
134,248,81469,6,0,P|81:201|156:133,1,195,6|0,1:2|3:2,0:0:0:0:
283,132,82280,1,0,1:2:0:0:
88,132,82766,6,0,L|299:104,1,195,4|0,1:2|3:2,0:0:0:0:
151,106,83577,1,0,3:2:0:0:
346,106,84064,6,0,P|405:157|327:218,1,195,6|0,1:2|3:2,0:0:0:0:
205,220,84874,1,2,3:2:0:0:
400,220,85361,6,0,L|196:203,1,195,6|2,1:2|3:2,0:0:0:0:
335,203,86172,1,2,3:2:0:0:
140,203,86658,6,0,P|83:153|159:93,1,195,6|2,1:2|3:2,0:0:0:0:
285,91,87469,1,0,3:2:0:0:
90,91,87955,6,0,L|87:285,1,195,2|2,3:2|0:0,0:0:0:0:
217,285,88766,1,2,0:0:0:0:
412,285,89253,6,0,P|431:232|316:181,1,195,2|0,0:0|0:0,0:0:0:0:
