osu file format v14

[General]
AudioFilename: zettai niii.mp3
AudioLeadIn: 0
PreviewTime: 44948
Countdown: 0
SampleSet: Soft
StackLeniency: 0.7
Mode: 0
LetterboxInBreaks: 0
WidescreenStoryboard: 1

[Editor]
Bookmarks: 44986,46486,64186,172186
DistanceSpacing: 0.25
BeatDivisor: 4
GridSize: 32
TimelineZoom: 2.1

[Metadata]
Title:Zettai Tokken Shuchou Shimasu! Hoshi Syoko Solo Remix
TitleUnicode:絶対特権主張しますっ! 星輝子ソロ・リミックス
Artist:Syoko Hoshi (CV: Satsumi Matsuda)
ArtistUnicode:星輝子(CV:松田颯水)
Creator:bite you death
Version:Nikakis' Hard
Source:アイドルマスター シンデレラガールズ
Tags:idolm@ster idolmaster cinderella girls byd nikakis ohwow meme tag so that people will think im funny btw this is rankable so dont tell me to remove it xchorse divineenigma
BeatmapID:1644669
BeatmapSetID:754779

[Difficulty]
HPDrainRate:6
CircleSize:3.5
OverallDifficulty:6
ApproachRate:8
SliderMultiplier:1.3
SliderTickRate:1

[Events]
//Background and Video events
0,0,"BG.jpg",0,0
//Break Periods
//Storyboard Layer 0 (Background)
//Storyboard Layer 1 (Fail)
//Storyboard Layer 2 (Pass)
//Storyboard Layer 3 (Foreground)
//Storyboard Sound Samples

[TimingPoints]
586,300,4,2,2,70,1,0
1786,-111.111111111111,4,2,1,50,0,0
6286,-100,4,2,2,70,0,0
6586,-100,4,2,2,70,0,0
11386,-111.111111111111,4,2,1,60,0,0
14986,-100,4,2,2,70,0,0
15886,-100,4,2,1,70,0,0
16111,-100,4,2,1,5,0,0
16186,-100,4,2,2,70,0,0
18511,-100,4,2,2,5,0,0
18586,-100,4,2,2,70,0,0
19711,-100,4,2,2,5,0,0
19786,-100,4,2,2,70,0,0
23311,-100,4,2,2,5,0,0
23386,-100,4,2,2,70,0,0
24661,-100,4,2,2,5,0,0
24736,-100,4,2,2,70,0,0
25786,-111.111111111111,4,2,2,70,0,0
40111,-111.111111111111,4,2,2,5,0,0
40186,-111.111111111111,4,2,2,70,0,0
42211,-111.111111111111,4,2,2,5,0,0
42286,-111.111111111111,4,2,2,70,0,0
42511,-111.111111111111,4,2,2,5,0,0
42586,-100,4,2,2,70,0,0
44986,-100,4,2,3,80,0,1
45211,-100,4,2,3,80,0,1
45286,-100,4,2,3,80,0,1
45511,-100,4,2,3,80,0,1
45586,-100,4,2,3,80,0,1
49711,-100,4,2,3,80,0,1
49786,-100,4,2,3,80,0,1
50011,-100,4,2,3,80,0,1
50086,-100,4,2,3,80,0,1
50311,-100,4,2,3,80,0,1
50386,-100,4,2,3,80,0,1
54361,-100,4,2,3,80,0,1
59386,-100,4,2,2,70,0,0
64186,-111.111111111111,4,2,2,70,0,0
67786,-100,4,2,2,70,0,0
68611,-100,4,2,2,5,0,0
68686,-100,4,2,2,70,0,0
68911,-100,4,2,2,5,0,0
68986,-100,4,2,2,70,0,0
70261,-100,4,2,2,5,0,0
70336,-100,4,2,2,70,0,0
71461,-100,4,2,2,5,0,0
71536,-100,4,2,2,70,0,0
73861,-100,4,2,2,5,0,0
73936,-100,4,2,2,70,0,0
75061,-100,4,2,2,5,0,0
75136,-100,4,2,2,70,0,0
76186,-100,4,2,3,80,0,1
79786,-100,4,2,3,90,0,1
80686,-100,4,2,3,90,0,0

[Colours]
Combo1 : 201,201,201
Combo2 : 0,206,206
Combo3 : 255,255,204
Combo4 : 255,121,188
Combo5 : 255,197,168
SliderBorder : 255,255,255
SliderTrackOverride : 0,0,20

[HitObjects]
149,234,586,6,0,P|57:226|64:317,1,195,0|0,0:0|0:0,0:0:0:0:
120,359,1186,2,0,L|184:352,1,65,8|2,0:0|0:3,0:0:0:0:
227,348,1411,1,8,0:0:0:0:
227,348,1486,2,0,P|254:302|249:268,1,65,0|0,3:0|3:0,0:0:0:0:
252,203,1786,6,0,L|239:68,1,116.999996429443,2|0,0:0|0:0,0:0:0:0:
295,18,2236,1,0,0:0:0:0:
382,8,2386,2,0,L|440:2,1,58.4999982147217,0|0,0:0|0:0,0:0:0:0:
481,80,2686,2,0,L|422:85,1,58.4999982147217,0|0,0:0|0:0,0:0:0:0:
335,94,2986,6,0,P|328:158|365:213,1,116.999996429443,0|0,0:0|0:0,0:0:0:0:
302,371,3586,2,0,P|310:314|284:262,1,116.999996429443,0|0,0:0|0:0,0:0:0:0:
135,169,4186,2,0,L|125:302,1,116.999996429443,0|0,0:0|0:0,0:0:0:0:
261,174,4786,2,0,L|252:57,1,116.999996429443,0|0,0:0|0:0,0:0:0:0:
83,8,5386,6,0,L|73:141,1,116.999996429443,0|0,0:0|0:0,0:0:0:0:
56,299,5986,1,0,0:0:0:0:
164,136,6286,1,8,0:0:0:0:
167,330,6586,6,0,P|231:299|238:237,1,130,6|8,3:2|0:0,0:0:0:0:
227,155,7036,2,0,L|219:70,1,65,2|0,0:0|0:0,0:0:0:0:
310,72,7336,2,0,L|318:-13,1,65,2|0,0:0|0:0,0:0:0:0:
398,45,7636,1,8,0:0:0:0:
390,148,7786,6,0,L|376:304,1,130,6|8,3:2|0:2,0:0:0:0:
317,345,8236,2,0,P|284:369|246:375,1,65,2|0,0:0|0:0,0:0:0:0:
251,283,8536,2,0,P|227:250|221:212,1,65,2|0,0:0|0:0,0:0:0:0:
311,216,8836,1,8,0:0:0:0:
233,147,8986,6,0,P|143:112|104:114,1,130,6|8,3:2|0:0,0:0:0:0:
34,162,9436,2,0,L|26:247,1,65,2|0,0:0|0:0,0:0:0:0:
117,245,9736,2,0,L|125:330,1,65,2|0,0:0|0:0,0:0:0:0:
203,351,10036,1,8,0:0:0:0:
306,341,10186,6,0,L|455:327,1,130,6|8,3:2|0:0,0:0:0:0:
481,250,10636,2,0,P|485:209|471:173,1,65,2|0,0:0|0:0,0:0:0:0:
505,98,10936,2,0,P|464:93|428:107,1,65,2|0,0:0|0:0,0:0:0:0:
379,171,11236,1,8,0:0:0:0:
360,262,11386,6,0,P|292:205|285:168,1,116.999996429443,6|0,0:0|0:0,0:0:0:0:
389,55,11986,2,0,L|378:192,1,116.999996429443,6|0,0:0|0:0,0:0:0:0:
238,90,12586,2,0,P|153:67|118:82,1,116.999996429443,6|0,0:0|0:0,0:0:0:0:
50,220,13186,2,0,L|41:336,1,116.999996429443,6|0,0:0|0:0,0:0:0:0:
172,238,13786,6,0,L|180:121,1,116.999996429443,6|0,0:0|0:0,0:0:0:0:
315,28,14386,2,0,P|355:69|353:123,1,87.7499973220826,6|0,0:0|0:0,0:0:0:0:
359,138,14686,2,0,L|354:200,1,58.4999982147217,0|0,0:0|0:0,0:0:0:0:
295,282,14986,6,0,L|229:276,1,65,14|2,3:2|0:3,0:0:0:0:
128,298,15286,2,0,L|134:232,1,65,10|2,3:2|0:3,0:0:0:0:
108,132,15586,2,0,L|174:138,1,65,10|0,3:2|0:0,0:0:0:0:
275,150,15886,1,2,0:2:0:0:
305,328,16186,6,0,P|246:360|171:344,2,130,6|10|2,3:2|0:0|3:2,0:0:0:0:
352,250,16936,1,2,3:2:0:0:
306,171,17086,2,0,L|229:163,1,65,10|2,0:0|0:0,0:0:0:0:
160,98,17386,6,0,P|117:70|19:94,1,130,2|10,3:2|0:2,0:0:0:0:
3,161,17836,1,0,0:0:0:0:
40,244,17986,2,0,P|79:248|108:236,1,65,0|0,3:0|3:0,0:0:0:0:
153,162,18286,2,0,L|161:85,1,65,8|0,0:0|0:0,0:0:0:0:
242,34,18586,6,0,P|304:23|360:54,1,130,2|10,3:2|0:2,0:0:0:0:
406,133,19036,1,0,0:0:0:0:
451,211,19186,2,0,L|444:275,1,65,0|0,3:0|3:0,0:0:0:0:
395,352,19486,2,0,P|356:356|327:344,1,65,8|0,0:0|0:0,0:0:0:0:
245,290,19786,6,0,L|257:166,1,97.5,2|0,3:2|0:0,0:0:0:0:
259,147,20086,2,0,L|195:114,1,65,10|0,0:0|0:0,0:0:0:0:
128,172,20386,2,0,L|121:236,1,65,2|0,3:2|3:2,0:0:0:0:
111,327,20686,1,8,0:0:0:0:
19,169,20986,6,0,L|37:22,2,130,6|10|2,3:2|0:0|3:2,0:0:0:0:
60,249,21736,1,2,3:2:0:0:
96,165,21886,2,0,P|112:129|136:110,1,65,10|2,0:0|0:0,0:0:0:0:
162,14,22186,2,0,P|197:30|238:114,1,130,2|10,3:2|0:0,0:0:0:0:
230,197,22636,1,0,0:0:0:0:
222,287,22786,2,0,L|215:351,1,65,0|0,3:0|3:0,0:0:0:0:
300,384,23086,2,0,P|331:388|362:379,1,65,8|0,0:0|0:0,0:0:0:0:
437,305,23386,6,0,L|422:157,1,130,6|10,3:2|0:0,0:0:0:0:
411,85,23836,1,0,0:0:0:0:
321,66,23986,2,0,P|290:62|259:71,1,65,0|2,3:0|3:2,0:0:0:0:
176,111,24286,1,10,0:0:0:0:
203,197,24436,1,6,3:2:0:0:
162,292,24586,6,0,P|106:271|94:230,1,97.5,0|0,0:0|0:0,0:0:0:0:
89,193,24886,2,0,L|83:118,1,65,2|2,3:2|3:2,0:0:0:0:
78,37,25186,1,8,0:0:0:0:
259,23,25486,2,0,P|287:26|314:41,1,32.5,8|8,0:2|0:2,0:0:0:0:
334,39,25636,2,0,P|337:54|338:70,1,32.5,8|8,0:2|0:2,0:0:0:0:
332,112,25786,6,0,L|321:251,1,116.999996429443,2|8,3:2|0:0,0:0:0:0:
288,309,26236,1,0,0:0:0:0:
358,360,26386,2,0,L|429:367,1,58.4999982147217,0|0,3:0|3:0,0:0:0:0:
493,324,26686,2,0,P|499:287|488:253,1,58.4999982147217,10|0,0:0|0:0,0:0:0:0:
462,185,26986,6,0,L|391:178,1,58.4999982147217,2|0,3:2|0:0,0:0:0:0:
392,91,27286,2,0,L|333:96,1,58.4999982147217,10|0,0:0|0:0,0:0:0:0:
311,11,27586,2,0,P|273:27|255:51,1,58.4999982147217,2|0,3:2|3:0,0:0:0:0:
175,56,27886,2,0,P|191:94|215:112,1,58.4999982147217,10|0,0:0|0:0,0:0:0:0:
285,160,28186,6,0,L|277:290,1,116.999996429443,2|8,3:2|0:0,0:0:0:0:
243,358,28636,1,2,0:0:0:0:
155,358,28786,2,0,P|84:342|61:296,1,116.999996429443,2|8,3:2|0:0,0:0:0:0:
39,222,29236,1,0,0:0:0:0:
27,123,29386,6,0,L|34:6,1,116.999996429443,2|8,3:2|0:0,0:0:0:0:
122,4,29836,1,0,0:0:0:0:
128,91,29986,2,0,L|135:207,1,116.999996429443,2|8,3:2|0:0,0:0:0:0:
140,295,30436,1,2,0:0:0:0:
223,348,30586,6,0,P|286:364|338:338,1,116.999996429443,2|8,3:2|0:0,0:0:0:0:
395,283,31036,1,0,0:0:0:0:
405,195,31186,2,0,L|412:78,1,116.999996429443,0|10,3:0|0:0,0:0:0:0:
347,19,31636,1,2,0:0:0:0:
259,8,31786,6,0,L|188:1,1,58.4999982147217,2|0,3:2|0:0,0:0:0:0:
149,73,32086,2,0,L|90:67,1,58.4999982147217,10|0,0:0|0:0,0:0:0:0:
116,151,32386,2,0,L|174:156,1,58.4999982147217,2|0,3:2|3:0,0:0:0:0:
224,84,32686,2,0,L|282:89,1,58.4999982147217,8|0,0:0|0:0,0:0:0:0:
349,162,32986,6,0,P|368:215|333:273,1,116.999996429443,2|8,3:2|0:0,0:0:0:0:
280,320,33436,1,2,0:0:0:0:
374,351,33586,2,0,L|511:363,1,116.999996429443,2|8,3:2|0:2,0:0:0:0:
507,281,34036,1,0,0:0:0:0:
470,207,34186,6,0,L|479:161,2,29.2499991073609,8|0|0,0:1|0:0|0:0,0:0:0:0:
395,242,34486,2,0,L|389:270,2,29.2499991073609,0|0|0,3:0|3:0|3:0,0:0:0:0:
360,167,34786,2,0,L|369:121,2,29.2499991073609,0|0|0,3:0|3:0|3:0,0:0:0:0:
285,202,35086,2,0,L|279:230,2,29.2499991073609,10|0|0,3:2|0:0|0:0,0:0:0:0:
289,101,35386,6,0,P|242:40|205:33,1,116.999996429443,6|8,3:2|0:0,0:0:0:0:
125,71,35836,1,2,0:0:0:0:
158,231,36136,1,2,0:0:0:0:
18,144,36436,1,10,0:0:0:0:
31,242,36586,6,0,L|22:310,1,58.4999982147217,2|2,3:2|0:0,0:0:0:0:
110,304,36886,2,0,L|119:372,1,58.4999982147217,2|2,0:0|0:0,0:0:0:0:
203,380,37186,2,0,P|266:379|310:341,1,116.999996429443,2|10,3:2|3:2,0:0:0:0:
388,203,37786,6,0,L|377:59,1,116.999996429443,6|8,3:2|0:0,0:0:0:0:
348,3,38236,1,2,0:0:0:0:
277,163,38536,1,2,0:0:0:0:
221,6,38836,1,10,0:0:0:0:
154,63,38986,6,0,L|145:131,1,58.4999982147217,2|2,3:2|0:0,0:0:0:0:
62,151,39286,2,0,P|75:177|99:195,1,58.4999982147217,2|2,0:0|0:0,0:0:0:0:
67,277,39586,2,0,P|125:278|171:240,1,116.999996429443,2|10,3:2|3:2,0:0:0:0:
251,100,40186,6,0,L|263:225,1,116.999996429443,6|8,3:2|0:0,0:0:0:0:
271,303,40636,1,2,0:2:0:0:
342,142,40936,1,2,0:2:0:0:
373,314,41236,1,10,0:0:0:0:
450,272,41386,6,0,L|441:204,1,58.4999982147217,2|2,3:2|0:0,0:0:0:0:
421,128,41686,2,0,L|430:60,1,58.4999982147217,2|2,0:0|0:0,0:0:0:0:
349,20,41986,2,0,P|286:21|242:59,1,116.999996429443,2|10,3:2|3:2,0:0:0:0:
154,211,42586,6,0,L|143:289,1,65,14|0,3:2|0:0,0:0:0:0:
131,365,42886,1,0,0:0:0:0:
62,196,43186,2,0,L|73:118,1,65,14|0,3:2|0:0,0:0:0:0:
82,41,43486,1,0,0:0:0:0:
154,211,43786,6,0,P|174:248|216:263,1,65,2|2,3:2|0:3,0:0:0:0:
236,272,44011,1,2,0:3:0:0:
236,272,44086,2,0,L|325:266,1,65,8|0,0:0|0:0,0:0:0:0:
391,257,44386,1,2,3:2:0:0:
305,97,44686,1,8,0:0:0:0:
391,257,44986,6,0,P|390:308|318:355,2,130,6|10|2,3:2|0:0|3:2,0:0:0:0:
366,169,45736,1,2,3:2:0:0:
339,82,45886,2,0,P|307:88|279:104,1,65,10|2,0:0|0:0,0:0:0:0:
195,167,46186,6,0,P|167:215|196:291,1,130,2|10,3:2|0:0,0:0:0:0:
253,345,46636,1,0,0:0:0:0:
163,358,46786,2,0,L|13:366,1,130,2|10,3:2|0:0,0:0:0:0:
4,278,47236,1,0,0:0:0:0:
21,175,47386,6,0,P|61:103|132:105,1,130,2|10,3:2|0:0,0:0:0:0:
193,102,47836,1,0,0:0:0:0:
198,192,47986,2,0,L|203:339,1,130,2|10,3:2|0:0,0:0:0:0:
268,384,48436,1,0,0:0:0:0:
367,353,48586,6,0,L|449:345,1,65,2|0,3:2|0:0,0:0:0:0:
484,256,48886,2,0,L|402:248,1,65,10|0,0:2|0:0,0:0:0:0:
364,161,49186,2,0,L|446:153,1,65,2|0,3:2|0:0,0:0:0:0:
471,73,49486,1,8,0:0:0:0:
293,33,49786,6,0,P|202:29|169:60,2,130,6|10|2,3:2|0:0|3:2,0:0:0:0:
370,79,50536,1,2,3:2:0:0:
362,169,50686,2,0,L|351:253,1,65,10|2,0:0|0:0,0:0:0:0:
310,328,50986,6,0,P|231:382|189:373,1,130,2|10,3:2|0:2,0:0:0:0:
113,354,51436,1,0,0:0:0:0:
105,263,51586,2,0,L|96:112,1,130,2|10,3:2|0:2,0:0:0:0:
56,52,52036,1,0,0:0:0:0:
158,36,52186,6,0,P|229:26|282:54,1,130,14|14,0:0|0:0,0:0:0:0:
338,121,52636,1,2,0:3:0:0:
347,211,52786,2,0,L|354:340,1,130,14|14,0:0|0:0,0:0:0:0:
435,382,53236,1,2,0:3:0:0:
488,292,53386,6,0,P|502:212|479:180,1,97.5,6|0,3:2|0:0,0:0:0:0:
470,156,53686,1,8,0:0:0:0:
406,238,53836,1,2,3:2:0:0:
332,43,54136,1,2,3:2:0:0:
368,140,54286,1,0,0:0:0:0:
431,57,54436,1,0,3:0:0:0:
355,169,54586,6,0,L|263:173,1,65,14|2,3:2|0:3,0:0:0:0:
299,262,54886,2,0,L|209:242,1,65,10|2,0:0|0:3,0:0:0:0:
213,336,55186,2,0,L|131:293,1,65,10|2,0:0|0:3,0:0:0:0:
106,383,55486,2,0,L|38:320,1,65,10|2,0:0|0:3,0:0:0:0:
16,243,55786,6,0,P|-3:184|53:113,1,130,2|10,3:2|0:0,0:0:0:0:
99,71,56236,1,2,0:3:0:0:
145,149,56386,2,0,L|158:282,1,130,2|10,3:2|0:0,0:0:0:0:
224,341,56836,1,2,0:3:0:0:
285,257,56986,6,0,P|312:187|282:134,1,130,10|10,0:0|0:0,0:0:0:0:
224,76,57436,1,2,0:3:0:0:
309,45,57586,2,0,L|468:31,1,130,10|10,0:0|0:0,0:0:0:0:
510,76,58036,1,2,0:3:0:0:
495,178,58186,6,0,P|470:228|444:240,1,65,2|2,3:2|0:3,0:0:0:0:
440,320,58486,2,0,P|390:295|378:269,1,65,10|2,0:2|0:3,0:0:0:0:
296,269,58786,2,0,P|321:219|347:207,1,65,10|2,0:0|0:3,0:0:0:0:
405,169,59086,1,10,0:0:0:0:
268,49,59386,6,0,P|223:97|245:170,1,130,6|10,3:2|0:0,0:0:0:0:
285,229,59836,2,0,L|293:314,1,65,2|0,0:0|0:0,0:0:0:0:
202,312,60136,2,0,L|194:397,1,65,2|0,0:0|0:0,0:0:0:0:
114,339,60436,1,10,0:0:0:0:
122,236,60586,6,0,L|136:80,1,130,6|10,3:2|0:0,0:0:0:0:
195,39,61036,2,0,P|228:15|266:9,1,65,2|0,0:0|0:0,0:0:0:0:
261,101,61336,2,0,P|285:134|291:172,1,65,2|0,0:0|0:0,0:0:0:0:
201,168,61636,1,10,0:0:0:0:
279,237,61786,6,0,P|359:282|408:270,1,130,6|10,3:2|0:0,0:0:0:0:
474,237,62236,2,0,L|482:152,1,65,2|0,0:0|0:0,0:0:0:0:
391,154,62536,2,0,L|383:69,1,65,2|0,0:0|0:0,0:0:0:0:
305,48,62836,1,10,0:0:0:0:
202,58,62986,6,0,L|53:72,1,130,6|10,3:2|0:0,0:0:0:0:
27,149,63436,2,0,P|23:190|37:226,1,65,2|0,0:0|0:0,0:0:0:0:
4,301,63736,2,0,P|45:306|81:292,1,65,2|0,0:0|0:0,0:0:0:0:
129,228,64036,1,10,0:0:0:0:
148,137,64186,6,0,P|216:194|223:231,1,116.999996429443,6|2,3:2|0:0,0:0:0:0:
119,344,64786,2,0,L|130:207,1,116.999996429443,6|2,3:2|0:0,0:0:0:0:
270,309,65386,2,0,P|355:332|390:317,1,116.999996429443,6|2,3:2|0:0,0:0:0:0:
458,179,65986,2,0,L|467:63,1,116.999996429443,6|2,3:2|0:0,0:0:0:0:
336,161,66586,6,0,L|328:278,1,116.999996429443,6|2,3:2|0:0,0:0:0:0:
189,365,67186,2,0,P|149:324|151:270,1,87.7499973220826,4|0,3:2|0:0,0:0:0:0:
145,255,67486,2,0,L|150:193,1,58.4999982147217,10|0,0:0|0:0,0:0:0:0:
209,111,67786,6,0,L|275:117,1,65,12|0,0:0|3:0,0:0:0:0:
376,95,68086,2,0,L|370:161,1,65,8|0,0:0|3:0,0:0:0:0:
396,261,68386,2,0,L|330:255,1,65,2|0,3:2|0:0,0:0:0:0:
229,243,68686,1,2,3:2:0:0:
191,69,68986,6,0,P|250:37|325:53,2,130,6|10|2,3:2|0:0|3:2,0:0:0:0:
144,147,69736,1,2,3:2:0:0:
190,226,69886,2,0,L|267:234,1,65,10|2,0:0|3:2,0:0:0:0:
336,299,70186,6,0,P|379:327|477:303,1,130,0|8,0:0|0:0,0:0:0:0:
493,236,70636,1,0,0:0:0:0:
456,153,70786,2,0,P|417:149|388:161,1,65,2|2,3:2|3:2,0:0:0:0:
343,235,71086,2,0,L|335:312,1,65,10|2,0:0|3:2,0:0:0:0:
254,363,71386,6,0,P|192:374|136:343,1,130,0|10,0:0|0:0,0:0:0:0:
90,264,71836,1,0,0:0:0:0:
45,186,71986,2,0,L|52:122,1,65,2|2,3:2|3:2,0:0:0:0:
101,45,72286,2,0,P|140:41|169:53,1,65,10|2,0:0|0:0,0:0:0:0:
242,113,72586,6,0,P|212:160|221:221,1,97.5,2|0,3:2|0:0,0:0:0:0:
226,244,72886,2,0,L|290:277,1,65,10|2,0:0|0:0,0:0:0:0:
357,219,73186,2,0,L|364:155,1,65,2|2,3:2|3:2,0:0:0:0:
374,64,73486,1,8,0:0:0:0:
466,222,73786,6,0,P|492:276|454:349,2,130,0|10|2,0:0|0:0|3:2,0:0:0:0:
425,142,74536,1,2,3:2:0:0:
389,226,74686,2,0,P|373:262|349:281,1,65,10|2,0:0|3:2,0:0:0:0:
323,377,74986,2,0,P|288:361|247:277,1,130,0|10,0:0|0:0,0:0:0:0:
255,194,75436,1,0,0:0:0:0:
263,104,75586,2,0,L|270:40,1,65,2|2,3:2|3:2,0:0:0:0:
185,7,75886,2,0,P|154:3|123:12,1,65,10|0,0:0|0:0,0:0:0:0:
46,81,76186,6,0,L|29:237,1,130,14|10,3:2|3:2,0:0:0:0:
48,299,76636,1,2,3:0:0:0:
122,354,76786,2,0,L|251:347,1,130,10|10,3:2|3:2,0:0:0:0:
336,312,77236,1,2,3:0:0:0:
419,250,77386,6,0,P|413:167|347:139,1,130,14|10,3:2|3:2,0:0:0:0:
291,115,77836,1,2,3:0:0:0:
355,51,77986,2,0,L|502:56,1,130,10|10,3:2|3:2,0:0:0:0:
501,158,78436,1,2,3:0:0:0:
470,257,78586,6,0,L|462:339,1,65,14|2,3:2|3:0,0:0:0:0:
373,374,78886,2,0,L|365:292,1,65,10|2,3:2|3:0,0:0:0:0:
278,254,79186,2,0,L|270:336,1,65,10|8,3:2|0:0,0:0:0:0:
190,361,79486,1,8,3:0:0:0:
190,361,79561,1,8,3:0:0:0:
190,361,79636,1,8,3:0:0:0:
104,301,79786,6,0,P|81:254|85:224,1,65,14|2,3:2|3:0,0:0:0:0:
15,160,80086,2,0,P|62:137|92:141,1,65,10|2,3:2|3:0,0:0:0:0:
154,71,80386,2,0,P|177:118|173:148,1,65,10|0,3:2|0:0,0:0:0:0:
169,233,80686,1,6,3:2:0:0:
