osu file format v14

[General]
AudioFilename: audio.mp3
AudioLeadIn: 0
PreviewTime: 45030
Countdown: 0
SampleSet: Normal
StackLeniency: 0.7
Mode: 0
LetterboxInBreaks: 0
WidescreenStoryboard: 1

[Editor]
Bookmarks: 6601,7501,11401,16201,25801,35401,45001,54601,59401,64201,69001,76201
DistanceSpacing: 1
BeatDivisor: 4
GridSize: 32
TimelineZoom: 1

[Metadata]
Title:Zettai Tokken Shuchou Shimasu! Hoshi Syoko Solo Remix
TitleUnicode:絶対特権主張しますっ! 星輝子ソロ・リミックス
Artist:Syoko Hoshi (CV: Satsumi Matsuda)
ArtistUnicode:星輝子(CV:松田颯水)
Creator:SenpaiKiseki
Version:Normal
Source:アイドルマスター シンデレラガールズ
Tags:realy0_ rvmathew n1czt3r niczter akebana yukio idol hell tv size kegare-
BeatmapID:1831419
BeatmapSetID:876281

[Difficulty]
HPDrainRate:3
CircleSize:3.6
OverallDifficulty:3
ApproachRate:5
SliderMultiplier:0.999999999999999
SliderTickRate:1

[Events]
//Background and Video events
0,0,"300281.png",0,0
//Break Periods
2,16430,24612
2,69230,75030
//Storyboard Layer 0 (Background)
//Storyboard Layer 1 (Fail)
//Storyboard Layer 2 (Pass)
//Storyboard Layer 3 (Foreground)
//Storyboard Sound Samples

[TimingPoints]
630,300,4,1,1,50,1,0
11430,-100,4,1,1,50,0,0
12030,-100,4,1,1,50,0,0
12630,-100,4,1,1,50,0,0
13230,-100,4,1,1,50,0,0
13830,-100,4,1,1,50,0,0
25530,-100,4,1,1,50,0,0
25830,-100,4,1,1,50,0,0
34230,-100,4,1,1,50,0,0
41430,-100,4,1,1,50,0,0
45030,-100,4,1,1,50,0,1
53430,-100,4,1,1,50,0,0
54630,-100,4,1,1,50,0,1
59430,-100,4,1,1,50,0,0
64230,-100,4,1,1,50,0,0
64830,-100,4,1,1,50,0,0
65430,-100,4,1,1,50,0,0
66030,-100,4,1,1,50,0,0
66630,-100,4,1,1,50,0,0
76230,-100,4,1,1,50,0,1
80730,-100,4,1,1,50,0,0

[HitObjects]
78,98,1830,6,0,L|199:75,1,99.9999999999999,4|0,1:0|0:0,0:0:0:0:
254,140,2430,1,0,0:0:0:0:
330,75,2730,1,0,0:0:0:0:
402,6,3030,2,0,P|425:58|414:115,1,99.9999999999999,4|0,1:0|0:0,0:0:0:0:
352,172,3630,2,0,P|418:174|461:196,1,99.9999999999999,0|0,0:0|0:0,0:0:0:0:
385,265,4230,6,0,B|283:283,1,99.9999999999999,4|0,1:0|0:0,0:0:0:0:
198,334,4830,2,0,P|181:275|195:225,1,99.9999999999999,0|0,0:0|0:0,0:0:0:0:
271,181,5430,2,0,P|288:122|274:72,1,99.9999999999999,4|0,1:0|0:0,0:0:0:0:
186,124,6030,1,4,1:0:0:0:
84,296,6630,6,0,P|172:277|195:284,1,99.9999999999999,4|8,1:3|1:1,0:0:0:0:
223,302,7080,2,0,P|290:308|332:289,2,99.9999999999999,4|4|8,1:3|1:3|1:1,0:0:0:0:
179,278,7830,2,0,L|160:172,1,99.9999999999999,4|8,1:3|1:1,0:0:0:0:
143,132,8280,2,0,B|98:110|98:110|32:119,2,99.9999999999999,4|4|8,1:3|1:3|1:1,0:0:0:0:
161,179,9030,6,0,P|230:190|278:178,1,99.9999999999999,4|8,1:3|1:1,0:0:0:0:
302,160,9480,2,0,P|330:128|339:68,2,99.9999999999999,4|4|8,1:3|1:3|1:1,0:0:0:0:
258,184,10230,2,0,L|230:288,1,99.9999999999999,4|8,1:3|1:1,0:0:0:0:
201,320,10680,2,0,L|100:332,2,99.9999999999999,4|4|8,1:3|1:3|1:1,0:0:0:0:
232,280,11430,2,0,P|332:266|394:345,3,200,6|6|6|6,1:3|1:3|1:3|1:3,0:0:0:0:
365,135,13830,6,0,L|251:103,1,99.9999999999999,6|0,1:3|0:0,0:0:0:0:
186,51,14430,2,0,P|141:80|116:129,1,99.9999999999999,6|8,1:3|1:1,0:0:0:0:
144,216,15030,2,0,L|214:209,1,50,8|4,1:1|1:3,0:0:0:0:
232,242,15330,2,0,L|302:235,1,50,8|4,1:1|1:3,0:0:0:0:
326,258,15630,1,8,1:1:0:0:
396,186,15930,1,8,1:1:0:0:
302,149,16230,1,4,1:3:0:0:
372,139,25830,6,0,P|384:196|365:254,1,99.9999999999999,4|8,0:3|1:0,0:0:0:0:
289,287,26430,1,4,0:3:0:0:
221,213,26730,1,8,1:0:0:0:
121,225,27030,2,0,P|107:160|118:113,1,99.9999999999999,4|8,0:3|1:0,0:0:0:0:
193,68,27630,2,0,P|237:91|287:84,1,99.9999999999999,4|8,0:3|1:0,0:0:0:0:
375,41,28230,6,0,P|417:93|421:131,1,99.9999999999999,4|8,0:3|1:0,0:0:0:0:
389,163,28680,1,0,0:0:0:0:
389,163,28830,2,0,P|375:231|384:263,1,99.9999999999999,4|8,0:3|1:0,0:0:0:0:
416,296,29280,1,0,0:0:0:0:
416,296,29430,2,0,P|352:316|311:307,1,99.9999999999999,4|8,0:3|1:0,0:0:0:0:
249,240,30030,2,0,P|193:235|150:259,1,99.9999999999999,4|8,0:3|1:0,0:0:0:0:
82,323,30630,6,0,L|55:214,1,99.9999999999999,4|8,0:3|1:0,0:0:0:0:
137,165,31230,2,0,L|164:56,1,99.9999999999999,4|8,0:3|1:0,0:0:0:0:
241,127,31830,2,0,P|303:145|350:132,1,99.9999999999999,4|8,0:3|1:0,0:0:0:0:
415,77,32430,1,4,0:3:0:0:
415,77,32730,1,8,1:0:0:0:
437,174,33030,6,0,P|440:235|415:290,1,99.9999999999999,4|8,0:3|1:0,0:0:0:0:
389,303,33480,1,0,0:0:0:0:
389,303,33630,2,0,P|327:304|290:281,1,99.9999999999999,4|8,0:3|1:0,0:0:0:0:
258,251,34080,1,0,0:0:0:0:
258,251,34230,2,0,P|181:245|148:255,1,99.9999999999999,8|4,1:0|0:3,0:0:0:0:
79,309,34830,1,8,0:3:0:0:
79,309,35130,1,8,1:0:0:0:
79,209,35430,6,0,L|91:108,1,99.9999999999999,4|8,1:3|1:0,0:0:0:0:
103,60,35880,2,0,P|160:29|212:42,2,99.9999999999999,4|4|8,1:3|1:3|1:0,0:0:0:0:
90,109,36630,1,4,1:3:0:0:
191,293,37230,1,8,1:0:0:0:
191,293,37530,1,8,1:0:0:0:
290,302,37830,6,0,P|314:246|299:193,1,99.9999999999999,4|8,1:3|1:0,0:0:0:0:
266,179,38280,2,0,P|242:123|257:70,2,99.9999999999999,4|4|8,1:3|1:3|1:0,0:0:0:0:
266,179,39030,1,4,1:3:0:0:
465,329,39630,1,8,1:0:0:0:
465,329,39930,1,8,1:0:0:0:
368,303,40230,6,0,P|312:313|261:347,1,99.9999999999999,4|8,1:3|1:0,0:0:0:0:
229,355,40680,2,0,P|192:302|194:257,2,99.9999999999999,4|4|8,1:3|1:3|1:0,0:0:0:0:
275,334,41430,1,4,3:3:0:0:
412,188,42030,1,8,1:0:0:0:
412,188,42330,1,8,1:0:0:0:
346,112,42630,6,0,P|285:108|237:135,1,99.9999999999999,2|0,0:1|0:0,0:0:0:0:
177,192,43230,2,0,P|143:148|138:93,1,99.9999999999999,2|0,0:1|0:0,0:0:0:0:
52,50,43830,2,0,P|17:95|14:152,1,99.9999999999999,2|2,0:1|0:1,0:0:0:0:
59,224,44430,1,0,0:0:0:0:
59,224,44730,1,0,0:0:0:0:
59,224,45030,6,0,P|105:221|160:255,1,99.9999999999999,4|8,1:3|1:1,0:0:0:0:
198,334,45630,1,4,1:3:0:0:
297,327,45930,2,0,P|328:264|318:218,1,99.9999999999999,8|4,1:1|1:3,0:0:0:0:
271,151,46530,1,8,1:1:0:0:
174,175,46830,2,0,L|159:55,1,99.9999999999999,4|8,1:3|1:1,0:0:0:0:
258,51,47430,6,0,L|270:150,1,99.9999999999999,4|8,1:3|1:1,0:0:0:0:
370,140,48030,2,0,L|357:40,1,99.9999999999999,4|8,1:3|1:1,0:0:0:0:
258,51,48630,2,0,P|207:61|151:46,1,99.9999999999999,10|10,1:1|1:1,0:0:0:0:
76,104,49230,1,10,1:1:0:0:
142,178,49530,1,10,1:1:0:0:
74,252,49830,6,0,P|131:280|172:275,1,99.9999999999999,4|8,1:3|1:1,0:0:0:0:
231,201,50430,1,4,1:3:0:0:
313,257,50730,2,0,P|341:200|336:159,1,99.9999999999999,8|4,1:1|1:3,0:0:0:0:
272,89,51330,1,8,1:1:0:0:
189,145,51630,2,0,L|90:129,1,99.9999999999999,4|8,1:3|1:1,0:0:0:0:
126,223,52230,6,0,L|224:238,1,99.9999999999999,4|8,1:3|1:1,0:0:0:0:
258,333,52830,2,0,L|159:317,1,99.9999999999999,4|8,1:3|1:1,0:0:0:0:
126,223,53430,2,0,P|124:142|133:124,1,99.9999999999999,4|8,1:3|1:1,0:0:0:0:
176,103,53880,2,0,P|241:119|280:111,1,99.9999999999999,8|4,1:1|3:0,0:0:0:0:
315,86,54330,1,8,1:3:0:0:
367,171,54630,6,0,L|364:280,1,99.9999999999999,8|8,1:1|1:1,0:0:0:0:
275,317,55230,1,8,1:1:0:0:
220,232,55530,1,8,1:1:0:0:
143,296,55830,2,0,P|120:252|122:189,1,99.9999999999999,8|8,1:1|1:1,0:0:0:0:
194,136,56430,1,8,1:1:0:0:
102,95,56730,1,8,1:1:0:0:
182,35,57030,6,0,P|248:42|280:57,1,99.9999999999999,8|8,1:1|1:1,0:0:0:0:
346,128,57630,2,0,P|280:135|248:150,1,99.9999999999999,8|8,1:1|1:1,0:0:0:0:
186,226,58230,1,8,1:1:0:0:
277,265,58530,1,8,1:1:0:0:
242,358,58830,2,0,P|202:337|146:342,1,99.9999999999999,8|8,1:1|1:1,0:0:0:0:
54,308,59430,6,0,P|35:220|42:197,1,99.9999999999999,4|8,1:3|1:1,0:0:0:0:
60,169,59880,2,0,P|66:102|47:60,2,99.9999999999999,4|4|8,1:3|1:3|1:1,0:0:0:0:
36,212,60630,2,0,L|134:194,1,99.9999999999999,4|8,1:3|1:1,0:0:0:0:
180,174,61080,2,0,B|210:135|210:135|211:71,2,99.9999999999999,4|4|8,1:3|1:3|1:1,0:0:0:0:
134,194,61830,6,0,P|140:256|166:293,1,99.9999999999999,4|8,1:3|1:1,0:0:0:0:
209,294,62280,2,0,P|257:280|318:287,2,99.9999999999999,4|4|8,1:3|1:3|1:1,0:0:0:0:
159,286,63030,2,0,P|104:318|50:311,1,99.9999999999999,4|8,1:3|1:1,0:0:0:0:
36,279,63480,2,0,L|15:172,2,99.9999999999999,4|4|8,1:3|1:3|1:1,0:0:0:0:
69,317,64230,6,0,P|188:335|242:282,1,200,6|6,1:3|1:3,0:0:0:0:
373,137,65430,2,0,P|420:215|405:328,1,200,6|6,1:3|1:3,0:0:0:0:
264,181,66630,6,0,P|208:193|158:227,1,99.9999999999999,6|0,1:3|0:0,0:0:0:0:
72,228,67230,2,0,P|70:180|103:126,1,99.9999999999999,6|8,1:3|1:1,0:0:0:0:
160,60,67830,2,0,L|230:67,1,50,8|4,1:1|1:3,0:0:0:0:
256,83,68130,2,0,L|326:90,1,50,8|4,1:1|1:3,0:0:0:0:
351,108,68430,1,8,1:1:0:0:
293,189,68730,1,8,1:1:0:0:
376,244,69030,1,4,1:3:0:0:
147,93,76230,6,0,L|170:204,1,99.9999999999999,8|8,1:1|1:1,0:0:0:0:
260,154,76830,2,0,L|239:251,1,99.9999999999999,8|8,1:1|1:1,0:0:0:0:
308,324,77430,6,0,P|341:262|339:212,1,99.9999999999999,8|8,1:1|1:1,0:0:0:0:
238,251,78030,2,0,P|185:268|126:260,1,99.9999999999999,8|8,1:1|1:1,0:0:0:0:
62,203,78630,5,8,0:1:0:0:
47,104,78930,1,8,0:1:0:0:
145,119,79230,1,8,0:1:0:0:
225,60,79530,1,8,0:1:0:0:
275,146,79830,6,0,L|290:262,1,99.9999999999999,8|8,0:0|0:0,0:0:0:0:
354,319,80430,1,8,0:0:0:0:
453,307,80730,1,12,0:0:0:0:
