osu file format v14

[General]
AudioFilename: audio.mp3
AudioLeadIn: 0
PreviewTime: 44907
Countdown: 0
SampleSet: Normal
StackLeniency: 0.4
Mode: 0
LetterboxInBreaks: 0
WidescreenStoryboard: 0

[Editor]
DistanceSpacing: 3.7
BeatDivisor: 4
GridSize: 4
TimelineZoom: 1.7

[Metadata]
Title:Zettai Tokken Shuchou Shimasu! Hoshi Syoko Solo Remix
TitleUnicode:絶対特権主張しますっ! 星輝子ソロ・リミックス
Artist:Syoko Hoshi (CV: Satsumi Matsuda)
ArtistUnicode:星輝子(CV:松田颯水)
Creator:Lami
Version:Yuria's Insane
Source:アイドルマスター シンデレラガールズ
Tags:IDOLM@STER idolmaster cinderella girls imas 絶対ピンクな小箱 zettai pink na kobako intoon ProEzreal Akitoshi Kalibe Yuria Gaia Karia Shirasaka Koume TriCastle Story -Brand new Castle-
BeatmapID:1257362
BeatmapSetID:546878

[Difficulty]
HPDrainRate:5.5
CircleSize:3.8
OverallDifficulty:7
ApproachRate:9
SliderMultiplier:1.5
SliderTickRate:1

[Events]
//Background and Video events
0,0,"BG.jpg",0,0
//Break Periods
//Storyboard Layer 0 (Background)
//Storyboard Layer 1 (Fail)
//Storyboard Layer 2 (Pass)
//Storyboard Layer 3 (Foreground)
//Storyboard Sound Samples

[TimingPoints]
586,300,4,1,1,70,1,0
1786,-125,4,3,1,50,0,0
6586,-100,4,1,1,65,0,0
11386,-125,4,3,1,55,0,0
14986,-100,4,1,1,65,0,0
16186,-100,4,1,1,70,0,0
25786,-111.111111111111,4,1,1,55,0,0
34186,-100,4,1,1,55,0,0
35386,-111.111111111111,4,1,1,65,0,0
44986,-100,4,1,1,75,0,1
64186,-125,4,1,1,75,0,1
67786,-100,4,1,1,75,0,1
68986,-100,4,1,1,70,0,0
78586,-111.111111111111,4,1,1,55,0,0
86986,-100,4,1,1,55,0,0
88186,-111.111111111111,4,1,1,65,0,0
97786,-100,4,1,1,75,0,1
116986,-125,4,1,1,75,0,1
120586,-100,4,1,1,75,0,1
121786,-100,4,1,1,70,0,0
131386,-100,4,1,1,65,0,0
140986,-125,4,1,1,50,0,0
146986,-100,4,1,1,50,0,0
148186,-100,4,1,1,70,0,0
152386,-83.3333333333333,4,1,1,70,0,0
152986,-166.666666666667,4,3,1,55,0,0
154186,-100,4,1,1,70,0,0
155386,-100,4,1,1,70,0,1
172186,-125,4,1,1,70,0,1
175786,-100,4,1,1,70,0,1
176986,-100,4,1,1,70,0,0

[Colours]
Combo1 : 242,136,208
Combo2 : 253,155,66
Combo3 : 28,193,249
Combo4 : 232,215,0

[HitObjects]
68,312,1186,6,0,P|116:336|172:328,1,112.5,8|0,0:0|0:0,0:0:0:0:
204,308,1486,2,0,L|216:232,1,75,2|2,0:3|0:3,0:0:0:0:
156,168,1786,6,0,P|192:148|280:172,1,120,4|2,0:2|0:2,0:0:0:0:
356,320,2386,2,0,L|424:324,1,60,0|0,0:0|0:0,0:0:0:0:
456,240,2686,2,0,L|388:236,1,60,2|0,0:2|0:0,0:0:0:0:
312,200,2986,6,0,L|244:204,1,60,0|0,0:0|0:0,0:0:0:0:
160,212,3286,1,2,3:2:0:0:
48,116,3586,6,0,L|116:120,1,60,0|0,3:0|0:0,0:0:0:0:
200,128,3886,1,2,3:2:0:0:
288,28,4186,6,0,L|284:96,1,60,0|0,3:0|0:0,0:0:0:0:
276,180,4486,1,2,3:2:0:0:
372,292,4786,6,0,L|368:224,1,60,0|0,3:0|0:0,0:0:0:0:
360,140,5086,1,2,3:2:0:0:
240,204,5386,6,0,L|172:200,1,60,0|0,3:0|0:0,0:0:0:0:
88,192,5686,1,2,3:2:0:0:
212,112,5986,6,0,L|280:108,1,60,2|0,3:2|0:0,0:0:0:0:
380,84,6286,2,0,B|360:124|360:124|368:168,1,90,8|0,0:1|0:0,0:0:0:0:
392,208,6586,6,0,P|352:204|235:198,1,150,6|8,0:3|0:0,0:0:0:0:
96,260,7036,2,0,P|133:257|170:252,1,75,2|0,0:3|0:0,0:0:0:0:
64,176,7336,2,0,P|16:220|24:312,1,150,2|8,0:3|0:0,0:0:0:0:
136,340,7786,6,0,P|211:334|285:324,1,150,6|8,0:3|0:0,0:0:0:0:
236,172,8236,2,0,P|228:208|224:245,1,75,2|0,0:3|0:0,0:0:0:0:
320,144,8536,2,0,P|268:88|180:104,1,150,2|8,0:3|0:0,0:0:0:0:
86,179,8986,6,0,P|180:176|238:171,1,150,6|8,0:3|0:0,0:0:0:0:
376,236,9436,2,0,P|338:234|301:232,1,75,2|0,0:3|0:0,0:0:0:0:
432,168,9736,2,0,P|420:242|412:316,1,150,2|8,0:3|0:0,0:0:0:0:
512,128,10186,6,0,P|440:140|388:80,1,150,6|8,0:3|0:0,0:0:0:0:
276,16,10636,2,0,P|313:11|350:8,1,75,2|0,0:3|0:0,0:0:0:0:
256,104,10936,2,0,P|180:100|88:92,1,150,2|8,0:3|0:0,0:0:0:0:
8,40,11386,6,0,P|12:76|20:172,1,120,6|2,1:3|0:2,0:0:0:0:
200,184,11986,2,0,P|203:124|210:64,1,120,6|2,1:3|0:2,0:0:0:0:
267,284,12586,6,0,P|208:289|148:291,1,120,6|2,1:3|0:2,0:0:0:0:
364,212,13186,2,0,P|423:214|483:219,1,120,6|2,1:3|0:2,0:0:0:0:
244,124,13786,6,0,P|237:183|233:243,1,120,6|2,1:3|0:2,0:0:0:0:
416,352,14386,2,0,P|416:316|412:272,1,60,6|0,1:3|0:0,0:0:0:0:
364,212,14686,1,8,0:1:0:0:
268,328,14986,6,0,P|240:331|193:335,1,75,8|2,0:0|0:3,0:0:0:0:
56,264,15286,2,0,P|84:267|130:271,1,75,8|2,0:0|0:3,0:0:0:0:
292,240,15586,2,0,L|366:231,1,75,8|2,0:0|0:3,0:0:0:0:
464,132,15886,1,8,0:0:0:0:
352,4,16186,6,0,L|328:164,1,150,4|8,0:0|0:0,0:0:0:0:
388,252,16636,1,0,0:0:0:0:
240,172,16786,2,0,P|204:168|156:164,1,75,2|2,0:3|0:3,0:0:0:0:
116,296,17086,2,0,P|153:292|190:288,1,75,8|0,0:0|0:0,0:0:0:0:
339,179,17386,6,0,P|410:168|465:216,1,150,2|8,0:3|0:0,0:0:0:0:
292,272,17836,1,0,0:0:0:0:
156,187,17986,2,0,P|150:150|148:113,1,75,2|2,0:3|0:3,0:0:0:0:
190,287,18286,2,0,P|187:324|182:361,1,75,8|0,0:0|0:0,0:0:0:0:
60,232,18586,6,0,P|50:157|46:82,1,150,2|8,0:3|0:0,0:0:0:0:
144,20,19036,1,0,0:0:0:0:
244,140,19186,2,0,L|318:136,1,75,2|2,0:3|0:3,0:0:0:0:
408,36,19486,2,0,L|333:32,1,75,8|0,0:0|0:0,0:0:0:0:
496,144,19786,6,0,P|460:144|420:148,1,75,2|0,0:3|0:0,0:0:0:0:
344,312,20086,2,0,P|356:272|364:228,1,75,8|0,0:0|0:0,0:0:0:0:
264,23,20386,2,0,P|245:95|277:161,1,150,2|8,0:3|0:0,0:0:0:0:
360,84,20836,1,0,0:0:0:0:
160,40,20986,6,0,L|8:56,1,150,2|8,0:3|0:0,0:0:0:0:
100,128,21436,1,0,0:0:0:0:
251,96,21586,2,0,P|259:59|263:22,1,75,2|2,0:3|0:3,0:0:0:0:
188,172,21886,2,0,P|192:209|199:245,1,75,8|0,0:0|0:0,0:0:0:0:
312,344,22186,6,0,L|160:336,1,150,2|8,0:3|0:0,0:0:0:0:
60,288,22636,1,0,0:0:0:0:
156,152,22786,2,0,L|144:232,1,75,2|2,0:3|0:3,0:0:0:0:
24,176,23086,2,0,L|12:101,1,75,8|0,0:0|0:0,0:0:0:0:
180,56,23386,6,0,P|196:136|268:172,1,150,4|8,0:0|0:0,0:0:0:0:
343,68,23836,2,0,P|306:69|269:73,1,75,0|2,0:0|0:3,0:0:0:0:
384,184,24136,1,2,0:3:0:0:
456,32,24286,1,8,0:0:0:0:
504,212,24436,6,0,L|352:196,1,150,4|8,0:0|0:0,0:0:0:0:
160,232,24886,2,0,L|234:224,1,75,2|2,0:3|0:3,0:0:0:0:
268,224,25111,1,2,0:3:0:0:
268,224,25186,1,8,0:0:0:0:
168,328,25336,1,0,0:0:0:0:
312,376,25486,2,0,P|316:356|323:301,1,75,8|8,0:0|0:0,0:0:0:0:
204,164,25786,6,0,L|356:172,1,134.999995880127,4|8,3:1|0:0,0:0:0:0:
436,144,26236,1,0,3:0:0:0:
328,272,26386,2,0,P|332:312|340:352,1,67.4999979400635,2|2,3:0|3:0,0:0:0:0:
492,248,26686,2,0,L|424:244,1,67.4999979400635,8|0,0:0|3:0,0:0:0:0:
300,172,26986,6,0,L|304:240,1,67.4999979400635,2|0,3:0|3:0,0:0:0:0:
376,104,27286,2,0,L|380:36,1,67.4999979400635,8|0,0:0|3:0,0:0:0:0:
268,144,27586,2,0,L|272:212,1,67.4999979400635,2|2,3:0|3:0,0:0:0:0:
344,76,27886,2,0,L|348:8,1,67.4999979400635,8|0,0:0|3:0,0:0:0:0:
500,168,28186,6,0,L|365:175,1,134.999995880127,2|8,3:0|0:0,0:0:0:0:
236,116,28636,1,0,3:0:0:0:
156,240,28786,2,0,L|290:247,1,134.999995880127,2|8,3:0|0:0,0:0:0:0:
384,208,29236,1,0,3:0:0:0:
324,56,29386,6,0,P|328:100|332:132,1,67.4999979400635,2|0,3:0|3:0,0:0:0:0:
476,172,29686,2,0,P|479:138|482:104,1,67.4999979400635,8|0,0:0|0:0,0:0:0:0:
316,212,29986,2,0,L|384:208,1,67.4999979400635,2|2,3:0|3:0,0:0:0:0:
172,164,30286,2,0,L|248:169,1,67.4999979400635,8|0,0:0|3:0,0:0:0:0:
356,288,30586,6,0,L|220:296,1,134.999995880127,2|8,3:0|0:0,0:0:0:0:
128,256,31036,1,0,3:0:0:0:
260,148,31186,2,0,P|256:200|252:224,1,67.4999979400635,2|2,3:0|3:0,0:0:0:0:
120,108,31486,2,0,L|188:104,1,67.4999979400635,8|0,0:0|3:0,0:0:0:0:
32,160,31786,6,0,P|27:126|25:92,1,67.4999979400635,2|0,3:0|3:0,0:0:0:0:
124,212,32086,2,0,P|122:245|117:279,1,67.4999979400635,8|0,0:0|3:0,0:0:0:0:
64,132,32386,2,0,P|59:98|57:64,1,67.4999979400635,2|2,3:0|3:0,0:0:0:0:
156,184,32686,2,0,P|154:217|149:251,1,67.4999979400635,8|0,0:0|3:0,0:0:0:0:
32,336,32986,6,0,L|172:344,1,134.999995880127,2|8,3:0|0:0,0:0:0:0:
332,272,33436,1,0,3:0:0:0:
232,160,33586,2,0,L|244:296,1,134.999995880127,2|4,3:0|0:0,0:0:0:0:
368,188,34036,1,2,3:0:0:0:
276,68,34186,6,0,L|320:60,3,37.5,8|8|8|8,0:0|0:0|0:0|0:0,0:0:0:0:
336,92,34486,2,0,L|384:96,3,37.5,2|2|2|2,0:3|0:3|0:3|0:3,0:0:0:0:
396,124,34786,2,0,L|484:136,1,75,2|2,0:3|0:3,0:0:0:0:
380,12,35086,1,12,0:0:0:0:
276,156,35236,1,0,3:0:0:0:
228,4,35386,6,0,L|236:140,1,134.999995880127,4|8,0:0|0:0,0:0:0:0:
364,256,35836,2,0,L|368:188,1,67.4999979400635,2|0,0:3|3:0,0:0:0:0:
216,236,36136,2,0,L|220:304,1,67.4999979400635,2|0,0:3|3:0,0:0:0:0:
336,352,36436,1,8,0:0:0:0:
276,156,36586,5,2,1:3:0:0:
276,156,37186,2,0,P|242:160|208:163,1,67.4999979400635,8|0,0:0|0:0,0:0:0:0:
352,304,37486,1,12,0:0:0:0:
352,304,37786,6,0,P|419:312|487:315,1,134.999995880127,4|8,0:0|0:0,0:0:0:0:
348,152,38236,2,0,P|344:180|340:224,1,67.4999979400635,2|0,0:3|3:0,0:0:0:0:
496,184,38536,2,0,P|492:150|488:116,1,67.4999979400635,2|0,0:3|3:0,0:0:0:0:
384,56,38836,1,8,0:0:0:0:
432,260,38986,5,2,0:3:0:0:
432,260,39586,2,0,P|465:265|499:268,1,67.4999979400635,8|0,0:0|0:0,0:0:0:0:
328,132,39886,1,12,0:0:0:0:
328,132,40186,6,0,P|261:140|193:143,1,134.999995880127,4|8,0:0|0:0,0:0:0:0:
76,24,40636,2,0,P|80:57|83:91,1,67.4999979400635,2|0,0:3|3:0,0:0:0:0:
11,224,40936,2,0,P|12:190|17:156,1,67.4999979400635,2|0,0:3|3:0,0:0:0:0:
167,60,41236,1,8,0:0:0:0:
232,232,41386,6,0,P|198:237|165:239,1,67.4999979400635,2|2,1:3|3:0,0:0:0:0:
275,120,41686,2,0,P|309:122|343:127,1,67.4999979400635,0|2,3:0|3:0,0:0:0:0:
144,152,41986,2,0,P|139:118|136:85,1,67.4999979400635,8|0,0:0|0:0,0:0:0:0:
320,212,42286,1,8,0:0:0:0:
320,212,42586,6,0,P|384:196|448:240,1,134.999995880127,4|0,0:0|3:1,0:0:0:0:
504,96,43186,2,0,P|440:112|376:68,1,134.999995880127,4|0,0:0|3:1,0:0:0:0:
156,20,43786,6,0,P|188:32|224:60,1,67.4999979400635,4|0,0:0|3:0,0:0:0:0:
244,88,44011,1,8,3:1:0:0:
244,88,44086,2,0,L|236:160,1,67.4999979400635,2|8,0:3|3:1,0:0:0:0:
96,208,44386,2,0,L|88:140,1,67.4999979400635,2|0,0:3|3:0,0:0:0:0:
224,320,44686,1,12,0:0:0:0:
224,320,44986,6,0,L|64:328,1,150,4|8,0:0|0:0,0:0:0:0:
0,244,45436,1,0,0:0:0:0:
159,171,45586,2,0,P|156:208|148:244,1,75,2|2,0:3|0:3,0:0:0:0:
52,136,45886,2,0,P|44:99|40:62,1,75,8|0,0:0|0:0,0:0:0:0:
211,80,46186,6,0,P|173:83|136:85,1,75,2|0,0:3|0:0,0:0:0:0:
296,8,46486,2,0,B|316:60|316:60|312:116,1,112.5,8|0,0:0|2:0,0:0:0:0:
284,152,46786,2,0,P|321:145|358:143,1,75,2|2,0:3|0:3,0:0:0:0:
476,240,47086,2,0,B|424:260|424:260|368:256,1,112.5,8|0,0:0|2:0,0:0:0:0:
331,231,47386,6,0,P|340:268|340:305,1,75,2|0,0:3|0:0,0:0:0:0:
216,204,47686,2,0,B|200:148|200:148|216:92,1,112.5,8|0,0:0|2:0,0:0:0:0:
240,60,47986,2,0,P|203:68|165:70,1,75,2|2,0:3|0:3,0:0:0:0:
44,8,48286,2,0,B|60:64|60:64|44:120,1,112.5,8|0,0:0|2:0,0:0:0:0:
12,148,48586,6,0,P|11:182|16:228,1,75,2|0,0:3|0:0,0:0:0:0:
204,239,48886,2,0,P|206:202|207:165,1,75,8|0,0:0|0:0,0:0:0:0:
31,315,49186,2,0,P|97:348|168:329,1,150,2|8,0:3|0:0,0:0:0:0:
112,204,49636,1,0,0:0:0:0:
256,132,49786,6,0,L|248:281,1,150,2|8,0:3|0:0,0:0:0:0:
164,128,50236,1,0,0:0:0:0:
300,208,50386,2,0,P|352:204|392:196,1,75,2|2,0:3|0:3,0:0:0:0:
476,76,50686,2,0,P|471:113|469:150,1,75,8|0,0:0|0:0,0:0:0:0:
512,292,50986,6,0,P|474:286|437:284,1,75,2|0,0:3|0:0,0:0:0:0:
288,312,51286,2,0,B|232:332|232:332|168:324,1,112.5,8|0,0:0|2:0,0:0:0:0:
140,304,51586,2,0,P|131:340|128:377,1,75,2|2,0:3|0:3,0:0:0:0:
224,232,51886,2,0,B|244:180|244:180|236:116,1,112.5,8|0,0:0|2:0,0:0:0:0:
208,88,52186,6,0,P|200:52|196:12,1,75,4|0,0:0|0:0,0:0:0:0:
84,36,52486,2,0,B|103:90|103:90|92:148,1,112.5,8|0,0:0|2:0,0:0:0:0:
60,176,52786,2,0,P|100:172|148:172,1,75,2|2,0:3|0:3,0:0:0:0:
260,224,53086,2,0,B|314:243|314:243|372:232,1,112.5,8|0,0:0|2:0,0:0:0:0:
408,207,53386,6,0,P|400:244|399:282,2,75,12|8|8,0:0|0:0|0:0,0:0:0:0:
468,352,53836,2,0,P|396:380|316:336,1,150,12|12,0:0|0:0,0:0:0:0:
256,268,54286,2,0,L|160:264,1,75,2|2,0:3|0:3,0:0:0:0:
72,336,54586,6,0,B|96:264|96:264|76:192,1,150,12|8,0:0|0:0,0:0:0:0:
12,100,55036,1,0,0:0:0:0:
164,155,55186,2,0,P|200:162|238:167,1,75,8|2,0:0|0:3,0:0:0:0:
152,28,55486,2,0,P|115:33|78:40,1,75,8|2,0:0|0:3,0:0:0:0:
292,96,55786,6,0,P|298:59|303:21,1,75,8|2,0:0|0:3,0:0:0:0:
144,128,56086,2,0,B|136:184|136:184|148:240,1,112.5,8|0,0:0|2:0,0:0:0:0:
180,272,56386,2,0,P|142:271|105:276,1,75,8|2,0:0|0:3,0:0:0:0:
312,324,56686,2,0,B|320:268|320:268|308:212,1,112.5,8|0,0:0|2:0,0:0:0:0:
274,178,56986,6,0,P|312:178|349:173,1,75,8|2,0:0|0:3,0:0:0:0:
484,100,57286,2,0,B|432:76|432:76|376:84,1,112.5,8|0,0:0|2:0,0:0:0:0:
332,92,57586,2,0,P|328:52|332:8,1,75,8|2,0:0|0:3,0:0:0:0:
216,52,57886,2,0,B|228:112|228:112|216:180,1,112.5,8|0,0:0|2:0,0:0:0:0:
192,200,58186,6,0,P|183:236|182:273,1,75,8|2,0:0|0:3,0:0:0:0:
336,328,58486,2,0,P|335:291|327:255,1,75,8|2,0:0|0:3,0:0:0:0:
104,336,58786,2,0,P|164:372|248:348,1,150,8|8,0:0|0:0,0:0:0:0:
304,220,59236,1,2,0:3:0:0:
160,108,59386,6,0,L|145:258,1,150,4|8,0:0|0:0,0:0:0:0:
284,312,59836,2,0,P|246:318|209:321,1,75,2|0,0:3|0:0,0:0:0:0:
352,244,60136,2,0,P|376:336|344:388,1,150,2|8,0:3|0:0,0:0:0:0:
264,208,60586,6,0,L|410:177,1,150,4|8,0:0|0:0,0:0:0:0:
236,120,61036,2,0,P|199:113|161:109,1,75,2|0,0:3|0:0,0:0:0:0:
36,168,61336,2,0,P|99:205|172:199,1,150,2|8,0:3|0:0,0:0:0:0:
288,296,61786,6,0,L|138:311,1,150,4|8,0:0|0:0,0:0:0:0:
264,208,62236,2,0,P|308:208|340:220,1,75,2|0,0:3|0:0,0:0:0:0:
464,292,62536,2,0,P|416:244|436:168,1,150,2|8,0:3|0:0,0:0:0:0:
508,56,62986,6,0,L|352:72,1,150,4|8,0:0|0:0,0:0:0:0:
216,120,63436,2,0,P|252:128|289:131,1,75,2|0,0:3|0:0,0:0:0:0:
164,44,63736,2,0,P|180:112|132:184,1,150,2|8,0:3|0:0,0:0:0:0:
32,276,64186,6,0,P|84:272|160:268,1,120,6|0,0:3|0:0,0:0:0:0:
356,344,64786,2,0,P|296:340|236:336,1,120,6|0,0:3|0:0,0:0:0:0:
344,128,65386,6,0,P|336:188|332:268,1,120,6|0,0:3|0:0,0:0:0:0:
492,336,65986,2,0,P|499:276|503:216,1,120,6|0,0:3|0:0,0:0:0:0:
360,280,66586,6,0,P|306:287|220:292,1,120,6|0,0:3|0:0,0:0:0:0:
48,176,67186,2,0,P|84:172|124:172,1,60,6|0,0:3|0:0,0:0:0:0:
192,208,67486,1,8,0:0:0:0:
96,336,67786,6,0,P|92:304|88:260,1,75,8|2,0:0|0:3,0:0:0:0:
224,192,68086,2,0,P|220:229|216:266,1,75,8|2,0:0|0:3,0:0:0:0:
72,164,68386,2,0,L|79:89,1,75,8|2,0:0|0:3,0:0:0:0:
204,32,68686,1,8,0:0:0:0:
400,92,68986,6,0,L|236:108,1,150,4|8,0:0|0:0,0:0:0:0:
120,12,69436,1,0,0:0:0:0:
148,176,69586,2,0,P|154:138|158:101,1,75,2|2,0:3|0:3,0:0:0:0:
48,244,69886,2,0,L|144:256,1,75,8|0,0:0|0:0,0:0:0:0:
236,155,70186,6,0,P|299:186|294:257,1,150,2|8,0:3|0:0,0:0:0:0:
200,316,70636,1,0,0:0:0:0:
336,372,70786,2,0,P|396:368|428:364,1,75,2|2,0:3|0:3,0:0:0:0:
387,208,71086,2,0,P|379:244|376:281,1,75,8|0,0:0|0:0,0:0:0:0:
484,128,71386,6,0,P|404:128|324:84,1,150,2|8,0:3|0:0,0:0:0:0:
264,20,71836,1,0,0:0:0:0:
132,108,71986,2,0,P|176:104|220:92,1,75,2|2,0:3|0:3,0:0:0:0:
44,60,72286,2,0,P|40:88|36:144,1,75,8|0,0:0|0:0,0:0:0:0:
176,216,72586,6,0,P|139:207|102:203,1,75,2|0,0:3|0:0,0:0:0:0:
232,352,72886,2,0,P|240:315|244:278,1,75,8|0,0:0|0:0,0:0:0:0:
16,232,73186,2,0,L|31:381,1,150,2|8,0:3|0:0,0:0:0:0:
136,304,73636,1,0,0:0:0:0:
327,232,73786,6,0,P|253:231|180:212,1,150,2|8,0:3|0:0,0:0:0:0:
108,128,74236,1,0,0:0:0:0:
228,32,74386,2,0,P|222:69|215:105,1,75,2|2,0:3|0:3,0:0:0:0:
68,20,74686,2,0,L|168:12,1,75,8|0,0:0|0:0,0:0:0:0:
176,192,74986,6,0,L|16:180,1,150,2|8,0:3|0:0,0:0:0:0:
108,100,75436,1,0,0:0:0:0:
260,144,75586,2,0,P|268:184|272:236,1,75,2|2,0:3|0:3,0:0:0:0:
148,304,75886,2,0,P|149:266|157:230,1,75,8|0,0:0|0:0,0:0:0:0:
336,372,76186,6,0,L|186:383,1,150,4|8,0:0|0:0,0:0:0:0:
400,299,76636,2,0,P|437:305|474:307,1,75,0|2,0:0|0:3,0:0:0:0:
352,200,76936,1,2,0:3:0:0:
508,152,77086,1,8,0:0:0:0:
360,24,77236,6,0,L|376:192,1,150,4|8,0:0|0:0,0:0:0:0:
176,132,77686,2,0,P|220:128|252:120,1,75,2|2,0:3|0:3,0:0:0:0:
284,116,77911,1,2,0:3:0:0:
284,116,77986,1,2,0:3:0:0:
200,12,78136,1,0,0:0:0:0:
80,88,78286,2,0,P|76:120|72:168,1,75,8|8,0:0|0:0,0:0:0:0:
132,296,78586,6,0,L|280:284,1,134.999995880127,4|8,3:1|0:0,0:0:0:0:
344,216,79036,1,0,3:0:0:0:
204,127,79186,2,0,P|207:161|212:194,1,67.4999979400635,2|2,3:0|3:0,0:0:0:0:
320,168,79486,2,0,P|325:134|328:101,1,67.4999979400635,8|0,0:0|3:0,0:0:0:0:
164,48,79786,6,0,L|96:54,1,67.4999979400635,2|0,3:0|3:0,0:0:0:0:
56,180,80086,2,0,L|123:173,1,67.4999979400635,8|0,0:0|3:0,0:0:0:0:
204,68,80386,2,0,L|136:74,1,67.4999979400635,2|2,3:0|3:0,0:0:0:0:
96,200,80686,2,0,L|163:193,1,67.4999979400635,8|0,0:0|3:0,0:0:0:0:
364,152,80986,6,0,L|220:144,1,134.999995880127,2|8,3:0|0:0,0:0:0:0:
328,56,81436,1,0,3:0:0:0:
460,112,81586,2,0,L|444:252,1,134.999995880127,2|8,3:0|0:0,0:0:0:0:
484,336,82036,1,0,3:0:0:0:
364,304,82186,6,0,P|332:296|288:292,2,67.4999979400635,2|0|8,3:0|3:0|0:0,0:0:0:0:
260,200,82636,1,0,0:0:0:0:
408,140,82786,2,0,P|374:143|340:146,1,67.4999979400635,2|2,3:0|3:0,0:0:0:0:
204,72,83086,2,0,P|237:76|271:79,1,67.4999979400635,8|0,0:0|3:0,0:0:0:0:
112,16,83386,6,0,P|116:64|128:172,1,134.999995880127,2|8,3:0|0:0,0:0:0:0:
232,216,83836,1,0,3:0:0:0:
308,96,83986,2,0,P|274:98|240:103,1,67.4999979400635,2|2,3:0|3:0,0:0:0:0:
332,196,84286,2,0,P|365:200|399:203,1,67.4999979400635,8|0,0:0|3:0,0:0:0:0:
476,80,84586,6,0,L|484:148,1,67.4999979400635,2|0,3:0|3:0,0:0:0:0:
356,116,84886,2,0,L|348:48,1,67.4999979400635,8|0,0:0|3:0,0:0:0:0:
456,124,85186,2,0,L|464:192,1,67.4999979400635,2|2,3:0|3:0,0:0:0:0:
336,160,85486,2,0,L|328:92,1,67.4999979400635,8|0,0:0|3:0,0:0:0:0:
416,268,85786,6,0,L|276:280,1,134.999995880127,2|8,3:0|0:0,0:0:0:0:
124,240,86236,1,0,3:0:0:0:
196,352,86386,2,0,L|208:216,1,134.999995880127,2|4,3:0|0:0,0:0:0:0:
140,112,86836,1,2,3:0:0:0:
272,32,86986,6,0,L|276:72,3,37.5,8|8|8|8,0:0|0:0|0:0|0:0,0:0:0:0:
312,80,87286,2,0,L|308:120,3,37.5,2|2|2|2,0:3|0:3|0:3|0:3,0:0:0:0:
344,132,87586,2,0,L|324:212,1,75,2|2,0:3|0:3,0:0:0:0:
252,292,87886,1,12,0:0:0:0:
192,144,88036,1,0,3:0:0:0:
32,232,88186,6,0,P|96:236|168:236,1,134.999995880127,4|8,0:0|0:0,0:0:0:0:
348,184,88636,2,0,P|314:181|280:177,1,67.4999979400635,2|0,0:3|3:0,0:0:0:0:
136,116,88936,2,0,P|169:113|203:109,1,67.4999979400635,2|0,0:3|3:0,0:0:0:0:
320,56,89236,1,8,0:0:0:0:
184,212,89386,5,2,1:3:0:0:
184,212,89986,2,0,P|180:245|177:279,1,67.4999979400635,8|0,0:0|0:0,0:0:0:0:
332,140,90286,1,12,0:0:0:0:
332,140,90586,6,0,P|400:136|465:152,1,134.999995880127,4|8,0:0|0:0,0:0:0:0:
284,228,91036,2,0,P|256:232|212:236,1,67.4999979400635,2|0,0:3|3:0,0:0:0:0:
180,92,91336,2,0,P|208:88|252:84,1,67.4999979400635,2|0,0:3|3:0,0:0:0:0:
132,180,91636,1,8,0:0:0:0:
332,140,91786,5,2,0:3:0:0:
332,140,92386,2,0,P|337:106|339:73,1,67.4999979400635,8|0,0:0|0:0,0:0:0:0:
216,235,92686,1,12,0:0:0:0:
216,235,92986,6,0,P|192:297|197:363,1,134.999995880127,4|8,0:0|0:0,0:0:0:0:
311,196,93436,2,0,P|309:162|304:128,1,67.4999979400635,2|0,0:3|3:0,0:0:0:0:
384,284,93736,2,0,P|398:253|411:222,1,67.4999979400635,2|0,0:3|3:0,0:0:0:0:
296,356,94036,1,8,0:0:0:0:
224,268,94186,6,0,P|190:270|156:275,1,67.4999979400635,2|2,1:3|3:0,0:0:0:0:
56,380,94486,2,0,P|60:346|63:312,1,67.4999979400635,0|2,3:0|3:0,0:0:0:0:
20,152,94786,2,0,P|22:185|27:219,1,67.4999979400635,8|0,0:0|0:0,0:0:0:0:
192,180,95086,1,8,0:0:0:0:
192,180,95386,6,0,P|256:192|312:152,1,134.999995880127,4|0,0:0|3:1,0:0:0:0:
468,87,95986,2,0,P|403:99|349:62,1,134.999995880127,4|0,0:0|3:1,0:0:0:0:
136,20,96586,6,0,P|168:12|202:10,1,67.4999979400635,4|0,0:0|3:0,0:0:0:0:
248,20,96811,1,8,3:1:0:0:
248,20,96886,2,0,L|256:92,1,67.4999979400635,2|8,0:3|3:1,0:0:0:0:
92,156,97186,2,0,L|84:88,1,67.4999979400635,2|0,0:3|3:0,0:0:0:0:
264,176,97486,1,12,0:0:0:0:
264,176,97786,6,0,L|245:324,1,150,4|8,0:0|0:0,0:0:0:0:
168,240,98236,1,0,0:0:0:0:
340,284,98386,2,0,P|377:280|413:272,1,75,2|2,0:3|0:3,0:0:0:0:
384,116,98686,2,0,P|376:152|372:189,1,75,8|0,0:0|0:0,0:0:0:0:
508,296,98986,6,0,P|504:258|496:222,1,75,2|0,0:3|0:0,0:0:0:0:
420,104,99286,2,0,B|400:156|400:156|404:212,1,112.5,8|0,0:0|2:0,0:0:0:0:
420,256,99586,2,0,P|380:248|340:248,1,75,2|2,0:3|0:3,0:0:0:0:
216,300,99886,2,0,B|236:248|236:248|232:192,1,112.5,8|0,0:0|2:0,0:0:0:0:
216,148,100186,6,0,P|252:156|296:156,1,75,2|0,0:3|0:0,0:0:0:0:
268,32,100486,2,0,B|216:12|216:12|160:24,1,112.5,8|0,0:0|2:0,0:0:0:0:
128,56,100786,2,0,P|124:92|128:132,1,75,2|2,0:3|0:3,0:0:0:0:
240,240,101086,2,0,B|188:260|188:260|132:248,1,112.5,8|0,0:0|2:0,0:0:0:0:
99,215,101386,6,0,P|62:211|25:215,1,75,2|0,0:3|0:0,0:0:0:0:
152,348,101686,2,0,P|189:352|226:348,1,75,8|0,0:0|0:0,0:0:0:0:
408,264,101986,2,0,P|338:240|269:266,1,150,2|8,0:3|0:0,0:0:0:0:
448,348,102436,1,0,0:0:0:0:
488,216,102586,6,0,L|504:64,1,150,2|8,0:3|0:0,0:0:0:0:
432,8,103036,1,0,0:0:0:0:
320,124,103186,2,0,P|357:121|394:116,1,75,2|2,0:3|0:3,0:0:0:0:
248,36,103486,2,0,P|210:31|173:29,1,75,8|0,0:0|0:0,0:0:0:0:
160,156,103786,6,0,P|197:160|234:162,1,75,2|0,0:3|0:0,0:0:0:0:
72,84,104086,2,0,B|52:140|52:140|60:204,1,112.5,8|0,0:0|2:0,0:0:0:0:
79,232,104386,2,0,P|42:233|5:237,1,75,2|2,0:3|0:3,0:0:0:0:
128,336,104686,2,0,B|180:356|180:356|244:348,1,112.5,8|0,0:0|2:0,0:0:0:0:
276,324,104986,6,0,P|284:288|288:248,1,75,4|0,0:0|0:0,0:0:0:0:
272,104,105286,2,0,B|296:156|296:156|352:180,1,112.5,8|0,0:0|2:0,0:0:0:0:
388,160,105586,2,0,P|428:156|476:156,1,75,2|2,0:3|0:3,0:0:0:0:
488,284,105886,2,0,B|434:303|434:303|376:292,1,112.5,8|0,0:0|2:0,0:0:0:0:
340,272,106186,6,0,P|347:308|349:346,2,75,12|8|8,0:0|0:0|0:0,0:0:0:0:
224,380,106636,2,0,P|196:308|240:228,1,150,12|8,0:0|0:0,0:0:0:0:
372,183,107086,2,0,P|334:188|297:187,1,75,2|0,0:3|0:3,0:0:0:0:
192,80,107386,6,0,B|264:60|264:60|340:80,1,150,12|8,0:0|0:0,0:0:0:0:
264,156,107836,1,2,0:3:0:0:
128,216,107986,2,0,P|121:179|116:141,1,75,8|2,0:0|0:3,0:0:0:0:
252,264,108286,2,0,P|247:301|240:338,1,75,8|2,0:0|0:3,0:0:0:0:
80,352,108586,6,0,P|120:360|180:364,1,75,8|2,0:0|0:3,0:0:0:0:
224,228,108886,2,0,B|280:220|280:220|334:231,1,112.5,8|0,0:0|2:0,0:0:0:0:
368,264,109186,2,0,P|361:227|356:190,1,75,8|2,0:0|0:3,0:0:0:0:
488,104,109486,2,0,B|432:112|432:112|378:101,1,112.5,8|0,0:0|2:0,0:0:0:0:
344,68,109786,6,0,P|304:64|260:68,1,75,8|2,0:0|0:3,0:0:0:0:
152,160,110086,2,0,B|204:184|204:184|260:176,1,112.5,8|0,0:0|2:0,0:0:0:0:
300,156,110386,2,0,P|296:196|300:240,1,75,8|2,0:0|0:3,0:0:0:0:
388,340,110686,2,0,B|336:316|336:316|281:323,1,112.5,8|0,0:0|2:0,0:0:0:0:
244,348,110986,6,0,P|208:356|148:356,1,75,8|2,0:0|0:3,0:0:0:0:
135,196,111286,2,0,P|172:187|209:186,1,75,8|2,0:0|0:3,0:0:0:0:
76,360,111586,2,0,P|35:298|44:225,1,150,8|8,0:0|0:0,0:0:0:0:
88,112,112036,1,2,0:3:0:0:
196,224,112186,6,0,L|346:239,1,150,4|8,0:0|0:0,0:0:0:0:
388,120,112636,2,0,P|351:123|314:129,1,75,2|0,0:3|0:0,0:0:0:0:
460,188,112936,2,0,P|484:96|452:44,1,150,2|8,0:3|0:0,0:0:0:0:
336,36,113386,6,0,P|261:42|186:51,1,150,4|8,0:0|0:0,0:0:0:0:
140,168,113836,2,0,P|177:171|214:174,1,75,2|0,0:3|0:0,0:0:0:0:
48,84,114136,2,0,P|46:158|38:233,1,150,2|8,0:3|0:0,0:0:0:0:
0,372,114586,6,0,P|36:320|120:332,1,150,4|8,0:0|0:0,0:0:0:0:
232,376,115036,2,0,P|268:376|307:373,1,75,2|0,0:3|0:0,0:0:0:0:
340,244,115336,2,0,P|265:244|190:249,1,150,2|8,0:3|0:0,0:0:0:0:
388,324,115786,6,0,L|404:148,1,150,4|8,0:0|0:0,0:0:0:0:
512,71,116236,2,0,P|476:83|439:90,1,75,2|0,0:3|0:0,0:0:0:0:
296,12,116536,2,0,L|309:161,1,150,2|8,0:3|0:0,0:0:0:0:
211,264,116986,6,0,P|271:259|331:259,1,120,6|0,0:3|0:0,0:0:0:0:
224,112,117586,2,0,P|176:116|88:116,1,120,6|0,0:3|0:0,0:0:0:0:
352,40,118186,6,0,P|356:108|356:184,1,120,6|0,0:3|0:0,0:0:0:0:
164,256,118786,2,0,P|164:196|168:136,1,120,6|0,0:3|0:0,0:0:0:0:
360,308,119386,6,0,P|312:316|220:316,1,120,6|0,0:3|0:0,0:0:0:0:
268,140,119986,2,0,P|308:136|344:136,1,60,6|0,0:3|0:0,0:0:0:0:
408,184,120286,1,8,0:0:0:0:
188,244,120586,6,0,P|184:216|180:164,1,75,8|2,0:0|0:3,0:0:0:0:
323,227,120886,2,0,P|320:265|315:302,1,75,8|2,0:0|0:3,0:0:0:0:
248,104,121186,2,0,L|344:96,1,75,8|2,0:0|0:3,0:0:0:0:
436,28,121486,1,8,0:0:0:0:
504,212,121786,6,0,L|408:204,1,75,4|0,0:0|0:0,0:0:0:0:
352,124,122086,1,8,0:0:0:0:
280,300,122236,2,0,L|429:292,1,150,0|2,0:0|0:3,0:0:0:0:
224,228,122686,1,8,0:0:0:0:
144,340,122836,1,0,0:0:0:0:
100,168,122986,6,0,L|111:317,1,150,2|8,0:3|0:0,0:0:0:0:
240,368,123436,1,0,0:0:0:0:
320,256,123586,2,0,P|324:220|328:176,1,75,2|2,0:3|0:3,0:0:0:0:
184,116,123886,2,0,P|187:153|191:190,1,75,8|0,0:0|0:0,0:0:0:0:
356,32,124186,6,0,P|282:45|209:29,1,150,2|8,0:3|0:0,0:0:0:0:
292,160,124636,2,0,L|441:149,1,150,0|2,0:0|0:3,0:0:0:0:
208,204,125086,2,0,P|203:166|200:129,1,75,8|0,0:0|0:0,0:0:0:0:
331,280,125386,6,0,P|294:283|257:284,1,75,2|0,0:3|0:0,0:0:0:0:
468,240,125686,2,0,P|464:277|460:314,1,75,8|0,0:0|0:0,0:0:0:0:
364,56,125986,2,0,L|384:216,1,150,2|8,0:3|0:0,0:0:0:0:
512,160,126436,1,0,0:0:0:0:
432,288,126586,6,0,L|340:296,1,75,2|0,0:3|0:0,0:0:0:0:
260,236,126886,1,0,0:0:0:0:
172,368,127036,2,0,B|148:296|148:296|165:224,1,150,0|2,0:0|0:3,0:0:0:0:
220,124,127486,1,8,0:0:0:0:
60,192,127636,1,0,0:0:0:0:
236,292,127786,6,0,P|273:296|310:296,1,75,2|0,0:3|0:0,0:0:0:0:
180,112,128086,2,0,P|142:112|105:116,1,75,8|0,0:0|0:0,0:0:0:0:
296,196,128386,2,0,P|309:122|315:47,1,150,2|8,0:3|0:0,0:0:0:0:
216,8,128836,1,0,0:0:0:0:
84,95,128986,6,0,P|121:99|158:99,1,75,4|0,0:0|0:0,0:0:0:0:
4,24,129286,1,8,0:0:0:0:
40,192,129436,2,0,P|114:199|189:199,1,150,0|2,0:0|0:3,0:0:0:0:
344,128,129886,2,0,P|306:130|269:133,1,75,8|0,0:0|0:0,0:0:0:0:
400,284,130186,6,0,P|404:246|406:209,1,75,12|8,0:0|0:0,0:0:0:0:
236,236,130486,1,2,0:3:0:0:
236,236,130561,1,2,0:3:0:0:
236,236,130636,1,2,0:3:0:0:
236,236,130711,1,2,0:3:0:0:
236,236,130786,2,0,P|238:273|242:310,1,75,8|0,0:0|0:0,0:0:0:0:
448,356,131086,2,0,B|396:336|396:336|324:348,1,112.5,12|0,0:0|3:0,0:0:0:0:
304,372,131386,5,4,0:0:0:0:
412,168,132286,2,0,L|404:248,1,75,8|0,0:0|3:0,0:0:0:0:
456,320,132586,5,2,0:3:0:0:
316,272,132736,2,0,P|278:275|242:284,1,75,8|0,0:0|3:0,0:0:0:0:
64,340,133036,2,0,P|125:379|197:366,1,150,4|2,0:0|0:3,0:0:0:0:
112,240,133486,2,0,P|104:200|100:140,1,75,8|0,0:0|3:0,0:0:0:0:
256,123,133786,6,0,P|247:198|235:272,1,150,4|8,0:0|0:0,0:0:0:0:
32,80,134386,2,0,P|108:72|196:72,1,150,2|8,3:0|0:0,0:0:0:0:
256,304,134986,6,0,P|181:304|106:296,1,150,2|8,3:0|0:0,0:0:0:0:
36,232,135436,1,0,3:0:0:0:
136,128,135586,2,0,P|133:165|125:202,1,75,2|2,3:0|3:0,0:0:0:0:
12,56,135886,2,0,L|86:48,1,75,8|2,0:0|3:0,0:0:0:0:
244,28,136186,5,0,1:0:0:0:
125,201,136936,1,2,3:3:0:0:
276,156,137086,2,0,L|201:148,1,75,8|0,0:0|3:0,0:0:0:0:
104,92,137386,5,2,0:3:0:0:
36,224,137536,2,0,P|40:264|48:312,1,75,8|0,0:0|3:0,0:0:0:0:
260,276,137836,2,0,P|199:235|128:252,1,150,4|2,0:0|0:3,0:0:0:0:
236,364,138286,2,0,P|284:360|340:352,1,75,8|0,0:0|3:0,0:0:0:0:
412,228,138586,6,0,P|399:301|403:376,1,150,4|8,0:0|0:0,0:0:0:0:
480,124,139186,2,0,P|404:140|328:140,1,150,2|8,3:0|1:0,0:0:0:0:
180,48,139786,6,0,L|194:197,1,150,2|8,3:0|1:0,0:0:0:0:
152,280,140236,1,0,3:0:0:0:
288,176,140386,2,0,P|283:213|278:250,1,75,2|2,3:0|3:0,0:0:0:0:
100,192,140686,2,0,P|94:154|90:117,1,75,8|2,1:0|3:0,0:0:0:0:
236,16,140986,6,0,P|180:40|112:24,1,120,4|2,0:0|0:3,0:0:0:0:
8,144,141586,2,0,P|66:134|120:158,1,120,8|2,0:0|0:3,0:0:0:0:
212,276,142186,5,2,0:3:0:0:
308,228,142336,2,0,P|301:287|292:346,1,120,8|0,0:0|0:0,0:0:0:0:
228,184,142786,2,0,P|219:124|212:65,1,120,8|2,0:0|0:3,0:0:0:0:
288,12,143236,1,0,0:0:0:0:
420,104,143386,6,0,P|360:96|304:124,1,120,4|2,0:0|0:3,0:0:0:0:
348,284,143986,2,0,P|408:292|464:264,1,120,8|2,0:0|0:3,0:0:0:0:
288,212,144586,5,2,0:3:0:0:
136,292,144736,2,0,P|195:299|255:302,1,120,8|0,0:0|0:0,0:0:0:0:
204,168,145186,2,0,P|144:171|84:178,1,120,8|2,0:0|0:3,0:0:0:0:
24,252,145636,1,0,0:0:0:0:
160,84,145786,5,2,0:3:0:0:
24,252,146686,2,0,L|32:316,1,60,8|0,0:0|3:0,0:0:0:0:
84,177,146986,5,2,0:3:0:0:
148,276,147136,2,0,P|186:280|223:283,1,75,8|0,0:0|0:0,0:0:0:0:
391,219,147436,2,0,P|327:249|331:319,1,150,4|0,0:0|0:0,0:0:0:0:
480,268,147886,2,0,P|488:224|492:180,1,75,8|2,0:0|0:3,0:0:0:0:
404,40,148186,6,0,L|414:114,1,75,8|2,0:0|0:3,0:0:0:0:
296,4,148486,2,0,L|292:78,1,75,8|2,0:0|0:3,0:0:0:0:
176,116,148786,2,0,L|179:41,1,75,8|2,0:0|0:3,0:0:0:0:
72,164,149086,2,0,L|61:89,1,75,8|2,0:0|0:3,0:0:0:0:
112,276,149386,6,0,L|37:270,1,75,8|2,0:0|0:3,0:0:0:0:
224,224,149686,2,0,L|298:218,1,75,8|2,0:0|0:3,0:0:0:0:
196,360,149986,2,0,L|121:365,1,75,8|2,0:0|0:3,0:0:0:0:
312,312,150286,2,0,L|386:317,1,75,8|0,0:0|0:0,0:0:0:0:
112,276,150586,5,4,0:0:0:0:
112,276,151186,5,4,0:0:0:0:
112,276,151786,6,0,L|104:192,1,75,4|0,0:0|3:0,0:0:0:0:
188,168,152011,1,2,0:3:0:0:
188,168,152086,2,0,L|195:242,1,75,2|8,0:3|0:0,0:0:0:0:
184,336,152386,6,0,B|252:320|252:320|328:332,1,134.999995880127,2|0,0:3|2:0,0:0:0:0:
360,348,152686,1,12,0:0:0:0:
436,148,152986,6,0,P|488:208|360:228,1,269.999991760254,0|0,0:0|0:0,0:0:0:0:
296,80,154186,6,0,L|300:120,3,37.5,8|8|8|8,0:0|0:0|0:0|0:0,0:0:0:0:
208,128,154486,2,0,L|204:168,3,37.5,2|2|2|2,0:3|0:3|0:3|0:3,0:0:0:0:
172,200,154786,5,2,0:3:0:0:
200,208,154861,1,2,0:3:0:0:
228,216,154936,1,2,0:3:0:0:
256,224,155011,1,2,0:3:0:0:
284,232,155086,2,0,L|324:228,3,37.5,2|2|2|2,0:3|0:3|0:3|0:3,0:0:0:0:
360,204,155386,6,0,P|344:252|340:308,1,75,4|0,0:0|0:0,0:0:0:0:
448,360,155686,2,0,B|392:348|392:348|339:363,1,112.5,8|0,0:0|2:0,0:0:0:0:
300,384,155986,2,0,P|256:384|208:380,1,75,2|2,0:3|0:3,0:0:0:0:
144,268,156286,2,0,B|200:248|200:248|272:256,1,112.5,8|0,0:0|2:0,0:0:0:0:
292,276,156586,6,0,P|284:232|280:192,1,75,2|0,0:3|0:0,0:0:0:0:
388,64,156886,2,0,P|382:101|376:137,1,75,8|0,0:0|0:0,0:0:0:0:
172,52,157186,2,0,P|240:16|311:19,1,150,2|8,0:3|0:0,0:0:0:0:
272,160,157636,1,0,0:0:0:0:
152,220,157786,6,0,L|2:204,1,150,2|8,0:3|0:0,0:0:0:0:
176,112,158236,1,0,0:0:0:0:
260,268,158386,2,0,P|268:232|276:192,1,75,2|2,0:3|0:3,0:0:0:0:
128,256,158686,2,0,P|135:292|143:329,1,75,8|0,0:0|0:0,0:0:0:0:
303,376,158986,6,0,P|266:376|229:370,1,75,2|0,0:3|0:0,0:0:0:0:
356,276,159286,2,0,B|412:264|412:264|464:284,1,112.5,8|0,0:0|2:0,0:0:0:0:
500,312,159586,2,0,P|492:272|488:224,1,75,2|2,0:3|0:3,0:0:0:0:
512,112,159886,2,0,B|464:140|464:140|396:136,1,112.5,8|0,0:0|2:0,0:0:0:0:
372,108,160186,6,0,P|340:104|268:108,1,75,4|0,0:0|0:0,0:0:0:0:
196,176,160486,2,0,B|204:120|204:120|188:48,1,112.5,8|0,0:0|2:0,0:0:0:0:
168,28,160786,2,0,P|133:23|88:24,1,75,2|2,0:3|0:3,0:0:0:0:
0,124,161086,2,0,B|60:136|60:136|132:124,1,112.5,8|0,0:0|2:0,0:0:0:0:
152,108,161386,6,0,P|192:108|248:116,2,75,12|8|8,0:0|0:0|0:0,0:0:0:0:
275,204,161836,2,0,P|323:148|323:74,1,150,12|8,0:0|0:0,0:0:0:0:
184,196,162286,2,0,P|188:252|192:284,1,75,2|2,0:3|0:3,0:0:0:0:
328,364,162586,6,0,B|256:348|256:348|180:360,1,150,12|8,0:0|0:0,0:0:0:0:
72,384,163036,1,2,0:3:0:0:
28,244,163186,2,0,P|32:188|36:156,1,75,8|2,0:0|0:3,0:0:0:0:
190,270,163486,2,0,P|152:273|115:276,1,75,8|2,0:0|0:3,0:0:0:0:
152,132,163786,6,0,P|189:134|226:138,1,75,8|2,0:0|0:3,0:0:0:0:
340,200,164086,2,0,B|324:148|324:148|332:88,1,112.5,8|0,0:0|2:0,0:0:0:0:
348,48,164386,2,0,P|310:51|273:54,1,75,8|2,0:0|0:3,0:0:0:0:
452,8,164686,2,0,B|468:60|468:60|460:120,1,112.5,8|0,0:0|2:0,0:0:0:0:
436,156,164986,6,0,P|440:216|444:240,1,75,8|2,0:0|0:3,0:0:0:0:
508,336,165286,2,0,B|456:352|456:352|384:340,1,112.5,8|0,0:0|2:0,0:0:0:0:
364,312,165586,2,0,P|328:308|284:308,1,75,8|2,0:0|0:3,0:0:0:0:
176,372,165886,2,0,B|184:312|184:312|164:260,1,112.5,8|0,0:0|2:0,0:0:0:0:
132,232,166186,6,0,P|180:228|224:216,1,75,8|2,0:0|0:3,0:0:0:0:
80,88,166486,2,0,P|72:124|69:162,1,75,8|2,0:0|0:3,0:0:0:0:
276,160,166786,2,0,L|264:10,1,150,8|8,0:0|0:0,0:0:0:0:
172,100,167236,1,2,0:3:0:0:
132,232,167386,6,0,P|196:244|288:248,1,150,4|8,0:0|0:0,0:0:0:0:
432,200,167836,2,0,P|394:199|357:203,1,75,2|0,0:3|0:0,0:0:0:0:
472,280,168136,2,0,L|492:120,1,150,2|8,0:3|0:0,0:0:0:0:
320,80,168586,6,0,L|336:240,1,150,4|8,0:0|0:0,0:0:0:0:
392,344,169036,2,0,P|356:336|292:328,1,75,2|0,0:3|0:0,0:0:0:0:
167,355,169336,2,0,P|229:320|224:249,1,150,2|8,0:3|0:0,0:0:0:0:
68,220,169786,6,0,L|79:369,1,150,4|8,0:0|0:0,0:0:0:0:
156,188,170236,2,0,P|164:144|168:96,1,75,2|0,0:3|0:0,0:0:0:0:
84,8,170536,2,0,P|156:28|236:20,1,150,2|8,0:3|0:0,0:0:0:0:
316,108,170986,6,0,L|166:113,1,150,4|8,0:0|0:0,0:0:0:0:
232,267,171436,2,0,P|238:231|243:193,1,75,2|0,0:3|0:0,0:0:0:0:
156,320,171736,2,0,L|305:325,1,150,2|8,0:3|0:0,0:0:0:0:
452,228,172186,6,0,P|396:232|332:232,1,120,6|0,0:3|0:0,0:0:0:0:
256,64,172786,2,0,P|315:63|375:68,1,120,6|0,0:3|0:0,0:0:0:0:
144,148,173386,6,0,P|140:84|140:20,1,120,6|0,0:3|0:0,0:0:0:0:
248,224,173986,2,0,P|247:283|243:343,1,120,6|0,0:3|0:0,0:0:0:0:
40,292,174586,6,0,P|104:296|168:292,1,120,6|0,0:3|0:0,0:0:0:0:
32,96,175186,2,0,P|28:132|28:168,1,60,6|0,0:3|0:0,0:0:0:0:
100,208,175486,1,8,0:0:0:0:
248,132,175786,6,0,P|196:136|164:140,1,75,8|2,0:0|0:3,0:0:0:0:
192,272,176086,2,0,P|229:276|266:278,1,75,8|2,0:0|0:3,0:0:0:0:
404,192,176386,2,0,L|312:200,1,75,8|2,0:0|0:3,0:0:0:0:
380,324,176686,1,8,0:0:0:0:
240,248,176986,6,0,P|228:176|288:104,1,150,4|8,0:0|0:0,0:0:0:0:
424,164,177436,1,0,0:0:0:0:
368,16,177586,2,0,P|366:31|362:107,1,75,2|2,0:3|0:3,0:0:0:0:
444,196,177886,1,8,0:0:0:0:
312,292,178036,6,0,L|160:284,1,150,0|0,0:0|0:0,0:0:0:0:
15,352,178486,2,0,P|53:349|89:338,1,75,8|0,0:0|0:0,0:0:0:0:
8,188,178786,2,0,L|0:262,1,75,2|2,0:3|0:3,0:0:0:0:
140,244,179086,1,8,0:0:0:0:
68,116,179236,6,0,B|144:104|144:104|224:124,1,150,0|0,0:0|0:0,0:0:0:0:
307,228,179686,2,0,P|269:233|232:235,1,75,8|0,0:0|0:0,0:0:0:0:
400,192,179986,2,0,L|392:266,1,75,2|2,0:3|0:3,0:0:0:0:
340,116,180286,1,8,0:0:0:0:
488,220,180436,1,0,0:0:0:0:
448,48,180586,6,0,L|455:122,1,75,2|0,0:3|0:0,0:0:0:0:
307,228,180886,2,0,L|314:154,1,75,8|0,0:0|0:0,0:0:0:0:
440,312,181186,2,0,P|408:316|356:320,1,75,2|2,0:3|0:3,0:0:0:0:
204,256,181486,1,8,0:0:0:0:
132,380,181636,6,0,L|281:372,1,150,0|0,0:0|0:0,0:0:0:0:
64,260,182086,2,0,P|56:296|52:333,1,75,8|0,0:0|0:0,0:0:0:0:
132,192,182386,2,0,L|120:116,1,75,2|2,0:3|0:3,0:0:0:0:
0,188,182686,1,8,0:0:0:0:
56,48,182836,6,0,P|128:68|208:64,1,150,0|0,0:0|0:0,0:0:0:0:
356,8,183286,2,0,P|318:10|281:15,1,75,8|0,0:0|0:0,0:0:0:0:
252,144,183586,2,0,P|289:148|326:151,1,75,2|2,0:3|0:3,0:0:0:0:
472,84,183886,2,0,L|388:92,1,75,8|0,0:0|0:0,0:0:0:0:
444,204,184186,5,12,0:0:0:0:
444,204,184336,1,2,0:3:0:0:
264,236,184486,2,0,P|301:240|338:243,1,75,8|2,0:0|0:3,0:0:0:0:
232,108,184786,1,8,0:0:0:0:
232,108,184936,1,2,0:3:0:0:
152,260,185086,2,0,P|156:312|160:344,1,75,8|2,0:0|0:3,0:0:0:0:
312,364,185386,5,8,0:0:0:0:
312,364,185536,1,2,0:3:0:0:
436,248,185686,2,0,P|440:210|442:173,1,75,8|2,0:0|0:3,0:0:0:0:
496,348,185986,1,8,0:0:0:0:
496,348,186136,1,2,0:3:0:0:
336,264,186286,2,0,P|298:259|261:256,1,75,8|2,0:0|0:3,0:0:0:0:
128,352,186586,6,0,P|172:348|212:340,1,75,8|2,0:0|0:3,0:0:0:0:
68,204,186886,2,0,P|64:228|60:288,1,75,8|2,0:0|0:3,0:0:0:0:
228,144,187186,2,0,L|236:228,1,75,8|2,0:0|0:3,0:0:0:0:
108,56,187486,2,0,L|182:45,1,75,8|2,0:0|0:3,0:0:0:0:
24,16,187786,5,8,0:0:0:0:
92,172,187936,1,2,0:3:0:0:
224,40,188086,1,8,0:0:0:0:
16,112,188236,1,2,0:3:0:0:
176,220,188386,2,0,L|256:224,1,75,8|2,0:0|0:3,0:0:0:0:
120,76,188686,5,12,0:0:0:0:
