osu file format v14

[General]
AudioFilename: audio.mp3
AudioLeadIn: 0
PreviewTime: 44907
Countdown: 0
SampleSet: Soft
StackLeniency: 0.5
Mode: 0
LetterboxInBreaks: 0
WidescreenStoryboard: 0

[Editor]
Bookmarks: 507,121707
DistanceSpacing: 0.6
BeatDivisor: 4
GridSize: 32
TimelineZoom: 2.859999

[Metadata]
Title:Zettai Tokken Shuchou Shimasu! Hoshi Syoko Solo Remix
TitleUnicode:絶対特権主張しますっ! 星輝子ソロ・リミックス
Artist:Syoko Hoshi (CV: Satsumi Matsuda)
ArtistUnicode:星輝子(CV:松田颯水)
Creator:Lami
Version:Karia's Extra
Source:アイドルマスター シンデレラガールズ
Tags:IDOLM@STER idolmaster cinderella girls imas 絶対ピンクな小箱 zettai pink na kobako intoon ProEzreal Akitoshi Kalibe Yuria Gaia Karia Shirasaka Koume TriCastle Story -Brand new Castle-
BeatmapID:1165064
BeatmapSetID:546878

[Difficulty]
HPDrainRate:6
CircleSize:4
OverallDifficulty:8.5
ApproachRate:9.2
SliderMultiplier:1.7
SliderTickRate:1

[Events]
//Background and Video events
0,0,"BG.jpg",0,0
//Break Periods
//Storyboard Layer 0 (Background)
//Storyboard Layer 1 (Fail)
//Storyboard Layer 2 (Pass)
//Storyboard Layer 3 (Foreground)
//Storyboard Sound Samples

[TimingPoints]
586,300,4,2,51,40,1,0
623,-100,4,2,51,42,0,0
661,-100,4,2,51,44,0,0
698,-100,4,2,51,46,0,0
736,-100,4,2,51,48,0,0
773,-100,4,2,51,50,0,0
811,-100,4,2,51,52,0,0
848,-100,4,2,51,54,0,0
886,-100,4,2,51,56,0,0
923,-100,4,2,51,58,0,0
961,-100,4,2,51,60,0,0
998,-100,4,2,51,62,0,0
1036,-100,4,2,51,64,0,0
1073,-100,4,2,51,66,0,0
1111,-100,4,2,51,68,0,0
1186,-100,4,2,51,70,0,0
1786,-133.333333333333,4,3,1,50,0,0
6286,-133.333333333333,4,2,51,50,0,0
6436,-133.333333333333,4,3,1,50,0,0
6586,-100,4,2,52,65,0,0
6661,-100,4,2,51,65,0,0
8986,-100,4,2,52,65,0,0
9061,-100,4,2,51,65,0,0
11386,-100,4,2,51,55,0,0
14536,-100,4,2,51,55,0,0
14986,-100,4,2,51,65,0,0
16186,-100,4,2,52,70,0,0
16411,-100,4,2,52,5,0,0
16486,-100,4,2,51,70,0,0
17611,-100,4,2,51,5,0,0
17686,-100,4,2,51,70,0,0
18811,-100,4,2,51,5,0,0
18886,-100,4,2,51,70,0,0
20011,-100,4,2,51,5,0,0
20086,-90.9090909090909,4,2,51,70,0,0
20311,-90.9090909090909,4,2,51,5,0,0
20386,-83.3333333333333,4,2,51,70,0,0
20611,-83.3333333333333,4,2,51,5,0,0
20686,-100,4,2,51,70,0,0
21211,-100,4,2,51,5,0,0
21286,-100,4,2,51,70,0,0
22411,-100,4,2,51,5,0,0
22486,-100,4,2,51,70,0,0
23611,-100,4,2,52,5,0,0
23686,-100,4,2,51,70,0,0
24661,-100,4,2,52,5,0,0
24736,-100,4,2,51,70,0,0
25786,-100,4,2,52,55,0,0
26086,-100,4,2,51,55,0,0
33886,-100,4,2,52,55,0,0
34186,-100,4,2,51,55,0,0
35086,-100,4,2,52,55,0,0
35386,-100,4,2,52,65,0,0
35836,-100,4,2,51,65,0,0
35986,-100,4,2,51,25,0,0
36136,-100,4,2,51,65,0,0
36286,-100,4,2,51,25,0,0
36436,-100,4,2,51,65,0,0
37486,-100,4,2,52,65,0,0
38236,-100,4,2,51,65,0,0
38386,-100,4,2,51,25,0,0
38536,-100,4,2,51,65,0,0
38686,-100,4,2,51,25,0,0
38836,-100,4,2,51,65,0,0
39886,-100,4,2,52,65,0,0
40636,-100,4,2,51,65,0,0
40786,-100,4,2,51,25,0,0
40936,-100,4,2,51,65,0,0
41086,-100,4,2,51,25,0,0
41236,-100,4,2,51,65,0,0
42586,-100,4,2,52,65,0,0
44236,-100,4,2,51,65,0,0
44611,-100,4,2,51,5,0,0
44686,-100,4,2,52,65,0,0
44986,-100,4,2,52,75,0,1
45286,-100,4,2,51,75,0,1
53386,-100,4,2,52,75,0,1
53686,-100,4,2,51,75,0,1
54511,-100,4,2,51,75,0,0
54586,-100,4,2,52,75,0,1
54736,-100,4,2,51,75,0,1
59386,-100,4,2,52,75,0,1
59686,-100,4,2,51,75,0,1
61786,-100,4,2,52,75,0,1
62086,-100,4,2,51,75,0,1
64186,-100,4,2,51,75,0,1
67336,-100,4,2,51,75,0,1
68986,-100,4,2,52,70,0,0
69211,-100,4,2,52,5,0,0
69286,-100,4,2,51,70,0,0
70411,-100,4,2,51,5,0,0
70486,-100,4,2,51,70,0,0
71611,-100,4,2,51,5,0,0
71686,-100,4,2,51,70,0,0
72811,-100,4,2,51,5,0,0
72886,-90.9090909090909,4,2,51,70,0,0
73111,-90.9090909090909,4,2,51,5,0,0
73186,-83.3333333333333,4,2,51,70,0,0
73411,-83.3333333333333,4,2,51,5,0,0
73486,-100,4,2,51,70,0,0
74011,-100,4,2,51,5,0,0
74086,-100,4,2,51,70,0,0
75211,-100,4,2,51,5,0,0
75286,-100,4,2,51,70,0,0
76186,-100,4,2,52,70,0,0
76411,-100,4,2,52,5,0,0
76486,-100,4,2,51,70,0,0
77236,-100,4,2,52,70,0,0
77461,-100,4,2,51,5,0,0
77536,-100,4,2,51,70,0,0
78586,-100,4,2,52,55,0,0
78886,-100,4,2,51,55,0,0
86686,-100,4,2,52,55,0,0
87286,-100,4,2,51,55,0,0
87886,-100,4,2,52,55,0,0
88186,-100,4,2,52,65,0,0
88486,-100,4,2,51,65,0,0
88786,-100,4,2,51,25,0,0
88936,-100,4,2,51,65,0,0
89086,-100,4,2,51,25,0,0
89236,-100,4,2,51,65,0,0
90286,-100,4,2,52,65,0,0
90886,-100,4,2,51,65,0,0
91186,-100,4,2,51,25,0,0
91336,-100,4,2,51,65,0,0
91486,-100,4,2,51,25,0,0
91636,-100,4,2,51,65,0,0
92686,-100,4,2,52,65,0,0
93286,-100,4,2,51,65,0,0
93586,-100,4,2,51,25,0,0
93736,-100,4,2,51,65,0,0
93886,-100,4,2,51,25,0,0
94036,-100,4,2,51,65,0,0
97486,-100,4,2,52,65,0,0
97786,-100,4,2,52,75,0,1
97936,-100,4,2,51,75,0,1
106186,-100,4,2,52,75,0,1
106336,-100,4,2,51,75,0,1
107311,-100,4,2,51,75,0,0
107386,-100,4,2,52,75,0,1
107536,-100,4,2,51,75,0,1
112186,-100,4,2,52,75,0,1
112486,-100,4,2,51,75,0,1
114586,-100,4,2,52,75,0,1
114886,-100,4,2,51,75,0,1
120136,-100,4,2,51,75,0,1
121786,-100,4,2,52,70,0,0
121936,-100,4,2,51,70,0,0
128986,-100,4,2,52,70,0,0
129136,-100,4,2,51,70,0,0
130186,-100,4,2,52,70,0,0
130336,-100,4,2,51,70,0,0
131086,-117.647058823529,4,2,52,70,0,0
131311,-117.647058823529,4,2,52,5,0,0
131386,-100,4,2,52,65,0,0
132286,-100,4,2,51,65,0,0
133036,-100,4,2,52,65,0,0
133336,-100,4,2,51,65,0,0
133786,-117.647058823529,4,2,52,65,0,0
134386,-117.647058823529,4,2,51,65,0,0
136186,-100,4,2,51,65,0,0
137836,-100,4,2,52,65,0,0
138136,-100,4,2,51,65,0,0
138586,-117.647058823529,4,2,52,65,0,0
139186,-117.647058823529,4,2,51,65,0,0
140986,-133.333333333333,4,2,51,60,0,0
146686,-100,4,2,51,60,0,0
146986,-100,4,2,51,60,0,0
147436,-100,4,2,52,60,0,0
147736,-100,4,2,51,60,0,0
148186,-100,4,2,51,70,0,0
152236,-100,4,2,51,70,0,0
152686,-100,4,2,52,70,0,0
152986,-166.666666666667,4,2,52,55,0,0
154186,-100,4,2,51,70,0,0
155386,-100,4,2,52,70,0,1
155536,-100,4,2,51,70,0,1
158011,-100,4,2,51,5,0,1
158086,-100,4,2,51,70,0,1
160186,-100,4,2,52,70,0,1
160336,-100,4,2,51,70,0,1
161386,-100,4,2,52,70,0,1
161536,-100,4,2,51,70,0,1
162136,-100,4,2,52,70,0,1
162286,-100,4,2,51,70,0,1
162511,-100,4,2,51,70,0,0
162586,-100,4,2,52,70,0,1
162811,-100,4,2,52,5,0,1
162886,-100,4,2,51,70,0,1
167386,-100,4,2,52,70,0,1
167686,-100,4,2,51,70,0,1
169786,-100,4,2,52,70,0,1
170086,-100,4,2,51,70,0,1
175336,-100,4,2,51,70,0,1
176986,-100,4,2,52,70,0,0
177211,-100,4,2,52,5,0,0
177286,-100,4,2,52,70,0,0
180811,-100,4,2,52,5,0,0
180886,-100,4,2,52,70,0,0
184111,-100,4,2,52,5,0,0
184186,-100,4,2,52,70,0,0
184336,-100,4,2,51,70,0,0

[Colours]
Combo1 : 242,136,208
Combo2 : 253,155,66
Combo3 : 28,193,249
Combo4 : 232,215,0

[HitObjects]
64,128,586,6,0,L|58:98,14,21.25,0|0|0|0|0|0|0|0|0|0|0|0|0|0|0,2:0|2:0|2:0|2:0|2:0|2:0|2:0|2:0|2:0|2:0|2:0|2:0|2:0|2:0|2:0,0:0:0:0:
94,74,1186,6,0,L|82:188,1,85,8|0,0:0|0:0,0:0:0:0:
131,227,1411,1,8,0:0:0:0:
131,227,1486,2,0,B|171:240|171:240|216:218,1,85,2|2,0:0|0:0,0:0:0:0:
374,162,1786,6,0,P|323:129|255:155,1,127.500004863739,4|0,0:2|0:0,0:0:0:0:
262,147,2386,2,0,L|256:80,1,63.7500024318696
311,208,2686,2,0,L|305:271,1,63.7500024318696
244,337,2986,1,0,0:0:0:0:
234,345,3286,6,0,L|166:339,1,63.7500024318696
305,271,3586,1,0,0:0:0:0:
295,279,3886,6,0,L|227:273,1,63.7500024318696
366,205,4186,1,0,0:0:0:0:
356,213,4486,6,0,L|288:207,1,63.7500024318696
427,139,4786,1,0,0:0:0:0:
417,147,5086,6,0,L|349:141,1,63.7500024318696
488,73,5386,1,0,0:0:0:0:
478,81,5686,6,0,L|410:75,1,63.7500024318696
289,135,5986,2,0,L|352:140,1,63.7500024318696
480,221,6286,2,0,L|416:215,1,63.7500024318696,8|0,0:0|0:0,0:0:0:0:
258,281,6586,6,0,L|427:297,1,170,4|8,0:0|0:0,0:0:0:0:
292,206,7036,2,0,P|276:168|288:121,1,85,2|0,0:0|0:0,0:0:0:0:
395,22,7336,2,0,P|411:60|399:107,1,85,2|0,0:0|0:0,0:0:0:0:
238,36,7636,1,8,0:0:0:0:
403,102,7786,6,0,P|315:108|213:114,1,170,4|8,0:0|0:0,0:0:0:0:
72,39,8236,2,0,P|120:47|164:54,1,85,2|0,0:0|0:0,0:0:0:0:
220,193,8536,2,0,P|172:185|128:178,1,85,2|0,0:0|0:0,0:0:0:0:
29,324,8836,1,8,0:0:0:0:
136,179,8986,6,0,P|143:242|154:364,1,170,4|8,0:0|0:0,0:0:0:0:
220,193,9436,2,0,P|258:177|305:189,1,85,2|0,0:0|0:0,0:0:0:0:
404,296,9736,2,0,P|366:312|319:300,1,85,2|0,0:0|0:0,0:0:0:0:
390,138,10036,1,8,0:0:0:0:
324,303,10186,6,0,P|318:215|310:113,1,170,4|8,0:0|0:0,0:0:0:0:
477,224,10636,2,0,P|430:219|382:215,1,85,2|0,0:0|0:0,0:0:0:0:
227,141,10936,2,0,P|269:137|311:132,1,85,2|0,0:0|0:0,0:0:0:0:
160,239,11236,1,8,0:0:0:0:
196,40,11386,5,4,0:0:0:0:
316,344,11986,5,4,0:0:0:0:
104,132,12586,5,4,0:0:0:0:
408,252,13186,5,4,0:0:0:0:
79,259,13786,5,4,0:0:0:0:
433,125,14386,5,6,0:0:0:0:
433,125,14536,1,2,0:0:0:0:
323,237,14686,2,0,P|308:197|319:150,1,85,8|0,0:0|0:0,0:0:0:0:
426,334,14986,5,8,0:0:0:0:
247,259,15136,1,2,0:0:0:0:
466,230,15286,5,8,0:0:0:0:
247,259,15436,1,2,0:0:0:0:
433,125,15586,5,4,0:3:0:0:
433,125,15736,1,4,0:3:0:0:
247,259,15886,2,0,P|228:220|235:172,1,85,8|0,0:0|0:0,0:0:0:0:
336,5,16186,6,0,P|331:56|322:148,1,127.5,4|0,0:0|0:0,0:0:0:0:
301,207,16486,2,0,P|339:203|387:199,1,85,8|0,0:0|0:0,0:0:0:0:
220,132,16786,1,2,0:0:0:0:
220,132,16936,1,2,0:0:0:0:
262,306,17086,1,8,0:0:0:0:
323,131,17236,1,0,0:0:0:0:
139,200,17386,6,0,P|104:161|127:90,1,127.5,2|0,0:0|0:0,0:0:0:0:
138,86,17686,1,8,0:0:0:0:
66,242,17836,1,0,0:0:0:0:
241,212,17986,2,0,L|192:205|136:197,1,85,2|2,0:0|0:0,0:0:0:0:
310,306,18286,2,0,L|261:313|205:321,1,85,8|0,0:0|0:0,0:0:0:0:
379,194,18586,6,0,P|387:266|396:341,1,127.5,2|0,0:0|0:0,0:0:0:0:
396,338,18886,1,8,0:0:0:0:
464,180,19036,1,0,0:0:0:0:
292,220,19186,2,0,P|275:183|284:138,1,85,2|2,0:0|0:0,0:0:0:0:
393,4,19486,2,0,L|387:39|380:88,1,85,8|0,0:0|0:0,0:0:0:0:
194,71,19786,6,0,P|238:37|316:66,1,127.5,2|0,0:0|0:0,0:0:0:0:
207,154,20086,6,0,P|155:148|60:139,1,140.25000428009,8|0,0:0|0:0,0:0:0:0:
111,297,20386,6,0,P|158:253|91:170,1,152.999995330811,2|0,0:0|0:0,0:0:0:0:
31,273,20686,6,0,P|36:328|40:371,1,85,8|0,0:0|0:0,0:0:0:0:
232,381,20986,6,0,P|239:331|250:237,1,127.5,2|0,0:0|0:0,0:0:0:0:
209,186,21286,2,0,P|169:171|121:183,1,85,8|0,0:0|0:0,0:0:0:0:
31,273,21586,1,2,0:0:0:0:
31,273,21736,1,2,0:0:0:0:
73,101,21886,1,8,0:0:0:0:
31,273,22036,1,0,0:0:0:0:
209,186,22186,6,0,P|166:182|71:175,1,127.5,2|0,0:0|0:0,0:0:0:0:
65,173,22486,1,8,0:0:0:0:
222,106,22636,1,0,0:0:0:0:
152,266,22786,2,0,P|148:225|142:167,1,85,2|2,0:0|0:0,0:0:0:0:
234,21,23086,2,0,L|227:70|219:126,1,85,8|0,0:0|0:0,0:0:0:0:
28,73,23386,6,0,P|100:65|175:56,1,127.5,4|0,0:0|0:0,0:0:0:0:
172,56,23686,1,8,0:0:0:0:
118,226,23836,2,0,P|112:184|104:123,1,85,0|2,0:0|0:0,0:0:0:0:
192,298,24136,1,2,0:0:0:0:
22,243,24286,1,8,0:0:0:0:
192,298,24436,6,0,P|136:302|49:312,1,127.5,4|0,0:0|0:0,0:0:0:0:
0,352,24736,1,8,0:0:0:0:
161,226,24886,1,8,0:0:0:0:
0,104,25036,1,8,0:0:0:0:
65,310,25186,6,0,P|76:226|90:124,1,170,8|0,0:0|0:0,0:0:0:0:
0,104,25561,1,2,0:0:0:0:
2,112,25636,1,2,0:0:0:0:
3,120,25711,1,2,0:0:0:0:
4,127,25786,5,4,0:0:0:0:
207,54,26086,2,0,P|174:33|108:48,1,85,8|0,0:0|0:0,0:0:0:0:
277,118,26386,2,0,P|323:108|375:102,1,85,2|2,0:0|0:0,0:0:0:0:
201,225,26686,2,0,P|184:186|192:145,1,85,8|0,0:0|0:0,0:0:0:0:
287,287,26986,6,0,L|282:329|277:371,1,85,2|0,0:0|0:0,0:0:0:0:
376,252,27286,2,0,L|371:294|366:336,1,85,8|0,0:0|0:0,0:0:0:0:
287,183,27586,2,0,L|282:225|277:267,1,85,2|2,0:0|0:0,0:0:0:0:
376,148,27886,2,0,L|371:190|366:232,1,85,8|0,0:0|0:0,0:0:0:0:
243,80,28186,6,0,P|311:33|383:72,1,170,2|8,0:0|0:0,0:0:0:0:
252,177,28636,1,0,0:0:0:0:
168,19,28786,2,0,P|158:82|152:123,1,85,2|2,0:0|0:0,0:0:0:0:
0,194,29086,2,0,P|63:184|104:178,1,85,8|0,0:0|0:0,0:0:0:0:
248,277,29386,6,0,P|201:283|162:262,1,85,2|0,0:0|0:0,0:0:0:0:
327,184,29686,2,0,P|365:167|406:174,1,85,8|0,0:0|0:0,0:0:0:0:
228,95,29986,2,0,P|234:144|240:196,1,85,2|2,0:0|0:0,0:0:0:0:
393,94,30286,1,8,0:0:0:0:
348,266,30436,1,0,0:0:0:0:
512,201,30586,6,0,P|467:195|405:187,1,85,2|0,0:0|0:0,0:0:0:0:
250,163,30886,2,0,P|294:158|351:151,1,85,8|0,0:0|0:0,0:0:0:0:
432,11,31186,2,0,P|424:53|417:100,1,85,2|2,0:0|0:0,0:0:0:0:
250,163,31486,1,8,0:0:0:0:
250,163,31636,1,0,0:0:0:0:
129,18,31786,6,0,L|136:54|143:102,1,85,2|0,0:0|0:0,0:0:0:0:
318,66,32086,2,0,L|276:58|234:51,1,85,8|0,0:0|0:0,0:0:0:0:
105,178,32386,2,0,P|146:185|193:168,1,85,2|2,0:0|0:0,0:0:0:0:
355,243,32686,2,0,P|317:225|267:229,1,85,8|0,0:0|0:0,0:0:0:0:
125,100,32986,6,0,P|133:193|140:284,1,170,2|8,0:0|0:0,0:0:0:0:
315,329,33436,1,0,0:0:0:0:
138,269,33586,2,0,P|199:262|243:255,1,85,2|2,0:0|0:0,0:0:0:0:
399,199,33886,2,0,P|336:189|295:183,1,85,12|0,0:0|0:0,0:0:0:0:
479,296,34186,6,0,P|399:284|306:271,1,170,8|0,0:0|0:0,0:0:0:0:
306,275,34561,1,2,0:0:0:0:
302,279,34636,1,2,0:0:0:0:
196,160,34786,1,2,0:0:0:0:
197,176,34861,1,2,0:0:0:0:
199,192,34936,1,2,0:0:0:0:
279,35,35086,1,12,0:0:0:0:
199,192,35236,1,0,0:0:0:0:
78,39,35386,6,0,P|86:133|95:239,1,170,4|8,0:0|0:0,0:0:0:0:
279,148,35836,2,0,P|224:144|176:140,1,85,2|0,0:0|0:0,0:0:0:0:
346,246,36136,2,0,P|303:249|261:252,1,85,2|0,0:0|0:0,0:0:0:0:
449,169,36436,5,8,0:0:0:0:
403,361,36586,1,2,0:0:0:0:
403,361,37186,6,0,P|397:315|392:273,1,85,8|0,0:0|0:0,0:0:0:0:
459,113,37486,2,0,P|453:155|448:197,1,85,12|0,0:0|0:0,0:0:0:0:
264,223,37786,6,0,P|317:219|439:209,1,170,4|8,0:0|0:0,0:0:0:0:
276,113,38236,2,0,P|236:95|176:100,1,85,2|0,0:0|0:0,0:0:0:0:
374,14,38536,2,0,P|366:59|356:117,1,85,2|0,0:0|0:0,0:0:0:0:
264,223,38836,5,8,0:0:0:0:
226,23,38986,1,2,0:0:0:0:
226,23,39586,6,0,L|220:80|216:118,1,85,8|0,0:0|0:0,0:0:0:0:
117,258,39886,2,0,P|111:215|105:173,1,85,12|0,0:0|0:0,0:0:0:0:
295,126,40186,6,0,P|335:191|266:261,1,170,4|8,0:0|0:0,0:0:0:0:
112,171,40636,2,0,P|118:213|124:256,1,85,2|0,0:0|0:0,0:0:0:0:
218,83,40936,2,0,P|211:126|204:188,1,85,2|0,0:0|0:0,0:0:0:0:
51,74,41236,1,8,0:0:0:0:
206,167,41386,6,0,P|163:161|117:157,1,85,2|2,0:0|0:0,0:0:0:0:
295,126,41686,2,0,P|337:120|384:116,1,85,2|2,0:0|0:0,0:0:0:0:
283,297,41986,2,0,P|267:258|277:217,1,85,8|2,0:0|0:0,0:0:0:0:
461,150,42286,2,0,P|477:189|467:230,1,85,8|0,0:0|0:0,0:0:0:0:
328,43,42586,5,4,0:0:0:0:
467,229,43186,5,4,0:0:0:0:
236,256,43786,6,0,P|221:220|232:171,1,85,4|0,0:0|0:0,0:0:0:0:
313,121,44011,1,8,0:0:0:0:
313,121,44086,2,0,P|308:168|304:211,1,85,12|2,0:0|0:0,0:0:0:0:
125,107,44386,6,0,P|167:73|242:111,1,127.5,2|0,0:0|0:0,0:0:0:0:
229,175,44686,2,0,B|192:195|192:195|118:178,1,85,8|0,0:0|0:0,0:0:0:0:
319,104,44986,6,0,P|365:109|425:114,1,85,4|0,0:0|0:0,0:0:0:0:
321,278,45286,2,0,P|317:235|312:193,1,85,8|0,0:0|0:0,0:0:0:0:
411,341,45586,1,2,0:0:0:0:
411,341,45736,1,2,0:0:0:0:
231,294,45886,1,8,0:0:0:0:
406,228,46036,1,0,0:0:0:0:
275,374,46186,5,2,0:0:0:0:
275,374,46336,1,2,0:0:0:0:
148,227,46486,2,0,P|144:277|140:324,1,85,8|0,0:0|0:0,0:0:0:0:
236,140,46786,5,2,0:0:0:0:
236,140,46936,1,2,0:0:0:0:
51,197,47086,2,0,P|91:203|141:211,1,85,8|0,0:0|0:0,0:0:0:0:
306,241,47386,5,2,0:0:0:0:
306,241,47536,1,2,0:0:0:0:
249,56,47686,2,0,P|242:96|234:146,1,85,8|0,0:0|0:0,0:0:0:0:
204,312,47986,5,2,0:0:0:0:
204,312,48136,1,2,0:0:0:0:
389,255,48286,2,0,P|349:248|299:240,1,85,8|0,0:0|0:0,0:0:0:0:
120,183,48586,5,2,0:0:0:0:
120,183,48736,1,2,0:0:0:0:
305,240,48886,2,0,P|265:247|215:255,1,85,8|0,0:0|0:0,0:0:0:0:
36,168,49186,6,0,P|77:174|119:182,1,85,2|2,0:0|0:0,0:0:0:0:
249,56,49486,1,8,0:0:0:0:
231,148,49636,1,0,0:0:0:0:
90,10,49786,6,0,P|95:52|99:94,1,85,2|0,0:0|0:0,0:0:0:0:
221,232,50086,2,0,P|225:189|230:147,1,85,8|0,0:0|0:0,0:0:0:0:
105,301,50386,1,2,0:0:0:0:
280,341,50536,1,2,0:0:0:0:
142,203,50686,1,8,0:0:0:0:
197,373,50836,1,0,0:0:0:0:
321,224,50986,5,2,0:0:0:0:
321,224,51136,1,2,0:0:0:0:
140,295,51286,2,0,P|190:298|234:301,1,85,8|0,0:0|0:0,0:0:0:0:
60,202,51586,5,2,0:0:0:0:
60,202,51736,1,2,0:0:0:0:
241,131,51886,2,0,P|191:128|147:125,1,85,8|0,0:0|0:0,0:0:0:0:
321,224,52186,5,4,0:0:0:0:
321,224,52336,1,2,0:0:0:0:
375,37,52486,2,0,P|393:93|383:127,1,85,8|0,0:0|0:0,0:0:0:0:
232,238,52786,5,2,0:0:0:0:
232,238,52936,1,2,0:0:0:0:
411,212,53086,2,0,P|372:189|322:195,1,85,8|0,0:0|0:0,0:0:0:0:
153,74,53386,5,4,0:0:0:0:
211,228,53536,1,0,0:0:0:0:
284,50,53686,1,8,0:0:0:0:
214,320,53836,1,4,0:0:0:0:
214,320,54136,5,8,0:0:0:0:
276,150,54286,1,2,0:0:0:0:
134,208,54436,1,2,0:0:0:0:
329,298,54586,6,0,P|345:259|335:213,1,85,4|0,0:0|0:0,0:0:0:0:
245,54,54886,2,0,P|250:96|253:138,1,85,8|0,0:0|0:0,0:0:0:0:
329,298,55186,1,8,0:0:0:0:
398,126,55336,1,0,0:0:0:0:
241,247,55486,1,8,0:0:0:0:
450,217,55636,1,0,0:0:0:0:
253,138,55786,5,8,0:0:0:0:
289,335,55936,1,2,0:0:0:0:
253,138,56086,2,0,P|248:186|241:236,1,85,8|0,0:0|0:0,0:0:0:0:
329,61,56386,5,8,0:0:0:0:
135,108,56536,1,2,0:0:0:0:
329,61,56686,2,0,P|280:54|230:46,1,85,8|0,0:0|0:0,0:0:0:0:
71,17,56986,5,8,0:0:0:0:
101,213,57136,1,2,0:0:0:0:
71,17,57286,2,0,P|66:65|59:115,1,85,8|0,0:0|0:0,0:0:0:0:
0,282,57586,5,8,0:0:0:0:
197,255,57736,1,2,0:0:0:0:
0,282,57886,2,0,P|48:287|98:294,1,85,8|0,0:0|0:0,0:0:0:0:
207,156,58186,5,8,0:0:0:0:
247,353,58336,1,2,0:0:0:0:
207,156,58486,2,0,P|201:198|197:240,1,85,8|0,0:0|0:0,0:0:0:0:
68,96,58786,6,0,P|73:138|77:180,1,85,8|0,0:0|0:0,0:0:0:0:
230,57,59086,1,8,0:0:0:0:
77,180,59236,1,0,0:0:0:0:
290,234,59386,6,0,B|324:203|324:203|307:74,1,170,4|8,0:0|0:0,0:0:0:0:
483,153,59836,2,0,P|432:160|374:169,1,85,2|0,0:0|0:0,0:0:0:0:
215,230,60136,2,0,P|265:237|323:246,1,85,2|0,0:0|0:0,0:0:0:0:
456,359,60436,1,8,0:0:0:0:
398,165,60586,6,0,P|347:219|399:302,1,170,2|8,0:0|0:0,0:0:0:0:
296,132,61036,2,0,P|256:117|207:134,1,85,2|0,0:0|0:0,0:0:0:0:
69,242,61336,2,0,P|125:236|164:232,1,85,2|0,0:0|0:0,0:0:0:0:
0,153,61636,1,8,0:0:0:0:
177,66,61786,6,0,P|173:116|163:246,1,170,4|8,0:0|0:0,0:0:0:0:
305,362,62236,2,0,P|313:321|295:277,1,85,2|0,0:0|0:0,0:0:0:0:
465,193,62536,2,0,P|413:200|370:206,1,85,2|0,0:0|0:0,0:0:0:0:
213,294,62836,1,8,0:0:0:0:
300,120,62986,6,0,P|346:196|292:262,1,170,2|8,0:0|0:0,0:0:0:0:
194,95,63436,2,0,P|202:150|208:195,1,85,2|0,0:0|0:0,0:0:0:0:
60,280,63736,2,0,P|115:272|160:266,1,85,2|0,0:0|0:0,0:0:0:0:
0,202,64036,1,8,0:0:0:0:
178,346,64186,5,4,0:0:0:0:
334,38,64786,5,4,0:0:0:0:
126,286,65386,5,4,0:0:0:0:
386,98,65986,5,4,0:0:0:0:
57,246,66586,5,4,0:0:0:0:
455,138,67186,5,4,0:0:0:0:
455,138,67336,1,2,0:0:0:0:
279,195,67486,2,0,P|327:201|371:208,1,85,8|0,0:0|0:0,0:0:0:0:
183,109,67786,5,8,0:0:0:0:
237,288,67936,1,0,0:0:0:0:
304,95,68086,1,8,0:0:0:0:
123,220,68236,1,2,0:0:0:0:
348,296,68386,1,8,0:0:0:0:
209,69,68536,5,4,0:3:0:0:
256,348,68686,2,0,L|269:252,1,85,8|0,0:0|0:0,0:0:0:0:
110,93,68986,6,0,P|115:144|124:236,1,127.5,4|0,0:0|0:0,0:0:0:0:
199,165,69286,2,0,P|237:150|285:157,1,85,8|0,0:0|0:0,0:0:0:0:
380,256,69586,1,2,0:0:0:0:
380,256,69736,1,2,0:0:0:0:
327,86,69886,1,8,0:0:0:0:
277,266,70036,1,0,0:0:0:0:
430,128,70186,6,0,B|459:153|459:153|453:248,1,127.5,2|0,0:0|0:0,0:0:0:0:
451,263,70486,1,8,0:0:0:0:
341,126,70636,1,0,0:0:0:0:
219,252,70786,2,0,P|203:214|214:152,1,85,2|2,0:0|0:0,0:0:0:0:
267,9,71086,2,0,P|274:49|249:107,1,85,8|0,0:0|0:0,0:0:0:0:
58,63,71386,6,0,P|130:55|205:46,1,127.5,4|0,0:0|0:0,0:0:0:0:
202,46,71686,1,8,0:0:0:0:
51,152,71836,1,0,0:0:0:0:
219,212,71986,2,0,P|234:175|227:130,1,85,2|2,0:0|0:0,0:0:0:0:
69,239,72286,2,0,P|60:278|75:321,1,85,8|0,0:0|0:0,0:0:0:0:
277,304,72586,6,0,P|224:299|141:291,1,127.5,2|0,0:0|0:0,0:0:0:0:
323,366,72886,6,0,P|353:323|314:237,1,140.25000428009,8|0,0:0|0:0,0:0:0:0:
235,72,73186,6,0,P|242:141|251:247,1,152.999995330811,2|0,0:0|0:0,0:0:0:0:
413,173,73486,6,0,P|358:165|315:158,1,85,8|0,0:0|0:0,0:0:0:0:
136,255,73786,6,0,P|186:248|280:237,1,127.5,2|0,0:0|0:0,0:0:0:0:
342,236,74086,2,0,P|336:282|329:330,1,85,8|0,0:0|0:0,0:0:0:0:
279,131,74386,1,2,0:0:0:0:
436,216,74536,1,2,0:0:0:0:
262,238,74686,1,8,0:0:0:0:
424,132,74836,1,0,0:0:0:0:
265,5,74986,6,0,P|271:53|280:142,1,127.5,2|0,0:0|0:0,0:0:0:0:
282,152,75286,1,8,0:0:0:0:
111,107,75436,1,0,0:0:0:0:
178,282,75586,2,0,P|182:241|188:183,1,85,2|2,0:0|0:0,0:0:0:0:
98,22,75886,2,0,L|104:58|111:107,1,85,8|0,0:0|0:0,0:0:0:0:
40,297,76186,6,0,P|6:238|35:187,1,127.5,4|0,0:0|0:0,0:0:0:0:
50,182,76486,1,8,0:0:0:0:
200,304,76636,2,0,P|159:308|101:314,1,85,0|2,0:0|0:0,0:0:0:0:
293,220,76936,1,2,0:0:0:0:
211,382,77086,1,8,0:0:0:0:
405,312,77236,6,0,P|344:304|269:294,1,127.5,4|0,0:0|0:0,0:0:0:0:
258,291,77536,1,8,0:0:0:0:
362,180,77686,2,0,L|356:228,1,42.5,2|2,0:0|0:0,0:0:0:0:
281,126,77836,2,0,L|276:84,1,42.5,2|2,0:0|0:0,0:0:0:0:
449,66,77986,6,0,P|438:145|428:238,1,170,8|2,0:0|0:0,0:0:0:0:
323,270,78361,1,2,0:0:0:0:
321,262,78436,1,2,0:0:0:0:
320,254,78511,1,2,0:0:0:0:
319,247,78586,5,4,0:0:0:0:
457,355,78886,2,0,P|419:350|359:339,1,85,8|0,0:0|0:0,0:0:0:0:
239,280,79186,2,0,P|285:274|337:269,1,85,2|2,0:0|0:0,0:0:0:0:
170,338,79486,2,0,P|132:333|72:322,1,85,8|0,0:0|0:0,0:0:0:0:
165,146,79786,6,0,L|167:188|170:230,1,85,2|0,0:0|0:0,0:0:0:0:
75,87,80086,2,0,L|77:129|80:171,1,85,8|0,0:0|0:0,0:0:0:0:
161,50,80386,2,0,P|201:35|253:51,1,85,2|2,0:0|0:0,0:0:0:0:
348,147,80686,2,0,P|308:162|256:146,1,85,8|0,0:0|0:0,0:0:0:0:
441,28,80986,6,0,P|434:117|425:213,1,170,2|8,0:0|0:0,0:0:0:0:
310,329,81436,1,0,0:0:0:0:
484,294,81586,2,0,P|421:284|380:278,1,85,2|2,0:0|0:0,0:0:0:0:
235,239,81886,2,0,P|298:231|339:226,1,85,8|0,0:0|0:0,0:0:0:0:
135,336,82186,5,2,0:0:0:0:
152,194,82336,1,0,0:0:0:0:
223,324,82486,1,8,0:0:0:0:
90,255,82636,1,0,0:0:0:0:
235,239,82786,5,2,0:0:0:0:
140,323,82936,1,2,0:0:0:0:
235,239,83086,1,8,0:0:0:0:
235,239,83236,1,0,0:0:0:0:
90,255,83386,6,0,P|75:222|90:164,1,85,2|0,0:0|0:0,0:0:0:0:
183,24,83686,2,0,P|176:73|170:112,1,85,8|0,0:0|0:0,0:0:0:0:
6,94,83986,2,0,P|46:72|91:77,1,85,2|2,0:0|0:0,0:0:0:0:
178,206,84286,1,8,0:0:0:0:
178,206,84436,1,0,0:0:0:0:
278,48,84586,6,0,P|282:93|287:141,1,85,2|0,0:0|0:0,0:0:0:0:
183,24,84886,2,0,P|187:69|192:117,1,85,8|0,0:0|0:0,0:0:0:0:
342,220,85186,2,0,P|297:216|249:211,1,85,2|2,0:0|0:0,0:0:0:0:
366,315,85486,2,0,P|321:311|273:306,1,85,8|0,0:0|0:0,0:0:0:0:
137,177,85786,6,0,P|94:240|135:315,1,170,2|8,0:0|0:0,0:0:0:0:
253,166,86236,1,0,0:0:0:0:
366,315,86386,2,0,P|427:308|471:301,1,85,2|2,0:0|0:0,0:0:0:0:
270,252,86686,2,0,P|206:247|165:245,1,85,12|0,0:0|0:0,0:0:0:0:
381,145,86986,6,0,P|373:225|365:319,1,170,12|2,0:0|0:0,0:0:0:0:
365,320,87361,1,2,0:0:0:0:
365,326,87436,1,2,0:0:0:0:
245,194,87586,1,2,0:0:0:0:
247,210,87661,1,2,0:0:0:0:
250,226,87736,1,2,0:0:0:0:
101,355,87886,1,12,0:0:0:0:
143,172,88036,1,0,0:0:0:0:
297,285,88186,6,0,P|203:277|97:268,1,170,4|8,0:0|0:0,0:0:0:0:
19,129,88636,2,0,P|26:170|32:212,1,85,2|0,0:0|0:0,0:0:0:0:
156,72,88936,2,0,P|150:114|145:156,1,85,2|0,0:0|0:0,0:0:0:0:
64,18,89236,5,8,0:0:0:0:
256,93,89386,1,2,0:0:0:0:
256,93,89986,6,0,P|302:87|344:82,1,85,8|0,0:0|0:0,0:0:0:0:
496,151,90286,2,0,P|454:145|412:140,1,85,12|0,0:0|0:0,0:0:0:0:
246,245,90586,6,0,P|298:238|420:221,1,170,4|8,0:0|0:0,0:0:0:0:
239,160,91036,2,0,P|225:125|238:75,1,85,2|0,0:0|0:0,0:0:0:0:
320,249,91336,2,0,P|313:294|305:352,1,85,2|0,0:0|0:0,0:0:0:0:
239,160,91636,5,8,0:0:0:0:
424,240,91786,1,2,0:0:0:0:
424,240,92386,6,0,L|396:242|339:248,1,85,8|0,0:0|0:0,0:0:0:0:
174,142,92686,2,0,P|217:148|259:154,1,85,12|0,0:0|0:0,0:0:0:0:
101,284,92986,6,0,P|56:212|101:145,1,170,4|8,0:0|0:0,0:0:0:0:
202,285,93436,2,0,P|196:327|190:370,1,85,2|0,0:0|0:0,0:0:0:0:
309,210,93736,2,0,P|314:252|321:294,1,85,2|0,0:0|0:0,0:0:0:0:
220,121,94036,1,8,0:0:0:0:
405,178,94186,6,0,P|418:140|409:93,1,85,2|2,0:0|0:0,0:0:0:0:
220,121,94486,2,0,P|264:125|309:130,1,85,2|2,0:0|0:0,0:0:0:0:
122,40,94786,2,0,P|166:36|211:31,1,85,8|2,0:0|0:0,0:0:0:0:
111,208,95086,2,0,P|94:167|112:120,1,85,8|0,0:0|0:0,0:0:0:0:
304,30,95386,5,4,0:0:0:0:
111,208,95986,5,4,0:0:0:0:
364,279,96586,6,0,P|328:264|276:274,1,85,4|0,0:0|0:0,0:0:0:0:
202,223,96811,1,8,0:0:0:0:
202,223,96886,2,0,P|207:270|211:313,1,85,10|2,0:0|0:0,0:0:0:0:
289,148,97186,6,0,P|293:96|298:18,1,127.5,2|0,0:0|0:0,0:0:0:0:
202,37,97486,2,0,P|191:78|223:129,1,85,12|0,0:0|0:0,0:0:0:0:
377,227,97786,6,0,P|331:232|271:237,1,85,4|0,0:0|0:0,0:0:0:0:
131,126,98086,2,0,P|174:130|216:135,1,85,8|0,0:0|0:0,0:0:0:0:
34,209,98386,1,2,0:0:0:0:
34,209,98536,1,2,0:0:0:0:
215,134,98686,1,8,0:0:0:0:
42,33,98836,1,0,0:0:0:0:
136,215,98986,5,2,0:0:0:0:
136,215,99136,1,2,0:0:0:0:
216,38,99286,2,0,P|220:88|224:135,1,85,8|0,0:0|0:0,0:0:0:0:
328,258,99586,5,2,0:0:0:0:
328,258,99736,1,2,0:0:0:0:
136,215,99886,2,0,P|176:209|226:201,1,85,8|0,0:0|0:0,0:0:0:0:
32,154,100186,5,2,0:0:0:0:
32,154,100336,1,2,0:0:0:0:
184,277,100486,2,0,P|191:322|166:368,1,85,8|0,0:0|0:0,0:0:0:0:
129,173,100786,5,2,0:0:0:0:
129,173,100936,1,2,0:0:0:0:
278,302,101086,2,0,P|318:309|367:290,1,85,8|0,0:0|0:0,0:0:0:0:
502,171,101386,5,2,0:0:0:0:
502,171,101536,1,2,0:0:0:0:
451,359,101686,2,0,P|446:318|440:268,1,85,8|0,0:0|0:0,0:0:0:0:
385,89,101986,6,0,L|379:136|373:183,1,85,2|0,0:0|0:0,0:0:0:0:
279,313,102286,1,8,0:0:0:0:
450,250,102436,1,0,0:0:0:0:
281,145,102586,6,0,L|286:187|291:229,1,85,2|0,0:0|0:0,0:0:0:0:
441,334,102886,2,0,P|445:291|450:249,1,85,8|0,0:0|0:0,0:0:0:0:
271,308,103186,1,2,0:0:0:0:
453,237,103336,1,2,0:0:0:0:
245,186,103486,1,8,0:0:0:0:
367,326,103636,1,0,0:0:0:0:
326,120,103786,5,2,0:0:0:0:
326,120,103936,1,2,0:0:0:0:
185,257,104086,2,0,P|235:260|279:263,1,85,8|0,0:0|0:0,0:0:0:0:
95,174,104386,5,2,0:0:0:0:
95,174,104536,1,2,0:0:0:0:
214,22,104686,2,0,P|208:64|204:106,1,85,8|0,0:0|0:0,0:0:0:0:
231,309,104986,5,4,0:0:0:0:
231,309,105136,1,2,0:0:0:0:
43,265,105286,2,0,P|80:258|133:250,1,85,8|0,0:0|0:0,0:0:0:0:
321,282,105586,5,2,0:0:0:0:
321,282,105736,1,2,0:0:0:0:
206,123,105886,2,0,P|210:165|215:207,1,85,8|0,0:0|0:0,0:0:0:0:
410,141,106186,5,4,0:0:0:0:
215,207,106336,1,0,0:0:0:0:
362,32,106486,1,8,0:0:0:0:
321,282,106636,1,4,0:0:0:0:
321,282,106936,5,8,0:0:0:0:
284,110,107086,1,2,0:0:0:0:
411,222,107236,1,2,0:0:0:0:
212,176,107386,6,0,P|168:173|116:183,1,85,4|0,0:0|0:0,0:0:0:0:
233,346,107686,2,0,P|247:308|235:261,1,85,8|0,0:0|0:0,0:0:0:0:
125,103,107986,1,8,0:0:0:0:
170,303,108136,1,0,0:0:0:0:
258,113,108286,1,8,0:0:0:0:
93,233,108436,1,0,0:0:0:0:
312,200,108586,5,8,0:0:0:0:
109,235,108736,1,2,0:0:0:0:
312,200,108886,2,0,P|306:246|300:298,1,85,8|0,0:0|0:0,0:0:0:0:
208,103,109186,5,8,0:0:0:0:
411,138,109336,1,2,0:0:0:0:
208,103,109486,2,0,P|214:149|220:201,1,85,8|0,0:0|0:0,0:0:0:0:
321,11,109786,5,8,0:0:0:0:
118,46,109936,1,2,0:0:0:0:
321,11,110086,2,0,P|315:57|309:109,1,85,8|0,0:0|0:0,0:0:0:0:
230,283,110386,5,8,0:0:0:0:
195,80,110536,1,2,0:0:0:0:
230,283,110686,2,0,P|236:237|242:185,1,85,8|0,0:0|0:0,0:0:0:0:
126,365,110986,5,8,0:0:0:0:
329,330,111136,1,2,0:0:0:0:
126,365,111286,2,0,P|172:371|224:377,1,85,8|0,0:0|0:0,0:0:0:0:
53,243,111586,6,0,P|45:284|58:330,1,85,8|0,0:0|0:0,0:0:0:0:
164,156,111886,1,8,0:0:0:0:
164,156,112036,1,0,0:0:0:0:
338,264,112186,6,0,P|248:272|155:282,1,170,4|8,0:0|0:0,0:0:0:0:
107,90,112636,2,0,P|143:72|210:83,1,85,2|0,0:0|0:0,0:0:0:0:
62,227,112936,2,0,P|55:177|46:119,1,85,2|0,0:0|0:0,0:0:0:0:
235,201,113236,1,8,0:0:0:0:
62,314,113386,6,0,P|156:323|254:333,1,170,2|8,0:0|0:0,0:0:0:0:
330,161,113836,2,0,P|323:205|317:248,1,85,2|0,0:0|0:0,0:0:0:0:
162,128,114136,2,0,P|150:87|166:38,1,85,2|0,0:0|0:0,0:0:0:0:
247,205,114436,1,8,0:0:0:0:
58,155,114586,6,0,P|1:216|48:297,1,170,4|8,0:0|0:0,0:0:0:0:
218,221,115036,2,0,P|178:215|134:208,1,85,2|0,0:0|0:0,0:0:0:0:
313,311,115336,2,0,P|261:318|218:324,1,85,2|0,0:0|0:0,0:0:0:0:
360,176,115636,1,8,0:0:0:0:
423,361,115786,6,0,P|473:286|423:217,1,170,2|8,0:0|0:0,0:0:0:0:
301,85,116236,2,0,P|309:140|315:185,1,85,2|0,0:0|0:0,0:0:0:0:
504,121,116536,2,0,P|464:102|407:109,1,85,2|0,0:0|0:0,0:0:0:0:
335,272,116836,1,8,0:0:0:0:
264,43,116986,5,4,0:0:0:0:
248,341,117586,5,4,0:0:0:0:
355,101,118186,5,4,0:0:0:0:
157,283,118786,5,4,0:0:0:0:
445,131,119386,5,4,0:0:0:0:
67,253,119986,5,4,0:0:0:0:
67,253,120136,1,2,0:0:0:0:
135,79,120286,2,0,P|141:121|146:163,1,85,8|0,0:0|0:0,0:0:0:0:
244,336,120586,5,8,0:0:0:0:
309,148,120736,1,0,0:0:0:0:
129,258,120886,1,8,0:0:0:0:
343,237,121036,1,2,0:0:0:0:
204,64,121186,1,8,0:0:0:0:
258,317,121336,5,4,0:3:0:0:
485,174,121486,2,0,P|446:154|390:163,1,85,8|0,0:0|0:0,0:0:0:0:
218,238,121786,5,4,0:0:0:0:
349,280,121936,1,0,0:0:0:0:
286,115,122086,1,8,0:0:0:0:
132,216,122236,2,0,P|86:211|36:203,1,85,0|2,0:0|0:0,0:0:0:0:
193,124,122536,1,2,0:0:0:0:
319,210,122686,1,8,0:0:0:0:
319,210,122836,1,0,0:0:0:0:
381,22,122986,6,0,B|392:64|380:91|380:91|395:114|395:114|384:148|402:200,1,170,2|8,0:0|0:0,0:0:0:0:
420,318,123436,1,0,0:0:0:0:
485,143,123586,1,2,0:0:0:0:
319,210,123736,1,2,0:0:0:0:
509,261,123886,1,8,0:0:0:0:
319,210,124036,1,0,0:0:0:0:
457,62,124186,6,0,P|445:144|435:233,1,170,2|8,0:0|0:0,0:0:0:0:
435,230,124636,1,0,0:0:0:0:
298,116,124786,1,2,0:0:0:0:
176,257,124936,1,2,0:0:0:0:
176,257,125011,1,0,0:0:0:0:
176,257,125086,2,0,P|123:245|85:238,1,85,8|0,0:0|0:0,0:0:0:0:
0,94,125386,5,2,0:0:0:0:
25,90,125461,1,0,0:0:0:0:
50,87,125536,1,0,0:0:0:0:
75,85,125611,1,0,0:0:0:0:
100,82,125686,2,0,P|108:133|96:167,1,85,8|0,0:0|0:0,0:0:0:0:
2,331,125986,2,0,B|64:321|64:321|104:344|104:344|172:331,1,170,2|8,0:0|0:0,0:0:0:0:
163,332,126436,1,0,0:0:0:0:
347,272,126586,6,0,P|305:254|254:268,1,85,2|0,0:0|0:0,0:0:0:0:
425,360,126886,1,8,0:0:0:0:
475,182,127036,2,0,P|492:223|477:283,1,85,0|2,0:0|0:0,0:0:0:0:
337,357,127336,1,2,0:0:0:0:
302,173,127486,1,8,0:0:0:0:
419,233,127636,1,0,0:0:0:0:
229,284,127786,5,2,0:0:0:0:
419,233,127936,2,0,L|316:215,1,85,0|8,0:0|0:0,0:0:0:0:
252,127,128236,1,0,0:0:0:0:
143,276,128386,2,0,P|102:234|136:132,1,170,2|8,0:0|0:0,0:0:0:0:
129,136,128836,1,0,0:0:0:0:
46,319,128986,5,4,0:0:0:0:
229,284,129136,1,0,0:0:0:0:
49,214,129286,1,8,0:0:0:0:
213,97,129436,2,0,P|208:149|203:197,1,85,0|2,0:0|0:0,0:0:0:0:
317,332,129736,2,0,P|327:295|313:248,1,85,2|8,0:0|0:0,0:0:0:0:
135,305,130036,1,0,0:0:0:0:
286,169,130186,5,4,0:0:0:0:
225,357,130336,1,8,0:0:0:0:
418,319,130486,1,2,0:0:0:0:
419,285,130561,1,2,0:0:0:0:
420,251,130636,1,2,0:0:0:0:
422,217,130711,1,2,0:0:0:0:
424,183,130786,1,8,0:0:0:0:
187,41,131086,6,0,P|194:102|200:166,1,108.375002067089,4|0,0:0|0:0,0:0:0:0:
214,273,131386,5,4,0:0:0:0:
424,183,132286,2,0,B|388:164|388:164|328:174,1,85,8|0,0:0|0:0,0:0:0:0:
214,273,132586,5,0,0:0:0:0:
256,84,132736,2,0,P|265:150|270:188,1,85,8|2,0:0|0:0,0:0:0:0:
434,288,133036,2,0,P|377:251|284:291,1,170,4|2,0:0|0:0,0:0:0:0:
108,361,133486,2,0,P|151:367|199:335,1,85,8|0,0:0|0:0,0:0:0:0:
140,170,133786,6,0,P|108:241|164:306,1,144.500002756119,4|0,0:0|0:0,0:0:0:0:
373,293,134386,2,0,P|404:231|372:170,1,144.500002756119,2|0,0:0|0:0,0:0:0:0:
217,27,134986,6,0,L|210:108,1,72.2500013780594,2|0,0:0|0:0,0:0:0:0:
293,155,135286,2,0,L|300:236,1,72.2500013780594
199,276,135586,2,0,L|192:347,1,72.2500013780594,2|2,0:0|0:0,0:0:0:0:
299,226,135886,1,8,0:0:0:0:
299,226,136036,1,2,0:0:0:0:
107,268,136186,5,4,0:0:0:0:
107,268,136936,1,2,0:0:0:0:
299,226,137086,2,0,B|262:203|262:203|201:218,1,85,8|0,0:0|0:0,0:0:0:0:
107,268,137386,5,2,0:0:0:0:
299,226,137536,2,0,P|316:178|303:138,1,85,8|0,0:0|0:0,0:0:0:0:
169,14,137836,2,0,P|132:84|195:157,1,170,4|2,0:0|0:0,0:0:0:0:
358,73,138286,2,0,P|322:49|278:50,1,85,8|0,0:0|0:0,0:0:0:0:
367,184,138586,6,0,L|511:178,1,144.500002756119,4|0,0:0|0:0,0:0:0:0:
274,240,139186,2,0,L|129:234,1,144.500002756119,2|0,0:0|0:0,0:0:0:0:
46,31,139786,6,0,P|34:66|41:108,1,72.2500013780594,2|0,0:0|0:0,0:0:0:0:
127,146,140086,2,0,P|139:181|132:223,1,72.2500013780594
29,243,140386,2,0,P|17:278|24:320,1,72.2500013780594,2|2,0:0|0:0,0:0:0:0:
135,215,140686,1,8,0:0:0:0:
135,215,140836,1,2,0:0:0:0:
208,357,140986,6,0,P|275:351|358:346,1,127.500004863739,4|0,0:0|0:0,0:0:0:0:
509,277,141586,2,0,P|442:268|359:258,1,127.500004863739,8|0,0:0|0:0,0:0:0:0:
225,158,142186,5,0,0:0:0:0:
227,267,142336,2,0,P|253:212|225:158,1,127.500004863739,8|2,0:0|0:0,0:0:0:0:
172,213,142786,1,8,0:0:0:0:
50,73,143086,1,2,0:0:0:0:
50,73,143236,1,0,0:0:0:0:
50,73,143386,6,0,P|113:68|177:63,1,127.500004863739,4|0,0:0|0:0,0:0:0:0:
334,151,143986,2,0,L|270:146|206:141,1,127.500004863739,8|0,0:0|0:0,0:0:0:0:
237,332,144586,5,0,0:0:0:0:
240,222,144736,2,0,P|266:277|237:331,1,127.500004863739,8|2,0:0|0:0,0:0:0:0:
184,277,145186,1,8,0:0:0:0:
343,192,145486,1,2,0:0:0:0:
343,192,145636,1,0,0:0:0:0:
98,142,145786,5,4,0:0:0:0:
98,142,146686,2,0,L|195:132,1,85,8|0,0:0|0:0,0:0:0:0:
310,48,146986,5,4,0:0:0:0:
282,252,147136,1,8,0:0:0:0:
310,48,147286,1,2,0:0:0:0:
282,252,147436,1,4,0:0:0:0:
282,252,147736,5,2,0:0:0:0:
413,148,147886,2,0,P|367:130|300:145,1,85,8|2,0:0|0:0,0:0:0:0:
137,140,148186,5,8,0:0:0:0:
310,48,148336,1,2,0:0:0:0:
237,238,148486,1,8,0:0:0:0:
243,96,148636,1,2,0:0:0:0:
430,200,148786,5,8,0:0:0:0:
280,168,148936,1,2,0:0:0:0:
466,86,149086,1,8,0:0:0:0:
361,242,149236,1,2,0:0:0:0:
299,24,149386,5,8,0:0:0:0:
455,194,149536,1,2,0:0:0:0:
202,268,149686,5,8,0:0:0:0:
390,95,149836,1,2,0:0:0:0:
288,359,149986,5,8,0:0:0:0:
215,72,150136,1,2,0:0:0:0:
459,282,150286,6,0,L|361:276,1,85,8|0,0:0|0:0,0:0:0:0:
48,257,150586,5,4,0:0:0:0:
454,172,151186,1,4,0:0:0:0:
44,40,151786,2,0,B|27:82|27:82|56:144,1,85,4|0,0:0|0:0,0:0:0:0:
113,174,152011,1,8,0:0:0:0:
113,174,152086,2,0,L|212:166,1,85,4|2,0:0|0:0,0:0:0:0:
408,78,152386,5,8,0:0:0:0:
256,354,152686,1,12,0:0:0:0:
104,78,152986,1,4,0:0:0:0:
104,78,154186,5,2,0:0:0:0:
128,107,154261,1,2,0:0:0:0:
162,122,154336,1,2,0:0:0:0:
199,128,154411,1,2,0:0:0:0:
237,125,154486,1,2,0:0:0:0:
273,114,154561,1,2,0:0:0:0:
303,90,154636,1,2,0:0:0:0:
328,61,154711,1,2,0:0:0:0:
335,23,154786,5,2,0:0:0:0:
316,40,154861,1,2,0:0:0:0:
308,64,154936,1,2,0:0:0:0:
312,89,155011,1,2,0:0:0:0:
323,111,155086,1,2,0:0:0:0:
342,127,155161,1,2,0:0:0:0:
366,134,155236,1,2,0:0:0:0:
391,131,155311,1,2,0:0:0:0:
414,120,155386,6,0,L|423:30,1,85,4|2,0:0|0:0,0:0:0:0:
351,211,155686,2,0,L|341:118,1,85,8|0,0:0|0:0,0:0:0:0:
439,290,155986,1,2,0:0:0:0:
439,290,156136,1,2,0:0:0:0:
267,257,156286,2,0,P|252:300|265:342,1,85,8|0,0:0|0:0,0:0:0:0:
351,211,156586,5,2,0:0:0:0:
178,254,156736,1,2,0:0:0:0:
360,301,156886,1,8,0:0:0:0:
178,254,157036,1,0,0:0:0:0:
279,86,157186,2,0,P|285:147|290:196,1,85,2|2,0:0|0:0,0:0:0:0:
419,26,157486,2,0,P|380:11|337:23,1,85,8|0,0:0|0:0,0:0:0:0:
136,66,157786,6,0,P|183:70|266:78,1,127.5,2|0,0:0|0:0,0:0:0:0:
239,174,158086,2,0,P|202:190|146:176,1,85,8|0,0:0|0:0,0:0:0:0:
17,64,158386,1,2,0:0:0:0:
81,228,158536,1,2,0:0:0:0:
143,43,158686,1,8,0:0:0:0:
10,173,158836,1,0,0:0:0:0:
207,122,158986,6,0,P|225:170|212:214,1,85,2|2,0:0|0:0,0:0:0:0:
158,377,159286,2,0,P|140:329|153:285,1,85,8|0,0:0|0:0,0:0:0:0:
328,341,159586,1,2,0:0:0:0:
328,341,159736,1,2,0:0:0:0:
146,297,159886,2,0,P|198:291|237:287,1,85,8|0,0:0|0:0,0:0:0:0:
314,102,160186,6,0,P|330:151|319:197,1,85,4|2,0:0|0:0,0:0:0:0:
488,281,160486,2,0,P|448:277|393:272,1,85,8|0,0:0|0:0,0:0:0:0:
256,151,160786,1,2,0:0:0:0:
256,151,160936,1,2,0:0:0:0:
152,311,161086,2,0,P|135:275|145:229,1,85,8|0,0:0|0:0,0:0:0:0:
232,47,161386,5,4,0:0:0:0:
297,221,161536,1,2,0:0:0:0:
104,166,161686,1,8,0:0:0:0:
379,108,161836,1,4,0:0:0:0:
379,108,162136,5,8,0:0:0:0:
324,294,162286,1,2,0:0:0:0:
324,294,162361,1,2,0:0:0:0:
324,294,162436,1,2,0:0:0:0:
324,294,162511,1,2,0:0:0:0:
324,294,162586,6,0,P|377:287|460:282,1,127.5,12|0,0:0|0:0,0:0:0:0:
499,201,162886,2,0,P|462:181|412:186,1,85,8|0,0:0|0:0,0:0:0:0:
243,263,163186,1,8,0:0:0:0:
397,363,163336,1,0,0:0:0:0:
338,181,163486,1,8,0:0:0:0:
397,363,163636,1,0,0:0:0:0:
203,303,163786,5,8,0:0:0:0:
385,259,163936,1,2,0:0:0:0:
212,166,164086,1,8,0:0:0:0:
273,345,164236,1,0,0:0:0:0:
338,151,164386,6,0,P|379:135|432:145,1,85,8|2,0:0|0:0,0:0:0:0:
246,43,164686,2,0,P|252:89|258:141,1,85,8|0,0:0|0:0,0:0:0:0:
121,267,164986,5,8,0:0:0:0:
48,97,165136,1,2,0:0:0:0:
121,267,165286,1,8,0:0:0:0:
178,88,165436,1,0,0:0:0:0:
10,198,165586,6,0,P|51:193|107:186,1,85,8|2,0:0|0:0,0:0:0:0:
279,226,165886,2,0,P|233:220|181:214,1,85,8|0,0:0|0:0,0:0:0:0:
378,146,166186,5,8,0:0:0:0:
304,320,166336,1,2,0:0:0:0:
251,133,166486,1,8,0:0:0:0:
373,277,166636,1,0,0:0:0:0:
467,93,166786,6,0,P|480:133|467:182,1,85,8|0,0:0|0:0,0:0:0:0:
306,73,167086,1,8,0:0:0:0:
306,73,167236,1,0,0:0:0:0:
471,174,167386,6,0,P|381:182|288:190,1,170,4|8,0:0|0:0,0:0:0:0:
120,239,167836,2,0,P|155:259|223:246,1,85,2|0,0:0|0:0,0:0:0:0:
32,168,168136,2,0,P|25:207|60:267,1,85,2|0,0:0|0:0,0:0:0:0:
123,70,168436,1,8,0:0:0:0:
40,248,168586,6,0,P|35:155|30:57,1,170,2|8,0:0|0:0,0:0:0:0:
158,214,169036,2,0,P|150:264|145:306,1,85,2|0,0:0|0:0,0:0:0:0:
226,124,169336,2,0,P|186:112|136:128,1,85,2|0,0:0|0:0,0:0:0:0:
292,242,169636,1,8,0:0:0:0:
361,50,169786,6,0,B|396:76|396:76|387:219,1,170,4|8,0:0|0:0,0:0:0:0:
512,342,170236,2,0,P|473:335|428:329,1,85,2|0,0:0|0:0,0:0:0:0:
245,282,170536,2,0,P|282:264|342:275,1,85,2|0,0:0|0:0,0:0:0:0:
170,365,170836,1,8,0:0:0:0:
91,183,170986,6,0,P|36:260|87:333,1,170,2|8,0:0|0:0,0:0:0:0:
179,162,171436,2,0,P|173:106|170:61,1,85,2|0,0:0|0:0,0:0:0:0:
338,212,171736,2,0,P|300:197|241:209,1,85,2|0,0:0|0:0,0:0:0:0:
114,328,172036,1,8,0:0:0:0:
73,76,172186,5,4,0:0:0:0:
439,308,172786,5,4,0:0:0:0:
132,142,173386,5,4,0:0:0:0:
380,242,173986,5,4,0:0:0:0:
192,70,174586,5,4,0:0:0:0:
320,314,175186,5,4,0:0:0:0:
320,314,175336,1,2,0:0:0:0:
259,138,175486,2,0,P|253:185|247:231,1,85,8|0,0:0|0:0,0:0:0:0:
72,329,175786,5,8,0:0:0:0:
235,301,175936,1,0,0:0:0:0:
87,150,176086,1,8,0:0:0:0:
161,340,176236,1,2,0:0:0:0:
233,102,176386,1,8,0:0:0:0:
16,246,176536,5,4,0:3:0:0:
298,349,176686,2,0,P|314:312|301:259,1,85,8|0,0:0|0:0,0:0:0:0:
153,117,176986,6,0,P|125:181|177:233,1,127.5,6|0,0:0|0:0,0:0:0:0:
222,278,177286,2,0,P|273:272|317:267,1,85,10|0,0:0|0:0,0:0:0:0:
389,127,177586,1,2,0:0:0:0:
455,303,177736,2,0,P|471:266|459:220,1,85,2|8,0:0|0:0,0:0:0:0:
357,49,178036,6,0,P|361:97|373:234,1,170,2|0,0:0|0:0,0:0:0:0:
233,102,178486,2,0,P|227:152|221:196,1,85,10|0,0:0|0:0,0:0:0:0:
92,322,178786,1,2,0:0:0:0:
281,299,178936,2,0,P|243:278|184:286,1,85,2|8,0:0|0:0,0:0:0:0:
15,198,179236,6,0,P|90:222|156:153,1,170,2|0,0:0|0:0,0:0:0:0:
265,21,179686,2,0,P|259:73|281:115,1,85,10|0,0:0|0:0,0:0:0:0:
365,243,179986,1,2,0:0:0:0:
178,206,180136,2,0,P|227:199|278:192,1,85,2|8,0:0|0:0,0:0:0:0:
418,72,180436,1,2,0:0:0:0:
365,243,180586,6,0,P|334:192|368:114,1,127.5,2|0,0:0|0:0,0:0:0:0:
418,72,180886,2,0,P|466:80|506:87,1,85,10|0,0:0|0:0,0:0:0:0:
365,243,181186,1,2,0:0:0:0:
268,65,181336,2,0,P|251:107|270:159,1,85,2|8,0:0|0:0,0:0:0:0:
436,267,181636,6,0,P|381:261|257:250,1,170,2|0,0:0|0:0,0:0:0:0:
88,188,182086,2,0,P|128:169|182:181,1,85,10|0,0:0|0:0,0:0:0:0:
5,280,182386,1,2,0:0:0:0:
74,94,182536,2,0,P|80:149|86:198,1,85,2|8,0:0|0:0,0:0:0:0:
241,308,182836,6,0,P|183:264|91:309,1,170,2|0,0:0|0:0,0:0:0:0:
262,200,183286,2,0,P|306:184|350:192,1,85,10|0,0:0|0:0,0:0:0:0:
431,352,183586,1,2,0:0:0:0:
479,159,183736,1,2,0:0:0:0:
431,352,183886,2,0,P|426:290|417:200,1,127.5,10|0,0:0|0:0,0:0:0:0:
403,137,184186,5,12,0:0:0:0:
325,309,184336,1,2,0:0:0:0:
264,133,184486,2,0,P|225:118|177:133,1,85,8|2,0:0|0:0,0:0:0:0:
60,280,184786,5,8,0:0:0:0:
222,195,184936,1,0,0:0:0:0:
46,107,185086,2,0,P|54:161|59:207,1,85,8|2,0:0|0:0,0:0:0:0:
204,336,185386,5,8,0:0:0:0:
2,273,185536,1,2,0:0:0:0:
204,336,185686,2,0,P|149:342|110:346,1,85,8|2,0:0|0:0,0:0:0:0:
190,144,185986,5,8,0:0:0:0:
119,345,186136,1,2,0:0:0:0:
190,144,186286,2,0,P|196:199|200:238,1,85,8|2,0:0|0:0,0:0:0:0:
45,82,186586,6,0,P|87:62|132:75,1,85,8|2,0:0|0:0,0:0:0:0:
278,222,186886,2,0,P|239:237|198:227,1,85,8|2,0:0|0:0,0:0:0:0:
391,113,187186,1,8,0:0:0:0:
385,145,187261,1,2,0:0:0:0:
379,178,187336,1,2,0:0:0:0:
374,210,187411,1,2,0:0:0:0:
368,243,187486,2,0,P|412:233|470:227,1,85,2|0,0:0|0:0,0:0:0:0:
291,340,187786,5,8,0:0:0:0:
227,155,187936,1,2,0:0:0:0:
291,340,188086,1,8,0:0:0:0:
385,145,188236,1,2,0:0:0:0:
187,262,188386,1,8,0:0:0:0:
383,322,188536,1,2,0:0:0:0:
300,46,188686,5,12,0:0:0:0:
