osu file format v14

[General]
AudioFilename: audio.mp3
AudioLeadIn: 0
PreviewTime: 44907
Countdown: 0
SampleSet: Normal
StackLeniency: 0.2
Mode: 0
LetterboxInBreaks: 0
WidescreenStoryboard: 0

[Editor]
DistanceSpacing: 0.8
BeatDivisor: 4
GridSize: 32
TimelineZoom: 1.5

[Metadata]
Title:Zettai Tokken Shuchou Shimasu! Hoshi Syoko Solo Remix
TitleUnicode:絶対特権主張しますっ! 星輝子ソロ・リミックス
Artist:Syoko Hoshi (CV: Satsumi Matsuda)
ArtistUnicode:星輝子(CV:松田颯水)
Creator:Lami
Version:Gaia's Insane
Source:アイドルマスター シンデレラガールズ
Tags:IDOLM@STER idolmaster cinderella girls imas 絶対ピンクな小箱 zettai pink na kobako intoon ProEzreal Akitoshi Kalibe Yuria Gaia Karia Shirasaka Koume TriCastle Story -Brand new Castle-
BeatmapID:1172784
BeatmapSetID:546878

[Difficulty]
HPDrainRate:5.5
CircleSize:4
OverallDifficulty:7
ApproachRate:9
SliderMultiplier:1.6
SliderTickRate:1

[Events]
//Background and Video events
0,0,"BG.jpg",0,0
//Break Periods
//Storyboard Layer 0 (Background)
//Storyboard Layer 1 (Fail)
//Storyboard Layer 2 (Pass)
//Storyboard Layer 3 (Foreground)
//Storyboard Sound Samples

[TimingPoints]
586,300,4,1,1,70,1,0
1786,-133.333333333333,4,3,1,50,0,0
2086,-166.666666666667,4,3,1,50,0,0
2161,-166.666666666667,4,2,2,30,0,0
3061,-166.666666666667,4,2,1,50,0,0
3286,-111.111111111111,4,3,1,50,0,0
3586,-166.666666666667,4,3,1,50,0,0
3661,-166.666666666667,4,2,1,50,0,0
3886,-111.111111111111,4,3,1,50,0,0
4186,-166.666666666667,4,3,1,50,0,0
4261,-166.666666666667,4,2,1,50,0,0
4486,-111.111111111111,4,3,1,50,0,0
4786,-166.666666666667,4,3,1,50,0,0
4861,-166.666666666667,4,2,1,50,0,0
5086,-111.111111111111,4,3,1,50,0,0
5386,-166.666666666667,4,3,1,50,0,0
5461,-166.666666666667,4,2,1,50,0,0
5686,-111.111111111111,4,3,1,50,0,0
5986,-166.666666666667,4,3,1,50,0,0
6061,-166.666666666667,4,2,1,50,0,0
6286,-71.4285714285714,4,3,1,50,0,0
6361,-166.666666666667,4,2,1,50,0,0
6586,-111.111111111111,4,1,1,65,0,0
11386,-133.333333333333,4,3,1,55,0,0
11461,-166.666666666667,4,2,1,50,0,0
11986,-125,4,3,1,55,0,0
12061,-166.666666666667,4,2,1,50,0,0
12586,-142.857142857143,4,3,1,55,0,0
12661,-166.666666666667,4,2,1,50,0,0
13186,-166.666666666667,4,3,1,55,0,0
13261,-166.666666666667,4,2,1,50,0,0
13786,-117.647058823529,4,3,1,55,0,0
13861,-166.666666666667,4,2,1,50,0,0
14386,-100,4,3,1,55,0,0
14986,-100,4,1,1,65,0,0
16186,-100,4,1,1,70,0,0
25786,-125,4,1,1,55,0,0
34111,-166.666666666667,4,2,1,30,0,0
34186,-100,4,1,1,55,0,0
35386,-111.111111111111,4,1,1,65,0,0
44686,-76.9230769230769,4,1,1,65,0,0
44986,-100,4,1,1,75,0,1
64186,-133.333333333333,4,1,1,75,0,0
64261,-166.666666666667,4,2,1,50,0,0
64786,-125,4,1,1,75,0,0
64861,-166.666666666667,4,2,1,50,0,0
65386,-142.857142857143,4,1,1,75,0,0
65461,-166.666666666667,4,2,1,50,0,0
65986,-166.666666666667,4,1,1,75,0,0
66061,-166.666666666667,4,2,1,50,0,0
66586,-117.647058823529,4,1,1,75,0,0
66661,-166.666666666667,4,2,1,50,0,0
67186,-100,4,1,1,75,0,0
67786,-100,4,1,1,75,0,1
68986,-100,4,1,1,70,0,0
78586,-111.111111111111,4,1,1,55,0,0
86836,-166.666666666667,4,2,1,50,0,0
86986,-100,4,1,1,55,0,0
88186,-111.111111111111,4,1,1,65,0,0
97486,-76.9230769230769,4,1,1,65,0,0
97786,-100,4,1,1,75,0,1
116986,-133.333333333333,4,1,1,75,0,0
117061,-133.333333333333,4,2,1,50,0,0
117586,-125,4,1,1,75,0,0
117661,-125,4,2,1,50,0,0
118186,-142.857142857143,4,1,1,75,0,0
118261,-142.857142857143,4,2,1,50,0,0
118786,-166.666666666667,4,1,1,75,0,0
118861,-166.666666666667,4,2,1,50,0,0
119386,-117.647058823529,4,1,1,75,0,0
119461,-117.647058823529,4,2,1,50,0,0
119986,-100,4,1,1,75,0,0
120586,-100,4,1,1,75,0,1
121786,-100,4,1,1,70,0,0
131086,-83.3333333333333,4,1,1,70,0,0
131386,-100,4,1,1,65,0,0
140986,-133.333333333333,4,1,1,50,0,0
146986,-125,4,1,1,50,0,0
148186,-100,4,1,1,70,0,0
152986,-166.666666666667,4,3,1,55,0,0
154186,-100,4,1,1,70,0,0
155386,-100,4,1,1,70,0,1
172186,-133.333333333333,4,1,1,70,0,0
172261,-133.333333333333,4,2,1,50,0,0
172786,-125,4,1,1,70,0,0
172861,-125,4,2,1,50,0,0
173386,-142.857142857143,4,1,1,70,0,0
173461,-142.857142857143,4,2,1,50,0,0
173986,-166.666666666667,4,1,1,70,0,0
174061,-166.666666666667,4,2,1,50,0,0
174586,-117.647058823529,4,1,1,70,0,0
174661,-117.647058823529,4,2,1,50,0,0
175186,-100,4,1,1,70,0,0
175786,-100,4,1,1,70,0,1
176986,-100,4,1,1,70,0,0

[Colours]
Combo1 : 242,136,208
Combo2 : 253,155,66
Combo3 : 28,193,249
Combo4 : 232,215,0

[HitObjects]
226,169,1186,6,0,P|186:172|146:174,1,80,8|0,0:0|3:0,0:0:0:0:
116,177,1411,1,0,0:0:0:0:
116,177,1486,1,2,0:3:0:0:
260,255,1636,1,2,0:3:0:0:
375,89,1786,5,4,0:2:0:0:
375,89,2086,2,0,B|339:94|308:70|308:70|280:107|280:107|254:84|210:87,1,191.999994140625,2|2,0:2|0:2,0:0:0:0:
146,14,2836,1,0,0:0:0:0:
331,165,2986,6,0,P|322:206|315:250,1,71.9999978027344,0|0,0:0|0:0,0:0:0:0:
294,315,3286,2,0,P|285:273|278:230,1,71.9999978027344,2|0,3:2|0:0,0:0:0:0:
170,150,3586,6,0,P|213:157|248:167,1,71.9999978027344,0|0,3:0|0:0,0:0:0:0:
147,183,3886,2,0,P|112:192|76:197,1,71.9999978027344,2|0,3:2|0:0,0:0:0:0:
188,288,4186,6,0,P|200:325|188:368,1,71.9999978027344,0|0,3:0|0:0,0:0:0:0:
295,315,4486,2,0,P|321:286|364:275,1,71.9999978027344,2|0,3:2|0:0,0:0:0:0:
508,197,4786,6,0,P|488:191|429:183,1,71.9999978027344,0|0,3:0|0:0,0:0:0:0:
373,103,5086,2,0,P|339:112|303:116,1,71.9999978027344,2|0,3:2|0:0,0:0:0:0:
145,86,5386,6,0,P|148:123|185:157,1,71.9999978027344,0|0,3:0|0:0,0:0:0:0:
238,248,5686,2,0,P|243:216|252:176,1,71.9999978027344,2|0,3:2|0:0,0:0:0:0:
374,103,5986,6,0,P|372:147|336:179,1,71.9999978027344,2|0,3:2|0:0,0:0:0:0:
156,289,6286,6,0,B|239:264|240:330|347:279,1,167.999994873047,8|0,0:1|0:0,0:0:0:0:
426,213,6586,6,0,P|454:277|427:363,1,143.999995605469,6|8,0:3|0:0,0:0:0:0:
267,166,7036,2,0,P|279:132|310:75,1,71.9999978027344,2|0,0:3|0:0,0:0:0:0:
321,291,7336,2,0,P|288:286|231:271,1,71.9999978027344,2|0,0:3|0:0,0:0:0:0:
133,133,7636,1,8,0:0:0:0:
351,191,7786,6,0,P|421:179|518:163,1,143.999995605469,6|8,0:3|0:0,0:0:0:0:
316,31,8236,2,0,P|302:69|292:110,1,71.9999978027344,2|0,0:3|0:0,0:0:0:0:
225,285,8536,2,0,P|211:246|201:206,1,71.9999978027344,2|0,0:3|0:0,0:0:0:0:
178,45,8836,1,8,0:0:0:0:
97,191,8986,6,0,P|161:192|217:140,1,143.999995605469,6|8,0:3|0:0,0:0:0:0:
366,253,9436,2,0,P|346:247|268:236,1,71.9999978027344,2|0,0:3|0:0,0:0:0:0:
54,111,9736,2,0,P|73:105|152:94,1,71.9999978027344,2|0,0:3|0:0,0:0:0:0:
242,26,10036,1,8,0:0:0:0:
161,203,10186,6,0,P|176:275|195:355,1,143.999995605469,6|8,0:3|0:0,0:0:0:0:
231,132,10636,2,0,P|204:117|144:99,1,71.9999978027344,2|0,0:3|0:0,0:0:0:0:
290,213,10936,2,0,P|316:202|366:178,1,71.9999978027344,2|0,0:3|0:0,0:0:0:0:
401,43,11236,1,8,0:0:0:0:
493,215,11386,6,0,B|498:283|440:321|440:321|406:271|349:283,1,210.000008010865,6|0,1:3|0:0,0:0:0:0:
303,335,11986,6,0,B|245:285|155:331|155:331|158:293|210:285,1,224,6|0,1:3|0:0,0:0:0:0:
262,224,12586,6,0,B|206:285|134:261|134:261|148:236|136:191,1,195.999994018555,6|0,1:3|0:0,0:0:0:0:
117,130,13186,6,0,B|78:116|34:139|34:139|26:192|59:225,1,167.999994873047,6|0,1:3|0:0,0:0:0:0:
139,208,13786,6,0,B|233:182|244:256|357:199,1,204.000003890991,6|0,1:3|0:0,0:0:0:0:
305,71,14386,6,0,P|280:106|279:157,1,80,6|0,1:3|0:0,0:0:0:0:
284,310,14686,1,8,0:1:0:0:
284,310,14986,6,0,P|325:323|365:320,1,80,8|2,0:0|0:3,0:0:0:0:
139,208,15286,2,0,P|94:213|47:237,1,80,8|2,0:0|0:3,0:0:0:0:
282,99,15586,2,0,P|242:93|177:79,1,80,8|2,0:0|0:3,0:0:0:0:
462,192,15886,1,8,0:0:0:0:
462,192,16186,6,0,P|399:242|336:203,2,160,4|8|2,0:0|0:0|0:3,0:0:0:0:
367,67,16936,1,2,0:3:0:0:
230,168,17086,2,0,P|236:212|249:255,1,80,8|0,0:0|0:0,0:0:0:0:
404,328,17386,6,0,P|362:311|319:300,1,80,2|0,0:3|0:0,0:0:0:0:
9,288,17686,1,8,0:0:0:0:
87,380,17836,2,0,P|164:370|249:340,1,160,0|2,0:0|0:3,0:0:0:0:
338,207,18286,2,0,P|330:170|311:122,1,80,8|0,0:0|0:0,0:0:0:0:
172,18,18586,6,0,P|157:55|149:94,1,80,2|0,0:3|0:0,0:0:0:0:
256,264,18886,1,8,0:0:0:0:
206,168,19036,2,0,P|152:128|43:130,1,160,0|2,0:0|0:3,0:0:0:0:
9,288,19486,2,0,P|43:284|92:266,1,80,8|0,0:0|0:0,0:0:0:0:
319,186,19786,6,0,P|281:171|242:167,1,80,2|0,0:3|0:0,0:0:0:0:
243,342,20086,2,0,P|251:306|256:253,1,80,8|0,0:0|0:0,0:0:0:0:
116,64,20386,2,0,P|112:102|137:150,1,80,2|2,0:3|0:3,0:0:0:0:
370,262,20686,2,0,P|331:278|282:271,1,80,8|0,0:0|0:0,0:0:0:0:
123,219,20986,6,0,P|165:157|253:178,2,160,2|8|2,0:3|0:0|0:3,0:0:0:0:
15,167,21736,1,2,0:3:0:0:
90,311,21886,2,0,P|129:303|168:296,1,80,8|0,0:0|0:0,0:0:0:0:
310,197,22186,6,0,P|301:243|292:279,1,80,2|0,0:3|0:0,0:0:0:0:
185,315,22486,1,2,0:3:0:0:
382,326,22636,2,0,P|391:280|503:260,1,160,8|2,0:0|0:3,0:0:0:0:
431,86,23086,2,0,P|390:107|351:105,1,80,8|0,0:0|0:0,0:0:0:0:
127,139,23386,6,0,P|166:143|202:168,1,80,4|0,0:0|0:0,0:0:0:0:
293,275,23686,2,0,L|273:90,1,160,8|2,0:0|0:3,0:0:0:0:
384,187,24136,1,2,0:3:0:0:
181,254,24286,1,8,0:0:0:0:
370,371,24436,6,0,P|299:324|217:352,1,160,4|8,0:0|0:0,0:0:0:0:
86,252,24886,2,0,P|114:264|175:262,1,80,2|2,0:3|0:3,0:0:0:0:
181,254,25111,1,2,0:3:0:0:
181,254,25186,1,8,0:0:0:0:
134,124,25336,1,0,0:0:0:0:
310,200,25486,1,8,0:0:0:0:
310,200,25561,1,8,0:0:0:0:
310,200,25636,1,8,0:0:0:0:
310,200,25711,1,8,0:0:0:0:
310,200,25786,6,0,L|436:175,1,128,4|8,3:1|0:0,0:0:0:0:
374,77,26236,1,0,3:0:0:0:
227,104,26386,2,0,L|222:184,1,64,2|2,3:0|3:0,0:0:0:0:
72,101,26686,2,0,L|63:22,1,64,8|0,0:0|3:0,0:0:0:0:
123,185,26986,6,0,P|62:203|-2:163,2,128,2|8|2,3:0|0:0|3:0,0:0:0:0:
200,84,27736,1,2,3:0:0:0:
302,163,27886,2,0,P|293:199|278:247,1,64,8|0,0:0|3:0,0:0:0:0:
185,354,28186,6,0,L|332:326,1,128,2|8,3:0|0:0,0:0:0:0:
385,178,28636,1,0,3:0:0:0:
200,201,28786,2,0,P|205:245|219:285,1,64,2|2,3:0|3:0,0:0:0:0:
390,375,29086,2,0,P|397:343|400:312,1,64,8|0,0:0|3:0,0:0:0:0:
254,145,29386,6,0,P|186:157|106:169,1,128,2|8,3:0|0:0,0:0:0:0:
195,57,29836,1,0,0:0:0:0:
393,107,29986,2,0,P|391:144|387:178,1,64,2|2,3:0|3:0,0:0:0:0:
210,263,30286,2,0,P|202:232|200:201,1,64,8|0,0:0|3:0,0:0:0:0:
430,251,30586,6,0,P|358:260|307:208,1,128,2|8,3:0|0:0,0:0:0:0:
234,120,31036,1,0,2:0:0:0:
108,240,31186,2,0,P|118:279|129:310,1,64,2|2,3:0|3:0,0:0:0:0:
120,141,31486,2,0,P|95:130|49:120,1,64,8|0,0:0|3:0,0:0:0:0:
192,17,31786,6,0,P|228:40|225:131,2,128,2|8|2,3:0|0:0|3:0,0:0:0:0:
120,141,32536,1,2,3:0:0:0:
336,92,32686,2,0,P|334:63|324:12,1,64,8|0,0:0|3:0,0:0:0:0:
419,156,32986,6,0,B|399:223|437:222|412:292,1,128,2|8,3:0|0:0,0:0:0:0:
507,191,33436,1,0,3:0:0:0:
314,252,33586,2,0,P|288:247|241:238,1,64,2|2,3:0|3:0,0:0:0:0:
24,154,33886,2,0,L|128:139,1,96,4|0,0:0|0:0,0:0:0:0:
173,58,34186,6,0,L|166:7,2,40,8|8|8,0:0|0:0|0:0,0:0:0:0:
257,180,34486,2,0,L|265:128,2,40,2|2|2,0:3|0:3|0:3,0:0:0:0:
139,285,34786,2,0,L|125:225,2,40,2|2|2,0:3|0:3|0:3,0:0:0:0:
352,263,35086,2,0,P|384:210|363:127,1,120,8|0,0:0|2:0,0:0:0:0:
388,65,35386,6,0,B|321:83|321:83|255:70,1,107.999996704102,4|0,0:0|2:0,0:0:0:0:
227,17,35686,1,8,0:0:0:0:
173,200,35836,2,0,P|203:191|269:180,1,71.9999978027344,2|0,0:3|3:0,0:0:0:0:
27,83,36136,2,0,P|68:90|112:97,1,71.9999978027344,2|0,0:3|3:0,0:0:0:0:
227,17,36436,1,8,0:0:0:0:
86,205,36586,5,2,1:3:0:0:
86,205,37186,2,0,P|77:242|70:286,1,71.9999978027344,8|0,0:0|0:0,0:0:0:0:
235,88,37486,2,0,P|230:58|226:10,1,71.9999978027344,8|0,0:0|3:0,0:0:0:0:
486,85,37786,6,0,P|444:76|366:67,1,107.999996704102,4|0,0:0|2:0,0:0:0:0:
317,134,38086,1,8,0:0:0:0:
440,246,38236,2,0,P|434:205|418:144,1,71.9999978027344,2|0,0:3|3:0,0:0:0:0:
312,345,38536,2,0,P|319:309|324:274,1,71.9999978027344,2|0,0:3|3:0,0:0:0:0:
249,59,38836,1,8,0:0:0:0:
211,288,38986,5,2,0:3:0:0:
211,288,39586,2,0,L|290:276,1,71.9999978027344,8|0,0:0|0:0,0:0:0:0:
94,178,39886,2,0,L|19:165,1,71.9999978027344,8|0,0:0|3:0,0:0:0:0:
178,37,40186,6,0,P|227:19|271:63,1,107.999996704102,4|0,0:0|2:0,0:0:0:0:
288,123,40486,1,8,0:0:0:0:
106,248,40636,2,0,P|101:220|89:151,1,71.9999978027344,2|0,0:3|3:0,0:0:0:0:
195,358,40936,2,0,L|213:274,1,71.9999978027344,2|0,0:3|3:0,0:0:0:0:
381,74,41236,1,8,0:0:0:0:
198,182,41386,5,2,1:3:0:0:
162,83,41536,1,2,3:0:0:0:
288,123,41686,1,0,3:0:0:0:
192,273,41836,1,2,3:0:0:0:
162,83,41986,2,0,L|148:-2,1,71.9999978027344,8|0,0:0|0:0,0:0:0:0:
299,223,42286,2,0,L|288:304,1,71.9999978027344,8|0,0:0|3:0,0:0:0:0:
94,178,42586,5,4,0:0:0:0:
94,178,43186,1,4,0:0:0:0:
349,34,43486,2,0,P|342:84|333:114,1,71.9999978027344,0|0,3:0|3:1,0:0:0:0:
299,223,43786,6,0,L|378:210,1,71.9999978027344,4|0,0:0|3:0,0:0:0:0:
406,205,44011,1,8,3:1:0:0:
406,205,44086,1,2,0:3:0:0:
333,325,44236,1,8,3:1:0:0:
314,133,44386,2,0,P|304:88|292:18,1,107.999996704102,2|0,0:3|2:0,0:0:0:0:
262,12,44686,6,0,P|253:101|240:191,1,155.999992858887,8|0,0:0|2:0,0:0:0:0:
173,207,44986,6,0,P|125:219|52:130,2,160,4|8|2,0:0|0:0|0:3,0:0:0:0:
106,72,45736,1,2,0:3:0:0:
7,238,45886,2,0,L|35:327,1,80,8|0,0:0|0:0,0:0:0:0:
243,166,46186,6,0,L|259:62,1,80,2|0,0:3|0:0,0:0:0:0:
422,25,46486,2,0,P|474:65|445:140,1,120,8|0,0:0|2:0,0:0:0:0:
420,205,46786,2,0,L|511:191,1,80,2|2,0:3|0:3,0:0:0:0:
358,327,47086,2,0,L|214:309,1,120,8|0,0:0|2:0,0:0:0:0:
175,245,47386,6,0,P|152:282|151:347,1,80,2|0,0:3|0:0,0:0:0:0:
281,168,47686,2,0,P|265:108|197:78,1,120,8|0,0:0|2:0,0:0:0:0:
146,33,47986,2,0,L|49:48,1,80,2|2,0:3|0:3,0:0:0:0:
300,195,48286,2,0,L|428:205,1,120,8|0,0:0|2:0,0:0:0:0:
469,281,48586,6,0,P|433:288|386:296,1,80,2|0,0:3|0:0,0:0:0:0:
246,34,48886,2,0,P|268:91|257:137,1,80,8|0,0:0|0:0,0:0:0:0:
126,304,49186,2,0,P|145:267|185:242,1,80,2|2,0:3|0:3,0:0:0:0:
358,144,49486,1,8,0:0:0:0:
264,282,49636,1,0,0:0:0:0:
85,194,49786,6,0,P|102:122|210:107,2,160,2|8|2,0:3|0:0|0:3,0:0:0:0:
211,353,50536,1,2,0:3:0:0:
300,195,50686,2,0,P|258:190|196:182,1,80,8|0,0:0|0:0,0:0:0:0:
395,31,50986,6,0,P|389:70|385:110,1,80,2|0,0:3|0:0,0:0:0:0:
416,348,51286,2,0,P|415:282|359:227,1,120,8|0,0:0|2:0,0:0:0:0:
300,195,51586,2,0,P|286:246|302:289,1,80,2|2,0:3|0:3,0:0:0:0:
284,98,51886,2,0,L|130:110,1,120,8|0,0:0|2:0,0:0:0:0:
64,73,52186,6,0,P|81:134|74:180,1,80,4|0,0:0|0:0,0:0:0:0:
18,341,52486,2,0,P|49:295|122:325,1,120,8|0,0:0|2:0,0:0:0:0:
189,290,52786,2,0,L|277:302,1,80,2|2,0:3|0:3,0:0:0:0:
462,229,53086,2,0,L|382:239,1,80,8|0,0:0|0:0,0:0:0:0:
284,98,53386,6,0,P|302:128|300:188,2,80,12|8|8,0:0|0:0|0:0,0:0:0:0:
95,61,53836,2,0,P|54:127|106:222,1,160,12|12,0:0|0:0,0:0:0:0:
210,314,54286,2,0,L|193:212,1,80,2|2,0:3|0:3,0:0:0:0:
270,27,54586,5,12,0:0:0:0:
270,27,54886,2,0,P|262:74|259:118,1,80,8|0,0:0|0:0,0:0:0:0:
361,232,55186,1,8,0:0:0:0:
181,231,55336,1,2,0:3:0:0:
370,238,55486,1,8,0:0:0:0:
161,227,55636,1,2,0:3:0:0:
269,122,55786,5,8,0:0:0:0:
269,122,55936,1,2,0:3:0:0:
238,300,56086,2,0,P|199:321|137:334,1,80,8|2,0:0|0:3,0:0:0:0:
355,154,56386,1,8,0:0:0:0:
355,154,56536,1,2,0:3:0:0:
161,227,56686,2,0,P|116:225|46:217,1,80,8|2,0:0|0:3,0:0:0:0:
370,238,56986,5,8,0:0:0:0:
252,142,57136,1,2,0:3:0:0:
347,330,57286,2,0,P|385:324|441:312,1,80,8|2,0:0|0:3,0:0:0:0:
242,257,57586,1,8,0:0:0:0:
370,126,57736,1,2,0:3:0:0:
230,277,57886,2,0,P|239:323|254:373,1,80,8|2,0:0|0:3,0:0:0:0:
169,131,58186,6,0,P|129:111|84:120,1,80,8|2,0:0|0:3,0:0:0:0:
370,238,58486,2,0,P|407:230|463:219,1,80,8|2,0:0|0:3,0:0:0:0:
298,21,58786,2,0,P|284:70|281:114,1,80,8|2,0:0|0:3,0:0:0:0:
103,287,59086,1,8,0:0:0:0:
103,287,59386,6,0,B|219:269|219:269|272:303,1,160,4|8,0:0|0:0,0:0:0:0:
121,181,59836,2,0,P|109:143|140:94,1,80,2|0,0:3|0:0,0:0:0:0:
323,3,60136,2,0,P|319:32|305:100,1,80,2|0,0:3|0:0,0:0:0:0:
254,292,60436,1,8,0:0:0:0:
332,98,60586,6,0,P|409:93|443:187,1,160,4|8,0:0|0:0,0:0:0:0:
210,147,61036,2,0,P|204:114|191:51,1,80,2|0,0:3|0:0,0:0:0:0:
350,275,61336,2,0,P|340:319|324:376,1,80,2|0,0:3|0:0,0:0:0:0:
220,166,61636,1,8,0:0:0:0:
82,288,61786,6,0,B|111:317|111:317|159:310|260:292,1,160,4|8,0:0|0:0,0:0:0:0:
427,179,62236,2,0,P|448:219|447:275,1,80,2|0,0:3|0:0,0:0:0:0:
210,147,62536,2,0,P|216:109|227:59,1,80,2|0,0:3|0:0,0:0:0:0:
377,98,62836,1,8,0:0:0:0:
274,223,62986,6,0,P|210:187|98:194,1,160,4|8,0:0|0:0,0:0:0:0:
78,339,63436,2,0,L|170:319,1,80,2|0,0:3|0:0,0:0:0:0:
288,130,63736,2,0,L|209:146,1,80,2|0,0:3|0:0,0:0:0:0:
114,71,64036,1,8,0:0:0:0:
368,210,64186,6,0,P|390:183|336:32,1,210.000008010865,6|0,0:3|0:0,0:0:0:0:
288,130,64786,6,0,B|246:150|246:196|246:196|306:252|271:342,1,224,6|0,0:3|0:0,0:0:0:0:
197,378,65386,6,0,B|161:394|96:374|81:323|81:323|68:346|25:363|25:363,1,195.999994018555,6|0,0:3|0:0,0:0:0:0:
11,279,65986,6,0,B|92:254|93:327|184:280,1,167.999994873047,6|0,0:3|0:0,0:0:0:0:
122,199,66586,6,0,B|56:153|89:72|89:72|151:45|181:109,1,238.00000453949,6|0,0:3|0:0,0:0:0:0:
288,130,67186,6,0,L|402:102,1,80,6|0,0:3|0:0,0:0:0:0:
468,51,67486,1,8,0:0:0:0:
468,51,67786,6,0,P|471:102|495:147,1,80,8|2,0:0|0:3,0:0:0:0:
467,338,68086,2,0,P|421:315|370:313,1,80,8|2,0:0|0:3,0:0:0:0:
228,180,68386,2,0,P|270:151|297:108,1,80,8|2,0:0|0:3,0:0:0:0:
387,195,68686,1,8,0:0:0:0:
387,195,68986,6,0,P|340:132|364:35,2,160,4|8|2,0:0|0:0|0:3,0:0:0:0:
351,316,69736,1,2,0:3:0:0:
257,244,69886,2,0,P|229:286|232:331,1,80,8|0,0:0|0:0,0:0:0:0:
137,226,70186,6,0,P|78:174|-16:180,1,160,2|8,0:3|0:0,0:0:0:0:
200,134,70636,2,0,P|247:126|367:97,1,160,2|2,0:3|0:3,0:0:0:0:
512,50,71086,2,0,P|473:34|433:35,1,80,8|2,0:0|0:3,0:0:0:0:
378,176,71386,6,0,P|360:232|354:275,1,80,2|2,0:3|0:3,0:0:0:0:
491,245,71686,1,8,0:0:0:0:
377,354,71836,2,0,P|337:329|227:315,1,160,2|2,0:3|0:3,0:0:0:0:
109,166,72286,2,0,P|141:188|155:225,1,80,8|0,0:0|0:0,0:0:0:0:
24,351,72586,6,0,L|115:326,1,80,2|0,0:3|0:0,0:0:0:0:
264,197,72886,2,0,L|186:218,1,80,8|0,0:0|0:0,0:0:0:0:
32,100,73186,2,0,L|123:75,1,80,2|0,0:3|0:0,0:0:0:0:
236,23,73486,2,0,P|221:66|231:106,1,80,8|0,0:0|0:0,0:0:0:0:
355,72,73786,6,0,L|521:41,2,160,2|8|2,0:3|0:0|0:3,0:0:0:0:
245,122,74536,1,2,0:3:0:0:
411,199,74686,2,0,P|453:221|497:214,1,80,8|0,0:0|0:0,0:0:0:0:
304,265,74986,6,0,P|234:232|142:250,1,160,2|8,0:3|0:0,0:0:0:0:
71,378,75436,2,0,P|177:368|216:327,1,160,2|2,0:3|0:3,0:0:0:0:
16,199,75886,2,0,P|-2:240|7:294,1,80,8|2,0:0|0:3,0:0:0:0:
146,213,76186,6,0,L|122:50,1,160,4|8,0:2|0:0,0:0:0:0:
259,83,76636,1,0,0:0:0:0:
297,204,76786,2,0,P|293:243|283:295,2,80,2|2|8,0:3|0:3|0:0,0:0:0:0:
45,267,77236,6,0,P|109:223|191:233,1,160,4|8,0:2|0:0,0:0:0:0:
398,169,77686,2,0,L|404:213,3,40,2|2|2|2,0:3|0:3|0:3|0:3,0:0:0:0:
339,98,77986,2,0,P|378:88|435:80,1,80,2|2,0:3|0:3,0:0:0:0:
263,38,78286,1,8,0:0:0:0:
237,68,78361,1,8,0:0:0:0:
233,107,78436,1,8,0:0:0:0:
247,144,78511,1,8,0:0:0:0:
275,166,78586,6,0,P|267:239|261:324,1,143.999995605469,4|8,3:1|0:0,0:0:0:0:
355,250,79036,1,0,3:0:0:0:
163,218,79186,2,0,P|150:255|139:304,1,71.9999978027344,2|2,3:0|3:0,0:0:0:0:
23,177,79486,2,0,P|40:161|98:148,1,71.9999978027344,8|0,0:0|3:0,0:0:0:0:
233,107,79786,6,0,P|165:100|115:21,2,143.999995605469,2|8|2,3:0|0:0|3:0,0:0:0:0:
336,28,80536,1,2,3:0:0:0:
340,190,80686,2,0,P|302:195|250:201,1,71.9999978027344,8|0,0:0|3:0,0:0:0:0:
418,118,80986,6,0,P|443:163|419:256,1,143.999995605469,2|8,3:0|0:0,0:0:0:0:
250,222,81436,1,0,3:0:0:0:
376,323,81586,2,0,P|419:330|462:332,1,71.9999978027344,2|2,3:0|3:0,0:0:0:0:
339,189,81886,2,0,P|303:191|268:199,1,71.9999978027344,8|0,0:0|3:0,0:0:0:0:
192,306,82186,6,0,P|209:349|226:386,2,71.9999978027344,2|0|8,3:0|3:0|0:0,0:0:0:0:
198,133,82636,1,0,0:0:0:0:
89,227,82786,2,0,P|81:270|75:327,1,71.9999978027344,2|2,3:0|3:0,0:0:0:0:
169,124,83086,2,0,P|144:112|81:94,1,71.9999978027344,8|0,0:0|3:0,0:0:0:0:
213,265,83386,6,0,B|316:251|316:251|339:210,1,143.999995605469,2|8,3:0|0:0,0:0:0:0:
512,171,83836,1,0,2:0:0:0:
429,226,83986,2,0,P|421:190|414:155,1,71.9999978027344,2|2,3:0|3:0,0:0:0:0:
247,96,84286,2,0,P|257:145|266:185,1,71.9999978027344,8|0,0:0|3:0,0:0:0:0:
367,332,84586,6,0,P|424:370|509:346,2,143.999995605469,2|8|2,3:0|0:0|3:0,0:0:0:0:
367,130,85336,1,2,3:0:0:0:
273,283,85486,2,0,P|250:277|188:268,1,71.9999978027344,8|0,0:0|3:0,0:0:0:0:
9,227,85786,6,0,L|167:207,1,143.999995605469,2|8,3:0|0:0,0:0:0:0:
218,80,86236,1,0,3:0:0:0:
68,56,86386,2,0,P|77:97|90:148,1,71.9999978027344,2|2,3:0|3:0,0:0:0:0:
281,307,86686,2,0,P|292:255|307:194,1,107.999996704102,4|0,0:0|0:0,0:0:0:0:
338,111,86986,6,0,L|284:98,2,40,8|8|8,0:0|0:0|0:0,0:0:0:0:
390,258,87286,2,0,L|379:308,2,40,2|2|2,0:3|0:3|0:3,0:0:0:0:
475,151,87586,2,0,L|514:134,2,40,2|2|2,0:3|0:3|0:3,0:0:0:0:
239,193,87886,2,0,P|193:149|207:66,1,120,8|0,0:0|2:0,0:0:0:0:
108,23,88186,6,0,B|78:45|78:45|93:132,1,107.999996704102,4|0,0:0|2:0,0:0:0:0:
106,194,88486,1,8,0:0:0:0:
338,111,88636,2,0,L|248:120,1,71.9999978027344,2|0,0:3|3:0,0:0:0:0:
435,245,88936,2,0,L|355:230,1,71.9999978027344,2|0,0:3|3:0,0:0:0:0:
106,194,89236,1,8,0:0:0:0:
269,28,89386,5,2,1:3:0:0:
269,28,89986,2,0,P|243:62|251:110,1,71.9999978027344,8|0,0:0|0:0,0:0:0:0:
213,321,90286,2,0,P|209:285|186:259,1,71.9999978027344,8|0,0:0|3:0,0:0:0:0:
0,208,90586,6,0,L|129:191,1,107.999996704102,4|0,0:0|2:0,0:0:0:0:
181,147,90886,1,8,0:0:0:0:
72,28,91036,2,0,P|79:61|86:100,1,71.9999978027344,2|0,0:3|3:0,0:0:0:0:
213,321,91336,2,0,P|220:287|227:249,1,71.9999978027344,2|0,0:3|3:0,0:0:0:0:
278,50,91636,1,8,0:0:0:0:
443,186,91786,5,2,0:3:0:0:
443,186,92386,2,0,P|414:170|364:165,1,71.9999978027344,8|0,0:0|0:0,0:0:0:0:
69,198,92686,2,0,P|97:213|148:219,1,71.9999978027344,8|0,0:0|3:0,0:0:0:0:
246,21,92986,6,0,P|257:73|268:138,1,107.999996704102,4|0,0:0|2:0,0:0:0:0:
253,208,93286,1,8,0:0:0:0:
83,72,93436,2,0,P|123:77|180:79,1,71.9999978027344,2|0,0:3|3:0,0:0:0:0:
213,306,93736,2,0,P|253:301|310:299,1,71.9999978027344,2|0,0:3|3:0,0:0:0:0:
380,115,94036,1,8,0:0:0:0:
135,220,94186,5,2,1:3:0:0:
171,82,94336,1,2,3:0:0:0:
275,211,94486,1,0,3:0:0:0:
100,194,94636,1,2,3:0:0:0:
308,123,94786,2,0,L|413:111,1,71.9999978027344,8|0,0:0|0:0,0:0:0:0:
121,295,95086,2,0,L|49:286,1,71.9999978027344,8|0,0:0|3:0,0:0:0:0:
283,236,95386,5,4,0:0:0:0:
283,236,95986,1,4,0:0:0:0:
131,114,96286,2,0,P|133:152|143:187,1,71.9999978027344,0|0,3:0|3:1,0:0:0:0:
267,321,96586,6,0,P|304:316|370:302,1,71.9999978027344,4|0,0:0|3:0,0:0:0:0:
360,292,96811,1,8,3:1:0:0:
360,292,96886,1,2,0:3:0:0:
309,113,97036,1,8,3:1:0:0:
165,229,97186,2,0,P|160:290|153:350,1,107.999996704102,2|0,0:3|2:0,0:0:0:0:
132,353,97486,6,0,P|72:353|57:236,1,155.999992858887,8|0,0:0|2:0,0:0:0:0:
95,201,97786,6,0,B|155:197|216:190|216:190|265:232,2,160,4|8|2,0:0|0:0|0:3,0:0:0:0:
65,67,98536,1,2,0:3:0:0:
301,144,98686,2,0,P|343:138|412:121,1,80,8|0,0:0|0:0,0:0:0:0:
211,3,98986,6,0,P|197:49|214:102,1,80,2|0,0:3|0:0,0:0:0:0:
328,230,99286,2,0,P|383:221|463:201,1,120,8|0,0:0|2:0,0:0:0:0:
512,149,99586,2,0,L|493:247,1,80,2|2,0:3|0:3,0:0:0:0:
260,369,99886,2,0,P|217:316|259:269,1,120,8|0,0:0|2:0,0:0:0:0:
250,192,100186,6,0,P|217:179|156:174,1,80,2|0,0:3|0:0,0:0:0:0:
27,74,100486,2,0,L|152:54,1,120,8|0,0:0|2:0,0:0:0:0:
237,22,100786,2,0,P|225:67|217:117,1,80,2|2,0:3|0:3,0:0:0:0:
350,347,101086,2,0,L|322:203,1,120,8|0,0:0|2:0,0:0:0:0:
373,160,101386,6,0,P|411:143|457:146,1,80,2|0,0:3|0:0,0:0:0:0:
196,259,101686,2,0,P|168:252|96:243,1,80,8|0,0:0|0:0,0:0:0:0:
253,58,101986,2,0,P|250:102|244:150,1,80,2|2,0:3|0:3,0:0:0:0:
440,327,102286,2,0,P|437:282|431:235,1,80,8|0,0:0|0:0,0:0:0:0:
175,174,102586,6,0,P|254:153|303:226,2,160,2|8|2,0:3|0:0|0:3,0:0:0:0:
92,323,103336,1,2,0:3:0:0:
275,307,103486,2,0,P|313:299|363:294,1,80,8|0,0:0|0:0,0:0:0:0:
146,193,103786,6,0,P|89:189|23:181,1,120,2|0,0:3|2:0,0:0:0:0:
9,104,104086,2,0,P|19:65|30:5,1,80,8|0,0:0|0:0,0:0:0:0:
243,28,104386,2,0,P|276:53|249:140,1,120,2|0,0:3|2:0,0:0:0:0:
301,205,104686,2,0,L|396:186,1,80,8|0,0:0|0:0,0:0:0:0:
241,342,104986,6,0,L|114:331,1,120,4|0,0:2|2:0,0:0:0:0:
58,277,105286,2,0,P|37:325|49:377,1,80,8|0,0:0|0:0,0:0:0:0:
146,193,105586,2,0,L|122:54,1,120,2|0,0:3|2:0,0:0:0:0:
56,36,105886,2,0,P|54:76|48:138,1,80,8|0,0:0|0:0,0:0:0:0:
267,193,106186,6,0,P|301:179|355:168,2,80,12|8|8,0:0|0:0|0:0,0:0:0:0:
424,82,106636,2,0,P|466:146|429:243,1,160,12|8,0:0|0:0,0:0:0:0:
211,293,107086,2,0,P|253:300|314:309,1,80,2|0,0:3|0:3,0:0:0:0:
146,193,107386,5,12,0:0:0:0:
146,193,107686,2,0,P|131:231|120:284,1,80,8|2,0:0|0:3,0:0:0:0:
252,172,107986,1,8,0:0:0:0:
86,97,108136,1,2,0:3:0:0:
267,193,108286,1,8,0:0:0:0:
53,110,108436,1,2,0:3:0:0:
221,30,108586,5,8,0:0:0:0:
221,30,108736,1,2,0:3:0:0:
146,193,108886,2,0,P|160:243|173:302,1,80,8|2,0:0|0:3,0:0:0:0:
287,94,109186,1,8,0:0:0:0:
287,94,109336,1,2,0:3:0:0:
58,143,109486,2,0,P|50:186|33:257,1,80,8|2,0:0|0:3,0:0:0:0:
267,193,109786,5,8,0:0:0:0:
143,98,109936,1,2,0:3:0:0:
253,286,110086,2,0,P|293:279|357:264,1,80,8|2,0:0|0:3,0:0:0:0:
229,105,110386,1,8,0:0:0:0:
166,270,110536,1,2,0:3:0:0:
401,330,110686,2,0,P|410:292|421:230,1,80,8|2,0:0|0:3,0:0:0:0:
320,86,110986,6,0,P|298:125|314:179,1,80,8|2,0:0|0:3,0:0:0:0:
185,347,111286,2,0,L|162:255,1,80,8|2,0:0|0:3,0:0:0:0:
64,135,111586,2,0,P|106:120|159:110,1,80,8|2,0:0|0:3,0:0:0:0:
336,256,111886,2,0,L|239:241,1,80,8|2,0:0|0:3,0:0:0:0:
231,39,112186,6,0,P|292:75|295:170,1,160,4|8,0:0|0:0,0:0:0:0:
63,243,112636,2,0,P|56:212|44:149,1,80,2|0,0:3|0:0,0:0:0:0:
185,347,112936,2,0,P|189:312|201:249,1,80,2|0,0:3|0:0,0:0:0:0:
320,76,113236,1,8,0:0:0:0:
377,286,113386,6,0,P|331:271|204:243,1,160,4|8,0:0|0:0,0:0:0:0:
432,191,113836,2,0,P|483:208|502:247,1,80,2|0,0:3|0:0,0:0:0:0:
346,102,114136,2,0,P|378:81|438:70,1,80,2|0,0:3|0:0,0:0:0:0:
250,43,114436,1,8,0:0:0:0:
167,174,114586,6,0,P|96:160|-18:135,1,160,4|8,0:0|0:0,0:0:0:0:
123,264,115036,2,0,P|141:304|158:367,1,80,2|0,0:3|0:0,0:0:0:0:
308,197,115336,2,0,P|318:164|329:112,1,80,2|0,0:3|0:0,0:0:0:0:
162,74,115636,1,8,0:0:0:0:
238,256,115786,6,0,P|292:289|390:242,1,160,4|8,0:0|0:0,0:0:0:0:
497,88,116236,2,0,P|467:79|400:70,1,80,2|0,0:3|0:0,0:0:0:0:
179,174,116536,2,0,P|218:167|275:163,1,80,2|0,0:3|0:0,0:0:0:0:
385,360,116836,1,8,0:0:0:0:
185,327,116986,6,0,B|136:296|70:326|70:326|86:277|52:239,1,210.000008010865,6|0,0:3|0:0,0:0:0:0:
0,171,117586,6,0,B|36:147|77:156|77:156|107:118|107:118|152:127|198:94,1,224,6|0,0:3|0:0,0:0:0:0:
295,47,118186,6,0,B|282:99|282:99|328:96|370:127|370:127|356:185,1,195.999994018555,6|0,0:3|0:0,0:0:0:0:
439,209,118786,6,0,B|359:243|358:178|259:208,1,167.999994873047,6|0,0:3|0:0,0:0:0:0:
183,191,119386,6,0,B|155:210|126:216|126:216|124:271|164:323|164:323|189:302|239:302,1,238.00000453949,6|0,0:3|0:0,0:0:0:0:
309,291,119986,6,0,L|299:382,1,80,6|0,0:3|0:0,0:0:0:0:
462,326,120286,1,4,0:0:0:0:
462,326,120586,6,0,P|458:287|438:245,1,80,8|2,0:0|0:3,0:0:0:0:
199,183,120886,2,0,P|234:199|281:202,1,80,8|2,0:0|0:3,0:0:0:0:
445,22,121186,2,0,P|413:44|386:83,1,80,8|2,0:0|0:3,0:0:0:0:
375,174,121486,1,8,0:0:0:0:
375,174,121786,6,0,L|464:159,2,80,4|0|8,0:0|0:0|0:0,0:0:0:0:
200,135,122236,2,0,P|139:169|187:260,1,160,0|2,0:0|0:3,0:0:0:0:
230,349,122686,2,0,P|239:308|250:257,1,80,8|0,0:0|0:0,0:0:0:0:
41,144,122986,6,0,P|55:231|72:308,1,160,2|8,0:3|0:0,0:0:0:0:
218,177,123436,1,0,0:0:0:0:
110,47,123586,2,0,P|71:36|13:26,1,80,2|2,0:3|0:3,0:0:0:0:
276,111,123886,2,0,P|239:119|183:143,1,80,8|0,0:0|0:0,0:0:0:0:
390,26,124186,6,0,P|459:60|454:163,1,160,2|8,0:3|0:0,0:0:0:0:
327,220,124636,1,0,0:0:0:0:
423,327,124786,2,0,P|462:321|524:306,1,80,2|2,0:3|0:3,0:0:0:0:
294,232,125086,2,0,B|211:223|211:223|227:251|227:274,1,120,8|0,0:0|2:0,0:0:0:0:
210,281,125386,6,0,P|233:316|223:352,1,80,2|0,0:3|0:0,0:0:0:0:
236,147,125686,2,0,P|273:126|321:135,1,80,8|0,0:0|0:0,0:0:0:0:
103,193,125986,2,0,L|4:174,1,80,2|2,0:3|0:3,0:0:0:0:
208,57,126286,2,0,P|244:40|310:42,1,80,8|0,0:0|0:0,0:0:0:0:
444,125,126586,6,0,P|435:164|423:232,2,80,2|0|0,0:3|0:0|0:0,0:0:0:0:
348,231,127036,2,0,P|394:284|501:245,1,160,0|2,0:0|0:3,0:0:0:0:
242,166,127486,2,0,P|254:220|261:268,1,80,8|0,0:0|0:0,0:0:0:0:
97,348,127786,6,0,P|69:339|7:328,2,80,2|0|8,0:3|0:0|0:0,0:0:0:0:
239,265,128236,1,0,0:0:0:0:
62,185,128386,2,0,P|46:110|113:49,1,160,2|8,0:3|0:0,0:0:0:0:
246,30,128836,1,0,0:0:0:0:
226,148,128986,6,0,P|187:144|127:135,1,80,4|0,0:2|0:0,0:0:0:0:
246,30,129286,1,8,0:0:0:0:
405,219,129436,2,0,P|326:236|236:254,1,160,0|2,0:0|0:3,0:0:0:0:
92,223,129886,2,0,P|108:263|124:308,1,80,8|0,0:0|0:0,0:0:0:0:
7,159,130186,5,12,0:0:0:0:
60,349,130336,1,8,0:0:0:0:
202,159,130486,1,2,0:3:0:0:
230,120,130561,1,2,0:3:0:0:
220,72,130636,1,2,0:3:0:0:
185,37,130711,1,2,0:3:0:0:
139,23,130786,6,0,L|120:155,1,120,8|0,0:0|2:0,0:0:0:0:
92,223,131086,6,0,B|144:240|188:198|188:198|209:216|231:227,1,143.999995605469,12|0,0:0|2:0,0:0:0:0:
306,264,131386,5,4,0:0:0:0:
306,264,132286,2,0,L|299:358,1,80,8|0,0:0|3:0,0:0:0:0:
219,220,132586,5,2,0:3:0:0:
431,249,132736,2,0,P|427:206|401:164,1,80,0|0,0:0|3:0,0:0:0:0:
219,220,133036,2,0,P|172:208|54:183,1,160,0|2,0:0|0:3,0:0:0:0:
262,119,133486,2,0,P|302:109|364:103,1,80,8|0,0:0|3:0,0:0:0:0:
431,249,133786,6,0,P|358:256|325:158,1,160,4|8,0:0|0:0,0:0:0:0:
81,134,134386,2,0,P|156:129|195:194,1,160,2|8,3:0|0:0,0:0:0:0:
315,324,134986,6,0,B|236:353|236:303|156:324,2,160,2|8|2,3:0|0:0|3:0,0:0:0:0:
376,193,135736,1,2,3:0:0:0:
199,230,135886,1,8,0:0:0:0:
416,286,136036,1,2,3:0:0:0:
327,343,136186,5,0,1:0:0:0:
327,343,136936,1,2,3:3:0:0:
361,213,137086,2,0,L|347:112,1,80,8|0,0:0|3:0,0:0:0:0:
215,59,137386,5,2,0:3:0:0:
436,265,137536,2,0,P|446:233|461:188,1,80,8|0,0:0|3:0,0:0:0:0:
194,98,137836,2,0,B|223:202|223:202|274:189,1,160,0|2,0:0|0:3,0:0:0:0:
391,62,138286,2,0,P|364:57|299:49,1,80,8|0,0:0|3:0,0:0:0:0:
82,107,138586,6,0,P|56:159|136:227,1,160,4|8,0:0|0:0,0:0:0:0:
396,227,139186,2,0,P|453:178|430:107,1,160,2|8,3:0|1:0,0:0:0:0:
255,41,139786,6,0,L|247:211,2,160,2|8|2,3:0|1:0|3:0,0:0:0:0:
328,127,140536,1,2,3:0:0:0:
274,321,140686,1,8,1:0:0:0:
153,173,140836,1,2,3:0:0:0:
282,221,140986,6,0,P|337:211|421:188,1,120.000004577637,4|2,0:0|0:3,0:0:0:0:
153,173,141586,2,0,P|94:157|35:147,1,120.000004577637,8|2,0:0|0:3,0:0:0:0:
253,126,142186,5,2,0:3:0:0:
204,263,142336,2,0,B|221:340|221:340|265:349,1,120.000004577637,8|0,0:0|0:0,0:0:0:0:
116,298,142786,2,0,L|31:277,1,60.0000022888184,8|0,0:0|0:0,0:0:0:0:
282,221,143086,2,0,L|351:204,1,60.0000022888184,2|0,0:3|0:0,0:0:0:0:
193,66,143386,6,0,P|160:106|198:180,1,120.000004577637,4|2,0:0|0:3,0:0:0:0:
421,246,143986,2,0,P|439:191|405:144,1,120.000004577637,8|2,0:0|0:3,0:0:0:0:
211,51,144586,5,2,0:3:0:0:
333,109,144736,2,0,L|470:82,1,120.000004577637,8|0,0:0|0:0,0:0:0:0:
340,206,145186,2,0,P|312:198|261:181,1,60.0000022888184,8|0,0:0|0:0,0:0:0:0:
98,163,145486,2,0,P|108:200|122:230,1,60.0000022888184,2|0,0:3|0:0,0:0:0:0:
190,354,145786,5,2,0:3:0:0:
291,53,146686,2,0,P|286:87|281:130,1,60.0000022888184,8|0,0:0|0:0,0:0:0:0:
318,286,146986,5,2,0:3:0:0:
371,154,147136,1,8,0:0:0:0:
341,303,147286,1,0,0:0:0:0:
213,187,147436,2,0,P|197:125|173:41,1,128,4|0,0:0|0:0,0:0:0:0:
37,42,147886,2,0,P|35:84|59:116,1,64,8|2,0:0|0:3,0:0:0:0:
116,201,148186,6,0,P|102:196|16:187,1,80,8|2,0:0|0:3,0:0:0:0:
175,270,148486,2,0,P|131:283|72:298,1,80,8|2,0:0|0:3,0:0:0:0:
278,279,148786,2,0,P|252:310|228:343,1,80,8|2,0:0|0:3,0:0:0:0:
347,212,149086,2,0,P|362:251|381:307,1,80,8|2,0:0|0:3,0:0:0:0:
427,147,149386,6,0,P|395:134|333:123,1,80,8|2,0:0|0:3,0:0:0:0:
159,72,149686,2,0,P|195:54|245:32,1,80,8|2,0:0|0:3,0:0:0:0:
474,234,149986,2,0,P|437:237|383:238,1,80,8|2,0:0|0:3,0:0:0:0:
87,146,150286,2,0,P|132:153|178:163,1,80,8|0,0:0|0:0,0:0:0:0:
271,204,150586,5,4,0:0:0:0:
271,204,151186,1,4,0:0:0:0:
189,281,151336,2,0,P|198:327|207:360,2,80,0|0|0,0:0|0:0|0:0,0:0:0:0:
269,175,151786,6,0,P|271:137|279:85,1,80,4|0,0:0|3:0,0:0:0:0:
294,62,152011,1,2,0:3:0:0:
294,62,152086,1,2,0:3:0:0:
377,156,152236,1,8,0:0:0:0:
207,247,152386,2,0,P|171:232|133:206,1,80,2|0,0:3|0:0,0:0:0:0:
377,156,152686,1,8,0:0:0:0:
68,93,152986,5,0,0:0:0:0:
68,93,154186,6,0,L|27:81,3,40,8|8|8|8,0:0|0:0|0:0|0:0,0:0:0:0:
139,167,154486,2,0,P|159:159|186:145,3,40,2|2|2|2,0:3|0:3|0:3|0:3,0:0:0:0:
34,227,154786,5,2,0:3:0:0:
26,255,154861,1,2,0:3:0:0:
29,285,154936,1,2,0:3:0:0:
41,312,155011,1,2,0:3:0:0:
62,334,155086,1,2,0:3:0:0:
89,347,155161,1,2,0:3:0:0:
118,350,155236,1,2,0:3:0:0:
147,343,155311,1,2,0:3:0:0:
173,328,155386,6,0,P|218:332|305:343,1,120,4|0,0:0|2:0,0:0:0:0:
361,377,155686,2,0,P|371:333|352:289,1,80,8|0,0:0|0:0,0:0:0:0:
222,116,155986,2,0,B|259:107|308:91|308:91|301:144,1,120,2|0,0:3|2:0,0:0:0:0:
382,130,156286,2,0,P|372:159|360:221,1,80,8|0,0:0|0:0,0:0:0:0:
143,99,156586,6,0,P|182:109|222:116,1,80,2|0,0:3|0:0,0:0:0:0:
167,285,156886,2,0,P|175:244|185:198,1,80,8|0,0:0|0:0,0:0:0:0:
0,203,157186,2,0,P|45:214|78:219,1,80,2|2,0:3|0:3,0:0:0:0:
276,225,157486,2,0,P|265:271|255:320,1,80,8|0,0:0|0:0,0:0:0:0:
221,115,157786,6,0,P|265:101|372:161,2,160,2|8|2,0:3|0:0|0:3,0:0:0:0:
144,283,158536,1,2,0:3:0:0:
6,172,158686,2,0,P|12:135|29:73,1,80,8|0,0:0|0:0,0:0:0:0:
221,115,158986,6,0,P|261:168|241:238,1,120,2|0,0:3|2:0,0:0:0:0:
194,270,159286,2,0,L|286:251,1,80,8|0,0:0|0:0,0:0:0:0:
437,128,159586,2,0,P|426:195|417:264,1,120,2|0,0:3|2:0,0:0:0:0:
351,287,159886,2,0,P|362:338|372:366,1,80,8|0,0:0|0:0,0:0:0:0:
170,359,160186,6,0,P|117:349|45:332,1,120,4|0,0:2|2:0,0:0:0:0:
13,258,160486,2,0,P|44:223|96:243,1,80,8|0,0:0|0:0,0:0:0:0:
253,126,160786,2,0,P|212:153|119:126,1,120,2|0,0:3|2:0,0:0:0:0:
71,97,161086,2,0,P|76:64|81:8,1,80,8|0,0:0|0:0,0:0:0:0:
217,197,161386,6,0,P|226:233|235:294,2,80,12|8|8,0:0|0:0|0:0,0:0:0:0:
269,39,161836,2,0,P|320:23|397:117,1,160,12|8,0:0|0:0,0:0:0:0:
443,207,162286,1,2,0:3:0:0:
419,203,162361,1,2,0:3:0:0:
395,199,162436,1,2,0:3:0:0:
371,195,162511,1,2,0:3:0:0:
347,191,162586,5,12,0:0:0:0:
347,191,162886,1,8,0:0:0:0:
347,191,163186,1,8,0:0:0:0:
236,283,163336,1,2,0:3:0:0:
270,106,163486,1,8,0:0:0:0:
272,294,163636,1,2,0:3:0:0:
145,207,163786,5,8,0:0:0:0:
145,207,163936,1,2,0:3:0:0:
250,99,164086,2,0,P|256:61|264:13,1,80,8|2,0:0|0:3,0:0:0:0:
87,139,164386,1,8,0:0:0:0:
87,139,164536,1,2,0:3:0:0:
299,186,164686,2,0,P|334:167|391:132,1,80,8|2,0:0|0:3,0:0:0:0:
153,72,164986,5,8,0:0:0:0:
268,200,165136,1,2,0:3:0:0:
162,319,165286,2,0,P|129:307|78:288,1,80,8|2,0:0|0:3,0:0:0:0:
7,114,165586,1,8,0:0:0:0:
174,227,165736,1,2,0:3:0:0:
11,344,165886,2,0,P|7:308|0:234,1,80,8|2,0:0|0:3,0:0:0:0:
153,72,166186,6,0,P|182:116|170:162,1,80,8|2,0:0|0:3,0:0:0:0:
356,68,166486,2,0,P|316:76|278:85,1,80,8|2,0:0|0:3,0:0:0:0:
96,209,166786,2,0,P|134:218|174:227,1,80,8|2,0:0|0:3,0:0:0:0:
303,185,167086,2,0,P|323:228|322:283,1,80,8|2,0:0|0:3,0:0:0:0:
129,348,167386,6,0,P|147:292|253:290,1,160,4|8,0:0|0:0,0:0:0:0:
378,369,167836,2,0,P|349:363|277:348,1,80,2|0,0:3|0:0,0:0:0:0:
95,243,168136,2,0,P|134:234|173:226,1,80,2|0,0:3|0:0,0:0:0:0:
281,92,168436,1,8,0:0:0:0:
327,260,168586,6,0,P|227:228|143:230,1,160,4|8,0:0|0:0,0:0:0:0:
354,163,169036,2,0,P|377:125|372:70,1,80,2|0,0:3|0:0,0:0:0:0:
233,308,169336,2,0,P|243:347|258:392,1,80,2|0,0:3|0:0,0:0:0:0:
413,270,169636,1,8,0:0:0:0:
301,102,169786,6,0,P|316:184|328:276,1,160,4|8,0:0|0:0,0:0:0:0:
201,126,170236,2,0,P|202:89|214:38,1,80,2|0,0:3|0:0,0:0:0:0:
126,213,170536,2,0,P|80:194|61:150,1,80,2|0,0:3|0:0,0:0:0:0:
301,102,170836,1,8,0:0:0:0:
210,304,170986,6,0,P|169:330|43:305,1,160,4|8,0:0|0:0,0:0:0:0:
294,228,171436,2,0,P|304:266|312:315,1,80,2|0,0:3|0:0,0:0:0:0:
201,126,171736,2,0,P|191:167|188:218,1,80,2|0,0:3|0:0,0:0:0:0:
381,165,172036,1,8,0:0:0:0:
301,102,172186,6,0,P|200:112|93:137,1,210.000008010865,6|0,0:3|0:0,0:0:0:0:
4,161,172786,6,0,B|49:96|49:96|80:256,1,224,6|0,0:3|0:0,0:0:0:0:
14,318,173386,6,0,P|56:265|178:313,1,195.999994018555,6|0,0:3|0:0,0:0:0:0:
100,346,173986,6,0,B|181:375|182:308|267:343,1,167.999994873047,6|0,0:3|0:0,0:0:0:0:
352,320,174586,6,0,B|338:266|291:254|291:254|343:189|313:106,1,238.00000453949,6|0,0:3|0:0,0:0:0:0:
224,63,175186,6,0,P|192:105|204:156,1,80,6|0,0:3|0:0,0:0:0:0:
167,292,175486,1,8,0:0:0:0:
167,292,175786,6,0,P|160:254|143:213,1,80,8|2,0:0|0:3,0:0:0:0:
88,0,176086,2,0,P|138:17|190:23,1,80,8|2,0:0|0:3,0:0:0:0:
393,102,176386,2,0,P|347:108|294:129,1,80,8|2,0:0|0:3,0:0:0:0:
110,131,176686,1,8,0:0:0:0:
110,131,176986,6,0,L|98:217,1,80,4|0,0:0|0:0,0:0:0:0:
276,281,177286,2,0,P|220:241|235:142,1,160,8|2,0:0|0:3,0:0:0:0:
393,102,177736,1,2,0:3:0:0:
270,12,177886,1,8,0:0:0:0:
393,102,178036,6,0,L|371:278,1,160
269,384,178486,2,0,P|223:337|100:340,1,160,8|2,0:0|0:3,0:0:0:0:
0,281,178936,1,2,0:3:0:0:
15,119,179086,1,8,0:0:0:0:
98,210,179236,6,0,P|176:225|255:240,1,160
393,102,179686,2,0,P|314:87|235:71,1,160,8|2,0:0|0:3,0:0:0:0:
112,42,180136,1,2,0:3:0:0:
194,185,180286,1,8,0:0:0:0:
230,58,180436,1,0,0:0:0:0:
108,131,180586,6,0,P|96:183|101:230,1,80,2|0,0:3|0:0,0:0:0:0:
313,337,180886,2,0,P|309:300|283:255,1,80,8|0,0:0|0:0,0:0:0:0:
230,58,181186,1,2,0:3:0:0:
301,144,181336,2,0,L|379:129,1,80,2|8,0:3|0:0,0:0:0:0:
194,185,181636,6,0,P|147:173|10:151,1,160
162,316,182086,2,0,P|261:307|291:247,1,160,8|2,0:0|0:3,0:0:0:0:
230,58,182536,1,2,0:3:0:0:
195,206,182686,1,8,0:0:0:0:
381,129,182836,6,0,B|486:111|486:111|467:198,1,160
447,283,183286,2,0,B|260:257,1,160,8|2,0:0|0:3,0:0:0:0:
145,310,183736,1,2,0:3:0:0:
266,128,183886,2,0,P|274:85|275:38,1,80,8|0,0:0|0:0,0:0:0:0:
101,134,184186,5,12,0:0:0:0:
101,134,184336,1,2,0:3:0:0:
292,231,184486,2,0,P|321:224|379:209,1,80,8|2,0:0|0:3,0:0:0:0:
71,129,184786,1,8,0:0:0:0:
71,129,184936,1,2,0:3:0:0:
371,113,185086,2,0,P|435:127|474:143,1,80,8|2,0:0|0:3,0:0:0:0:
160,52,185386,5,8,0:0:0:0:
160,52,185536,1,2,0:3:0:0:
292,231,185686,2,0,P|287:271|277:320,1,80,8|2,0:0|0:3,0:0:0:0:
175,29,185986,1,8,0:0:0:0:
176,29,186136,1,2,0:3:0:0:
177,291,186286,2,0,P|181:327|192:375,1,80,8|2,0:0|0:3,0:0:0:0:
211,174,186586,6,0,P|151:165|114:158,1,80,8|2,0:0|0:3,0:0:0:0:
329,48,186886,2,0,P|358:39|425:29,1,80,8|2,0:0|0:3,0:0:0:0:
496,178,187186,1,0,0:0:0:0:
496,207,187261,1,0,0:0:0:0:
488,236,187336,1,0,0:0:0:0:
471,260,187411,1,0,0:0:0:0:
447,278,187486,1,0,0:0:0:0:
418,287,187561,1,0,0:0:0:0:
388,287,187636,1,0,0:0:0:0:
360,276,187711,1,0,0:0:0:0:
337,258,187786,6,0,L|346:168,1,80,8|2,0:0|0:3,0:0:0:0:
222,69,188086,2,0,L|229:148,1,80,8|2,0:0|0:3,0:0:0:0:
153,308,188386,2,0,L|113:223,1,80,8|2,0:0|0:3,0:0:0:0:
234,175,188686,5,12,0:0:0:0:
