osu file format v14

[General]
AudioFilename: audio.mp3
AudioLeadIn: 0
PreviewTime: 44907
Countdown: 0
SampleSet: Soft
StackLeniency: 0.2
Mode: 0
LetterboxInBreaks: 0
WidescreenStoryboard: 0

[Editor]
DistanceSpacing: 1.2
BeatDivisor: 4
GridSize: 4
TimelineZoom: 1

[Metadata]
Title:Zettai Tokken Shuchou Shimasu! Hoshi Syoko Solo Remix
TitleUnicode:絶対特権主張しますっ! 星輝子ソロ・リミックス
Artist:Syoko Hoshi (CV: Satsumi Matsuda)
ArtistUnicode:星輝子(CV:松田颯水)
Creator:Lami
Version:Ezreal's Easy
Source:アイドルマスター シンデレラガールズ
Tags:IDOLM@STER idolmaster cinderella girls imas 絶対ピンクな小箱 zettai pink na kobako intoon ProEzreal Akitoshi Kalibe Yuria Gaia Karia Shirasaka Koume TriCastle Story -Brand new Castle-
BeatmapID:1195098
BeatmapSetID:546878

[Difficulty]
HPDrainRate:2
CircleSize:3
OverallDifficulty:2
ApproachRate:3
SliderMultiplier:0.799999999999999
SliderTickRate:1

[Events]
//Background and Video events
0,0,"BG.jpg",0,0
//Break Periods
2,69186,77146
2,121986,129946
//Storyboard Layer 0 (Background)
//Storyboard Layer 1 (Fail)
//Storyboard Layer 2 (Pass)
//Storyboard Layer 3 (Foreground)
//Storyboard Sound Samples

[TimingPoints]
586,300,4,2,1,70,1,0
44986,-100,4,2,1,90,0,1
68986,-100,4,2,1,70,0,0
97786,-100,4,2,1,90,0,1
121786,-100,4,2,1,70,0,0
152986,-100,4,2,1,90,0,1
176986,-100,4,2,1,70,0,0

[Colours]
Combo1 : 242,136,208
Combo2 : 253,155,66
Combo3 : 28,193,249
Combo4 : 232,215,0

[HitObjects]
52,96,586,6,0,P|160:64|228:160,1,240,2|10,0:0|0:0,0:0:0:0:
184,239,1786,6,0,P|275:236|320:171,1,160,6|2,0:0|0:0,0:0:0:0:
354,98,2686,1,2,0:0:0:0:
446,71,2986,1,0,0:0:0:0:
459,262,3586,1,0,0:0:0:0:
267,275,4186,1,0,0:0:0:0:
250,83,4786,1,0,0:0:0:0:
98,200,5386,2,0,P|94:244|106:280,2,79.9999999999999,2|0|2,0:0|0:0|0:0,0:0:0:0:
250,83,6586,6,0,P|350:47|443:78,1,200,4|2,0:0|0:0,0:0:0:0:
511,196,7786,2,0,L|505:323,1,120
422,364,8536,1,8,0:0:0:0:
279,342,8986,6,0,P|231:367|97:319,1,200
14,208,10186,2,0,L|19:80,1,120
98,33,10936,1,8,0:0:0:0:
240,54,11386,6,0,L|408:61,1,160
342,243,12586,2,0,L|174:236,1,160
161,45,13786,6,0,P|88:46|25:100,1,160,4|4,0:0|0:0,0:0:0:0:
12,292,14986,2,0,L|8:372,2,79.9999999999999,2|8|2,0:0|0:0|0:0,0:0:0:0:
16,196,15886,1,10,0:0:0:0:
24,100,16186,6,0,P|92:56|248:96,1,240,4|8,0:0|0:0,0:0:0:0:
316,144,17386,2,0,L|408:136,1,79.9999999999999,0|8,0:0|0:0,0:0:0:0:
500,300,18286,1,8,0:0:0:0:
416,348,18586,6,0,L|324:344,1,79.9999999999999,0|8,0:0|0:0,0:0:0:0:
148,304,19486,1,8,0:0:0:0:
89,225,19786,2,0,P|60:262|51:309,2,79.9999999999999,2|8|0,0:0|0:0|0:0,0:0:0:0:
276,176,20986,6,0,B|340:152|392:184|392:184|428:120|408:52,1,240,4|8,0:0|0:0,0:0:0:0:
320,44,22186,2,0,P|272:40|232:48,1,79.9999999999999,0|8,0:0|0:0,0:0:0:0:
76,144,23086,1,8,0:0:0:0:
35,230,23386,6,0,P|87:238|119:230,1,79.9999999999999,0|8,0:0|0:0,0:0:0:0:
293,164,24286,1,8,0:0:0:0:
367,103,24586,2,0,P|388:169|333:254,1,160,2|8,0:0|0:0,0:0:0:0:
169,317,25786,6,0,P|119:313|55:149,1,240,4|8,0:0|0:0,0:0:0:0:
116,91,26986,1,0,0:0:0:0:
297,154,27586,1,0,0:0:0:0:
479,95,28186,6,0,P|502:156|462:240,2,160,2|2|2,0:0|0:0|0:0,0:0:0:0:
300,42,29986,1,10,0:0:0:0:
108,45,30586,6,0,B|92:205|92:205|110:244|108:293,1,240,2|8,0:0|0:0,0:0:0:0:
88,375,31786,1,0,0:0:0:0:
224,240,32386,1,0,0:0:0:0:
371,363,32986,6,0,P|421:362|503:291,2,160,2|2|2,0:0|0:0|0:0,0:0:0:0:
308,183,34786,1,10,0:0:0:0:
447,51,35386,6,4,B|300:106|333:-1|165:52,1,280,4|2,0:0|0:0,0:0:0:0:
0,213,37186,1,0,0:0:0:0:
78,267,37486,1,8,0:0:0:0:
106,358,37786,6,4,B|253:305|220:410|395:354,1,280,4|2,0:0|0:0,0:0:0:0:
507,155,39586,1,0,0:0:0:0:
426,102,39886,1,8,0:0:0:0:
341,56,40186,6,0,P|221:21|100:107,1,280,4|2,0:0|0:0,0:0:0:0:
22,330,41986,1,0,0:0:0:0:
107,374,42286,1,8,0:0:0:0:
202,364,42586,6,0,L|368:376,1,160,6|2,0:0|0:0,0:0:0:0:
389,185,43786,2,0,L|481:191,2,79.9999999999999,10|10|2,0:0|0:0|0:0,0:0:0:0:
234,298,44986,6,0,P|154:295|100:231,1,160,4|2,0:0|0:0,0:0:0:0:
90,143,45886,1,8,0:0:0:0:
164,82,46186,2,0,L|415:57,1,240,2|8,0:0|0:0,0:0:0:0:
487,13,47386,2,0,B|507:35|514:112|452:144|452:144|410:185|430:236,1,240,2|8,0:0|0:0,0:0:0:0:
432,318,48586,2,0,L|519:324,2,79.9999999999999,2|10|2,0:0|0:0|0:0,0:0:0:0:
241,294,49786,6,0,P|199:230|219:135,1,160,2|2,0:0|0:0,0:0:0:0:
292,102,50686,1,8,0:0:0:0:
373,52,50986,2,0,B|405:88|392:164|339:189|339:189|316:240|342:276,1,240,2|8,0:0|0:0,0:0:0:0:
276,341,52186,2,0,P|356:360|425:229,1,240,6|8,0:0|0:0,0:0:0:0:
457,150,53386,2,0,B|443:86|454:35|454:35|413:56|360:51,1,200,2|10,0:0|0:0,0:0:0:0:
228,52,54586,6,0,P|149:43|83:96,1,160,12|10,0:0|0:0,0:0:0:0:
78,185,55486,1,10,0:0:0:0:
115,273,55786,2,0,L|200:281,1,79.9999999999999,8|8,0:0|0:0,0:0:0:0:
287,256,56386,2,8,L|372:264,1,79.9999999999999
444,320,56986,6,8,P|460:276|456:232,1,79.9999999999999
392,172,57586,2,8,P|376:132|384:84,1,79.9999999999999
432,16,58186,2,8,L|512:12,2,79.9999999999999
280,136,59386,6,0,B|216:156|185:127|185:127|152:168|92:160,1,200,4|2,0:0|0:0,0:0:0:0:
9,275,60586,2,0,P|62:301|133:297,1,120
209,259,61336,1,8,0:0:0:0:
327,341,61786,6,0,B|350:292|327:246|327:246|370:216|364:153,1,200,4|2,0:0|0:0,0:0:0:0:
488,84,62986,2,8,P|510:147|499:204,1,120
459,284,63736,1,8,0:0:0:0:
352,381,64186,6,4,L|187:371,1,160
21,283,65386,2,4,P|18:201|68:133,1,160
248,90,66586,6,4,L|426:78,1,160
465,262,67786,2,0,L|454:342,2,79.9999999999999,2|8|2,0:0|0:0|0:0,0:0:0:0:
475,166,68686,1,8,0:0:0:0:
486,70,68986,5,4,0:0:0:0:
494,66,78586,6,0,P|370:99|253:72,1,240,4|8,0:0|0:0,0:0:0:0:
179,29,79786,1,0,0:0:0:0:
28,148,80386,1,0,0:0:0:0:
120,316,80986,6,0,P|198:350|276:332,2,160
212,147,82786,1,8,0:0:0:0:
373,42,83386,6,0,P|458:70|474:219,1,240,2|8,0:0|0:0,0:0:0:0:
436,289,84586,1,0,0:0:0:0:
266,198,85186,1,0,0:0:0:0:
93,281,85786,6,0,P|63:210|88:132,2,160,2|2|2,0:0|0:0|0:0,0:0:0:0:
261,372,87586,1,8,0:0:0:0:
436,289,88186,6,0,B|446:251|415:217|415:217|474:182|500:91|459:34,1,280,4|2,0:0|0:0,0:0:0:0:
246,143,89986,1,0,0:0:0:0:
171,82,90286,1,0,0:0:0:0:
75,74,90586,6,0,B|65:112|96:146|96:146|37:181|11:272|52:329,1,280,4|2,0:0|0:0,0:0:0:0:
280,263,92386,1,0,0:0:0:0:
357,319,92686,1,0,0:0:0:0:
443,361,92986,6,0,P|486:239|440:91,1,280,4|2,0:0|0:0,0:0:0:0:
207,131,94786,1,0,0:0:0:0:
111,120,95086,1,8,0:0:0:0:
122,24,95386,6,4,L|287:37,1,160
465,92,96586,2,0,P|473:49|468:10,2,79.9999999999999,2|10|2,0:0|0:0|0:0,0:0:0:0:
384,269,97786,6,0,L|221:277,1,160,4|2,0:0|0:0,0:0:0:0:
128,280,98686,1,8,0:0:0:0:
40,320,98986,2,0,B|27:277|40:217|88:197|88:197|125:152|112:91,1,240,2|8,0:0|0:0,0:0:0:0:
64,26,100186,2,0,B|109:0|162:13|189:52|189:52|235:85|287:60,1,240,2|8,0:0|0:0,0:0:0:0:
375,36,101386,2,0,P|428:22|464:32,2,79.9999999999999,2|8|2,0:0|0:0|0:0,0:0:0:0:
258,191,102586,6,0,L|424:204,1,160,2|2,0:0|0:0,0:0:0:0:
497,262,103486,1,8,0:0:0:0:
454,348,103786,2,0,L|213:330,1,240,2|8,0:0|0:0,0:0:0:0:
129,373,104986,2,0,B|106:308|153:257|153:257|188:200|147:142,1,240,4|8,0:0|0:0,0:0:0:0:
119,58,106186,2,0,L|323:52,1,200,2|8,0:0|0:0,0:0:0:0:
464,30,107386,6,0,P|470:91|410:172,1,160,4|8,0:0|0:0,0:0:0:0:
319,170,108286,1,8,0:0:0:0:
228,139,108586,2,8,P|222:181|236:224,1,79.9999999999999
312,268,109186,2,8,P|320:316|308:355,1,79.9999999999999
223,309,109786,6,8,L|127:305,1,79.9999999999999
53,340,110386,2,8,P|46:299|65:247,1,79.9999999999999
116,188,110986,2,8,P|136:146|135:102,2,79.9999999999999
9,348,112186,6,0,P|77:315|202:333,1,200,4|2,0:0|0:0,0:0:0:0:
340,348,113386,2,0,P|416:361|469:342,1,120
488,258,114136,1,8,0:0:0:0:
483,114,114586,6,0,P|391:86|292:122,1,200,4|2,0:0|0:0,0:0:0:0:
184,210,115786,2,0,P|129:219|68:191,1,120
8,121,116536,1,0,0:0:0:0:
130,46,116986,6,0,L|300:40,1,160
390,204,118186,2,0,L|220:210,1,160
57,126,119386,6,0,P|31:203|57:275,1,160
117,348,120286,1,0,0:0:0:0:
212,345,120586,2,0,L|309:342,2,79.9999999999999
117,348,121486,1,0,0:0:0:0:
21,350,121786,5,0,0:0:0:0:
98,139,131386,5,4,0:0:0:0:
192,157,131686,2,0,L|285:151,1,79.9999999999999
368,144,132286,1,8,0:0:0:0:
432,76,132586,2,0,P|460:152|444:200,2,120,8|4|0,0:0|0:0|0:0,0:0:0:0:
344,44,133786,6,0,P|260:28|176:40,1,160,4|2,0:0|0:0,0:0:0:0:
92,60,134686,1,0,0:0:0:0:
27,131,134986,2,0,P|-4:231|54:364,1,240,2|8,0:0|0:0,0:0:0:0:
138,354,136186,5,0,0:0:0:0:
160,260,136486,2,0,L|157:166,2,79.9999999999999
231,323,137386,2,0,P|300:343|352:316,2,120
288,246,138586,6,0,P|352:218|444:246,1,160,4|2,0:0|0:0,0:0:0:0:
488,320,139486,1,0,0:0:0:0:
404,368,139786,2,0,L|152:344,1,240,2|8,0:0|0:0,0:0:0:0:
68,336,140986,5,4,0:0:0:0:
28,248,141286,2,0,P|16:164|44:80,1,160,2|2,0:0|0:0,0:0:0:0:
120,44,142186,2,0,L|244:48,2,120,8|8|0,0:0|0:0|0:0,0:0:0:0:
36,92,143386,5,4,0:0:0:0:
88,172,143686,2,0,P|164:188|236:140,1,160,2|2,0:0|0:0,0:0:0:0:
308,88,144586,2,0,L|436:76,2,120,8|8|8,0:0|0:0|0:0,0:0:0:0:
231,147,145786,5,4,0:0:0:0:
444,340,146686,1,8,0:0:0:0:
348,347,146986,2,0,L|228:354,2,120,8|4|8,0:0|0:0|0:0,0:0:0:0:
444,340,148186,6,8,P|457:216|370:142,1,240,12|8,0:0|0:0,0:0:0:0:
293,99,149386,1,8,0:0:0:0:
198,113,149686,2,0,L|108:113,2,79.9999999999999,8|8|8,0:0|0:0|0:0,0:0:0:0:
252,192,150586,5,4,0:0:0:0:
408,304,151186,1,4,0:0:0:0:
460,120,151786,1,4,0:0:0:0:
384,64,152086,1,8,0:0:0:0:
296,104,152386,2,0,P|256:124|204:116,1,79.9999999999999,4|8,0:0|0:0,0:0:0:0:
132,84,152986,6,0,P|64:128|92:276,1,240,4|2,0:0|0:0,0:0:0:0:
176,300,154186,2,0,B|251:291|251:291|287:314|287:314|326:303|326:303|418:323,1,240,2|2,0:0|0:0,0:0:0:0:
490,276,155386,6,0,P|498:224|353:126,1,240,4|8,0:0|0:0,0:0:0:0:
272,132,156586,2,0,L|184:124,2,79.9999999999999,2|8|0,0:0|0:0|0:0,0:0:0:0:
460,160,157786,6,0,P|468:244|336:328,1,240,2|8,0:0|0:0,0:0:0:0:
256,324,158986,2,0,B|214:332|183:301|183:301|143:346|70:345|30:305,1,240,2|8,0:0|0:0,0:0:0:0:
12,220,160186,6,0,B|8:143|38:91|38:91|100:110|153:93,1,240,4|8,0:0|0:0,0:0:0:0:
228,48,161386,2,0,P|290:39|427:55,1,200,4|8,0:0|0:0,0:0:0:0:
478,189,162586,6,0,P|495:267|461:340,1,160,4|8,0:0|0:0,0:0:0:0:
367,327,163486,1,8,0:0:0:0:
273,346,163786,2,8,P|213:355|183:350,1,79.9999999999999
106,313,164386,2,8,L|101:227,1,79.9999999999999
51,151,164986,6,8,P|100:138|146:147,1,79.9999999999999
220,169,165586,2,8,P|271:180|311:171,1,79.9999999999999
387,140,166186,2,8,P|434:134|472:143,2,79.9999999999999
211,219,167386,6,0,P|154:238|49:157,1,200,4|2,0:0|0:0,0:0:0:0:
122,36,168586,2,0,L|246:39,1,120
337,40,169336,1,8,0:0:0:0:
463,107,169786,6,0,P|500:185|445:284,1,200,4|2,0:0|0:0,0:0:0:0:
330,358,170986,2,8,L|200:351,1,120
114,344,171736,1,8,0:0:0:0:
54,212,172186,6,4,P|27:138|62:51,1,160
229,136,173386,2,0,L|395:153,1,160
278,310,174586,6,4,L|118:321,1,160
15,160,175786,2,0,P|6:126|17:81,2,79.9999999999999,2|8|2,0:0|0:0|0:0,0:0:0:0:
63,243,176686,1,8,0:0:0:0:
118,321,176986,6,0,L|209:318,1,79.9999999999999,4|8,0:0|0:0,0:0:0:0:
294,315,177586,1,0,0:0:0:0:
485,306,178186,2,0,L|484:214,1,79.9999999999999
482,129,178786,1,0,0:0:0:0:
303,199,179386,6,0,L|213:205,1,79.9999999999999
127,214,179986,1,0,0:0:0:0:
150,23,180586,2,0,L|245:29,2,79.9999999999999,2|8|0,0:0|0:0|0:0,0:0:0:0:
29,174,181786,6,0,P|21:217|31:266,1,79.9999999999999
74,335,182386,1,0,0:0:0:0:
262,348,182986,2,0,P|273:300|269:266,1,79.9999999999999
223,185,183586,1,0,0:0:0:0:
310,13,184186,6,0,P|393:18|461:67,1,160
439,251,185386,2,0,P|356:246|288:197,1,160
199,36,186586,6,0,P|159:34|118:47,1,79.9999999999999
33,85,187186,2,0,L|29:166,1,79.9999999999999
79,246,187786,6,0,L|75:327,2,79.9999999999999
123,160,188686,1,0,0:0:0:0:
