osu file format v14

[General]
AudioFilename: audio.mp3
AudioLeadIn: 0
PreviewTime: 44907
Countdown: 0
SampleSet: Normal
StackLeniency: 0.3
Mode: 0
LetterboxInBreaks: 0
WidescreenStoryboard: 0

[Editor]
DistanceSpacing: 2.7
BeatDivisor: 4
GridSize: 16
TimelineZoom: 1.7

[Metadata]
Title:Zettai Tokken Shuchou Shimasu! Hoshi Syoko Solo Remix
TitleUnicode:絶対特権主張しますっ! 星輝子ソロ・リミックス
Artist:Syoko Hoshi (CV: Satsumi Matsuda)
ArtistUnicode:星輝子(CV:松田颯水)
Creator:Lami
Version:Extreme
Source:アイドルマスター シンデレラガールズ
Tags:IDOLM@STER idolmaster cinderella girls imas 絶対ピンクな小箱 zettai pink na kobako intoon ProEzreal Akitoshi Kalibe Yuria Gaia Karia Shirasaka Koume TriCastle Story -Brand new Castle-
BeatmapID:1158325
BeatmapSetID:546878

[Difficulty]
HPDrainRate:6
CircleSize:4
OverallDifficulty:9
ApproachRate:9.5
SliderMultiplier:1.8
SliderTickRate:1

[Events]
//Background and Video events
0,0,"BG.jpg",0,0
//Break Periods
//Storyboard Layer 0 (Background)
//Storyboard Layer 1 (Fail)
//Storyboard Layer 2 (Pass)
//Storyboard Layer 3 (Foreground)
//Storyboard Sound Samples

[TimingPoints]
586,300,4,1,1,70,1,0
1786,-133.333333333333,4,3,1,50,0,0
6586,-111.111111111111,4,1,1,65,0,0
11386,-111.111111111111,4,3,1,55,0,0
14986,-111.111111111111,4,1,1,65,0,0
16186,-100,4,1,1,70,0,0
25786,-111.111111111111,4,1,1,55,0,0
34186,-100,4,1,1,55,0,0
35386,-111.111111111111,4,1,1,65,0,0
44986,-100,4,1,1,75,0,1
68986,-100,4,1,1,70,0,0
78586,-111.111111111111,4,1,1,55,0,0
86986,-100,4,1,1,55,0,0
88186,-111.111111111111,4,1,1,65,0,0
97786,-100,4,1,1,75,0,1
121786,-100,4,1,1,70,0,0
131086,-83.3333333333333,4,1,1,70,0,0
131386,-100,4,1,1,65,0,0
140986,-133.333333333333,4,1,1,50,0,0
146986,-100,4,1,1,50,0,0
148186,-100,4,1,1,70,0,0
152986,-133.333333333333,4,3,1,55,0,0
154186,-100,4,1,1,70,0,0
155386,-100,4,1,1,70,0,1
176986,-100,4,1,1,70,0,0

[Colours]
Combo1 : 242,136,208
Combo2 : 253,155,66
Combo3 : 28,193,249
Combo4 : 232,215,0

[HitObjects]
228,233,1186,6,0,L|200:333,1,90,8|0,0:0|3:0,0:0:0:0:
194,354,1411,1,0,0:0:0:0:
194,354,1486,1,2,0:3:0:0:
143,169,1636,1,2,0:3:0:0:
329,258,1786,6,0,P|385:262|449:211,1,135.000005149842,4|2,0:2|0:2,0:0:0:0:
274,66,2386,1,0,0:0:0:0:
202,140,2536,1,0,0:0:0:0:
300,158,2686,1,2,0:2:0:0:
274,66,2836,1,0,0:0:0:0:
228,232,2986,6,0,L|207:309,1,67.5000025749208,0|0,0:0|0:0,0:0:0:0:
105,122,3286,1,2,3:2:0:0:
242,252,3586,6,0,L|221:329,1,67.5000025749208,0|0,3:0|0:0,0:0:0:0:
119,142,3886,1,2,3:2:0:0:
256,272,4186,6,0,L|235:349,1,67.5000025749208,0|0,3:0|0:0,0:0:0:0:
133,162,4486,1,2,3:2:0:0:
270,292,4786,6,0,L|249:369,1,67.5000025749208,0|0,3:0|0:0,0:0:0:0:
147,182,5086,1,2,3:2:0:0:
284,312,5386,6,0,L|263:389,1,67.5000025749208,0|0,3:0|0:0,0:0:0:0:
161,202,5686,1,2,3:2:0:0:
298,332,5986,5,2,3:2:0:0:
342,212,6136,1,0,0:0:0:0:
79,313,6286,1,8,0:1:0:0:
79,313,6586,6,0,L|43:124,1,161.999995056153,6|8,0:3|0:0,0:0:0:0:
192,301,7036,2,0,P|187:344|176:384,1,80.9999975280763,2|0,0:3|0:0,0:0:0:0:
273,220,7336,2,0,P|290:259|300:299,1,80.9999975280763,2|0,0:3|0:0,0:0:0:0:
169,195,7636,1,8,0:0:0:0:
300,297,7786,6,0,P|388:305|440:247,1,161.999995056153,6|8,0:3|0:0,0:0:0:0:
323,113,8236,2,0,L|228:127,1,80.9999975280763,2|0,0:3|0:0,0:0:0:0:
428,150,8536,2,0,L|523:136,1,80.9999975280763,2|0,0:3|0:0,0:0:0:0:
412,45,8836,1,8,0:0:0:0:
343,214,8986,6,0,B|327:272|327:272|340:318|340:318|321:379,1,161.999995056153,6|8,0:3|0:0,0:0:0:0:
153,220,9436,2,0,P|141:175|138:121,1,80.9999975280763,2|0,0:3|0:0,0:0:0:0:
228,304,9736,2,0,P|215:348|191:397,1,80.9999975280763,2|0,0:3|0:0,0:0:0:0:
105,325,10036,1,8,0:0:0:0:
252,204,10186,6,0,P|325:191|395:260,1,161.999995056153,6|8,0:3|0:0,0:0:0:0:
489,88,10636,2,0,L|473:186,1,80.9999975280763,2|0,0:3|0:0,0:0:0:0:
365,15,10936,2,0,L|381:113,1,80.9999975280763,2|0,0:3|0:0,0:0:0:0:
475,167,11236,1,8,0:0:0:0:
275,155,11386,5,6,1:3:0:0:
195,363,11686,2,0,L|93:346,1,80.9999975280763,2|0,0:2|0:0,0:0:0:0:
310,175,11986,5,6,1:3:0:0:
150,330,12286,2,0,L|64:272,1,80.9999975280763,2|0,0:2|0:0,0:0:0:0:
334,208,12586,5,6,1:3:0:0:
122,281,12886,2,0,L|69:193,1,80.9999975280763,2|0,0:2|0:0,0:0:0:0:
340,248,13186,5,6,1:3:0:0:
118,224,13486,2,0,L|107:121,1,80.9999975280763,2|0,0:2|0:0,0:0:0:0:
328,286,13786,5,6,1:3:0:0:
137,171,14086,2,0,L|170:72,1,80.9999975280763,2|0,0:2|0:0,0:0:0:0:
301,314,14386,5,6,1:3:0:0:
224,246,14536,1,0,0:0:0:0:
435,164,14686,1,8,0:1:0:0:
435,164,14986,5,8,0:0:0:0:
301,314,15136,1,2,0:3:0:0:
218,76,15286,5,8,0:0:0:0:
352,226,15436,1,2,0:3:0:0:
458,28,15586,5,8,0:0:0:0:
444,255,15736,1,2,0:3:0:0:
343,135,15886,5,8,0:0:0:0:
343,135,16186,6,0,L|248:160,1,90,4|0,0:0|0:0,0:0:0:0:
120,284,16486,2,0,P|160:304|215:309,1,90,8|0,0:0|0:0,0:0:0:0:
437,248,16786,1,2,0:3:0:0:
297,369,16936,1,2,0:3:0:0:
345,219,17086,1,8,0:0:0:0:
461,334,17236,1,0,0:0:0:0:
487,129,17386,6,0,L|460:35,1,90,2|0,0:3|0:0,0:0:0:0:
437,248,17686,2,0,L|463:341,1,90,8|0,0:0|0:0,0:0:0:0:
345,219,17986,1,2,0:3:0:0:
345,219,18136,1,2,0:3:0:0:
204,309,18286,2,0,P|160:304|120:284,1,90,8|0,0:0|0:0,0:0:0:0:
234,62,18586,6,0,L|249:157,1,90,2|0,0:3|0:0,0:0:0:0:
359,307,18886,2,0,L|344:218,1,90,8|0,0:0|0:0,0:0:0:0:
398,74,19186,1,2,0:3:0:0:
398,74,19336,1,2,0:3:0:0:
262,237,19486,2,0,P|218:232|178:212,1,90,8|0,0:0|0:0,0:0:0:0:
234,62,19786,5,2,0:3:0:0:
416,159,19936,1,0,0:0:0:0:
275,320,20086,5,8,0:0:0:0:
314,114,20236,1,0,0:0:0:0:
449,335,20386,5,2,0:3:0:0:
485,99,20536,1,2,0:3:0:0:
260,213,20686,5,8,0:0:0:0:
509,193,20836,1,0,0:0:0:0:
275,320,20986,6,0,L|180:295,1,90,2|0,0:3|0:0,0:0:0:0:
314,114,21286,2,0,L|409:89,1,90,8|0,0:0|0:0,0:0:0:0:
440,242,21586,1,2,0:3:0:0:
485,99,21736,1,2,0:3:0:0:
351,228,21886,1,8,0:0:0:0:
482,321,22036,1,0,0:0:0:0:
351,228,22186,6,0,P|308:207|256:203,1,90,2|0,0:3|0:0,0:0:0:0:
190,345,22486,2,0,P|234:339|274:319,1,90,8|0,0:0|0:0,0:0:0:0:
169,195,22786,1,2,0:3:0:0:
169,195,22936,1,2,0:3:0:0:
100,377,23086,2,0,L|76:290,1,90,8|0,0:0|0:0,0:0:0:0:
59,57,23386,6,0,L|82:143,1,90,4|0,0:0|0:0,0:0:0:0:
266,202,23686,2,0,P|310:190|346:157,1,90,8|0,0:0|0:0,0:0:0:0:
372,57,23986,1,2,0:3:0:0:
169,195,24136,1,2,0:3:0:0:
385,311,24286,1,8,0:0:0:0:
265,105,24436,6,0,L|76:78,1,180,4|8,0:0|0:0,0:0:0:0:
123,346,24886,1,2,0:3:0:0:
159,320,24961,1,2,0:3:0:0:
181,281,25036,1,2,0:3:0:0:
185,237,25111,1,2,0:3:0:0:
169,195,25186,1,8,0:0:0:0:
39,312,25336,1,0,0:0:0:0:
244,355,25486,5,8,0:0:0:0:
266,359,25561,1,8,0:0:0:0:
288,363,25636,1,8,0:0:0:0:
310,367,25711,1,8,0:0:0:0:
332,372,25786,6,0,L|356:270,1,80.9999975280763,4|0,3:1|3:0,0:0:0:0:
271,142,26086,2,0,P|276:182|298:216,1,80.9999975280763,8|0,0:0|3:0,0:0:0:0:
443,106,26386,1,2,3:0:0:0:
354,64,26536,1,2,3:0:0:0:
425,209,26686,2,0,L|527:185,1,80.9999975280763,8|0,0:0|3:0,0:0:0:0:
354,64,26986,6,0,L|252:40,1,80.9999975280763,2|0,3:0|3:0,0:0:0:0:
271,142,27286,2,0,L|169:118,1,80.9999975280763,8|0,0:0|3:0,0:0:0:0:
109,238,27586,2,0,L|211:214,1,80.9999975280763,2|2,3:0|3:0,0:0:0:0:
192,316,27886,2,0,L|294:292,1,80.9999975280763,8|0,0:0|3:0,0:0:0:0:
503,190,28186,6,0,P|419:195|377:257,1,161.999995056153,2|8,3:0|0:0,0:0:0:0:
357,363,28636,1,0,3:0:0:0:
275,198,28786,1,2,3:0:0:0:
377,254,28936,1,2,3:0:0:0:
192,316,29086,2,0,L|90:292,1,80.9999975280763,8|0,0:0|3:0,0:0:0:0:
192,123,29386,5,2,3:0:0:0:
101,187,29536,1,0,3:0:0:0:
287,291,29686,1,8,0:0:0:0:
205,222,29836,1,0,0:0:0:0:
205,222,29911,1,0,0:0:0:0:
205,222,29986,1,2,3:0:0:0:
382,266,30136,1,2,3:0:0:0:
192,316,30286,1,8,0:0:0:0:
303,191,30436,1,0,3:0:0:0:
362,371,30586,6,0,L|464:347,1,80.9999975280763,2|0,3:0|3:0,0:0:0:0:
382,266,30886,2,0,L|484:242,1,80.9999975280763,8|0,0:0|3:0,0:0:0:0:
319,91,31186,1,2,3:0:0:0:
303,191,31336,1,2,3:0:0:0:
414,66,31486,1,8,0:0:0:0:
240,16,31636,1,0,3:0:0:0:
208,216,31786,6,0,P|167:215|129:197,1,80.9999975280763,2|0,3:0|3:0,0:0:0:0:
65,372,32086,2,0,P|101:355|142:354,1,80.9999975280763,8|0,0:0|3:0,0:0:0:0:
303,191,32386,2,0,L|327:293,1,80.9999975280763,2|2,3:0|3:0,0:0:0:0:
220,383,32686,2,0,L|244:281,1,80.9999975280763,8|0,0:0|3:0,0:0:0:0:
359,112,32986,6,0,B|437:90|437:90|516:123,1,161.999995056153,2|8,3:0|0:0,0:0:0:0:
416,274,33436,1,0,3:0:0:0:
224,316,33586,1,2,3:0:0:0:
267,116,33736,1,2,3:0:0:0:
325,309,33886,2,0,P|321:349|302:384,1,80.9999975280763,4|2,0:0|3:0,0:0:0:0:
55,273,34186,5,8,0:0:0:0:
80,236,34261,1,8,0:0:0:0:
117,211,34336,1,8,0:0:0:0:
160,202,34411,1,8,0:0:0:0:
203,209,34486,1,2,0:3:0:0:
247,217,34561,1,2,0:3:0:0:
290,208,34636,1,2,0:3:0:0:
327,183,34711,1,2,0:3:0:0:
352,146,34786,1,2,0:3:0:0:
356,102,34861,1,2,0:3:0:0:
341,60,34936,1,2,0:3:0:0:
308,31,35011,1,2,0:3:0:0:
265,20,35086,2,0,L|163:44,1,90,12|0,0:0|3:0,0:0:0:0:
107,219,35386,6,0,P|148:205|183:178,1,80.9999975280763,4|0,0:0|3:0,0:0:0:0:
263,116,35686,1,8,0:0:0:0:
262,305,35836,2,0,L|183:286,1,80.9999975280763,2|0,0:3|3:0,0:0:0:0:
366,192,36136,2,0,L|287:210,1,80.9999975280763,2|0,0:3|3:0,0:0:0:0:
391,97,36436,1,8,0:0:0:0:
354,365,36586,5,2,1:3:0:0:
354,365,37186,1,8,0:0:0:0:
354,365,37486,2,0,L|275:346,1,80.9999975280763,12|0,0:0|3:0,0:0:0:0:
169,109,37786,6,0,P|192:141|204:180,1,80.9999975280763,4|0,0:0|3:0,0:0:0:0:
179,275,38086,1,8,0:0:0:0:
284,120,38236,2,0,L|362:101,1,80.9999975280763,2|0,0:3|3:0,0:0:0:0:
180,6,38536,2,0,L|259:25,1,80.9999975280763,2|0,0:3|3:0,0:0:0:0:
74,134,38836,1,8,0:0:0:0:
299,155,38986,5,2,0:3:0:0:
299,155,39586,1,8,0:0:0:0:
299,155,39886,2,0,L|377:136,1,80.9999975280763,12|0,0:0|3:0,0:0:0:0:
377,326,40186,6,0,L|298:344,1,80.9999975280763,4|0,0:0|3:0,0:0:0:0:
179,275,40486,1,8,0:0:0:0:
299,155,40636,2,0,P|296:110|280:76,1,80.9999975280763,2|0,0:3|3:0,0:0:0:0:
367,226,40936,2,0,P|386:186|390:148,1,80.9999975280763,2|0,0:3|3:0,0:0:0:0:
366,55,41236,1,8,0:0:0:0:
274,250,41386,5,2,1:3:0:0:
463,251,41536,1,2,3:0:0:0:
391,150,41686,1,0,3:0:0:0:
345,318,41836,1,2,3:0:0:0:
179,275,41986,1,8,0:0:0:0:
179,275,42286,2,0,L|160:196,1,80.9999975280763,8|0,0:0|3:0,0:0:0:0:
366,55,42586,5,4,0:0:0:0:
185,101,42736,1,0,3:0:0:0:
366,245,42886,1,0,3:1:0:0:
366,245,43186,5,4,0:0:0:0:
276,77,43336,1,0,3:0:0:0:
165,279,43486,1,0,3:1:0:0:
165,279,43786,6,0,P|147:242|141:202,1,80.9999975280763,4|0,0:0|3:0,0:0:0:0:
158,164,44011,1,8,3:1:0:0:
158,164,44086,1,2,0:3:0:0:
366,245,44236,1,8,3:1:0:0:
193,374,44386,2,0,L|115:355,1,80.9999975280763,2|0,0:3|3:0,0:0:0:0:
46,120,44686,5,12,0:0:0:0:
46,120,44986,6,0,P|88:140|133:142,1,90,4|0,0:0|0:0,0:0:0:0:
346,3,45286,2,0,P|301:5|261:25,1,90,8|0,0:0|0:0,0:0:0:0:
229,254,45586,1,2,0:3:0:0:
360,121,45736,1,2,0:3:0:0:
306,331,45886,1,8,0:0:0:0:
256,149,46036,1,0,0:0:0:0:
436,198,46186,5,2,0:3:0:0:
229,254,46336,1,0,0:0:0:0:
369,31,46486,2,0,L|359:124,1,90,8|0,0:0|0:0,0:0:0:0:
124,283,46786,5,2,0:3:0:0:
334,225,46936,1,2,0:3:0:0:
141,88,47086,2,0,L|151:181,1,90,8|0,0:0|0:0,0:0:0:0:
277,44,47386,5,2,0:3:0:0:
229,254,47536,1,0,0:0:0:0:
448,130,47686,2,0,L|355:120,1,90,8|0,0:0|0:0,0:0:0:0:
257,358,47986,5,2,0:3:0:0:
150,177,48136,1,2,0:3:0:0:
62,337,48286,2,0,L|152:328,1,90,8|0,0:0|0:0,0:0:0:0:
432,303,48586,5,2,0:3:0:0:
278,135,48736,1,0,0:0:0:0:
506,177,48886,1,8,0:0:0:0:
332,334,49036,1,0,0:0:0:0:
419,62,49186,5,2,0:3:0:0:
509,304,49336,1,2,0:3:0:0:
255,257,49486,1,8,0:0:0:0:
506,177,49636,1,0,0:0:0:0:
186,185,49786,6,0,L|98:162,1,90,2|0,0:3|0:0,0:0:0:0:
336,280,50086,2,0,P|380:276|419:255,1,90,8|0,0:0|0:0,0:0:0:0:
294,75,50386,1,2,0:3:0:0:
477,170,50536,1,2,0:3:0:0:
359,370,50686,1,8,0:0:0:0:
354,184,50836,1,0,0:0:0:0:
200,338,50986,5,2,0:3:0:0:
419,254,51136,1,0,0:0:0:0:
200,338,51286,2,0,L|112:315,1,90,8|0,0:0|0:0,0:0:0:0:
266,206,51586,5,2,0:3:0:0:
47,122,51736,1,0,0:0:0:0:
266,206,51886,2,0,L|354:183,1,90,8|0,0:0|0:0,0:0:0:0:
199,39,52186,5,4,0:0:0:0:
201,257,52336,1,0,0:0:0:0:
377,102,52486,1,8,0:0:0:0:
294,295,52636,1,0,0:0:0:0:
104,71,52786,5,2,0:3:0:0:
105,289,52936,1,2,0:3:0:0:
282,134,53086,1,8,0:0:0:0:
200,343,53236,1,0,0:0:0:0:
28,147,53386,5,12,0:0:0:0:
294,295,53536,1,8,0:0:0:0:
314,9,53686,1,8,0:0:0:0:
399,322,53836,1,12,0:0:0:0:
399,322,54136,5,12,0:0:0:0:
197,239,54286,1,2,0:3:0:0:
314,45,54436,1,2,0:3:0:0:
294,295,54586,6,0,P|296:342|314:380,1,90,12|0,0:0|0:0,0:0:0:0:
489,218,54886,2,0,P|487:171|469:133,1,90,8|0,0:0|0:0,0:0:0:0:
267,136,55186,1,8,0:0:0:0:
407,264,55336,1,2,0:3:0:0:
343,59,55486,1,8,0:0:0:0:
190,213,55636,1,2,0:3:0:0:
369,164,55786,5,8,0:0:0:0:
163,108,55936,1,2,0:3:0:0:
311,293,56086,5,8,0:0:0:0:
448,87,56236,1,2,0:3:0:0:
190,213,56386,5,8,0:0:0:0:
407,264,56536,1,2,0:3:0:0:
248,60,56686,5,8,0:0:0:0:
216,318,56836,1,2,0:3:0:0:
38,61,56986,5,8,0:0:0:0:
275,165,57136,1,2,0:3:0:0:
49,234,57286,5,8,0:0:0:0:
248,60,57436,1,2,0:3:0:0:
0,147,57586,5,8,0:0:0:0:
222,260,57736,1,2,0:3:0:0:
0,324,57886,5,8,0:0:0:0:
190,135,58036,1,2,0:3:0:0:
283,384,58186,5,8,0:0:0:0:
275,165,58336,1,2,0:3:0:0:
97,323,58486,1,8,0:0:0:0:
320,253,58636,1,2,0:3:0:0:
105,105,58786,5,8,0:0:0:0:
194,322,58936,1,2,0:3:0:0:
259,77,59086,1,8,0:0:0:0:
49,234,59236,1,2,0:3:0:0:
310,281,59386,6,0,P|397:291|458:216,1,180,4|8,0:0|0:0,0:0:0:0:
259,77,59836,2,0,L|164:52,1,90,2|0,0:3|0:0,0:0:0:0:
321,161,60136,2,0,L|409:138,1,90,2|0,0:3|0:0,0:0:0:0:
259,77,60436,1,8,0:0:0:0:
456,228,60586,6,0,B|423:355|423:355|364:375,1,180,4|8,0:0|0:0,0:0:0:0:
226,262,61036,2,0,P|271:264|311:284,1,90,2|0,0:3|0:0,0:0:0:0:
160,350,61336,2,0,P|115:348|75:328,1,90,2|0,0:3|0:0,0:0:0:0:
16,242,61636,1,8,0:0:0:0:
186,159,61786,6,0,P|280:144|347:201,1,180,4|8,0:0|0:0,0:0:0:0:
249,349,62236,2,0,L|224:254,1,90,2|0,0:3|0:0,0:0:0:0:
88,172,62536,2,0,L|110:85,1,90,2|0,0:3|0:0,0:0:0:0:
188,12,62836,1,8,0:0:0:0:
343,193,62986,6,0,P|429:210|500:158,1,180,4|8,0:0|0:0,0:0:0:0:
369,43,63436,2,0,L|274:68,1,90,2|0,0:3|0:0,0:0:0:0:
186,211,63736,2,0,L|99:188,1,90,2|0,0:3|0:0,0:0:0:0:
18,117,64036,1,8,0:0:0:0:
69,315,64186,5,6,0:3:0:0:
300,296,64486,2,0,P|318:254|317:210,1,90,0|0,0:0|0:0,0:0:0:0:
148,361,64786,5,6,0:3:0:0:
349,246,65086,2,0,P|348:201|328:161,1,90,0|0,0:0|0:0,0:0:0:0:
239,369,65386,5,6,0:3:0:0:
372,181,65686,2,0,P|352:141|317:113,1,90,0|0,0:0|0:0,0:0:0:0:
326,339,65986,5,6,0:3:0:0:
367,111,66286,2,0,P|332:83|289:73,1,90,0|0,0:0|0:0,0:0:0:0:
393,275,66586,5,6,0:3:0:0:
333,51,66886,2,0,P|290:41|246:50,1,90,0|0,0:0|0:0,0:0:0:0:
110,290,67186,5,6,0:3:0:0:
165,160,67336,1,0,0:0:0:0:
313,364,67486,1,8,0:0:0:0:
313,364,67786,5,8,0:0:0:0:
403,161,67936,1,2,0:3:0:0:
216,297,68086,5,8,0:0:0:0:
117,85,68236,1,2,0:3:0:0:
323,247,68386,5,8,0:0:0:0:
363,12,68536,1,2,0:3:0:0:
93,213,68686,1,8,0:0:0:0:
93,213,68986,6,0,L|188:188,1,90,4|0,0:0|0:0,0:0:0:0:
334,344,69286,2,0,L|239:319,1,90,8|0,0:0|0:0,0:0:0:0:
298,158,69586,1,2,0:3:0:0:
415,276,69736,1,2,0:3:0:0:
464,88,69886,1,8,0:0:0:0:
509,251,70036,1,0,0:0:0:0:
373,97,70186,6,0,L|343:-16,1,90,2|0,0:3|0:0,0:0:0:0:
226,213,70486,2,0,L|251:308,1,90,8|0,0:0|0:0,0:0:0:0:
384,240,70786,1,2,0:3:0:0:
384,240,70936,1,2,0:3:0:0:
237,117,71086,2,0,P|179:129|145:157,1,90,8|0,0:0|0:0,0:0:0:0:
105,329,71386,6,0,L|82:241,1,90,2|0,0:3|0:0,0:0:0:0:
132,60,71686,2,0,L|154:147,1,90,8|0,0:0|0:0,0:0:0:0:
323,131,71986,1,2,0:3:0:0:
323,131,72136,1,2,0:3:0:0:
248,300,72286,2,0,P|190:287|156:259,1,90,8|0,0:0|0:0,0:0:0:0:
240,79,72586,5,2,0:3:0:0:
357,241,72736,1,0,0:0:0:0:
386,48,72886,5,8,0:0:0:0:
435,260,73036,1,0,0:0:0:0:
238,160,73186,5,2,0:3:0:0:
464,70,73336,1,2,0:3:0:0:
182,22,73486,5,8,0:0:0:0:
405,126,73636,1,0,0:0:0:0:
218,239,73786,6,0,L|130:216,1,90,2|0,0:3|0:0,0:0:0:0:
272,383,74086,2,0,P|315:379|360:360,1,90,8|0,0:0|0:0,0:0:0:0:
305,202,74386,1,2,0:3:0:0:
197,327,74536,1,2,0:3:0:0:
231,147,74686,1,8,0:0:0:0:
367,276,74836,1,0,0:0:0:0:
401,96,74986,6,0,P|397:53|378:8,1,90,2|0,0:3|0:0,0:0:0:0:
231,147,75286,2,0,P|213:188|209:232,1,90,8|0,0:0|0:0,0:0:0:0:
357,361,75586,1,2,0:3:0:0:
357,361,75736,1,2,0:3:0:0:
197,327,75886,2,0,L|109:304,1,90,8|0,0:0|0:0,0:0:0:0:
231,147,76186,6,0,L|319:124,1,90,4|0,0:0|0:0,0:0:0:0:
433,252,76486,2,0,L|345:229,1,90,8|0,0:0|0:0,0:0:0:0:
139,174,76786,1,2,0:3:0:0:
340,32,76936,1,2,0:3:0:0:
241,256,77086,1,8,0:0:0:0:
37,92,77236,6,0,P|96:41|199:58,1,180,4|8,0:0|0:0,0:0:0:0:
317,295,77686,1,2,0:3:0:0:
326,251,77761,1,2,0:3:0:0:
336,207,77836,1,2,0:3:0:0:
345,163,77911,1,2,0:3:0:0:
355,119,77986,5,2,0:3:0:0:
374,107,78061,1,0,0:0:0:0:
396,101,78136,1,2,0:3:0:0:
418,100,78211,1,0,0:0:0:0:
440,105,78286,1,8,0:0:0:0:
460,115,78361,1,8,0:0:0:0:
478,129,78436,1,8,0:0:0:0:
491,147,78511,1,8,0:0:0:0:
500,168,78586,6,0,L|476:270,1,80.9999975280763,4|0,3:1|3:0,0:0:0:0:
410,366,78886,2,0,L|392:288,1,80.9999975280763,8|0,0:0|3:0,0:0:0:0:
185,251,79186,1,2,3:0:0:0:
143,340,79336,1,2,3:0:0:0:
288,269,79486,2,0,P|286:224|261:180,1,80.9999975280763,8|0,0:0|3:0,0:0:0:0:
197,72,79786,6,0,L|178:150,1,80.9999975280763,2|0,3:0|3:0,0:0:0:0:
92,105,80086,2,0,L|73:183,1,80.9999975280763,8|0,0:0|3:0,0:0:0:0:
185,251,80386,2,0,L|106:269,1,80.9999975280763,2|2,3:0|3:0,0:0:0:0:
152,356,80686,2,0,L|73:374,1,80.9999975280763,8|0,0:0|3:0,0:0:0:0:
1,219,80986,6,0,P|56:160|139:161,1,161.999995056153,2|8,3:0|0:0,0:0:0:0:
185,251,81436,1,0,3:0:0:0:
215,95,81586,1,2,3:0:0:0:
276,177,81736,1,2,3:0:0:0:
306,21,81886,2,0,L|384:2,1,80.9999975280763,8|0,0:0|3:0,0:0:0:0:
440,203,82186,5,2,3:0:0:0:
466,105,82336,1,0,3:0:0:0:
342,229,82486,1,8,0:0:0:0:
414,301,82636,1,0,0:0:0:0:
414,301,82711,1,0,0:0:0:0:
414,301,82786,1,2,3:0:0:0:
368,131,82936,1,2,3:0:0:0:
316,327,83086,1,8,0:0:0:0:
512,275,83236,1,0,3:0:0:0:
342,229,83386,6,0,L|240:205,1,80.9999975280763,2|0,3:0|3:0,0:0:0:0:
191,138,83686,2,0,L|89:162,1,80.9999975280763,8|0,0:0|3:0,0:0:0:0:
66,326,83986,1,2,3:0:0:0:
138,254,84136,1,2,3:0:0:0:
14,130,84286,1,8,0:0:0:0:
39,227,84436,1,0,3:0:0:0:
112,156,84586,6,0,L|136:54,1,80.9999975280763,2|0,3:0|3:0,0:0:0:0:
228,260,84886,2,0,L|209:181,1,80.9999975280763,8|0,0:0|3:0,0:0:0:0:
300,384,85186,2,0,L|198:360,1,80.9999975280763,2|2,3:0|3:0,0:0:0:0:
404,268,85486,2,0,L|325:286,1,80.9999975280763,8|0,0:0|3:0,0:0:0:0:
378,88,85786,6,0,P|464:80|518:134,1,161.999995056153,2|8,3:0|0:0,0:0:0:0:
502,242,86236,1,0,3:0:0:0:
323,174,86386,1,2,3:0:0:0:
430,366,86536,1,2,3:0:0:0:
235,270,86686,2,0,P|199:250|159:246,1,80.9999975280763,4|2,0:0|3:0,0:0:0:0:
303,358,86986,5,8,0:0:0:0:
333,325,87061,1,8,0:0:0:0:
347,282,87136,1,8,0:0:0:0:
343,238,87211,1,8,0:0:0:0:
322,199,87286,1,2,0:3:0:0:
300,159,87361,1,2,0:3:0:0:
296,115,87436,1,2,0:3:0:0:
310,73,87511,1,2,0:3:0:0:
341,40,87586,1,2,0:3:0:0:
382,23,87661,1,2,0:3:0:0:
426,28,87736,1,2,0:3:0:0:
462,54,87811,1,2,0:3:0:0:
482,94,87886,2,0,L|460:181,1,90,12|0,0:0|3:0,0:0:0:0:
235,270,88186,6,0,P|194:256|159:229,1,80.9999975280763,4|0,0:0|3:0,0:0:0:0:
132,136,88486,1,8,0:0:0:0:
307,198,88636,2,0,L|326:277,1,80.9999975280763,2|0,0:3|3:0,0:0:0:0:
422,93,88936,2,0,L|404:172,1,80.9999975280763,2|0,0:3|3:0,0:0:0:0:
397,348,89236,1,8,0:0:0:0:
237,103,89386,5,2,1:3:0:0:
237,103,89986,1,8,0:0:0:0:
237,103,90286,2,0,L|316:84,1,80.9999975280763,12|0,0:0|3:0,0:0:0:0:
424,282,90586,6,0,L|345:301,1,80.9999975280763,4|0,0:0|3:0,0:0:0:0:
238,285,90886,1,8,0:0:0:0:
402,147,91036,2,0,P|418:109|419:65,1,80.9999975280763,2|0,0:3|3:0,0:0:0:0:
315,84,91336,2,0,P|309:43|288:4,1,80.9999975280763,2|0,0:3|3:0,0:0:0:0:
150,52,91636,1,8,0:0:0:0:
58,306,91786,5,2,0:3:0:0:
58,306,92386,1,8,0:0:0:0:
58,306,92686,2,0,L|77:384,1,80.9999975280763,12|0,0:0|3:0,0:0:0:0:
248,356,92986,6,0,P|289:345|319:321,1,80.9999975280763,4|0,0:0|3:0,0:0:0:0:
319,215,93286,1,8,0:0:0:0:
476,306,93436,2,0,L|457:385,1,80.9999975280763,2|0,0:3|3:0,0:0:0:0:
419,215,93736,2,0,L|438:136,1,80.9999975280763,2|0,0:3|3:0,0:0:0:0:
467,33,94036,1,8,0:0:0:0:
262,124,94186,5,2,1:3:0:0:
332,311,94336,1,2,3:0:0:0:
419,215,94486,1,0,3:0:0:0:
241,273,94636,1,2,3:0:0:0:
170,74,94786,1,8,0:0:0:0:
170,74,95086,2,0,L|151:153,1,80.9999975280763,8|0,0:0|3:0,0:0:0:0:
107,352,95386,5,4,0:0:0:0:
50,181,95536,1,0,3:0:0:0:
289,220,95686,1,0,3:1:0:0:
289,220,95986,5,4,0:0:0:0:
289,18,96136,1,0,3:0:0:0:
136,251,96286,1,0,3:1:0:0:
136,251,96586,5,4,0:0:0:0:
318,119,96736,1,0,3:0:0:0:
318,119,96811,1,8,3:1:0:0:
318,119,96886,1,2,0:3:0:0:
170,74,97036,1,8,3:1:0:0:
289,220,97186,2,0,L|367:201,1,80.9999975280763,2|0,0:3|3:0,0:0:0:0:
512,51,97486,5,12,0:0:0:0:
512,51,97786,6,0,P|471:70|427:72,1,90,4|0,0:0|0:0,0:0:0:0:
289,220,98086,2,0,L|267:133,1,90,8|0,0:0|0:0,0:0:0:0:
90,83,98386,1,2,0:3:0:0:
42,261,98536,1,2,0:3:0:0:
250,319,98686,1,8,0:0:0:0:
117,186,98836,1,0,0:0:0:0:
162,382,98986,5,2,0:3:0:0:
117,186,99136,1,0,0:0:0:0:
351,307,99286,2,0,L|438:285,1,90,8|0,0:0|0:0,0:0:0:0:
399,44,99586,5,2,0:3:0:0:
289,220,99736,1,2,0:3:0:0:
90,83,99886,2,0,L|3:61,1,90,8|0,0:0|0:0,0:0:0:0:
148,285,100186,5,2,0:3:0:0:
247,105,100336,1,0,0:0:0:0:
438,284,100486,2,0,L|462:370,1,90,8|0,0:0|0:0,0:0:0:0:
512,186,100786,5,2,0:3:0:0:
370,35,100936,1,2,0:3:0:0:
270,232,101086,2,0,L|245:318,1,90,8|0,0:0|0:0,0:0:0:0:
265,35,101386,5,2,0:3:0:0:
120,198,101536,1,0,0:0:0:0:
334,152,101686,1,8,0:0:0:0:
133,63,101836,1,0,0:0:0:0:
245,319,101986,5,2,0:3:0:0:
424,130,102136,1,2,0:3:0:0:
133,63,102286,1,8,0:0:0:0:
245,319,102436,1,0,0:0:0:0:
424,130,102586,6,0,P|449:93|454:48,1,90,2|0,0:3|0:0,0:0:0:0:
182,254,102886,2,0,P|156:290|150:334,1,90,8|0,0:0|0:0,0:0:0:0:
361,364,103186,1,2,0:3:0:0:
313,192,103336,1,2,0:3:0:0:
257,384,103486,1,8,0:0:0:0:
209,172,103636,1,0,0:0:0:0:
463,270,103786,5,2,0:3:0:0:
257,384,103936,1,0,0:0:0:0:
463,270,104086,2,0,L|482:182,1,90,8|0,0:0|0:0,0:0:0:0:
272,119,104386,5,2,0:3:0:0:
463,270,104536,1,0,0:0:0:0:
272,119,104686,2,0,L|253:31,1,90,8|0,0:0|0:0,0:0:0:0:
94,198,104986,5,4,0:0:0:0:
312,192,105136,1,0,0:0:0:0:
154,360,105286,1,8,0:0:0:0:
360,274,105436,1,0,0:0:0:0:
135,112,105586,5,2,0:3:0:0:
353,106,105736,1,2,0:3:0:0:
195,274,105886,1,8,0:0:0:0:
401,188,106036,1,0,0:0:0:0:
184,21,106186,5,12,0:0:0:0:
276,320,106336,1,8,0:0:0:0:
442,102,106486,1,8,0:0:0:0:
122,239,106636,1,12,0:0:0:0:
122,239,106936,5,12,0:0:0:0:
296,104,107086,1,2,0:3:0:0:
94,21,107236,1,0,0:3:0:0:
230,208,107386,6,0,L|325:183,1,90,12|2,0:0|0:3,0:0:0:0:
413,3,107686,2,0,L|318:28,1,90,8|2,0:0|0:3,0:0:0:0:
150,130,107986,1,8,0:0:0:0:
202,317,108136,1,2,0:3:0:0:
317,185,108286,1,8,0:0:0:0:
122,239,108436,1,2,0:3:0:0:
398,263,108586,5,8,0:0:0:0:
255,104,108736,1,2,0:3:0:0:
312,343,108886,5,8,0:0:0:0:
498,178,109036,1,2,0:3:0:0:
224,265,109186,5,8,0:0:0:0:
422,369,109336,1,2,0:3:0:0:
380,105,109486,5,8,0:0:0:0:
136,187,109636,1,2,0:3:0:0:
398,263,109786,5,8,0:0:0:0:
316,26,109936,1,2,0:3:0:0:
224,265,110086,5,8,0:0:0:0:
409,86,110236,1,2,0:3:0:0:
312,342,110386,5,8,0:0:0:0:
171,134,110536,1,2,0:3:0:0:
120,384,110686,5,8,0:0:0:0:
276,168,110836,1,2,0:3:0:0:
422,369,110986,5,8,0:0:0:0:
224,265,111136,1,2,0:3:0:0:
460,177,111286,1,8,0:0:0:0:
312,342,111436,1,2,0:3:0:0:
409,86,111586,5,8,0:0:0:0:
512,309,111736,1,2,0:3:0:0:
276,168,111886,1,8,0:0:0:0:
512,87,112036,1,2,0:3:0:0:
330,248,112186,6,0,P|243:258|184:194,1,180,4|8,0:0|0:0,0:0:0:0:
310,3,112636,2,0,L|335:98,1,90,2|0,0:3|0:0,0:0:0:0:
403,180,112936,2,0,L|426:268,1,90,2|0,0:3|0:0,0:0:0:0:
473,60,113236,1,8,0:0:0:0:
276,168,113386,6,0,L|86:118,1,180,4|8,0:0|0:0,0:0:0:0:
33,282,113836,2,0,P|77:276|115:252,1,90,2|0,0:3|0:0,0:0:0:0:
163,352,114136,2,0,P|198:325|219:286,1,90,2|0,0:3|0:0,0:0:0:0:
198,113,114436,1,8,0:0:0:0:
322,263,114586,6,0,L|372:73,1,180,4|8,0:0|0:0,0:0:0:0:
425,249,115036,2,0,L|512:226,1,90,2|0,0:3|0:0,0:0:0:0:
355,371,115336,2,0,L|268:349,1,90,2|0,0:3|0:0,0:0:0:0:
106,306,115636,1,8,0:0:0:0:
209,117,115786,6,0,P|296:107|355:171,1,180,4|8,0:0|0:0,0:0:0:0:
267,348,116236,2,0,L|244:260,1,90,2|0,0:3|0:0,0:0:0:0:
113,162,116536,2,0,L|90:249,1,90,2|0,0:3|0:0,0:0:0:0:
58,377,116836,1,8,0:0:0:0:
267,348,116986,5,6,0:3:0:0:
146,145,117286,2,0,L|51:120,1,90,0|0,0:0|0:0,0:0:0:0:
324,283,117586,5,6,0:3:0:0:
117,167,117886,2,0,L|22:192,1,90,0|0,0:0|0:0,0:0:0:0:
340,198,118186,5,6,0:3:0:0:
103,201,118486,2,0,L|33:270,1,90,0|0,0:0|0:0,0:0:0:0:
312,116,118786,5,6,0:3:0:0:
108,237,119086,2,0,L|82:332,1,90,0|0,0:0|0:0,0:0:0:0:
246,58,119386,5,6,0:3:0:0:
130,265,119686,2,0,L|155:359,1,90,0|0,0:0|0:0,0:0:0:0:
402,255,119986,5,6,0:3:0:0:
318,350,120136,1,0,0:0:0:0:
209,148,120286,1,8,0:0:0:0:
209,148,120586,5,8,0:0:0:0:
397,29,120736,1,2,0:3:0:0:
196,246,120886,5,8,0:0:0:0:
427,196,121036,1,2,0:3:0:0:
154,337,121186,5,8,0:0:0:0:
405,371,121336,1,2,0:3:0:0:
302,89,121486,1,8,0:0:0:0:
302,89,121786,6,0,L|324:176,1,90,4|0,0:0|0:0,0:0:0:0:
236,367,122086,2,0,P|178:354|144:326,1,90,8|0,0:0|0:0,0:0:0:0:
202,155,122386,1,2,0:3:0:0:
153,336,122536,1,2,0:3:0:0:
97,128,122686,1,8,0:0:0:0:
125,232,122836,1,0,0:0:0:0:
185,53,122986,6,0,L|298:23,1,90,2|0,0:3|0:0,0:0:0:0:
384,198,123286,2,0,L|297:174,1,90,8|0,0:0|0:0,0:0:0:0:
125,232,123586,1,2,0:3:0:0:
297,279,123736,1,2,0:3:0:0:
99,336,123886,1,8,0:0:0:0:
324,384,124036,1,0,0:0:0:0:
99,336,124186,6,0,P|58:318|27:285,1,90,2|0,0:3|0:0,0:0:0:0:
180,66,124486,2,0,L|202:153,1,90,8|0,0:0|0:0,0:0:0:0:
297,279,124786,1,2,0:3:0:0:
126,231,124936,1,2,0:3:0:0:
297,279,125086,2,0,L|384:257,1,90,8|0,0:0|0:0,0:0:0:0:
341,84,125386,6,0,P|256:83|201:154,2,180,2|8|2,0:3|0:0|0:3,0:0:0:0:
488,228,126136,1,2,0:3:0:0:
297,172,126286,1,8,0:0:0:0:
429,40,126436,1,0,0:0:0:0:
392,230,126586,6,0,L|369:318,1,90,2|0,0:3|0:0,0:0:0:0:
201,152,126886,2,0,L|178:64,1,90,0|0,0:0|0:0,0:0:0:0:
101,141,127186,1,2,0:3:0:0:
297,172,127336,1,2,0:3:0:0:
128,246,127486,1,8,0:0:0:0:
178,64,127636,1,0,0:0:0:0:
233,273,127786,6,0,L|346:243,1,90,2|0,0:3|0:0,0:0:0:0:
101,141,128086,2,0,L|14:117,1,90,8|0,0:0|0:0,0:0:0:0:
128,246,128386,1,2,0:3:0:0:
178,64,128536,1,2,0:3:0:0:
128,246,128686,2,0,L|98:359,1,90,8|0,0:0|0:0,0:0:0:0:
286,382,128986,5,4,0:0:0:0:
245,231,129136,1,0,0:0:0:0:
427,281,129286,1,8,0:0:0:0:
184,369,129436,2,0,P|140:358|104:332,1,90,0|2,0:0|0:3,0:0:0:0:
350,204,129736,2,0,P|386:177|429:167,1,90,2|8,0:3|0:0,0:0:0:0:
479,349,130036,1,0,0:0:0:0:
256,282,130186,5,12,0:0:0:0:
429,167,130336,1,8,0:0:0:0:
278,378,130486,1,2,0:3:0:0:
235,366,130561,1,2,0:3:0:0:
191,355,130636,1,2,0:3:0:0:
148,343,130711,1,2,0:3:0:0:
104,332,130786,6,0,P|78:290|74:250,1,90,8|0,0:0|0:0,0:0:0:0:
301,115,131086,2,0,P|302:183|219:172,1,161.999995056153,12|0,0:0|3:0,0:0:0:0:
205,82,131386,5,4,0:0:0:0:
205,82,132286,2,0,L|118:60,1,90,8|0,0:0|3:0,0:0:0:0:
67,241,132586,5,2,0:3:0:0:
249,191,132736,2,0,P|293:197|331:221,1,90,8|0,0:0|3:0,0:0:0:0:
188,338,133036,2,0,L|143:163,1,180,4|2,0:0|0:3,0:0:0:0:
353,133,133486,2,0,L|331:220,1,90,8|0,0:0|3:0,0:0:0:0:
205,82,133786,6,0,P|242:58|287:51,1,90,4|0,0:0|3:0,0:0:0:0:
413,189,134086,2,0,P|375:212|330:219,1,90,8|0,0:0|3:0,0:0:0:0:
149,214,134386,2,0,P|186:190|231:183,1,90,2|0,3:0|3:0,0:0:0:0:
357,321,134686,2,0,P|319:344|274:351,1,90,8|0,0:0|3:0,0:0:0:0:
122,319,134986,5,2,3:0:0:0:
149,214,135136,1,0,3:0:0:0:
45,242,135286,1,8,0:0:0:0:
72,137,135436,1,0,3:0:0:0:
254,187,135586,5,2,3:0:0:0:
45,242,135736,1,2,3:0:0:0:
199,32,135886,1,8,0:0:0:0:
149,214,136036,1,2,3:0:0:0:
331,110,136186,5,0,1:0:0:0:
331,110,136936,1,2,3:3:0:0:
254,187,137086,2,0,L|276:274,1,90,8|0,0:0|3:0,0:0:0:0:
462,330,137386,5,2,0:3:0:0:
280,380,137536,2,0,P|236:374|198:350,1,90,8|0,0:0|3:0,0:0:0:0:
254,187,137836,2,0,L|429:142,1,180,4|2,0:0|0:3,0:0:0:0:
363,296,138286,2,0,L|275:273,1,90,8|0,0:0|3:0,0:0:0:0:
134,107,138586,6,0,P|110:144|103:189,1,90,4|0,0:0|3:0,0:0:0:0:
275,273,138886,2,0,P|298:235|305:190,1,90,8|0,0:0|3:0,0:0:0:0:
179,264,139186,2,0,P|185:308|209:346,1,90,2|0,3:0|3:0,0:0:0:0:
401,201,139486,2,0,P|394:156|370:118,1,90,8|0,1:0|3:0,0:0:0:0:
211,30,139786,5,2,3:0:0:0:
134,107,139936,1,0,3:0:0:0:
239,134,140086,1,8,1:0:0:0:
162,211,140236,1,0,3:0:0:0:
29,80,140386,5,2,3:0:0:0:
0,245,140536,1,2,3:0:0:0:
106,3,140686,1,8,1:0:0:0:
162,211,140836,1,2,3:0:0:0:
316,57,140986,6,0,L|447:23,1,135.000005149842,4|2,0:0|0:3,0:0:0:0:
292,244,141586,2,0,L|160:210,1,135.000005149842,8|2,0:0|0:3,0:0:0:0:
344,161,142186,1,2,0:3:0:0:
390,248,142336,2,0,L|373:313,1,67.5000025749208,8|2,0:0|0:3,0:0:0:0:
288,368,142636,1,0,0:0:0:0:
99,297,142786,2,0,P|66:302|38:319,1,67.5000025749208,8|0,0:0|0:0,0:0:0:0:
209,282,143086,2,0,P|226:253|231:220,1,67.5000025749208,2|0,0:3|0:0,0:0:0:0:
77,65,143386,6,0,L|43:197,1,135.000005149842,4|2,0:0|0:3,0:0:0:0:
198,350,143986,2,0,L|231:219,1,135.000005149842,8|2,0:0|0:3,0:0:0:0:
364,87,144586,1,2,0:3:0:0:
441,164,144736,2,0,P|485:155|510:134,1,67.5000025749208,8|0,0:0|0:0,0:0:0:0:
413,268,145036,1,0,0:0:0:0:
248,153,145186,2,0,L|231:218,1,67.5000025749208,8|0,0:0|0:0,0:0:0:0:
128,263,145486,2,0,L|145:328,1,67.5000025749208,2|0,0:3|0:0,0:0:0:0:
390,360,145786,5,2,0:3:0:0:
390,360,146686,2,0,P|339:353|316:337,1,67.5000025749208,8|0,0:0|3:0,0:0:0:0:
284,233,146986,5,2,0:3:0:0:
222,384,147136,1,8,0:0:0:0:
372,268,147286,1,0,0:0:0:0:
187,296,147436,2,0,P|138:251|148:143,1,180,4|0,0:0|0:0,0:0:0:0:
333,52,147886,1,8,0:0:0:0:
284,233,148036,1,2,0:3:0:0:
219,45,148186,5,8,0:0:0:0:
416,118,148336,1,2,0:3:0:0:
184,124,148486,5,8,0:0:0:0:
357,256,148636,1,2,0:3:0:0:
120,177,148786,5,8,0:0:0:0:
248,361,148936,1,2,0:3:0:0:
41,193,149086,5,8,0:0:0:0:
117,384,149236,1,2,0:3:0:0:
184,124,149386,5,8,0:0:0:0:
175,335,149536,1,2,0:3:0:0:
326,113,149686,5,8,0:0:0:0:
250,318,149836,1,2,0:3:0:0:
483,148,149986,5,8,0:0:0:0:
329,316,150136,1,2,0:3:0:0:
253,62,150286,6,0,L|166:40,1,90,8|0,0:0|0:0,0:0:0:0:
124,246,150586,5,4,0:0:0:0:
124,246,151186,5,4,0:0:0:0:
124,246,151786,6,0,L|37:224,1,90,4|0,0:0|3:0,0:0:0:0:
5,219,152011,1,2,0:3:0:0:
5,219,152086,1,2,0:3:0:0:
179,338,152236,1,8,0:0:0:0:
200,169,152386,2,0,P|255:98|354:99,1,180,2|12,0:3|0:0,0:0:0:0:
351,307,152986,6,0,P|304:262|304:196,2,135.000005149842,0|0|0,0:0|0:0|0:0,0:0:0:0:
455,279,153736,1,0,0:0:0:0:
428,384,153886,1,0,0:0:0:0:
455,279,154036,1,0,0:0:0:0:
304,195,154186,5,2,0:3:0:0:
259,189,154261,1,2,0:3:0:0:
219,208,154336,1,2,0:3:0:0:
194,245,154411,1,2,0:3:0:0:
170,283,154486,1,2,0:3:0:0:
130,302,154561,1,2,0:3:0:0:
85,296,154636,1,2,0:3:0:0:
50,268,154711,1,2,0:3:0:0:
47,246,154786,5,2,0:3:0:0:
43,223,154861,1,2,0:3:0:0:
41,201,154936,1,2,0:3:0:0:
37,179,155011,1,2,0:3:0:0:
33,157,155086,1,8,0:0:0:0:
30,134,155161,1,8,0:0:0:0:
27,112,155236,1,8,0:0:0:0:
23,89,155311,1,8,0:0:0:0:
19,67,155386,5,4,0:0:0:0:
163,215,155536,1,0,0:0:0:0:
307,54,155686,2,0,L|396:29,1,90,8|0,0:0|0:0,0:0:0:0:
376,253,155986,5,2,0:3:0:0:
232,105,156136,1,2,0:3:0:0:
88,266,156286,2,0,L|-1:290,1,90,8|0,0:0|0:0,0:0:0:0:
127,80,156586,5,2,0:3:0:0:
340,163,156736,1,0,0:0:0:0:
197,326,156886,1,8,0:0:0:0:
264,85,157036,1,0,0:0:0:0:
503,244,157186,5,2,0:3:0:0:
236,191,157336,1,2,0:3:0:0:
491,63,157486,1,8,0:0:0:0:
469,347,157636,1,0,0:0:0:0:
351,105,157786,6,0,L|250:83,1,90,2|0,0:3|0:0,0:0:0:0:
199,326,158086,2,0,L|300:304,1,90,8|0,0:0|0:0,0:0:0:0:
160,114,158386,1,2,0:3:0:0:
111,294,158536,1,2,0:3:0:0:
331,209,158686,1,8,0:0:0:0:
160,114,158836,1,0,0:0:0:0:
199,326,158986,5,2,0:3:0:0:
24,146,159136,1,0,0:0:0:0:
231,189,159286,2,0,L|143:208,1,90,8|0,0:0|0:0,0:0:0:0:
276,364,159586,5,2,0:3:0:0:
254,96,159736,1,2,0:3:0:0:
23,275,159886,2,0,L|111:294,1,90,8|0,0:0|0:0,0:0:0:0:
353,313,160186,5,4,0:0:0:0:
409,102,160336,1,0,0:0:0:0:
173,264,160486,1,8,0:0:0:0:
117,53,160636,1,0,0:0:0:0:
261,288,160786,5,2,0:3:0:0:
317,77,160936,1,2,0:3:0:0:
82,237,161086,1,8,0:0:0:0:
25,28,161236,1,0,0:0:0:0:
300,170,161386,5,12,0:0:0:0:
5,313,161536,1,8,0:0:0:0:
117,53,161686,1,8,0:0:0:0:
410,238,161836,1,12,0:0:0:0:
410,238,162136,5,12,0:0:0:0:
322,82,162286,1,2,0:3:0:0:
316,103,162361,1,2,0:3:0:0:
310,125,162436,1,2,0:3:0:0:
305,147,162511,1,2,0:3:0:0:
300,170,162586,6,0,L|213:147,1,90,12|2,0:0|0:3,0:0:0:0:
350,352,162886,2,0,L|437:329,1,90,8|2,0:0|0:3,0:0:0:0:
474,137,163186,1,8,0:0:0:0:
322,260,163336,1,2,0:3:0:0:
378,52,163486,1,8,0:0:0:0:
410,238,163636,1,2,0:3:0:0:
185,85,163786,5,8,0:0:0:0:
392,142,163936,1,2,0:3:0:0:
155,212,164086,5,8,0:0:0:0:
378,52,164236,1,2,0:3:0:0:
104,1,164386,5,8,0:0:0:0:
302,115,164536,1,2,0:3:0:0:
74,128,164686,5,8,0:0:0:0:
288,25,164836,1,2,0:3:0:0:
236,292,164986,5,8,0:0:0:0:
193,49,165136,1,2,0:3:0:0:
98,293,165286,5,8,0:0:0:0:
302,115,165436,1,2,0:3:0:0:
317,376,165586,5,8,0:0:0:0:
209,136,165736,1,2,0:3:0:0:
179,377,165886,5,8,0:0:0:0:
411,210,166036,1,2,0:3:0:0:
155,212,166186,5,8,0:0:0:0:
364,293,166336,1,2,0:3:0:0:
378,52,166486,1,8,0:0:0:0:
248,221,166636,1,2,0:3:0:0:
458,127,166786,5,8,0:0:0:0:
209,136,166936,1,2,0:3:0:0:
387,323,167086,1,8,0:0:0:0:
378,52,167236,1,2,0:3:0:0:
304,296,167386,6,0,P|219:311|158:245,1,180,4|8,0:0|0:0,0:0:0:0:
98,29,167836,2,0,L|75:116,1,90,2|0,0:3|0:0,0:0:0:0:
247,220,168136,2,0,L|225:133,1,90,2|0,0:3|0:0,0:0:0:0:
272,18,168436,1,8,0:0:0:0:
338,211,168586,6,0,B|452:241|452:241|513:215,1,180,4|8,0:0|0:0,0:0:0:0:
378,31,169036,2,0,P|354:68|348:112,1,90,2|0,0:3|0:0,0:0:0:0:
181,163,169336,2,0,P|208:198|247:219,1,90,2|0,0:3|0:0,0:0:0:0:
205,49,169636,1,8,0:0:0:0:
93,203,169786,6,0,L|47:377,1,180,4|8,0:0|0:0,0:0:0:0:
278,344,170236,2,0,L|255:257,1,90,2|0,0:3|0:0,0:0:0:0:
203,75,170536,2,0,L|181:162,1,90,2|0,0:3|0:0,0:0:0:0:
147,295,170836,1,8,0:0:0:0:
320,119,170986,6,0,P|407:109|466:173,1,180,4|8,0:0|0:0,0:0:0:0:
365,366,171436,2,0,L|277:343,1,90,2|0,0:3|0:0,0:0:0:0:
93,203,171736,2,0,L|181:180,1,90,2|0,0:3|0:0,0:0:0:0:
374,199,172036,1,8,0:0:0:0:
189,326,172186,5,6,0:3:0:0:
411,290,172486,2,0,L|488:243,1,90,0|0,0:0|0:0,0:0:0:0:
189,326,172786,5,6,0:3:0:0:
374,199,173086,2,0,L|424:123,1,90,0|0,0:0|0:0,0:0:0:0:
189,326,173386,5,6,0:3:0:0:
304,131,173686,2,0,L|318:41,1,90,0|0,0:0|0:0,0:0:0:0:
189,326,173986,5,6,0:3:0:0:
210,100,174286,2,0,L|185:12,1,90,0|0,0:0|0:0,0:0:0:0:
189,326,174586,5,6,0:3:0:0:
114,112,174886,2,0,L|54:43,1,90,0|0,0:0|0:0,0:0:0:0:
35,252,175186,5,6,0:3:0:0:
150,213,175336,1,0,0:0:0:0:
276,384,175486,1,8,0:0:0:0:
276,384,175786,5,8,0:0:0:0:
503,272,175936,1,2,0:3:0:0:
242,232,176086,5,8,0:0:0:0:
506,178,176236,1,2,0:3:0:0:
199,67,176386,5,8,0:0:0:0:
509,84,176536,1,2,0:3:0:0:
276,384,176686,1,8,0:0:0:0:
276,384,176986,6,0,L|301:289,1,90,4|0,0:0|0:0,0:0:0:0:
135,156,177286,2,0,P|140:200|160:240,1,90,8|0,0:0|0:0,0:0:0:0:
328,191,177586,1,2,0:3:0:0:
328,191,177736,1,2,0:3:0:0:
189,337,177886,2,0,L|94:312,1,90,8|0,0:0|0:0,0:0:0:0:
135,156,178186,6,0,L|221:131,1,90,2|0,0:3|0:0,0:0:0:0:
384,320,178486,2,0,L|297:295,1,90,8|0,0:0|0:0,0:0:0:0:
358,86,178786,1,2,0:3:0:0:
358,86,178936,1,2,0:3:0:0:
455,255,179086,2,0,P|475:294|477:339,1,90,8|0,0:0|0:0,0:0:0:0:
198,215,179386,6,0,P|200:170|220:130,1,90,2|0,0:3|0:0,0:0:0:0:
297,295,179686,2,0,P|294:339|274:379,1,90,8|0,0:0|0:0,0:0:0:0:
114,305,179986,1,2,0:3:0:0:
114,305,180136,1,2,0:3:0:0:
299,197,180286,2,0,L|385:172,1,90,8|0,0:0|0:0,0:0:0:0:
189,39,180586,6,0,P|104:38|49:109,2,180,2|8|2,0:3|0:0|0:3,0:0:0:0:
299,197,181336,1,2,0:3:0:0:
402,8,181486,1,8,0:0:0:0:
220,130,181636,1,0,0:0:0:0:
370,274,181786,6,0,L|465:249,1,90,2|0,0:3|0:0,0:0:0:0:
201,231,182086,2,0,L|113:253,1,90,8|0,0:0|0:0,0:0:0:0:
305,368,182386,1,2,0:3:0:0:
305,368,182536,1,2,0:3:0:0:
397,172,182686,2,0,P|391:127|371:87,1,90,8|0,0:0|0:0,0:0:0:0:
149,39,182986,6,0,L|171:126,1,90,2|0,0:3|0:0,0:0:0:0:
305,368,183286,2,0,L|282:280,1,90,8|0,0:0|0:0,0:0:0:0:
273,107,183586,1,2,0:3:0:0:
273,107,183736,1,2,0:3:0:0:
113,253,183886,2,0,P|68:247|28:227,1,90,8|0,0:0|0:0,0:0:0:0:
149,39,184186,5,12,0:0:0:0:
237,199,184336,1,2,0:3:0:0:
251,21,184486,5,8,0:0:0:0:
315,208,184636,1,2,0:3:0:0:
363,21,184786,5,8,0:0:0:0:
396,232,184936,1,2,0:3:0:0:
482,42,185086,5,8,0:0:0:0:
477,272,185236,1,2,0:3:0:0:
273,117,185386,5,8,0:0:0:0:
509,126,185536,1,2,0:3:0:0:
237,199,185686,5,8,0:0:0:0:
477,272,185836,1,2,0:3:0:0:
148,202,185986,5,8,0:0:0:0:
331,383,186136,1,2,0:3:0:0:
70,138,186286,5,8,0:0:0:0:
172,384,186436,1,2,0:3:0:0:
172,57,186586,5,8,0:0:0:0:
79,315,186736,1,2,0:3:0:0:
313,106,186886,5,8,0:0:0:0:
371,372,187036,1,2,0:3:0:0:
246,217,187186,5,8,0:0:0:0:
199,198,187261,1,0,0:0:0:0:
149,200,187336,1,2,0:3:0:0:
105,224,187411,1,2,0:3:0:0:
75,264,187486,2,0,L|64:321,1,45,8|0,0:0|0:0,0:0:0:0:
255,375,187636,2,0,L|246:330,1,45,2|0,0:3|0:0,0:0:0:0:
34,99,187786,5,8,0:0:0:0:
156,358,187936,1,2,0:3:0:0:
391,166,188086,5,8,0:0:0:0:
75,264,188236,1,2,0:3:0:0:
427,313,188386,5,8,0:0:0:0:
292,20,188536,1,2,0:3:0:0:
5,191,188686,1,12,0:0:0:0:
