osu file format v14

[General]
AudioFilename: audio.mp3
AudioLeadIn: 0
PreviewTime: 44907
Countdown: 0
SampleSet: Normal
StackLeniency: 0.2
Mode: 0
LetterboxInBreaks: 0
WidescreenStoryboard: 0

[Editor]
Bookmarks: 68907,78507,131307,140907,188607
DistanceSpacing: 1
BeatDivisor: 4
GridSize: 16
TimelineZoom: 1

[Metadata]
Title:Zettai Tokken Shuchou Shimasu! Hoshi Syoko Solo Remix
TitleUnicode:絶対特権主張しますっ! 星輝子ソロ・リミックス
Artist:Syoko Hoshi (CV: Satsumi Matsuda)
ArtistUnicode:星輝子(CV:松田颯水)
Creator:Lami
Version:Corinn's Normal
Source:アイドルマスター シンデレラガールズ
Tags:IDOLM@STER idolmaster cinderella girls imas 絶対ピンクな小箱 zettai pink na kobako intoon ProEzreal Akitoshi Kalibe Yuria Gaia Karia Shirasaka Koume TriCastle Story -Brand new Castle-
BeatmapID:1163989
BeatmapSetID:546878

[Difficulty]
HPDrainRate:4
CircleSize:3
OverallDifficulty:4
ApproachRate:5
SliderMultiplier:0.999999999999999
SliderTickRate:1

[Events]
//Background and Video events
0,0,"BG.jpg",0,0
//Break Periods
2,69186,77386
2,131586,139786
//Storyboard Layer 0 (Background)
//Storyboard Layer 1 (Fail)
//Storyboard Layer 2 (Pass)
//Storyboard Layer 3 (Foreground)
//Storyboard Sound Samples

[TimingPoints]
586,300,4,1,1,70,1,0
1786,-100,4,3,1,50,0,0
6586,-100,4,1,1,65,0,0
11386,-100,4,3,1,55,0,0
14986,-100,4,1,1,65,0,0
16186,-100,4,1,1,70,0,0
25786,-100,4,1,1,55,0,0
34186,-100,4,1,1,55,0,0
35386,-100,4,1,1,65,0,0
44986,-100,4,1,1,75,0,1
68986,-100,4,1,1,70,0,0
78586,-100,4,1,1,55,0,0
86986,-100,4,1,1,55,0,0
88186,-100,4,1,1,65,0,0
97786,-100,4,1,1,75,0,1
121786,-100,4,1,1,70,0,0
131086,-100,4,1,1,70,0,0
131386,-100,4,1,1,65,0,0
140986,-100,4,1,1,50,0,0
146986,-100,4,1,1,50,0,0
148186,-100,4,1,1,70,0,0
152986,-100,4,3,1,55,0,0
154186,-100,4,1,1,70,0,0
155386,-100,4,1,1,70,0,1
176986,-100,4,1,1,70,0,0

[Colours]
Combo1 : 242,136,208
Combo2 : 253,155,66
Combo3 : 28,193,249
Combo4 : 232,215,0

[HitObjects]
3,97,1786,6,0,P|43:54|177:55,1,200,4|0,0:2|0:0,0:0:0:0:
256,113,2686,1,2,0:2:0:0:
339,168,2986,2,0,L|457:162,1,99.9999999999999,0|2,0:0|3:2,0:0:0:0:
449,262,3586,2,0,L|331:268,1,99.9999999999999,0|2,3:0|3:2,0:0:0:0:
249,272,4186,6,0,P|251:324|250:379,2,99.9999999999999,0|2|0,3:0|3:2|3:0,0:0:0:0:
241,172,5086,1,2,3:2:0:0:
168,103,5386,2,0,P|116:93|67:101,1,99.9999999999999,0|2,3:0|3:2,0:0:0:0:
0,172,5986,2,0,L|2:236,1,50,2|0,3:2|0:0,0:0:0:0:
2,272,6286,1,8,0:1:0:0:
62,351,6586,6,0,P|114:361|163:353,1,99.9999999999999,6|8,0:3|0:0,0:0:0:0:
205,333,7036,1,2,0:3:0:0:
267,255,7336,2,0,L|260:139,1,99.9999999999999,2|8,0:3|0:0,0:0:0:0:
261,105,7786,2,0,P|298:81|373:79,1,99.9999999999999,6|8,0:3|0:0,0:0:0:0:
400,90,8236,1,2,0:3:0:0:
434,183,8536,2,0,L|441:299,1,99.9999999999999,2|8,0:3|0:0,0:0:0:0:
439,332,8986,6,0,B|393:348|393:348|335:344,1,99.9999999999999,6|8,0:3|0:0,0:0:0:0:
292,338,9436,1,2,0:3:0:0:
214,274,9736,2,0,P|168:259|108:261,1,99.9999999999999,2|8,0:3|0:0,0:0:0:0:
66,261,10186,2,0,B|54:212|54:212|57:141,1,99.9999999999999,6|8,0:3|0:0,0:0:0:0:
64,112,10636,1,2,0:3:0:0:
132,39,10936,2,0,P|173:27|238:34,1,99.9999999999999,2|8,0:3|0:0,0:0:0:0:
276,50,11386,6,0,L|384:43,1,99.9999999999999,6|2,1:3|0:2,0:0:0:0:
462,93,11986,1,6,1:3:0:0:
507,182,12286,1,2,0:2:0:0:
462,271,12586,2,0,L|468:372,1,99.9999999999999,6|2,1:3|0:2,0:0:0:0:
367,378,13186,2,0,L|361:277,1,99.9999999999999,6|2,1:3|0:2,0:0:0:0:
309,192,13786,6,0,P|255:178|196:196,1,99.9999999999999,6|2,1:3|0:2,0:0:0:0:
125,236,14386,1,6,1:3:0:0:
33,195,14686,1,8,0:1:0:0:
48,96,14986,2,0,L|29:36,2,50,8|2|8,0:0|0:3|0:0,0:0:0:0:
146,113,15586,2,0,B|198:113|198:113|258:96,1,99.9999999999999,8|8,0:0|0:0,0:0:0:0:
320,35,16186,6,0,P|342:83|338:134,1,99.9999999999999,4|8,0:0|0:0,0:0:0:0:
297,219,16786,2,0,L|304:279,2,50,2|2|8,0:3|0:3|0:0,0:0:0:0:
206,175,17386,2,0,P|159:177|106:213,2,99.9999999999999,2|8|2,0:3|0:0|0:3,0:0:0:0:
186,273,18286,1,8,0:0:0:0:
87,289,18586,6,0,P|45:260|24:209,2,99.9999999999999,2|8|2,0:3|0:0|0:3,0:0:0:0:
186,273,19486,1,8,0:0:0:0:
205,174,19786,2,0,L|206:63,1,99.9999999999999,2|8,0:3|0:0,0:0:0:0:
297,34,20386,1,2,0:3:0:0:
297,234,20986,6,0,P|341:227|387:191,1,99.9999999999999,2|8,0:3|0:0,0:0:0:0:
430,105,21586,2,0,L|421:38,2,50,2|2|8,0:3|0:3|0:0,0:0:0:0:
507,168,22186,2,0,P|515:209|493:276,2,99.9999999999999,2|8|2,0:3|0:0|0:3,0:0:0:0:
430,105,23086,1,8,0:0:0:0:
331,90,23386,6,0,P|277:94|220:90,1,99.9999999999999,4|8,0:0|0:0,0:0:0:0:
131,80,23986,2,0,B|124:130|124:130|131:188,1,99.9999999999999,2|8,0:3|0:0,0:0:0:0:
137,228,24436,2,0,L|252:223,1,99.9999999999999,4|8,0:0|0:0,0:0:0:0:
286,217,24886,1,2,0:3:0:0:
366,157,25186,1,8,0:0:0:0:
342,59,25486,2,0,L|283:54,1,50,8|8,0:0|0:0,0:0:0:0:
241,53,25786,6,0,P|202:92|191:154,1,99.9999999999999,4|8,3:1|0:0,0:0:0:0:
191,235,26386,2,0,L|196:289,2,50,2|2|8,3:0|3:0|0:0,0:0:0:0:
105,183,26986,2,0,P|55:179|-1:198,1,99.9999999999999,2|8,3:0|0:0,0:0:0:0:
6,293,27586,2,0,P|56:297|112:278,1,99.9999999999999,2|8,3:0|0:0,0:0:0:0:
191,235,28186,6,0,L|304:239,1,99.9999999999999,2|8,3:0|0:0,0:0:0:0:
345,242,28636,1,0,3:0:0:0:
345,242,28786,2,0,P|360:209|355:144,1,99.9999999999999,2|8,3:0|0:0,0:0:0:0:
313,55,29386,2,0,P|355:45|419:67,1,99.9999999999999,2|8,3:0|0:0,0:0:0:0:
485,124,29986,1,2,3:0:0:0:
500,222,30286,2,0,L|495:274,1,50,8|0,0:0|3:0,0:0:0:0:
474,317,30586,6,0,P|445:328|360:321,1,99.9999999999999,2|8,3:0|0:0,0:0:0:0:
283,289,31186,2,0,P|254:278|169:285,1,99.9999999999999,2|8,3:0|0:0,0:0:0:0:
141,295,31636,1,0,3:0:0:0:
141,295,31786,2,0,L|132:189,1,99.9999999999999,2|8,3:0|0:0,0:0:0:0:
120,95,32386,2,0,P|68:91|13:119,1,99.9999999999999,2|8,3:0|0:0,0:0:0:0:
8,207,32986,6,0,L|17:313,1,99.9999999999999,2|8,3:0|0:0,0:0:0:0:
28,360,33436,1,0,3:0:0:0:
28,360,33586,2,0,P|81:367|141:338,1,99.9999999999999,2|0,3:0|0:0,0:0:0:0:
199,286,34186,2,0,L|299:288,1,99.9999999999999,8|2,0:0|0:3,0:0:0:0:
308,188,34786,2,0,L|208:186,1,99.9999999999999,2|8,0:3|0:0,0:0:0:0:
108,172,35386,6,0,P|104:117|127:72,1,99.9999999999999,4|8,0:0|0:0,0:0:0:0:
158,43,35836,1,2,0:3:0:0:
253,14,36136,1,2,0:3:0:0:
335,79,36436,1,8,0:0:0:0:
335,79,36586,2,0,L|438:77,1,99.9999999999999,2|0,1:3|3:0,0:0:0:0:
505,148,37186,1,8,0:0:0:0:
505,248,37486,1,8,0:0:0:0:
434,318,37786,6,0,P|384:312|326:315,1,99.9999999999999,4|8,0:0|0:0,0:0:0:0:
286,327,38236,1,2,0:3:0:0:
202,272,38536,1,2,0:3:0:0:
212,174,38836,1,8,0:0:0:0:
212,174,38986,2,0,L|203:69,1,99.9999999999999,2|0,0:3|3:0,0:0:0:0:
110,37,39586,1,8,0:0:0:0:
42,111,39886,1,8,0:0:0:0:
50,210,40186,6,0,P|89:244|150:255,1,99.9999999999999,4|8,0:0|0:0,0:0:0:0:
184,258,40636,1,2,0:3:0:0:
279,229,40936,1,2,0:3:0:0:
302,133,41236,1,8,0:0:0:0:
302,133,41386,2,0,L|294:26,1,99.9999999999999,2|0,1:3|3:0,0:0:0:0:
194,25,41986,1,8,0:0:0:0:
139,108,42286,1,8,0:0:0:0:
164,204,42586,6,0,P|106:202|42:88,2,200,4|4|4,0:0|0:0|0:0,0:0:0:0:
261,179,44086,1,2,0:3:0:0:
335,112,44386,2,0,L|452:118,1,99.9999999999999,2|8,0:3|0:0,0:0:0:0:
500,195,44986,6,0,P|515:242|507:291,1,99.9999999999999,4|8,0:0|0:0,0:0:0:0:
446,369,45586,2,0,L|380:370,1,50,2|2,0:3|0:3,0:0:0:0:
346,371,45886,1,8,0:0:0:0:
287,289,46186,2,0,L|177:291,1,99.9999999999999,2|8,0:3|0:0,0:0:0:0:
181,190,46786,2,0,L|291:188,1,99.9999999999999,2|8,0:3|0:0,0:0:0:0:
361,127,47386,6,0,P|368:83|345:25,2,99.9999999999999,2|8|2,0:3|0:0|0:3,0:0:0:0:
268,89,48286,1,8,0:0:0:0:
280,188,48586,2,0,P|320:221|383:227,1,99.9999999999999,2|8,0:3|0:0,0:0:0:0:
461,198,49186,2,0,P|464:253|431:304,1,99.9999999999999,2|8,0:3|0:0,0:0:0:0:
357,343,49786,6,0,L|234:342,1,99.9999999999999,2|8,0:3|0:0,0:0:0:0:
156,338,50386,2,0,P|148:309|146:287,1,50,2|2,0:3|0:3,0:0:0:0:
152,239,50686,1,8,0:0:0:0:
221,166,50986,2,0,B|268:150|268:150|333:155,1,99.9999999999999,2|8,0:3|0:0,0:0:0:0:
419,155,51586,2,0,P|405:105|362:65,1,99.9999999999999,2|8,0:3|0:0,0:0:0:0:
273,60,52186,6,0,P|221:58|155:60,2,99.9999999999999,4|8|2,0:0|0:0|0:3,0:0:0:0:
372,71,53086,1,8,0:0:0:0:
465,107,53386,2,0,L|465:206,1,99.9999999999999,12|8,0:0|0:0,0:0:0:0:
461,256,53836,1,12,0:0:0:0:
407,340,54136,2,0,P|360:347|294:328,1,99.9999999999999,12|2,0:0|0:3,0:0:0:0:
267,309,54586,6,0,L|155:311,1,99.9999999999999,12|8,0:0|0:0,0:0:0:0:
67,306,55186,2,0,P|63:276|62:244,1,50,8|2,0:0|0:3,0:0:0:0:
67,206,55486,1,8,0:0:0:0:
110,116,55786,2,0,B|156:104|156:104|214:113,1,99.9999999999999,8|8,0:0|0:0,0:0:0:0:
304,138,56386,2,0,B|350:150|350:150|408:141,1,99.9999999999999,8|8,0:0|0:0,0:0:0:0:
481,80,56986,6,0,P|502:130|497:175,2,99.9999999999999,8|8|8,0:0|0:0|0:0,0:0:0:0:
408,11,57886,1,8,0:0:0:0:
319,57,58186,2,0,L|216:56,1,99.9999999999999,8|8,0:0|0:0,0:0:0:0:
119,55,58786,2,0,P|102:95|103:159,1,99.9999999999999,8|8,0:0|0:0,0:0:0:0:
140,243,59386,6,0,B|190:250|190:250|256:239,1,99.9999999999999,4|8,0:0|0:0,0:0:0:0:
288,233,59836,1,2,0:3:0:0:
379,192,60136,2,0,P|416:225|429:295,1,99.9999999999999,2|8,0:3|0:0,0:0:0:0:
424,321,60586,2,0,B|382:339|382:339|317:339,1,99.9999999999999,4|8,0:0|0:0,0:0:0:0:
277,334,61036,1,2,0:3:0:0:
238,241,61336,2,0,L|242:123,1,99.9999999999999,2|8,0:3|0:0,0:0:0:0:
243,91,61786,6,0,P|205:64|147:57,1,99.9999999999999,4|8,0:0|0:0,0:0:0:0:
103,63,62236,1,2,0:3:0:0:
23,123,62536,2,0,L|27:241,1,99.9999999999999,2|8,0:3|0:0,0:0:0:0:
33,272,62986,2,0,B|78:291|78:291|140:283,1,99.9999999999999,4|8,0:0|0:0,0:0:0:0:
178,275,63436,1,2,0:3:0:0:
254,210,63736,2,0,P|307:202|355:217,1,99.9999999999999,2|8,0:3|0:0,0:0:0:0:
398,231,64186,6,0,B|407:183|407:183|405:119,1,99.9999999999999,6|0,0:3|0:0,0:0:0:0:
353,46,64786,1,6,0:3:0:0:
261,6,65086,1,0,0:0:0:0:
169,46,65386,2,0,L|57:44,1,99.9999999999999,6|0,0:3|0:0,0:0:0:0:
63,144,65986,2,0,L|175:146,1,99.9999999999999,6|0,0:3|0:0,0:0:0:0:
262,144,66586,6,0,B|285:187|285:187|280:253,1,99.9999999999999,6|0,0:3|0:0,0:0:0:0:
266,337,67186,1,6,0:3:0:0:
356,378,67486,1,8,0:0:0:0:
447,338,67786,2,0,L|449:279,1,50,8|2,0:0|0:3,0:0:0:0:
468,242,68086,2,0,L|470:183,1,50,8|2,0:0|0:3,0:0:0:0:
486,145,68386,2,0,P|453:110|389:90,1,99.9999999999999,8|8,0:0|0:0,0:0:0:0:
305,93,68986,5,4,0:0:0:0:
32,118,78586,6,0,P|81:100|198:186,1,200,4|2,3:1|3:0,0:0:0:0:
227,269,79486,1,8,0:0:0:0:
314,317,79786,2,0,L|431:311,1,99.9999999999999,2|8,3:0|0:0,0:0:0:0:
497,257,80386,2,0,P|505:205|488:146,1,99.9999999999999,2|8,3:0|0:0,0:0:0:0:
444,72,80986,6,0,B|369:59|373:108|296:87,1,150,2|0,3:0|3:0,0:0:0:0:
249,73,81586,2,0,P|224:124|222:180,1,99.9999999999999,2|8,3:0|0:0,0:0:0:0:
249,262,82186,2,0,L|303:263,2,50,2|0|8,3:0|3:0|0:0,0:0:0:0:
151,239,82786,2,0,L|35:240,1,99.9999999999999,2|8,3:0|0:0,0:0:0:0:
0,146,83386,6,0,P|18:76|144:29,1,200,2|2,3:0|3:0,0:0:0:0:
226,38,84286,1,8,0:0:0:0:
299,106,84586,2,0,L|414:103,1,99.9999999999999,2|8,3:0|0:0,0:0:0:0:
408,202,85186,2,0,L|293:205,1,99.9999999999999,2|8,3:0|0:0,0:0:0:0:
208,215,85786,6,0,P|233:272|316:305,1,150,2|0,3:0|3:0,0:0:0:0:
360,300,86386,2,0,B|411:292|411:292|469:300,1,99.9999999999999,2|0,3:0|0:0,0:0:0:0:
507,210,86986,2,0,P|514:158|497:95,1,99.9999999999999,8|2,0:0|0:3,0:0:0:0:
434,40,87586,1,2,0:3:0:0:
335,20,87886,1,8,0:0:0:0:
248,71,88186,6,0,L|141:69,1,99.9999999999999,4|8,0:0|0:0,0:0:0:0:
98,70,88636,1,2,0:3:0:0:
33,146,88936,1,2,0:3:0:0:
73,243,89236,1,8,0:0:0:0:
73,243,89386,2,0,P|123:260|183:254,1,99.9999999999999,2|0,1:3|3:0,0:0:0:0:
252,200,89986,2,0,P|302:183|362:189,1,99.9999999999999,8|8,0:0|0:0,0:0:0:0:
446,205,90586,6,0,L|442:323,1,99.9999999999999,4|8,0:0|0:0,0:0:0:0:
441,354,91036,1,2,0:3:0:0:
344,380,91336,1,2,0:3:0:0:
259,337,91636,1,8,0:0:0:0:
259,337,91786,2,0,P|211:322|155:330,1,99.9999999999999,2|0,0:3|3:0,0:0:0:0:
68,362,92386,2,0,P|64:309|93:253,1,99.9999999999999,8|8,0:0|0:0,0:0:0:0:
162,206,92986,6,0,L|159:89,1,99.9999999999999,4|8,0:0|0:0,0:0:0:0:
160,56,93436,1,2,0:3:0:0:
252,19,93736,1,2,0:3:0:0:
349,60,94036,1,8,0:0:0:0:
349,60,94186,2,0,L|462:51,1,99.9999999999999,2|0,1:3|3:0,0:0:0:0:
500,137,94786,2,0,P|510:189|504:241,1,99.9999999999999,8|8,0:0|0:0,0:0:0:0:
447,317,95386,6,0,P|346:338|280:257,2,200,4|4|4,0:0|0:0|0:0,0:0:0:0:
379,243,96886,1,2,0:3:0:0:
298,184,97186,2,0,P|246:192|202:233,1,99.9999999999999,2|8,0:3|0:0,0:0:0:0:
170,312,97786,6,0,B|119:316|119:316|69:308,1,99.9999999999999,4|8,0:0|0:0,0:0:0:0:
1,236,98386,2,0,L|3:184,1,50,2|2,0:3|0:3,0:0:0:0:
12,136,98686,1,8,0:0:0:0:
69,53,98986,2,0,P|114:45|180:62,1,99.9999999999999,2|8,0:3|0:0,0:0:0:0:
211,145,99586,2,0,P|256:153|322:136,1,99.9999999999999,2|8,0:3|0:0,0:0:0:0:
401,105,100186,6,0,B|405:49|405:49|394:6,2,99.9999999999999,2|8|2,0:3|0:0|0:3,0:0:0:0:
388,204,101086,1,8,0:0:0:0:
303,257,101386,2,0,P|253:267|194:249,1,99.9999999999999,2|8,0:3|0:0,0:0:0:0:
120,204,101986,2,0,P|106:242|124:314,1,99.9999999999999,2|8,0:3|0:0,0:0:0:0:
190,365,102586,6,0,L|303:363,1,99.9999999999999,2|8,0:3|0:0,0:0:0:0:
389,352,103186,2,0,P|396:318|398:293,1,50,2|2,0:3|0:3,0:0:0:0:
398,252,103486,1,8,0:0:0:0:
349,164,103786,2,0,L|352:46,1,99.9999999999999,2|8,0:3|0:0,0:0:0:0:
251,55,104386,2,0,L|248:173,1,99.9999999999999,2|8,0:3|0:0,0:0:0:0:
239,254,104986,6,0,B|193:262|193:262|133:257,2,99.9999999999999,2|8|2,0:3|0:0|0:3,0:0:0:0:
336,229,105886,1,8,0:0:0:0:
412,164,106186,2,0,P|416:113|403:44,1,99.9999999999999,12|8,0:0|0:0,0:0:0:0:
376,26,106636,1,12,0:0:0:0:
276,33,106936,2,0,B|222:40|222:40|169:35,1,99.9999999999999,8|0,0:0|0:3,0:0:0:0:
127,26,107386,6,0,P|98:72|98:137,1,99.9999999999999,12|8,0:0|0:0,0:0:0:0:
131,209,107986,2,0,L|133:265,1,50,8|2,0:0|0:3,0:0:0:0:
138,308,108286,1,8,0:0:0:0:
226,353,108586,2,0,P|273:359|338:329,1,99.9999999999999,8|8,0:0|0:0,0:0:0:0:
383,263,109186,2,0,P|389:216|359:151,1,99.9999999999999,8|8,0:0|0:0,0:0:0:0:
286,114,109786,6,0,P|325:78|388:69,2,99.9999999999999,8|8|8,0:0|0:0|0:0,0:0:0:0:
244,204,110686,1,8,0:0:0:0:
187,286,110986,2,0,L|82:283,1,99.9999999999999,8|8,0:0|0:0,0:0:0:0:
10,219,111586,2,0,B|2:169|2:169|12:111,1,99.9999999999999,8|8,0:0|0:0,0:0:0:0:
77,46,112186,6,0,P|119:30|184:34,1,99.9999999999999,4|8,0:0|0:0,0:0:0:0:
222,43,112636,1,2,0:3:0:0:
296,110,112936,1,2,0:3:0:0:
248,198,113236,1,8,0:0:0:0:
248,198,113386,2,0,L|257:315,1,99.9999999999999,4|8,0:0|0:0,0:0:0:0:
260,347,113836,1,2,0:3:0:0:
357,368,114136,2,0,P|405:358|448:325,1,99.9999999999999,2|8,0:3|0:0,0:0:0:0:
467,283,114586,6,0,L|459:183,1,99.9999999999999,4|8,0:0|0:0,0:0:0:0:
452,133,115036,1,2,0:3:0:0:
377,66,115336,1,2,0:3:0:0:
287,109,115636,1,8,0:0:0:0:
287,109,115786,2,0,B|236:117|236:117|174:109,1,99.9999999999999,4|8,0:0|0:0,0:0:0:0:
139,100,116236,1,2,0:3:0:0:
53,152,116536,2,0,P|38:203|52:271,1,99.9999999999999,2|8,0:3|0:0,0:0:0:0:
69,291,116986,6,0,B|120:299|120:299|177:291,1,99.9999999999999,6|0,0:3|0:0,0:0:0:0:
266,273,117586,1,6,0:3:0:0:
311,183,117886,1,0,0:0:0:0:
295,84,118186,2,0,P|341:68|406:79,1,99.9999999999999,6|0,0:3|0:0,0:0:0:0:
477,123,118786,2,0,P|493:169|482:234,1,99.9999999999999,6|0,0:3|0:0,0:0:0:0:
454,314,119386,6,0,B|405:328|405:328|345:315,1,99.9999999999999,6|0,0:3|0:0,0:0:0:0:
266,273,119986,1,6,0:3:0:0:
229,180,120286,1,4,0:0:0:0:
266,87,120586,2,0,L|331:83,1,50,8|2,0:0|0:3,0:0:0:0:
361,62,120886,2,0,L|426:58,1,50,8|2,0:0|0:3,0:0:0:0:
460,48,121186,2,0,P|487:96|490:154,1,99.9999999999999,8|8,0:0|0:0,0:0:0:0:
447,230,121786,6,0,L|457:298,2,50,4|0|8,0:0|0:0|0:0,0:0:0:0:
400,210,122236,2,0,P|351:220|294:212,1,99.9999999999999,0|2,0:0|0:3,0:0:0:0:
255,194,122686,1,8,0:0:0:0:
172,137,122986,2,0,L|59:149,1,99.9999999999999,2|8,0:3|0:0,0:0:0:0:
27,162,123436,1,0,0:0:0:0:
27,162,123586,2,0,P|18:213|28:264,1,99.9999999999999,2|8,0:3|0:0,0:0:0:0:
74,348,124186,6,0,L|173:358,1,99.9999999999999,2|8,0:3|0:0,0:0:0:0:
222,367,124636,2,0,P|242:321|246:272,1,99.9999999999999,0|2,0:0|0:3,0:0:0:0:
230,224,125086,1,8,0:0:0:0:
144,172,125386,2,0,L|151:69,1,99.9999999999999,2|8,0:3|0:0,0:0:0:0:
184,35,125836,1,0,0:0:0:0:
184,35,125986,2,0,P|242:48|289:35,1,99.9999999999999,2|8,0:3|0:0,0:0:0:0:
373,77,126586,6,0,L|428:74,2,50,2|0|0,0:3|0:0|0:0,0:0:0:0:
343,117,127036,2,0,P|332:165|347:222,1,99.9999999999999,0|2,0:0|0:3,0:0:0:0:
368,256,127486,1,8,0:0:0:0:
318,342,127786,2,0,L|207:338,1,99.9999999999999,2|8,0:3|0:0,0:0:0:0:
120,318,128386,1,2,0:3:0:0:
59,238,128686,1,8,0:0:0:0:
60,138,128986,6,0,L|5:141,2,50,2|0|8,0:3|0:0|0:0,0:0:0:0:
102,111,129436,2,0,L|207:116,1,99.9999999999999,0|2,0:0|0:3,0:0:0:0:
251,122,129886,1,8,0:0:0:0:
332,180,130186,2,0,L|330:236,1,50,8|8,0:0|0:0,0:0:0:0:
297,268,130486,2,0,L|299:324,1,50,2|2,0:3|0:3,0:0:0:0:
325,360,130786,2,0,P|374:368|439:349,1,99.9999999999999,8|12,0:0|0:0,0:0:0:0:
487,281,131386,5,4,0:0:0:0:
58,120,140986,6,0,P|111:92|232:159,1,200,4|8,0:0|0:0,0:0:0:0:
274,236,141886,1,2,0:3:0:0:
356,178,142186,2,0,L|353:115,2,50,2|8|2,0:3|0:0|0:3,0:0:0:0:
358,277,142786,2,0,P|319:318|258:329,1,99.9999999999999,8|2,0:0|0:3,0:0:0:0:
179,319,143386,6,0,B|128:314|128:314|76:322,1,99.9999999999999,4|2,0:0|0:3,0:0:0:0:
17,242,143986,2,0,P|11:196|28:135,1,99.9999999999999,8|2,0:0|0:3,0:0:0:0:
99,79,144586,2,0,L|94:25,2,50,2|8|0,0:3|0:0|0:0,0:0:0:0:
164,154,145186,2,0,B|216:159|216:159|280:148,1,99.9999999999999,8|2,0:0|0:3,0:0:0:0:
359,124,145786,5,2,0:3:0:0:
144,333,146686,1,8,0:0:0:0:
69,265,146986,2,0,L|12:271,2,50,2|8|0,0:3|0:0|0:0,0:0:0:0:
105,231,147436,2,0,B|118:181|118:181|111:117,1,99.9999999999999,4|0,0:0|0:0,0:0:0:0:
105,83,147886,1,8,0:0:0:0:
192,34,148186,6,0,P|235:30|291:59,2,99.9999999999999,8|8|8,0:0|0:0|0:0,0:0:0:0:
220,130,149086,1,8,0:0:0:0:
305,182,149386,2,0,L|413:176,1,99.9999999999999,8|8,0:0|0:0,0:0:0:0:
411,276,149986,2,0,L|303:282,1,99.9999999999999,8|8,0:0|0:0,0:0:0:0:
211,291,150586,5,4,0:0:0:0:
47,175,151186,1,4,0:0:0:0:
195,41,151786,2,0,B|242:28|242:28|304:40,2,99.9999999999999,4|2|2,0:0|0:3|0:3,0:0:0:0:
246,127,152686,1,8,0:0:0:0:
345,113,152986,6,0,B|387:83|384:26|384:26|440:41|484:85,1,200,0|0,0:0|0:0,0:0:0:0:
497,169,153886,1,0,0:0:0:0:
448,256,154186,2,0,L|464:358,1,99.9999999999999,2|2,0:3|0:3,0:0:0:0:
364,370,154786,2,0,L|348:268,1,99.9999999999999,2|8,0:3|0:0,0:0:0:0:
282,196,155386,6,0,P|227:186|173:210,2,99.9999999999999,4|8|2,0:0|0:0|0:3,0:0:0:0:
238,286,156286,1,8,0:0:0:0:
138,273,156586,2,0,P|107:237|105:169,1,99.9999999999999,2|8,0:3|0:0,0:0:0:0:
153,101,157186,2,0,P|201:100|260:93,1,99.9999999999999,2|8,0:3|0:0,0:0:0:0:
351,77,157786,6,0,B|371:124|371:124|371:186,1,99.9999999999999,2|8,0:3|0:0,0:0:0:0:
370,271,158386,2,0,P|397:278|428:282,1,50,2|2,0:3|0:3,0:0:0:0:
468,283,158686,1,8,0:0:0:0:
501,188,158986,2,0,L|502:79,1,99.9999999999999,2|8,0:3|0:0,0:0:0:0:
418,32,159586,2,0,P|371:23|314:38,1,99.9999999999999,2|8,0:3|0:0,0:0:0:0:
239,93,160186,6,0,L|133:86,2,99.9999999999999,2|8|2,0:3|0:0|0:3,0:0:0:0:
304,168,161086,1,8,0:0:0:0:
273,263,161386,2,0,P|237:290|179:303,1,99.9999999999999,12|8,0:0|0:0,0:0:0:0:
134,305,161836,1,12,0:0:0:0:
41,266,162136,2,0,L|44:158,1,99.9999999999999,8|2,0:0|0:3,0:0:0:0:
47,116,162586,6,0,P|85:93|150:88,1,99.9999999999999,12|8,0:0|0:0,0:0:0:0:
235,114,163186,2,0,L|241:181,1,50,8|2,0:0|0:3,0:0:0:0:
245,213,163486,1,8,0:0:0:0:
257,312,163786,2,0,B|305:325|305:325|378:313,1,99.9999999999999,8|8,0:0|0:0,0:0:0:0:
450,285,164386,2,0,B|463:237|463:237|451:164,1,99.9999999999999,8|8,0:0|0:0,0:0:0:0:
389,109,164986,6,0,L|393:0,2,99.9999999999999,8|8|8,0:0|0:0|0:0,0:0:0:0:
314,176,165886,1,8,0:0:0:0:
229,122,166186,2,0,P|179:114|124:125,1,99.9999999999999,8|8,0:0|0:0,0:0:0:0:
128,222,166786,2,0,P|178:230|233:219,1,99.9999999999999,8|8,0:0|0:0,0:0:0:0:
314,176,167386,6,0,L|420:176,1,99.9999999999999,4|8,0:0|0:0,0:0:0:0:
463,178,167836,1,2,0:3:0:0:
507,267,168136,2,0,P|502:312|465:360,1,99.9999999999999,2|8,0:3|0:0,0:0:0:0:
422,370,168586,2,0,L|316:370,1,99.9999999999999,4|8,0:0|0:0,0:0:0:0:
272,368,169036,1,2,0:3:0:0:
222,281,169336,2,0,B|207:231|207:231|208:169,1,99.9999999999999,2|8,0:3|0:0,0:0:0:0:
209,133,169786,6,0,P|181:113|101:111,1,99.9999999999999,4|8,0:0|0:0,0:0:0:0:
68,116,170236,1,2,0:3:0:0:
6,196,170536,2,0,L|13:303,1,99.9999999999999,2|8,0:3|0:0,0:0:0:0:
22,345,170986,2,0,P|50:365|130:367,1,99.9999999999999,4|8,0:0|0:0,0:0:0:0:
163,364,171436,1,2,0:3:0:0:
230,291,171736,2,0,B|282:284|282:284|341:292,1,99.9999999999999,2|8,0:3|0:0,0:0:0:0:
379,295,172186,6,0,P|404:253|402:195,1,99.9999999999999,6|0,0:3|0:0,0:0:0:0:
363,111,172786,1,6,0:3:0:0:
273,66,173086,1,0,0:0:0:0:
179,101,173386,2,0,L|68:100,1,99.9999999999999,6|0,0:3|0:0,0:0:0:0:
73,199,173986,2,0,L|184:200,1,99.9999999999999,6|0,0:3|0:0,0:0:0:0:
272,201,174586,6,0,P|296:241|295:313,1,99.9999999999999,6|0,0:3|0:0,0:0:0:0:
229,365,175186,1,6,0:3:0:0:
130,379,175486,1,8,0:0:0:0:
46,323,175786,2,0,L|46:264,1,50,8|2,0:0|0:3,0:0:0:0:
70,229,176086,2,0,L|70:170,1,50,8|2,0:0|0:3,0:0:0:0:
87,131,176386,2,0,P|129:112|191:118,1,99.9999999999999,8|8,0:0|0:0,0:0:0:0:
272,156,176986,6,0,L|373:150,1,99.9999999999999,4|8,0:0|0:0,0:0:0:0:
471,143,177586,2,0,L|468:86,2,50,2|2|8,0:3|0:3|0:0,0:0:0:0:
459,242,178186,2,0,P|417:269|356:275,1,99.9999999999999,2|8,0:3|0:0,0:0:0:0:
271,249,178786,2,0,L|204:253,2,50,2|2|8,0:3|0:3|0:0,0:0:0:0:
330,168,179386,6,0,P|336:114|307:56,1,99.9999999999999,2|8,0:3|0:0,0:0:0:0:
227,32,179986,1,2,0:3:0:0:
127,42,180286,1,8,0:0:0:0:
70,124,180586,2,0,L|76:245,1,99.9999999999999,2|8,0:3|0:0,0:0:0:0:
87,323,181186,2,0,B|137:337|137:337|205:327,1,99.9999999999999,2|8,0:3|0:0,0:0:0:0:
273,282,181786,6,0,B|323:268|323:268|391:278,1,99.9999999999999,2|8,0:3|0:0,0:0:0:0:
468,294,182386,2,0,L|471:352,2,50,2|2|8,0:3|0:3|0:0,0:0:0:0:
448,196,182986,2,0,P|407:171|352:166,1,99.9999999999999,2|8,0:3|0:0,0:0:0:0:
256,176,183586,1,2,0:3:0:0:
188,249,183886,1,8,0:0:0:0:
206,347,184186,6,0,L|270:350,2,50,12|2|8,0:0|0:3|0:0,0:0:0:0:
111,313,184786,2,0,L|47:316,2,50,8|2|8,0:0|0:3|0:0,0:0:0:0:
191,252,185386,2,0,L|187:199,1,50,8|2,0:0|0:3,0:3:0:0:
180,152,185686,1,8,0:0:0:0:
87,114,185986,2,0,L|91:61,1,50,8|2,0:0|0:3,0:3:0:0:
98,14,186286,1,8,0:0:0:0:
194,39,186586,6,0,P|247:48|305:35,1,99.9999999999999,8|8,0:0|0:0,0:0:0:0:
389,19,187186,2,0,L|391:140,1,99.9999999999999,8|8,0:0|0:0,0:0:0:0:
350,210,187786,2,0,P|316:217|289:218,1,50,8|2,0:0|0:3,0:0:0:0:
253,205,188086,2,0,P|219:198|192:197,1,50,8|2,0:0|0:3,0:0:0:0:
154,200,188386,1,8,0:0:0:0:
78,265,188686,5,12,0:0:0:0:
