osu file format v14

[General]
AudioFilename: audio.mp3
AudioLeadIn: 0
PreviewTime: 44911
Countdown: 1
SampleSet: Soft
StackLeniency: 0.7
Mode: 0
LetterboxInBreaks: 0
WidescreenStoryboard: 1

[Editor]
DistanceSpacing: 0.5
BeatDivisor: 4
GridSize: 32
TimelineZoom: 2.5

[Metadata]
Title:Zettai Tokken Shuchou Shimasu! Hoshi Syoko Solo Remix
TitleUnicode:絶対特権主張しますっ! 星輝子ソロ・リミックス
Artist:Syoko Hoshi (CV: Satsumi Matsuda)
ArtistUnicode:星輝子(CV:松田颯水)
Creator:Kowari
Version:Extreme!
Source:アイドルマスター シンデレラガールズ
Tags:idolm@ster idolmaster cinderella girls imas zettai pink na kobako
BeatmapID:1742623
BeatmapSetID:831191

[Difficulty]
HPDrainRate:5
CircleSize:3.2
OverallDifficulty:9.2
ApproachRate:9.3
SliderMultiplier:1.8
SliderTickRate:1

[Events]
//Background and Video events
0,0,"Konachan.png",0,0
//Break Periods
//Storyboard Layer 0 (Background)
//Storyboard Layer 1 (Fail)
//Storyboard Layer 2 (Pass)
//Storyboard Layer 3 (Foreground)
//Storyboard Sound Samples

[TimingPoints]
586,300,4,2,1,70,1,0
1786,-149.253731343284,4,2,1,70,0,0
6211,-149.253731343284,4,2,1,5,0,0
6286,-149.253731343284,4,2,1,70,0,0
6586,-100,4,2,1,70,0,0
11386,-166.666666666667,4,2,1,70,0,0
15586,-100,4,2,1,70,0,0
16186,-66.6666666666667,4,2,1,70,0,0
16486,-100,4,2,1,70,0,0
17611,-100,4,2,1,5,0,0
17686,-100,4,2,1,70,0,0
18811,-100,4,2,1,5,0,0
18886,-100,4,2,1,70,0,0
20986,-66.6666666666667,4,2,1,70,0,0
21211,-66.6666666666667,4,2,1,5,0,0
21286,-100,4,2,1,70,0,0
22411,-100,4,2,1,5,0,0
22486,-100,4,2,1,70,0,0
24661,-100,4,2,1,5,0,0
24736,-100,4,2,1,70,0,0
34561,-100,4,2,1,65,0,0
34636,-100,4,2,1,60,0,0
34711,-100,4,2,1,55,0,0
34786,-100,4,2,1,60,0,0
34936,-100,4,2,1,65,0,0
35086,-100,4,2,1,70,0,0
35311,-100,4,2,1,5,0,0
35386,-100,4,2,1,70,0,0
37411,-100,4,2,1,5,0,0
37486,-100,4,2,1,70,0,0
37711,-100,4,2,1,5,0,0
37786,-100,4,2,1,70,0,0
39811,-100,4,2,1,5,0,0
39886,-100,4,2,1,70,0,0
40111,-100,4,2,1,5,0,0
40186,-100,4,2,1,70,0,0
42211,-100,4,2,1,5,0,0
42286,-100,4,2,1,70,0,0
42511,-100,4,2,1,5,0,0
42586,-100,4,2,1,70,0,0
44611,-100,4,2,1,5,0,0
44686,-100,4,2,1,70,0,0
44986,-66.6666666666667,4,2,1,70,0,1
45211,-66.6666666666667,4,2,1,5,0,1
45286,-100,4,2,1,70,0,1
45511,-100,4,2,1,5,0,1
45586,-100,4,2,1,70,0,1
49786,-66.6666666666667,4,2,1,70,0,1
50086,-100,4,2,1,70,0,1
50311,-100,4,2,1,5,0,1
50386,-100,4,2,1,70,0,1
54436,-100,4,2,1,70,0,0
54586,-100,4,2,1,70,0,1
59386,-80,4,2,1,70,0,0
64186,-166.666666666667,4,2,1,70,0,0
68386,-100,4,2,1,70,0,0
76186,-100,4,2,1,70,0,1
80686,-100,4,2,1,70,0,0

[Colours]
Combo1 : 255,155,255
Combo2 : 255,255,128
Combo3 : 165,255,74
Combo4 : 121,188,255

[HitObjects]
141,305,1186,5,8,0:0:0:0:
197,89,1336,1,8,0:1:0:0:
197,89,1411,1,2,0:0:0:0:
197,89,1486,2,0,P|264:64|297:61,1,90,2|2,0:0|0:0,0:0:0:0:
205,194,1786,6,0,P|144:174|89:137,1,120.599994295349,10|10,0:1|0:1,0:0:0:0:
274,97,2386,5,2,0:1:0:0:
179,272,2536,1,2,0:1:0:0:
291,88,2686,1,10,0:1:0:0:
162,276,2836,1,10,0:1:0:0:
367,192,2986,6,0,P|419:183|491:190,1,120.599994295349,10|10,0:1|0:1,0:0:0:0:
266,329,3586,2,0,P|325:335|385:325,1,120.599994295349,10|10,0:1|0:1,0:0:0:0:
308,130,4186,6,0,P|317:182|310:254,1,120.599994295349,10|10,0:1|0:1,0:0:0:0:
168,21,4786,2,0,P|161:80|171:140,1,120.599994295349,10|10,0:1|0:1,0:0:0:0:
28,248,5386,6,0,P|91:224|155:246,1,120.599994295349,10|10,0:1|0:1,0:0:0:0:
208,384,5986,2,0,P|193:338|197:287,1,90.4499957215121,10|0,0:1|0:0,0:0:0:0:
212,272,6286,5,8,0:0:0:0:
475,148,6586,6,0,B|428:128|376:158|404:158|351:202|270:156,1,180,0|10,0:0|0:0,0:0:0:0:
253,56,7036,2,0,P|305:65|342:91,1,90,2|0,0:1|0:0,0:0:0:0:
168,156,7336,2,0,P|124:162|86:185,1,90,2|0,0:1|0:0,0:0:0:0:
169,339,7636,1,8,0:0:0:0:
169,339,7711,1,0,0:0:0:0:
169,339,7786,6,0,P|170:280|160:238,1,90,2|0,0:1|0:0,0:0:0:0:
51,109,8086,1,8,0:0:0:0:
228,100,8236,2,0,P|283:112|318:142,1,90,2|0,0:1|0:0,0:0:0:0:
319,346,8536,2,0,L|318:246,1,90,2|0,0:1|0:0,0:0:0:0:
402,105,8836,1,10,0:1:0:0:
402,105,8911,1,0,0:0:0:0:
402,105,8986,6,0,P|395:165|377:203,1,90,2|0,0:1|0:0,0:0:0:0:
221,269,9286,1,8,0:0:0:0:
412,290,9436,2,0,P|458:294|505:308,1,90,2|0,0:1|0:0,0:0:0:0:
304,192,9736,2,0,P|257:187|211:174,1,90,2|0,0:1|0:0,0:0:0:0:
42,63,10036,1,10,0:1:0:0:
42,63,10111,1,0,0:0:0:0:
42,63,10186,6,0,P|91:55|137:57,1,90,2|0,0:1|0:0,0:0:0:0:
294,105,10486,1,8,0:0:0:0:
150,213,10636,2,0,P|111:177|84:131,1,90,2|0,0:1|0:0,0:0:0:0:
244,209,10936,2,0,P|232:259|205:307,1,90,2|0,0:1|0:0,0:0:0:0:
193,124,11236,1,10,0:0:0:0:
343,275,11386,6,0,P|341:336|325:380,1,107.999996704102,2|8,0:1|0:0,0:0:0:0:
459,172,11986,2,0,P|461:233|477:277,1,107.999996704102,2|8,0:1|0:0,0:0:0:0:
371,95,12586,6,0,P|422:67|479:60,1,107.999996704102,2|8,0:1|0:0,0:0:0:0:
243,189,13186,2,0,P|289:215|342:224,1,107.999996704102,2|8,0:1|0:0,0:0:0:0:
206,59,13786,6,0,P|150:84|106:130,1,107.999996704102,2|8,0:1|0:0,0:0:0:0:
101,335,14386,2,0,L|98:217,1,107.999996704102,2|8,0:1|0:0,0:0:0:0:
274,137,14986,5,8,0:0:0:0:
54,88,15136,1,8,0:0:0:0:
294,257,15286,1,8,0:0:0:0:
11,286,15436,1,8,0:0:0:0:
293,121,15586,6,0,B|345:94|390:127|374:127|421:162|484:121,1,180,8|8,0:0|0:0,0:0:0:0:
452,273,16186,6,0,P|407:261|378:377,1,202.500007724762,6|0,0:0|0:0,0:0:0:0:
259,287,16486,2,0,P|231:242|220:186,1,90,8|8,0:0|0:1,0:0:0:0:
106,339,16786,1,2,0:0:0:0:
275,293,16936,1,2,0:0:0:0:
66,199,17086,1,8,0:0:0:0:
318,99,17236,1,8,0:1:0:0:
88,338,17386,6,0,P|23:334|-1:320,1,90,2|0,0:0|0:0,0:0:0:0:
175,113,17686,2,0,L|190:217,1,90,8|8,0:0|0:1,0:0:0:0:
279,378,17986,2,0,L|291:288,1,90,2|2,0:0|0:0,0:0:0:0:
430,245,18286,2,0,P|427:194|417:155,1,90,8|8,0:0|0:1,0:0:0:0:
310,64,18586,6,0,P|363:35|421:31,1,90,2|0,0:0|0:0,0:0:0:0:
177,131,18886,2,0,P|227:161|276:174,1,90,8|8,0:0|0:1,0:0:0:0:
57,63,19186,2,0,P|103:36|143:26,1,90,2|2,0:0|0:0,0:0:0:0:
52,261,19486,2,0,L|46:156,1,90,8|8,0:0|0:1,0:0:0:0:
191,287,19786,5,2,0:0:0:0:
158,121,19936,1,2,0:0:0:0:
320,305,20086,1,8,0:0:0:0:
344,72,20236,1,8,0:1:0:0:
186,303,20386,2,0,P|131:311|90:333,1,90,2|2,0:0|0:0,0:0:0:0:
303,182,20686,2,0,P|358:190|399:212,1,90,8|8,0:0|0:1,0:0:0:0:
221,40,20986,6,0,B|175:16|117:48|136:48|97:90|27:48,1,202.500007724762,2|0,0:0|0:0,0:0:0:0:
147,199,21286,2,0,P|177:146|180:81,1,90,8|8,0:0|0:1,0:0:0:0:
31,227,21586,1,2,0:0:0:0:
228,253,21736,1,2,0:0:0:0:
38,384,21886,1,8,0:0:0:0:
308,325,22036,1,8,0:1:0:0:
49,222,22186,6,0,P|34:176|29:121,1,90,2|0,0:0|0:0,0:0:0:0:
146,256,22486,2,0,P|113:291|68:323,1,90,8|8,0:0|0:1,0:0:0:0:
218,180,22786,2,0,L|316:188,1,90,8|2,0:1|0:0,0:0:0:0:
350,286,23086,2,0,L|442:278,1,90,8|8,0:0|0:1,0:0:0:0:
448,78,23386,6,0,P|424:144|429:170,1,90,2|8,0:0|0:1,0:0:0:0:
250,52,23686,2,0,P|303:35|350:38,1,90,8|2,0:0|0:0,0:0:0:0:
188,173,23986,2,0,P|143:171|101:156,1,90,2|8,0:0|0:1,0:0:0:0:
250,52,24286,1,8,0:0:0:0:
291,186,24436,2,0,P|305:238|306:281,1,90,4|0,0:0|0:0,0:0:0:0:
153,195,24736,5,2,0:0:0:0:
341,253,24886,1,8,0:0:0:0:
120,367,25036,1,2,0:0:0:0:
394,356,25186,1,8,0:0:0:0:
125,184,25336,5,0,0:0:0:0:
132,162,25411,1,0,0:0:0:0:
137,143,25486,1,10,0:1:0:0:
180,155,25561,1,8,0:1:0:0:
224,156,25636,1,10,0:1:0:0:
268,145,25711,1,8,0:1:0:0:
308,124,25786,6,0,P|371:116|473:176,1,180,6|8,0:0|0:0,0:0:0:0:
476,309,26236,1,2,0:0:0:0:
261,239,26386,2,0,P|318:234|366:220,1,90,2|0,0:0|0:0,0:0:0:0:
106,321,26686,2,0,P|149:331|194:334,1,90,8|0,0:0|0:0,0:0:0:0:
85,148,26986,6,0,P|106:192|109:237,1,90,2|0,0:0|0:0,0:0:0:0:
230,19,27286,2,0,P|209:63|206:108,1,90,8|0,0:0|0:0,0:0:0:0:
343,235,27586,2,0,P|338:191|319:151,1,90,2|2,0:0|0:0,0:0:0:0:
399,46,27886,2,0,P|339:25|305:29,1,90,8|0,0:0|0:0,0:0:0:0:
467,125,28186,6,0,P|508:199|512:295,1,180,2|8,0:0|0:0,0:0:0:0:
371,355,28636,1,2,0:0:0:0:
319,211,28786,2,0,L|413:217,1,90,2|2,0:0|0:0,0:0:0:0:
259,333,29086,2,0,L|169:338,1,90,8|0,0:0|0:0,0:0:0:0:
331,189,29386,5,2,0:0:0:0:
259,372,29536,1,2,0:0:0:0:
156,245,29686,2,0,P|117:236|65:238,1,90,8|0,0:0|0:0,0:0:0:0:
235,157,29986,2,0,P|274:148|326:150,1,90,2|2,0:0|0:0,0:0:0:0:
147,72,30286,2,0,P|108:63|56:65,1,90,8|0,0:0|0:0,0:0:0:0:
297,51,30586,6,0,P|350:54|442:155,1,180,2|8,0:0|0:0,0:0:0:0:
429,316,31036,1,0,0:0:0:0:
263,209,31186,2,0,P|302:162|343:142,1,90,2|0,0:0|0:0,0:0:0:0:
283,347,31486,2,0,P|222:336|184:311,1,90,8|0,0:0|0:0,0:0:0:0:
124,214,31786,6,0,P|79:218|39:238,1,90,2|0,0:0|0:0,0:0:0:0:
215,122,32086,2,0,P|174:103|129:100,1,90,8|0,0:0|0:0,0:0:0:0:
339,87,32386,2,0,P|312:50|275:25,1,90,2|2,0:0|0:0,0:0:0:0:
463,118,32686,2,0,P|458:73|438:33,1,90,8|0,0:0|0:0,0:0:0:0:
451,234,32986,6,0,B|405:218|358:249|384:249|344:285|272:255,1,180,2|8,0:0|0:0,0:0:0:0:
428,326,33436,1,0,0:0:0:0:
318,178,33586,2,0,P|277:155|233:153,1,90,2|0,0:0|0:0,0:0:0:0:
20,295,33886,2,0,P|64:291|103:269,1,90,8|0,0:0|0:0,0:0:0:0:
120,37,34186,6,0,B|130:132,1,90,2|2,0:0|0:0,0:0:0:0:
243,298,34486,1,2,0:0:0:0:
272,331,34561,1,2,0:0:0:0:
313,348,34636,1,2,0:0:0:0:
357,344,34711,1,2,0:0:0:0:
395,321,34786,2,0,L|443:347,1,45,2|2,0:0|0:0,0:0:0:0:
511,172,34936,2,0,L|463:197,1,45,2|2,0:0|0:0,0:0:0:0:
375,76,35086,6,0,P|318:62|229:111,1,135,8|0,0:0|0:0,0:0:0:0:
212,191,35386,6,0,P|247:145|257:101,1,90,6|0,0:0|0:0,0:0:0:0:
114,90,35686,1,8,0:0:0:0:
114,90,35836,2,0,P|60:67|11:66,1,90,2|0,0:0|0:0,0:0:0:0:
125,235,36136,2,0,P|169:228|209:209,1,90,2|0,0:0|0:0,0:0:0:0:
397,239,36436,1,8,0:0:0:0:
305,82,36586,6,0,B|334:34|384:15,1,90,8|8,0:1|0:1,0:0:0:0:
146,141,36886,2,0,B|128:86|140:52,1,90,8|8,0:1|0:1,0:0:0:0:
285,219,37186,2,0,P|306:278|281:353,1,135,8|0,0:0|0:0,0:0:0:0:
182,355,37486,6,0,L|291:351,1,90,12|0,0:0|0:0,0:0:0:0:
138,227,37786,6,0,L|29:223,1,90,2|0,0:0|0:0,0:0:0:0:
206,108,38086,1,8,0:0:0:0:
206,108,38236,2,0,P|233:160|236:209,1,90,2|0,0:0|0:0,0:0:0:0:
372,82,38536,2,0,P|380:37|403:0,1,90,2|0,0:0|0:0,0:0:0:0:
489,168,38836,1,8,0:0:0:0:
332,309,38986,6,0,B|381:298|433:301,1,90,8|8,0:1|0:1,0:0:0:0:
155,203,39286,2,0,B|195:200|244:211,1,90,8|8,0:1|0:1,0:0:0:0:
138,323,39586,2,0,P|77:303|37:239,1,135,2|0,0:0|0:0,0:0:0:0:
46,142,39886,6,0,L|50:254,1,90,12|0,0:0|0:0,0:0:0:0:
128,34,40186,6,0,P|198:32|235:57,1,90,2|0,0:0|0:0,0:0:0:0:
353,133,40486,1,8,0:0:0:0:
353,133,40636,2,0,L|259:148,1,90,2|0,0:0|0:0,0:0:0:0:
494,48,40936,2,0,L|405:33,1,90,2|0,0:0|0:0,0:0:0:0:
512,181,41236,1,8,0:0:0:0:
340,223,41386,6,0,P|358:182|361:137,1,90,8|8,0:1|0:1,0:0:0:0:
262,350,41686,2,0,P|313:357|365:348,1,90,8|8,0:1|0:1,0:0:0:0:
206,136,41986,2,0,P|220:197|188:283,1,135,2|0,0:0|0:0,0:0:0:0:
103,275,42286,6,0,L|205:276,1,90,8|0,0:0|0:0,0:0:0:0:
54,120,42586,5,4,0:0:0:0:
126,371,42736,1,2,0:0:0:0:
296,167,42886,1,2,0:0:0:0:
296,167,43186,5,8,0:0:0:0:
12,251,43336,1,2,0:0:0:0:
283,349,43486,1,2,0:0:0:0:
283,349,43786,5,8,0:0:0:0:
167,80,43936,1,8,0:1:0:0:
167,80,44011,1,2,0:0:0:0:
167,80,44086,1,8,0:0:0:0:
37,321,44236,1,8,0:1:0:0:
297,216,44386,6,0,P|361:216|435:258,1,135,2|0,0:0|0:0,0:0:0:0:
512,257,44686,6,0,L|412:261,1,90,8|0,0:0|0:0,0:0:0:0:
135,348,44986,6,0,B|194:317|233:354|216:354|277:396|331:352,1,202.500007724762,6|0,0:0|0:0,0:0:0:0:
469,341,45286,2,0,L|333:341,1,135,8|0,0:0|0:0,0:0:0:0:
315,255,45586,5,2,0:0:0:0:
143,289,45736,1,8,0:1:0:0:
350,143,45886,1,8,0:0:0:0:
111,95,46036,1,8,0:1:0:0:
265,292,46186,5,2,0:0:0:0:
270,40,46336,1,2,0:0:0:0:
136,220,46486,2,0,P|86:248|48:250,1,90,8|8,0:0|0:1,0:0:0:0:
278,302,46786,5,2,0:0:0:0:
273,50,46936,1,2,0:0:0:0:
407,230,47086,2,0,P|457:258|495:260,1,90,8|8,0:0|0:1,0:0:0:0:
262,319,47386,5,2,0:0:0:0:
267,67,47536,1,2,0:0:0:0:
133,247,47686,2,0,P|83:275|45:277,1,90,8|8,0:0|0:1,0:0:0:0:
275,329,47986,5,2,0:0:0:0:
270,77,48136,1,2,0:0:0:0:
404,257,48286,2,0,P|454:285|492:287,1,90,8|8,0:0|0:1,0:0:0:0:
364,100,48586,5,2,0:0:0:0:
186,271,48736,1,8,0:1:0:0:
470,300,48886,5,8,0:0:0:0:
252,85,49036,1,8,0:1:0:0:
285,382,49186,5,2,0:0:0:0:
506,165,49336,1,2,0:0:0:0:
237,148,49486,5,8,0:0:0:0:
435,368,49636,1,8,0:1:0:0:
249,134,49786,6,0,B|308:110|350:143|334:143|379:199|463:145,1,202.500007724762,2|0,0:0|0:0,0:0:0:0:
456,271,50086,2,0,P|483:211|453:149,1,135,8|0,0:0|0:0,0:0:0:0:
436,63,50386,5,2,0:0:0:0:
237,39,50536,1,8,0:1:0:0:
470,181,50686,1,8,0:0:0:0:
212,256,50836,1,8,0:1:0:0:
333,27,50986,5,2,0:0:0:0:
348,277,51136,1,2,0:0:0:0:
224,110,51286,2,0,P|181:80|125:77,1,90,8|8,0:0|0:1,0:0:0:0:
324,57,51586,5,2,0:0:0:0:
309,307,51736,1,2,0:0:0:0:
433,140,51886,2,0,P|476:110|532:107,1,90,8|8,0:0|0:1,0:0:0:0:
180,200,52186,5,2,0:0:0:0:
453,263,52336,1,8,0:1:0:0:
307,79,52486,5,8,0:0:0:0:
253,319,52636,1,2,0:0:0:0:
489,110,52786,5,2,0:0:0:0:
205,50,52936,1,2,0:0:0:0:
380,334,53086,5,8,0:0:0:0:
426,25,53236,1,8,0:1:0:0:
184,143,53386,5,2,0:0:0:0:
388,102,53536,1,2,0:0:0:0:
177,275,53686,1,8,0:0:0:0:
439,341,53836,1,2,0:0:0:0:
439,341,54136,5,8,0:0:0:0:
373,95,54286,1,2,0:0:0:0:
177,288,54436,1,2,0:0:0:0:
456,219,54586,5,8,0:0:0:0:
220,98,54736,1,8,0:1:0:0:
227,353,54886,5,8,0:0:0:0:
414,146,55036,1,2,0:0:0:0:
104,203,55186,5,8,0:0:0:0:
348,357,55336,1,2,0:0:0:0:
12,366,55486,5,8,0:0:0:0:
253,218,55636,1,2,0:0:0:0:
9,134,55786,5,8,0:0:0:0:
134,380,55936,1,2,0:0:0:0:
193,79,56086,5,8,0:0:0:0:
0,233,56236,1,2,0:0:0:0:
348,210,56386,5,8,0:0:0:0:
97,61,56536,1,2,0:0:0:0:
397,42,56686,5,8,0:0:0:0:
218,245,56836,1,2,0:0:0:0:
510,195,56986,5,8,0:0:0:0:
296,23,57136,1,2,0:0:0:0:
398,314,57286,5,8,0:0:0:0:
286,52,57436,1,2,0:0:0:0:
275,328,57586,5,8,0:0:0:0:
254,67,57736,1,2,0:0:0:0:
158,325,57886,5,8,0:0:0:0:
217,59,58036,1,2,0:0:0:0:
1,224,58186,5,8,0:0:0:0:
286,151,58336,1,2,0:0:0:0:
156,370,58486,5,8,0:0:0:0:
136,76,58636,1,2,0:0:0:0:
400,261,58786,5,8,0:0:0:0:
108,222,58936,1,2,0:0:0:0:
355,70,59086,5,8,0:0:0:0:
314,333,59236,1,2,0:0:0:0:
249,94,59386,6,0,B|187:66|126:105|148:105|111:157|24:120,1,225,6|8,0:0|0:0,0:0:0:0:
162,276,59836,2,0,P|195:221|203:164,1,112.5,2|0,0:0|0:0,0:0:0:0:
19,297,60136,2,0,P|50:353|95:388,1,112.5,2|0,0:0|0:0,0:0:0:0:
276,272,60436,1,8,0:0:0:0:
276,272,60511,1,0,0:0:0:0:
276,272,60586,6,0,P|216:262|156:267,1,112.5,2|0,0:0|0:0,0:0:0:0:
308,143,60886,1,8,0:0:0:0:
370,321,61036,2,0,P|322:367|246:371,1,112.5,2|0,0:0|0:0,0:0:0:0:
465,182,61336,2,0,P|461:254|478:301,1,112.5,2|0,0:0|0:0,0:0:0:0:
364,85,61636,1,8,0:0:0:0:
364,85,61711,1,0,0:0:0:0:
364,85,61786,6,0,P|420:61|482:58,1,112.5,2|0,0:0|0:0,0:0:0:0:
346,232,62086,1,2,0:0:0:0:
155,105,62236,2,0,P|228:120|267:144,1,112.5,2|0,0:0|0:0,0:0:0:0:
10,253,62536,2,0,P|60:228|116:220,1,112.5,2|0,0:0|0:0,0:0:0:0:
231,358,62836,1,8,0:0:0:0:
231,358,62911,1,0,0:0:0:0:
231,358,62986,6,0,P|162:350|117:328,1,112.5,2|0,0:0|0:0,0:0:0:0:
262,148,63286,1,8,0:0:0:0:
357,275,63436,2,0,P|353:352|329:388,1,112.5,2|0,0:0|0:0,0:0:0:0:
459,234,63736,2,0,P|435:184|438:129,1,112.5,2|0,0:0|0:0,0:0:0:0:
295,57,64036,1,8,0:0:0:0:
295,57,64111,1,0,0:0:0:0:
295,57,64186,6,0,L|181:59,1,107.999996704102,2|8,0:0|0:0,0:0:0:0:
31,169,64786,2,0,L|138:167,1,107.999996704102,2|8,0:0|0:0,0:0:0:0:
194,336,65386,6,0,P|211:280|204:216,1,107.999996704102,2|8,0:0|0:0,0:0:0:0:
352,199,65986,2,0,P|335:143|342:79,1,107.999996704102,2|8,0:0|0:0,0:0:0:0:
133,73,66586,6,0,P|184:49|249:57,1,107.999996704102,2|8,0:0|0:0,0:0:0:0:
246,271,67186,2,0,L|249:153,1,107.999996704102,2|8,0:0|0:0,0:0:0:0:
96,134,67786,5,8,0:0:0:0:
283,91,67936,1,2,0:0:0:0:
99,269,68086,1,8,0:0:0:0:
354,314,68236,1,2,0:0:0:0:
154,153,68386,2,0,P|110:154|114:275,1,180,8|8,0:0|0:0,0:0:0:0:
381,225,68986,6,0,P|348:273|343:314,1,90,4|8,0:0|0:1,0:0:0:0:
466,120,69286,2,0,P|499:168|504:209,1,90,8|8,0:0|0:1,0:0:0:0:
310,162,69586,1,2,0:0:0:0:
419,355,69736,1,2,0:0:0:0:
327,140,69886,2,0,P|280:110|235:100,1,90,8|8,0:0|0:1,0:0:0:0:
65,183,70186,6,0,L|188:185,1,90,2|2,0:0|0:0,0:0:0:0:
333,286,70486,2,0,L|210:288,1,90,8|8,0:0|0:1,0:0:0:0:
68,197,70786,1,8,0:1:0:0:
236,183,70936,1,2,0:0:0:0:
51,340,71086,1,8,0:0:0:0:
348,307,71236,1,8,0:1:0:0:
348,307,71311,1,0,0:0:0:0:
348,307,71386,6,0,P|407:308|453:326,1,90,2|8,0:0|0:1,0:0:0:0:
512,140,71686,2,0,P|453:141|407:159,1,90,8|8,0:0|0:1,0:0:0:0:
237,124,71986,1,2,0:0:0:0:
426,258,72136,1,2,0:0:0:0:
222,106,72286,2,0,P|167:93|122:95,1,90,8|8,0:0|0:1,0:0:0:0:
67,227,72586,5,2,0:0:0:0:
253,183,72736,1,2,0:0:0:0:
59,342,72886,1,8,0:0:0:0:
317,372,73036,1,2,0:1:0:0:
86,218,73186,2,0,P|28:201|-10:209,1,90,2|2,0:0|0:0,0:0:0:0:
170,374,73486,1,8,0:0:0:0:
221,177,73636,1,8,0:1:0:0:
221,177,73711,1,0,0:0:0:0:
221,177,73786,6,0,P|227:118|217:74,1,90,2|8,0:0|0:1,0:0:0:0:
303,263,74086,2,0,P|337:214|351:171,1,90,8|8,0:0|0:1,0:0:0:0:
97,181,74386,1,2,0:0:0:0:
319,281,74536,1,2,0:0:0:0:
81,180,74686,2,0,P|21:167|-20:172,1,90,8|8,0:0|0:1,0:0:0:0:
226,304,74986,6,0,P|270:305|314:293,1,90,2|2,0:0|0:0,0:0:0:0:
381,155,75286,2,0,P|425:154|469:166,1,90,8|8,0:0|0:1,0:0:0:0:
258,77,75586,1,2,0:0:0:0:
404,271,75736,1,2,0:0:0:0:
250,64,75886,2,0,P|193:47|154:50,1,90,8|2,0:0|0:0,0:0:0:0:
143,237,76186,5,8,0:0:0:0:
366,94,76336,1,2,0:0:0:0:
81,102,76486,5,8,0:0:0:0:
277,269,76636,1,2,0:0:0:0:
22,310,76786,5,8,0:0:0:0:
199,116,76936,1,2,0:0:0:0:
252,359,77086,5,8,0:0:0:0:
36,194,77236,1,2,0:0:0:0:
359,105,77386,5,8,0:0:0:0:
238,360,77536,1,2,0:0:0:0:
251,47,77686,5,8,0:0:0:0:
211,351,77836,1,2,0:0:0:0:
132,45,77986,5,8,0:0:0:0:
180,348,78136,1,2,0:0:0:0:
22,104,78286,5,8,0:0:0:0:
150,350,78436,1,2,0:0:0:0:
284,108,78586,5,8,0:0:0:0:
0,209,78736,1,2,0:0:0:0:
330,253,78886,5,8,0:0:0:0:
111,74,79036,1,2,0:0:0:0:
430,59,79186,5,8,0:0:0:0:
213,231,79336,1,2,0:0:0:0:
213,231,79411,1,2,0:0:0:0:
213,231,79486,5,2,0:0:0:0:
512,223,79636,1,8,0:1:0:0:
345,19,79786,5,8,0:0:0:0:
346,312,79936,1,10,0:0:0:0:
117,79,80086,5,10,0:0:0:0:
440,78,80236,1,8,0:0:0:0:
187,312,80386,5,8,0:0:0:0:
199,2,80536,1,10,0:0:0:0:
451,267,80686,5,12,0:0:0:0:
