osu file format v14

[General]
AudioFilename: audio.mp3
AudioLeadIn: 0
PreviewTime: 78371
Countdown: 0
SampleSet: Soft
StackLeniency: 0.5
Mode: 0
LetterboxInBreaks: 0
WidescreenStoryboard: 1

[Editor]
Bookmarks: 11481,22644,44970,56132,78458,100784,111946,134272,142644,148225,167760,190086
DistanceSpacing: 0.9
BeatDivisor: 4
GridSize: 32
TimelineZoom: 1

[Metadata]
Title:By My Side
TitleUnicode:By My Side
Artist:Synthion, Yuuna Nini
ArtistUnicode:Synthion, Yuuna Nini
Creator:Shirahane Suou
Version:Insane
Source:
Tags:allmyfriends prisma english electronic pop vtuber virtual youtuber
BeatmapID:4142132
BeatmapSetID:1993256

[Difficulty]
HPDrainRate:5
CircleSize:4
OverallDifficulty:8
ApproachRate:9
SliderMultiplier:1.7
SliderTickRate:1

[Events]
//Background and Video events
0,0,"bg.jpg",0,0
//Break Periods
//Storyboard Layer 0 (Background)
//Storyboard Layer 1 (Fail)
//Storyboard Layer 2 (Pass)
//Storyboard Layer 3 (Foreground)
//Storyboard Layer 4 (Overlay)
//Storyboard Sound Samples

[TimingPoints]
319,348.837209302326,4,2,1,30,1,0
319,-166.666666666667,4,2,1,30,0,0
11481,-142.857142857143,4,2,1,40,0,0
20551,-105.263157894737,4,2,1,40,0,0
21249,-83.3333333333333,4,2,1,40,0,0
21946,-125,4,2,1,40,0,0
22644,-166.666666666667,4,2,1,40,0,0
24388,-142.857142857143,4,2,1,40,0,0
28225,-166.666666666667,4,2,1,40,0,0
29970,-142.857142857143,4,2,1,40,0,0
33807,-166.666666666667,4,2,1,40,0,0
35551,-142.857142857143,4,2,1,40,0,0
39388,-166.666666666667,4,2,1,40,0,0
41132,-142.857142857143,4,2,1,40,0,0
42179,-100,4,2,1,60,0,0
43225,-142.857142857143,4,2,1,60,0,0
44970,-200,4,2,1,50,0,0
46016,-250,4,2,1,50,0,0
47760,-200,4,2,1,50,0,0
48807,-250,4,2,1,50,0,0
50551,-142.857142857143,4,2,1,60,0,0
53342,-100,4,2,1,60,0,0
54737,-142.857142857143,4,2,1,50,0,0
56132,-80,4,2,1,70,0,0
66598,-166.666666666667,4,2,1,70,0,0
67295,-80,4,2,1,70,0,0
77760,-100,4,2,1,70,0,0
78458,-80,4,2,1,70,0,0
97470,-166.666666666667,4,2,1,70,0,0
97993,-166.666666666667,4,2,1,50,0,0
100086,-105.263157894737,4,2,1,50,0,0
100784,-142.857142857143,4,2,1,50,0,0
109156,-125,4,2,1,50,0,0
110202,-166.666666666667,4,2,1,50,0,0
111249,-250.000000000001,4,2,1,50,0,0
111946,-166.666666666667,4,2,1,40,0,0
113691,-142.857142857143,4,2,1,40,0,0
117528,-166.666666666667,4,2,1,40,0,0
119272,-142.857142857143,4,2,1,40,0,0
123109,-166.666666666667,4,2,1,40,0,0
124853,-142.857142857143,4,2,1,40,0,0
128691,-166.666666666667,4,2,1,40,0,0
130435,-142.857142857143,4,2,1,40,0,0
131481,-333.333333333336,4,2,1,40,0,0
134272,-125,4,2,1,60,0,0
140551,-100,4,2,1,60,0,0
141423,-100,4,2,1,50,0,0
141598,-100,4,2,1,40,0,0
141772,-100,4,2,1,30,0,0
141946,-100,4,2,1,60,0,0
142644,-125,4,2,1,60,0,0
144737,-200,4,2,1,60,0,0
145086,-125,4,2,1,50,0,0
146830,-125,4,2,1,60,0,0
147702,-100,4,2,1,60,0,0
148225,-80,4,2,1,80,0,1
152237,-60.6060606060606,4,2,1,80,0,1
152586,-80,4,2,1,80,0,1
157819,-60.6060606060606,4,2,1,80,0,1
158167,-80,4,2,1,80,0,1
163400,-60.6060606060606,4,2,1,80,0,1
163749,-80,4,2,1,80,0,1
164970,-142.857142857143,4,2,1,60,0,0
167760,-80,4,2,1,70,0,0
189388,-111.111111111111,4,2,1,70,0,0
190086,-166.666666666666,4,2,1,30,0,0

[Colours]
Combo1 : 192,184,224
Combo2 : 177,223,140
Combo3 : 166,215,211
Combo4 : 251,185,132

[HitObjects]
380,251,319,5,2,0:2:0:0:
380,251,1016,2,0,P|369:281|366:311,1,50.9999984436036,0|0,0:0|0:0,0:0:0:0:
445,319,1365,1,2,0:2:0:0:
445,319,2062,2,0,P|456:289|459:259,1,50.9999984436036,0|0,0:0|0:0,0:0:0:0:
336,183,2586,5,2,0:2:0:0:
261,212,2760,1,0,0:0:0:0:
186,241,2935,1,0,0:0:0:0:
123,190,3109,5,2,0:2:0:0:
123,190,3458,1,0,0:0:0:0:
135,110,3633,1,0,0:0:0:0:
135,110,3981,1,0,0:0:0:0:
73,59,4156,1,2,0:2:0:0:
35,371,5725,5,0,0:0:0:0:
35,371,5900,1,2,0:2:0:0:
35,371,6598,2,0,L|100:352,1,50.9999984436036,0|0,0:0|0:0,0:0:0:0:
137,296,6946,1,2,0:2:0:0:
137,296,7644,2,0,L|202:315,1,50.9999984436036,0|0,0:0|0:0,0:0:0:0:
330,381,8167,5,2,0:2:0:0:
377,317,8342,1,0,0:0:0:0:
345,244,8517,1,0,0:0:0:0:
189,222,8691,6,0,P|235:231|280:192,1,101.999996887207,2|0,0:2|0:0,0:0:0:0:
387,131,9214,2,0,P|341:140|296:101,1,101.999996887207,0|0,0:0|0:0,0:0:0:0:
240,57,9737,1,2,0:2:0:0:
240,57,10260,6,0,L|176:73,2,50.9999984436036,0|0|0,0:0|0:0|0:0,0:0:0:0:
387,131,10784,5,2,0:2:0:0:
462,157,10958,1,0,0:0:0:0:
488,82,11132,1,0,0:0:0:0:
413,56,11306,1,0,0:0:0:0:
286,180,11481,6,0,L|312:261,1,59.4999981842042,2|0,3:2|0:0,0:0:0:0:
304,236,12179,1,0,1:2:0:0:
265,305,12353,1,0,0:0:0:0:
226,374,12528,2,0,L|145:348,1,59.4999981842042,2|0,0:2|0:0,0:0:0:0:
48,198,13225,5,0,1:2:0:0:
88,131,13400,2,0,L|80:105,4,14.874999546051,0|0|0|0|0,0:0|0:0|0:0|0:0|0:0,0:0:0:0:
184,219,13749,6,0,L|123:199,2,59.4999981842042,2|0|0,1:2|0:0|0:0,0:0:0:0:
342,92,14272,6,0,L|281:112,1,59.4999981842042,2|0,3:2|0:0,0:0:0:0:
210,134,14620,1,0,0:0:0:0:
149,82,14795,1,2,0:2:0:0:
274,189,14970,5,0,1:2:0:0:
274,189,15144,1,0,0:0:0:0:
227,56,15319,2,0,L|246:0,1,59.4999981842042,2|0,0:2|0:0,0:0:0:0:
73,108,16365,5,2,0:2:0:0:
40,179,16539,2,0,L|76:308,1,118.999996368408,0|2,1:2|0:2,0:0:0:0:
109,367,17063,6,0,L|166:383,1,59.4999981842042,2|0,3:2|0:0,0:0:0:0:
166,383,17760,1,0,1:2:0:0:
221,324,17935,1,0,0:0:0:0:
276,265,18109,2,0,L|259:207,1,59.4999981842042,2|0,0:2|0:0,0:0:0:0:
164,0,18807,5,0,1:2:0:0:
126,70,18981,2,0,L|104:78,4,14.874999546051,0|0|0|0|0,0:0|0:0|0:0|0:0|0:0,0:0:0:0:
282,110,19330,6,0,L|359:81,2,59.4999981842042,2|0|0,1:2|0:0|0:0,0:0:0:0:
184,155,19853,6,0,L|204:57,1,89.2499972763062,2|0,3:2|0:0,0:0:0:0:
212,63,20202,2,0,L|200:121,1,59.4999981842042,2|0,0:2|0:0,0:0:0:0:
303,215,20551,6,0,L|328:88,1,121.124996765614,2|0,3:2|0:0,0:0:0:0:
338,89,20900,2,0,L|321:168,1,80.7499978437424,2|0,0:2|0:0,0:0:0:0:
423,275,21249,6,0,L|455:113,1,152.999995330811,2|0,3:2|0:0,0:0:0:0:
465,122,21598,2,0,L|443:226,1,101.999996887207,2|0,0:2|0:0,0:0:0:0:
301,303,21946,6,0,P|173:280|90:350,1,238,10|0,0:2|0:0,0:0:0:0:
84,361,22644,6,0,L|43:139,1,203.999993774414,2|0,3:2|1:2,0:0:0:0:
32,81,23516,1,2,0:2:0:0:
32,81,23691,1,2,0:2:0:0:
278,63,24388,5,0,1:2:0:0:
339,14,24563,2,0,L|343:-4,4,14.874999546051,0|0|0|0|0,0:0|0:0|0:0|0:0|0:0,0:0:0:0:
367,88,24912,5,0,1:2:0:0:
485,24,25086,2,0,L|428:39,1,59.4999981842042,2|2,0:2|0:2,0:0:0:0:
306,137,25435,6,0,P|325:195|345:270,1,118.999996368408,2|0,3:2|0:0,0:0:0:0:
410,291,25958,1,2,0:2:0:0:
322,384,26132,2,0,P|329:355|339:327,1,59.4999981842042,0|0,1:2|0:0,0:0:0:0:
239,187,26481,5,2,0:2:0:0:
0,75,27528,5,2,0:2:0:0:
116,105,27702,6,0,P|81:113|48:131,1,59.4999981842042,0|0,1:2|0:0,0:0:0:0:
0,75,28051,1,2,0:2:0:0:
167,26,28225,6,0,B|239:4|263:71|252:74|292:118|350:91,1,203.999993774414,2|0,3:2|1:2,0:0:0:0:
400,43,29098,1,2,0:2:0:0:
400,43,29272,1,2,0:2:0:0:
188,109,29970,5,0,1:2:0:0:
124,158,30144,2,0,L|106:151,4,14.874999546051,0|0|0|0|0,0:0|0:0|0:0|0:0|0:0,0:0:0:0:
255,171,30493,6,0,L|182:194,2,59.4999981842042,2|0|0,1:2|0:0|0:0,0:0:0:0:
351,290,31016,6,0,P|307:251|239:264,1,118.999996368408,2|0,3:2|0:0,0:0:0:0:
206,322,31539,1,2,0:2:0:0:
306,384,31714,2,0,P|290:339|273:315,1,59.4999981842042,0|0,1:2|0:0,0:0:0:0:
159,259,32063,5,2,0:2:0:0:
461,215,33110,5,2,1:2:0:0:
360,336,33284,2,0,P|394:343|459:284,1,118.999996368408,0|0,3:2|1:2,0:0:0:0:
480,129,33807,6,0,P|405:147|385:262,1,203.999993774414,2|0,3:2|1:2,0:0:0:0:
360,336,34679,1,2,0:2:0:0:
360,336,34853,1,2,0:2:0:0:
17,339,35551,5,0,1:2:0:0:
89,305,35725,2,0,L|115:311,4,14.874999546051,0|0|0|0|0,0:0|0:0|0:0|0:0|0:0,0:0:0:0:
24,260,36074,5,0,1:2:0:0:
118,171,36249,2,0,P|105:195|94:246,1,59.4999981842042,2|0,0:2|0:0,0:0:0:0:
193,141,36598,6,0,P|160:96|86:95,1,118.999996368408,2|0,3:2|0:0,0:0:0:0:
42,144,37121,1,2,0:2:0:0:
187,226,37295,2,0,P|215:221|247:210,1,59.4999981842042,0|0,1:2|0:0,0:0:0:0:
360,110,37644,5,2,0:2:0:0:
360,110,38691,5,2,0:2:0:0:
225,53,38865,1,0,1:2:0:0:
310,37,39039,6,0,L|318:16,2,14.874999546051,0|0|0,0:0|0:0|0:0,0:0:0:0:
275,126,39214,1,2,0:2:0:0:
408,29,39388,6,0,B|422:52|463:78|463:78|433:142|421:212,1,203.999993774414,2|0,3:2|1:2,0:0:0:0:
362,251,40260,1,2,0:2:0:0:
362,251,40435,1,2,0:2:0:0:
114,134,41132,5,0,1:2:0:0:
171,77,41307,2,0,L|164:51,4,14.874999546051,0|0|0|0|0,0:0|0:0|0:0|0:0|0:0,0:0:0:0:
247,97,41656,5,0,1:2:0:0:
173,211,41830,2,0,P|186:162|203:136,1,59.4999981842042,2|0,0:2|0:0,0:0:0:0:
284,325,42179,6,0,B|171:291|171:291|211:286|236:261,1,170,2|2,3:2|0:2,0:0:0:0:
346,384,42702,2,0,B|459:350|459:350|419:345|394:320,1,170,2|2,3:2|0:2,0:0:0:0:
267,203,43225,6,0,B|352:236|387:168|374:155|427:84|509:128,1,267.749991828919,2|0,3:2|0:0,0:0:0:0:
470,210,44098,5,2,0:2:0:0:
470,210,44185,1,2,0:2:0:0:
470,210,44272,2,0,P|320:127|279:117,1,208.249993644715,10|0,0:2|0:0,0:0:0:0:
277,107,44970,6,0,L|261:57,2,42.5,2|0|0,3:2|0:0|0:0,0:0:0:0:
235,269,45493,2,0,L|251:319,2,42.5,2|0|0,0:2|0:0|0:0,0:0:0:0:
140,161,46016,6,0,L|371:214,1,238,2|0,0:2|0:0,0:0:0:0:
451,235,47412,1,2,0:2:0:0:
451,235,47586,1,2,0:2:0:0:
318,284,47760,6,0,P|295:305|291:323,2,42.5,2|0|0,0:2|0:0|0:0,0:0:0:0:
209,325,48284,2,0,P|215:355|229:367,2,42.5,2|0|0,0:2|0:0|0:0,0:0:0:0:
24,265,48807,6,0,P|92:283|206:169,1,238,2|0,0:2|0:0,0:0:0:0:
186,103,50202,1,2,0:2:0:0:
186,103,50377,1,2,0:2:0:0:
44,45,50551,5,2,1:2:0:0:
33,64,50638,1,0,1:2:0:0:
32,86,50725,1,0,1:2:0:0:
41,106,50812,1,0,1:2:0:0:
58,120,50900,1,0,1:2:0:0:
75,134,50987,1,0,1:2:0:0:
84,154,51074,1,0,1:2:0:0:
83,176,51161,1,0,1:2:0:0:
72,195,51249,2,0,L|38:208,3,29.7499990921021,2|0|0|0,1:2|1:2|1:2|1:2,0:0:0:0:
153,265,51598,5,2,1:2:0:0:
173,272,51685,1,0,1:2:0:0:
194,280,51772,1,0,1:2:0:0:
215,288,51859,1,0,1:2:0:0:
236,296,51946,1,0,1:2:0:0:
257,304,52034,1,0,1:2:0:0:
278,312,52121,1,0,1:2:0:0:
298,320,52208,1,0,1:2:0:0:
319,328,52295,2,0,P|334:302|334:283,3,29.7499990921021,2|0|0|0,1:2|1:2|1:2|1:2,0:0:0:0:
402,261,52644,2,0,P|386:235|370:225,3,29.7499990921021,0|0|0|0,1:2|1:2|1:2|1:2,0:0:0:0:
331,146,52993,6,0,P|293:169|299:219,1,89.2499972763062,2|0,1:2|1:2,0:0:0:0:
306,221,53342,6,0,B|326:172|275:138|270:142|235:110|263:47,1,170,0|0,3:2|0:0,0:0:0:0:
151,373,54039,6,0,B|131:324|182:290|187:294|222:262|194:199,1,170,0|0,3:2|0:0,0:0:0:0:
67,89,54737,6,0,P|51:107|44:131,1,29.7499990921021,2|2,0:2|0:2,0:0:0:0:
121,144,54912,2,0,P|128:166|145:184,1,29.7499990921021,2|2,0:2|0:2,0:0:0:0:
200,129,55086,1,2,0:2:0:0:
213,134,55173,1,2,0:2:0:0:
228,133,55260,1,2,0:2:0:0:
242,127,55347,1,2,0:2:0:0:
252,117,55435,1,2,0:2:0:0:
260,102,55522,1,2,0:2:0:0:
260,79,55609,1,2,0:2:0:0:
249,55,55696,1,2,0:2:0:0:
228,40,55783,1,2,0:2:0:0:
19,229,56132,6,0,B|7:267|7:267|31:344|31:344|12:401,1,159.375,2|0,3:2|0:0,0:0:0:0:
100,382,56481,2,0,B|111:345|111:345|88:267|88:267|99:229,1,159.375,2|0,3:2|0:0,0:0:0:0:
169,177,56830,5,10,0:2:0:0:
241,209,57005,1,2,0:2:0:0:
177,257,57179,1,2,0:2:0:0:
423,361,57353,6,0,B|370:253|248:291|248:291|278:314|287:348,1,265.625,2|0,3:2|0:0,0:0:0:0:
208,364,57877,5,2,0:3:0:0:
195,367,57964,1,2,0:3:0:0:
182,371,58051,1,2,0:3:0:0:
169,375,58138,1,2,0:3:0:0:
157,379,58225,1,8,0:2:0:0:
86,325,58400,5,2,0:2:0:0:
111,249,58574,1,2,0:2:0:0:
136,173,58748,1,2,0:2:0:0:
274,76,58923,6,0,B|353:49|382:115|382:115|309:145,1,159.375,2|0,3:2|0:0,0:0:0:0:
343,136,59272,1,2,0:2:0:0:
446,318,59446,6,0,L|430:261,1,53.125,2|0,3:2|0:0,0:0:0:0:
410,194,59621,1,8,0:2:0:0:
410,194,59795,1,2,0:2:0:0:
393,384,59970,6,0,L|466:44,1,318.75,2|2,3:2|0:3,0:0:0:0:
385,14,60667,6,0,P|350:23|334:46,1,53.125,2|2,0:3|0:3,0:0:0:0:
267,1,60842,2,0,P|258:36|269:61,1,53.125,2|2,0:3|0:3,0:0:0:0:
200,165,61016,5,10,0:2:0:0:
222,177,61103,1,2,0:2:0:0:
249,178,61190,1,2,0:2:0:0:
272,166,61277,1,2,0:2:0:0:
289,146,61365,1,2,0:2:0:0:
301,132,61452,1,2,0:2:0:0:
317,124,61539,1,2,0:2:0:0:
336,124,61626,1,2,0:2:0:0:
351,133,61714,6,0,B|390:217|390:217|355:253|354:293,1,159.375,2|0,3:2|0:0,0:0:0:0:
445,292,62063,2,0,L|270:340,1,159.375,2|0,3:2|0:0,0:0:0:0:
213,355,62412,5,10,0:2:0:0:
233,278,62586,1,2,0:2:0:0:
157,299,62760,1,2,0:2:0:0:
8,145,62935,6,0,B|61:253|183:215|183:215|153:192|144:158,1,265.625,2|0,3:2|0:0,0:0:0:0:
155,89,63458,5,2,0:3:0:0:
158,76,63545,1,2,0:3:0:0:
162,63,63632,1,2,0:3:0:0:
166,50,63719,1,2,0:3:0:0:
169,38,63806,1,8,0:2:0:0:
255,76,63981,5,2,0:2:0:0:
234,150,64156,1,2,0:2:0:0:
214,225,64331,1,2,0:2:0:0:
327,368,64505,6,0,B|307:314|307:314|319:276|319:276|293:190,1,159.375,2|0,3:2|0:0,0:0:0:0:
289,207,64853,1,2,0:2:0:0:
102,256,65028,6,0,L|168:279,1,53.125,2|0,3:2|0:0,0:0:0:0:
229,304,65202,1,8,0:2:0:0:
229,304,65377,1,2,0:2:0:0:
355,114,65551,6,0,B|314:134|258:112|258:112|205:160|205:160|148:136|98:164,1,265.625,2|0,3:2|0:0,0:0:0:0:
99,171,66074,1,2,0:3:0:0:
40,98,66249,1,2,0:3:0:0:
91,19,66423,1,2,0:3:0:0:
158,244,66598,6,0,L|141:299,3,50.9999984436036,10|0|0|0,0:2|0:0|0:0|0:0,0:0:0:0:
338,384,67295,6,0,B|363:281|363:281|312:230,1,159.375,2|0,3:2|0:0,0:0:0:0:
263,174,67644,2,0,B|238:277|238:277|289:328,1,159.375,2|0,3:2|0:0,0:0:0:0:
338,384,67993,5,10,0:2:0:0:
414,359,68167,1,2,0:2:0:0:
490,334,68341,1,2,0:2:0:0:
395,127,68516,6,0,B|399:204|352:307|352:307|387:270|457:275,1,265.625,2|0,3:2|0:0,0:0:0:0:
506,246,69039,5,2,0:3:0:0:
501,233,69126,1,2,0:3:0:0:
497,220,69213,1,2,0:3:0:0:
493,208,69300,1,2,0:3:0:0:
489,195,69387,1,8,0:2:0:0:
472,105,69563,5,2,0:2:0:0:
415,50,69738,1,2,0:2:0:0:
338,73,69912,1,2,0:2:0:0:
347,291,70086,6,0,L|392:126,1,159.375,2|0,3:2|0:0,0:0:0:0:
395,127,70435,1,2,0:2:0:0:
248,58,70609,6,0,L|274:132,1,53.125,2|0,3:2|0:0,0:0:0:0:
299,182,70784,1,8,0:2:0:0:
299,182,70958,1,2,0:2:0:0:
429,21,71132,6,0,B|288:53|288:53|266:70|266:70|121:103,1,318.75,2|2,3:2|0:3,0:0:0:0:
56,57,71830,6,0,P|46:74|66:147,1,53.125,2|2,0:3|0:3,0:0:0:0:
0,175,72005,2,0,P|9:192|82:211,1,53.125,2|2,0:3|0:3,0:0:0:0:
141,268,72179,5,10,0:2:0:0:
164,278,72266,1,2,0:2:0:0:
190,275,72353,1,2,0:2:0:0:
210,258,72440,1,2,0:2:0:0:
219,234,72528,1,2,0:2:0:0:
216,213,72615,1,2,0:2:0:0:
204,198,72702,1,2,0:2:0:0:
188,191,72789,1,2,0:2:0:0:
175,195,72877,6,0,B|197:252|197:252|190:289|190:289|218:363,1,159.375,2|0,3:2|0:0,0:0:0:0:
286,384,73225,2,0,B|343:363|343:363|367:333|367:333|424:312,1,159.375,2|0,3:2|0:0,0:0:0:0:
502,324,73574,5,10,0:2:0:0:
477,248,73749,1,2,0:2:0:0:
452,172,73923,1,2,0:2:0:0:
279,294,74098,6,0,B|186:326|152:254|160:248|110:186|15:241,1,265.625,2|0,3:2|0:0,0:0:0:0:
0,297,74621,5,2,0:3:0:0:
0,310,74708,1,2,0:3:0:0:
3,323,74795,1,2,0:3:0:0:
9,334,74882,1,2,0:3:0:0:
19,344,74969,1,8,0:2:0:0:
94,384,75144,5,2,0:2:0:0:
154,331,75319,1,2,0:2:0:0:
123,257,75493,1,2,0:2:0:0:
0,137,75667,6,0,P|69:143|131:71,1,159.375,2|0,3:2|0:0,0:0:0:0:
123,66,76016,1,2,0:2:0:0:
220,194,76191,6,0,L|236:122,1,53.125,2|0,3:2|0:0,0:0:0:0:
249,66,76365,1,8,0:2:0:0:
249,66,76539,1,2,0:2:0:0:
123,257,76714,6,0,L|410:186,1,265.625,2|0,3:2|0:0,0:0:0:0:
393,205,77237,1,2,0:3:0:0:
473,144,77412,1,2,0:3:0:0:
439,49,77587,1,2,0:3:0:0:
311,148,77760,5,10,0:2:0:0:
338,51,77935,1,2,1:2:0:0:
338,51,78022,1,2,1:2:0:0:
338,51,78109,2,0,L|316:-2,1,42.5,2|0,1:2|0:0,0:0:0:0:
246,40,78284,2,0,L|266:89,1,42.5,2|0,1:2|0:0,0:0:0:0:
391,122,78458,6,0,L|349:320,1,159.375,2|0,3:2|0:0,0:0:0:0:
427,332,78807,2,0,L|271:298,1,159.375,2|0,3:2|0:0,0:0:0:0:
212,239,79156,5,10,0:2:0:0:
124,217,79330,1,2,0:2:0:0:
60,282,79504,1,2,0:2:0:0:
264,384,79679,6,0,L|220:122,1,265.625,2|0,3:2|0:0,0:0:0:0:
177,52,80202,5,2,0:3:0:0:
187,44,80289,1,2,0:3:0:0:
199,39,80376,1,2,0:3:0:0:
213,37,80463,1,2,0:3:0:0:
226,39,80550,1,8,0:2:0:0:
303,97,80725,5,2,0:2:0:0:
220,122,80900,1,2,0:2:0:0:
284,183,81074,1,2,0:2:0:0:
479,47,81249,6,0,L|315:8,1,159.375,2|0,3:2|0:0,0:0:0:0:
309,13,81598,1,2,0:2:0:0:
427,125,81772,6,0,L|344:105,1,53.125,2|0,3:2|0:0,0:0:0:0:
303,97,81946,1,8,0:2:0:0:
303,97,82121,1,2,0:2:0:0:
438,282,82295,6,0,B|323:253|323:253|283:182|283:182|168:153,1,318.75,2|2,3:2|0:3,0:0:0:0:
106,213,82993,6,0,P|85:193|78:160,1,53.125,2|2,0:3|0:3,0:0:0:0:
1,135,83167,2,0,P|22:115|29:82,1,53.125,2|2,0:3|0:3,0:0:0:0:
109,14,83342,5,10,0:2:0:0:
133,4,83429,1,2,0:2:0:0:
159,5,83516,1,2,0:2:0:0:
183,17,83603,1,2,0:2:0:0:
200,37,83691,1,2,0:2:0:0:
213,52,83778,1,2,0:2:0:0:
231,61,83865,1,2,0:2:0:0:
251,62,83952,1,2,0:2:0:0:
270,54,84039,6,0,B|374:23|374:23|346:74,1,159.375,2|0,3:2|0:0,0:0:0:0:
394,170,84388,2,0,B|290:139|290:139|318:190,1,159.375,2|0,3:2|0:0,0:0:0:0:
384,261,84737,5,10,0:2:0:0:
466,233,84912,1,2,0:2:0:0:
482,147,85087,1,2,0:2:0:0:
270,54,85260,6,0,B|165:7|89:109|89:109|127:108|155:129,1,265.625,2|0,3:2|0:0,0:0:0:0:
105,195,85784,5,2,0:3:0:0:
102,207,85871,1,2,0:3:0:0:
99,220,85958,1,2,0:3:0:0:
96,233,86045,1,2,0:3:0:0:
93,246,86132,1,8,0:2:0:0:
75,332,86307,5,2,0:2:0:0:
157,305,86481,1,2,0:2:0:0:
239,278,86656,1,2,0:2:0:0:
445,370,86830,6,0,L|400:210,1,159.375,2|0,3:2|0:0,0:0:0:0:
403,200,87179,1,2,0:2:0:0:
352,336,87353,6,0,L|329:255,1,53.125,2|0,3:2|0:0,0:0:0:0:
315,212,87528,1,8,0:2:0:0:
315,212,87702,1,2,0:2:0:0:
507,183,87877,6,0,B|414:215|380:143|388:137|338:75|243:130,1,265.625,2|0,3:2|0:0,0:0:0:0:
261,136,88400,1,2,0:3:0:0:
184,88,88574,1,2,0:3:0:0:
206,0,88749,1,2,0:3:0:0:
379,46,88923,5,10,0:2:0:0:
354,121,89098,5,2,0:2:0:0:
330,197,89272,5,2,0:2:0:0:
306,272,89447,5,2,0:2:0:0:
177,173,89621,6,0,B|70:154|70:154|104:169|121:207,1,159.375,2|0,3:2|0:0,0:0:0:0:
40,233,89970,2,0,L|4:65,1,159.375,2|0,3:2|0:0,0:0:0:0:
28,0,90319,5,10,0:2:0:0:
93,63,90493,1,2,0:2:0:0:
180,38,90667,1,2,0:2:0:0:
359,156,90842,6,0,B|471:180|505:81|505:81|445:78|419:46,1,265.625,2|0,3:2|0:0,0:0:0:0:
367,4,91365,5,2,0:3:0:0:
356,11,91452,1,2,0:3:0:0:
349,22,91539,1,2,0:3:0:0:
346,35,91626,1,2,0:3:0:0:
348,48,91713,1,8,0:2:0:0:
289,109,91888,5,2,0:2:0:0:
359,156,92063,1,2,0:2:0:0:
335,237,92238,1,2,0:2:0:0:
118,220,92412,6,0,B|160:205|176:169|176:169|217:195|267:184,1,159.375,2|0,3:2|0:0,0:0:0:0:
265,190,92760,1,2,0:2:0:0:
239,384,92935,6,0,L|220:320,1,53.125,2|0,3:2|0:0,0:0:0:0:
205,261,93109,1,8,0:2:0:0:
205,261,93284,1,2,0:2:0:0:
450,294,93458,6,0,B|309:326|309:326|287:343|287:343|142:376,1,318.75,2|2,3:2|0:3,0:0:0:0:
58,349,94156,6,0,P|56:322|85:285,1,53.125,2|2,0:3|0:3,0:0:0:0:
17,230,94330,2,0,P|39:214|85:221,1,53.125,2|2,0:3|0:3,0:0:0:0:
174,258,94505,5,10,0:2:0:0:
197,248,94592,1,2,0:2:0:0:
213,228,94679,1,2,0:2:0:0:
215,202,94766,1,2,0:2:0:0:
205,178,94854,1,2,0:2:0:0:
188,166,94941,1,2,0:2:0:0:
169,163,95028,1,2,0:2:0:0:
152,170,95115,1,2,0:2:0:0:
145,182,95202,6,0,P|224:195|301:216,1,159.375,2|0,3:2|0:0,0:0:0:0:
360,280,95551,2,0,P|332:205|312:128,1,159.375,2|0,3:2|0:0,0:0:0:0:
359,54,95900,5,10,0:2:0:0:
447,79,96074,1,2,0:2:0:0:
512,15,96248,1,2,0:2:0:0:
312,128,96423,6,0,B|220:102|220:102|186:31|186:31|97:7,1,265.625,2|0,3:2|0:0,0:0:0:0:
33,52,96946,5,2,0:3:0:0:
40,63,97033,1,2,0:3:0:0:
46,74,97120,1,2,0:3:0:0:
51,87,97207,1,2,0:3:0:0:
55,99,97294,1,10,0:2:0:0:
104,173,97470,6,0,P|91:195|85:219,2,50.9999984436036,2|0|0,0:2|0:0|0:0,0:0:0:0:
170,121,97993,6,0,P|210:124|265:71,1,101.999996887207,2|0,0:2|0:0,0:0:0:0:
367,0,98516,2,0,P|343:33|361:107,1,101.999996887207,2|0,0:2|0:0,0:0:0:0:
495,247,99039,6,0,P|432:210|298:172,1,203.999993774414,2|0,0:2|0:0,0:0:0:0:
188,38,99912,5,2,0:2:0:0:
188,38,99999,1,2,0:2:0:0:
188,38,100086,2,0,L|242:326,1,282.624992453099,2|0,0:2|0:0,0:0:0:0:
235,331,100784,5,2,3:2:0:0:
105,342,101133,5,2,0:2:0:0:
174,384,101307,1,2,0:2:0:0:
203,256,101482,1,2,1:2:0:0:
123,263,101656,1,2,0:2:0:0:
292,384,101830,6,0,P|315:366|357:357,1,59.4999981842042,2|0,0:2|0:0,0:0:0:0:
364,276,102179,2,0,P|390:287|419:318,1,59.4999981842042,0|0,0:0|0:0,0:0:0:0:
512,351,102528,5,2,0:2:0:0:
487,277,102702,2,0,L|493:258,4,14.874999546051,0|0|0|0|0,0:0|0:0|0:0|0:0|0:0,0:0:0:0:
344,358,103051,6,0,P|292:345|217:337,1,118.999996368408,2|0,1:2|0:0,0:0:0:0:
160,376,103487,5,2,0:2:0:0:
153,383,103574,2,0,L|122:260,1,118.999996368408,2|0,3:2|0:0,0:0:0:0:
8,155,104098,5,2,0:2:0:0:
75,198,104272,2,0,L|150:179,1,59.4999981842042,0|0,1:2|0:0,0:0:0:0:
273,103,104621,6,0,L|278:79,1,19.8333327280681,2|0,0:2|0:0,0:0:0:0:
260,103,104737,2,0,P|213:161|230:226,1,138.833329096476,2|0,0:2|0:0,0:0:0:0:
254,294,105319,2,0,L|234:362,2,59.4999981842042,2|0|0,0:2|0:0|0:0,0:0:0:0:
421,203,105842,6,0,L|289:245,1,118.999996368408,2|0,0:2|0:0,0:0:0:0:
182,152,106365,6,0,L|114:132,2,59.4999981842042,2|0|0,3:2|0:0|0:0,0:0:0:0:
258,115,106888,1,2,0:2:0:0:
174,16,107063,2,0,P|176:51|200:77,1,59.4999981842042,0|0,1:2|0:0,0:0:0:0:
341,87,107412,5,2,0:2:0:0:
374,0,107586,2,0,L|257:23,1,118.999996368408,2|0,0:2|0:0,0:0:0:0:
182,152,108109,5,2,0:2:0:0:
233,213,108284,2,0,L|218:284,1,59.4999981842042,0|0,0:0|0:0,0:0:0:0:
159,320,108632,1,0,1:2:0:0:
69,240,108807,5,2,0:2:0:0:
81,226,108923,5,2,0:2:0:0:
92,213,109039,5,2,0:2:0:0:
103,200,109156,6,0,L|77:125,1,68,2|0,3:2|0:0,0:0:0:0:
4,77,109505,1,2,0:2:0:0:
251,20,109679,6,0,L|173:5,1,68,2|0,0:2|1:2,0:0:0:0:
94,44,110028,1,2,0:2:0:0:
299,100,110202,6,0,L|253:154,1,50.9999984436036,2|0,0:2|0:0,0:0:0:0:
272,225,110551,1,2,0:2:0:0:
108,200,110725,6,0,L|131:266,1,50.9999984436036,2|0,0:2|0:0,0:0:0:0:
202,285,111074,1,2,0:2:0:0:
177,129,111249,6,0,L|129:116,3,34,2|0|0|0,0:2|0:0|0:0|0:0,0:0:0:0:
82,0,111946,6,0,L|32:202,1,203.999993774414,2|0,3:2|1:2,0:0:0:0:
14,279,112819,1,2,0:2:0:0:
14,279,112994,1,2,0:2:0:0:
294,371,113691,5,0,1:2:0:0:
364,334,113865,2,0,L|385:339,4,14.874999546051,0|0|0|0|0,0:0|0:0|0:0|0:0|0:0,0:0:0:0:
296,291,114214,5,0,1:2:0:0:
390,200,114388,2,0,P|375:225|366:253,1,59.4999981842042,2|2,0:2|0:2,0:0:0:0:
226,328,114737,6,0,P|208:271|179:219,1,118.999996368408,2|0,3:2|0:0,0:0:0:0:
122,165,115260,1,2,0:2:0:0:
267,200,115435,2,0,P|282:175|291:147,1,59.4999981842042,0|0,1:2|0:0,0:0:0:0:
107,250,115784,5,2,0:2:0:0:
293,29,116830,5,2,0:2:0:0:
184,109,117005,6,0,P|209:94|237:85,1,59.4999981842042,0|0,1:2|0:0,0:0:0:0:
293,29,117353,1,2,0:2:0:0:
390,152,117528,6,0,B|418:208|366:245|360:241|304:286|344:339,1,203.999993774414,2|0,3:2|1:2,0:0:0:0:
408,384,118400,1,2,0:2:0:0:
408,384,118574,1,2,0:2:0:0:
222,211,119272,5,0,1:2:0:0:
295,176,119446,2,0,L|311:181,4,14.874999546051,0|0|0|0|0,0:0|0:0|0:0|0:0|0:0,0:0:0:0:
203,78,119795,6,0,P|227:123|230:143,2,59.4999981842042,2|0|0,1:2|0:0|0:0,0:0:0:0:
0,0,120319,6,0,P|36:47|105:38,1,118.999996368408,2|0,3:2|0:0,0:0:0:0:
162,7,120842,1,2,0:2:0:0:
79,145,121016,2,0,P|124:121|144:118,1,59.4999981842042,0|0,1:2|0:0,0:0:0:0:
245,9,121365,5,2,0:2:0:0:
433,251,122412,5,2,1:2:0:0:
511,187,122586,2,0,L|382:160,1,118.999996368408,0|0,3:2|1:2,0:0:0:0:
271,74,123109,6,0,P|302:140|334:272,1,203.999993774414,2|0,3:2|1:2,0:0:0:0:
344,343,123981,2,0,P|374:354|399:373,1,50.9999984436036,2|2,0:2|0:2,0:0:0:0:
512,311,124330,5,0,3:0:0:0:
206,118,124853,5,0,1:2:0:0:
271,74,125028,2,0,L|292:81,4,14.874999546051,0|0|0|0|0,0:0|0:0|0:0|0:0|0:0,0:0:0:0:
201,40,125377,5,0,1:2:0:0:
280,155,125551,2,0,P|268:184|259:223,1,59.4999981842042,2|0,0:2|0:0,0:0:0:0:
165,331,125900,6,0,P|194:297|269:293,1,118.999996368408,2|0,3:2|0:0,0:0:0:0:
342,314,126423,1,2,3:2:0:0:
238,365,126598,2,0,P|266:372|294:384,1,59.4999981842042,0|0,1:2|3:2,0:0:0:0:
180,214,126946,5,2,3:2:0:0:
461,17,127993,5,2,0:2:0:0:
411,138,128167,1,0,1:2:0:0:
388,61,128342,6,0,L|367:55,2,14.874999546051,0|0|0,0:0|0:0|0:0,0:0:0:0:
484,94,128516,1,2,0:2:0:0:
298,10,128691,6,0,B|267:98|165:69|165:69|195:50|203:22,1,203.999993774414,2|0,3:2|1:2,0:0:0:0:
131,0,129563,1,2,0:2:0:0:
131,0,129737,1,2,3:2:0:0:
1,222,130435,5,0,1:2:0:0:
45,154,130609,2,0,L|37:128,4,14.874999546051,0|0|0|0|0,0:0|0:0|0:0|0:0|0:0,0:0:0:0:
138,245,130958,6,0,P|111:232|82:225,2,59.4999981842042,0|2|0,1:2|0:2|0:0,0:0:0:0:
297,135,131481,6,0,B|307:93|277:49|217:44|168:78|172:199|264:227,1,305.999990661621,2|0,0:2|3:2,0:0:0:0:
504,363,134272,6,0,L|486:283,1,68,2|0,3:2|3:2,0:0:0:0:
472,212,134621,1,8,0:2:0:0:
411,342,134795,2,0,L|391:264,1,68,2|0,0:2|3:2,0:0:0:0:
311,154,135144,1,0,3:2:0:0:
305,161,135231,1,0,3:2:0:0:
299,168,135319,2,0,L|315:233,1,68,10|0,0:2|0:0,0:0:0:0:
450,126,135667,6,0,P|416:107|381:109,1,68,0|0,3:2|3:2,0:0:0:0:
288,34,136016,2,0,L|171:66,1,102,8|0,0:2|3:2,0:0:0:0:
179,72,136365,1,0,3:2:0:0:
85,9,136539,1,0,3:2:0:0:
91,16,136626,1,0,3:2:0:0:
97,23,136714,2,0,L|81:88,1,68,10|2,0:2|0:2,0:0:0:0:
0,194,137063,6,0,L|80:176,1,68,2|0,3:2|3:2,0:0:0:0:
148,158,137412,1,8,0:2:0:0:
56,269,137586,2,0,L|135:250,1,68,2|0,0:2|3:2,0:0:0:0:
230,137,137935,1,0,3:2:0:0:
237,143,138022,1,0,3:2:0:0:
244,149,138109,2,0,L|225:228,1,68,10|0,0:2|0:0,0:0:0:0:
112,344,138458,6,0,L|191:325,1,68,0|0,3:2|3:2,0:0:0:0:
288,384,138807,2,0,P|315:352|305:282,1,102,8|0,0:2|3:2,0:0:0:0:
305,283,139156,1,0,3:2:0:0:
388,195,139330,1,0,3:2:0:0:
395,189,139417,1,0,3:2:0:0:
402,183,139505,2,0,L|467:199,1,68,10|2,0:2|0:2,0:0:0:0:
296,96,139853,6,0,P|260:114|247:159,1,68,2|0,3:2|0:0,0:0:0:0:
216,152,140115,1,0,0:0:0:0:
216,152,140202,2,0,P|213:192|246:225,1,68,0|0,3:2|0:0,0:0:0:0:
224,249,140464,1,0,0:0:0:0:
224,249,140551,2,0,P|257:271|309:259,1,85,2|0,3:2|0:0,0:0:0:0:
334,291,140813,1,0,0:0:0:0:
334,291,140900,2,0,P|369:272|385:222,1,85,2|0,3:2|0:0,0:0:0:0:
410,210,141162,5,0,0:0:0:0:
410,210,141249,1,0,3:2:0:0:
320,113,141423,1,0,3:0:0:0:
362,17,141598,1,2,3:2:0:0:
444,6,141772,1,0,3:0:0:0:
498,63,141946,1,2,0:3:0:0:
495,73,142033,1,2,0:3:0:0:
492,83,142120,1,2,0:3:0:0:
490,93,142207,1,2,0:3:0:0:
487,104,142294,1,2,0:3:0:0:
484,114,142382,1,2,0:3:0:0:
482,124,142469,1,2,0:3:0:0:
479,135,142556,1,2,0:3:0:0:
477,145,142644,6,0,P|419:146|386:191,1,90.6666666666667,2|0,3:2|0:0,0:0:0:0:
401,175,142993,2,0,P|437:149|481:153,1,90.6666666666667,2|0,0:2|0:0,0:0:0:0:
373,272,143342,6,0,P|333:253|315:213,1,90.6666666666667,2|0,3:2|0:0,0:0:0:0:
319,203,143691,2,0,P|337:244|378:263,1,90.6666666666667,2|0,0:2|0:0,0:0:0:0:
444,371,144039,6,0,P|457:305|479:241,1,136,2|0,3:2|0:0,0:0:0:0:
385,49,144737,6,0,P|349:75|308:70,1,85,2|2,3:2|0:0,0:0:0:0:
237,15,145435,6,0,L|161:37,1,68,2|0,0:2|0:0,0:0:0:0:
55,84,145784,1,2,0:2:0:0:
55,84,145871,2,0,L|120:102,1,68,2|0,0:2|0:0,0:0:0:0:
133,120,146132,1,2,0:2:0:0:
72,180,146307,1,2,0:2:0:0:
132,241,146481,1,2,0:2:0:0:
193,181,146656,1,2,0:2:0:0:
278,317,146830,5,2,0:3:0:0:
265,327,146917,1,2,0:3:0:0:
248,332,147004,1,2,0:3:0:0:
232,329,147091,1,2,0:3:0:0:
218,318,147178,1,2,0:3:0:0:
211,303,147266,1,2,0:3:0:0:
210,285,147353,1,2,0:3:0:0:
217,271,147440,1,2,0:3:0:0:
230,261,147527,1,2,0:3:0:0:
370,113,147702,5,0,3:2:0:0:
273,90,147877,2,0,L|301:188,1,85,8|0,0:2|1:2,0:0:0:0:
288,181,148138,1,0,0:0:0:0:
280,189,148225,6,0,B|223:177|223:177|200:135|200:135|147:123,1,159.375,6|0,3:2|0:0,0:0:0:0:
130,110,148574,1,8,0:2:0:0:
25,257,148749,1,2,0:2:0:0:
25,257,148836,2,0,B|76:266|76:266|138:214,1,106.25,2|0,0:3|0:0,0:0:0:0:
139,210,149098,1,0,3:2:0:0:
266,384,149272,2,0,L|228:216,1,159.375,10|0,0:2|0:0,0:0:0:0:
214,152,149621,5,2,3:2:0:0:
214,152,149708,1,2,0:2:0:0:
214,152,149795,2,0,P|238:134|274:131,1,53.125,2|2,0:2|0:2,0:0:0:0:
283,51,149970,1,10,0:2:0:0:
283,51,150057,1,2,0:2:0:0:
283,51,150144,2,0,P|310:62|331:92,1,53.125,2|10,0:2|0:2,0:0:0:0:
421,168,150319,5,2,0:2:0:0:
395,174,150406,1,2,0:2:0:0:
376,192,150493,1,2,3:2:0:0:
369,217,150580,1,2,0:2:0:0:
376,242,150667,1,10,0:2:0:0:
388,256,150754,1,2,0:2:0:0:
408,262,150841,1,2,0:2:0:0:
423,258,150928,1,2,0:2:0:0:
429,251,151016,6,0,L|260:211,1,159.375,2|0,3:2|0:0,0:0:0:0:
218,159,151365,2,0,B|165:149|165:149|108:201,1,106.25,10|0,0:2|0:0,0:0:0:0:
104,209,151627,1,2,0:3:0:0:
104,209,151714,1,2,0:3:0:0:
218,347,151888,6,0,L|232:295,1,53.125,2|0,3:2|0:0,0:0:0:0:
158,275,152063,2,0,L|143:326,1,53.125,10|0,0:2|0:0,0:0:0:0:
56,372,152237,6,0,L|328:304,1,280.500002675057,2|2,3:2|0:3,0:0:0:0:
335,297,152673,1,2,0:3:0:0:
342,289,152760,1,8,0:2:0:0:
430,384,152935,1,2,0:3:0:0:
437,376,153022,1,2,0:3:0:0:
444,368,153109,2,0,L|422:295,1,53.125,2|0,0:2|0:0,0:0:0:0:
486,151,153284,5,0,3:2:0:0:
483,241,153458,2,0,B|426:229|426:229|403:187|403:187|350:175,1,159.375,10|0,0:2|0:0,0:0:0:0:
287,123,153807,6,0,L|124:166,1,159.375,2|0,3:2|0:0,0:0:0:0:
121,179,154156,1,8,0:2:0:0:
58,42,154330,1,2,0:3:0:0:
78,38,154417,1,2,0:3:0:0:
97,42,154504,1,2,0:3:0:0:
114,53,154591,1,2,0:3:0:0:
124,70,154678,1,0,3:2:0:0:
233,220,154853,2,0,B|275:218|310:240|310:240|326:183|370:165,1,159.375,10|0,0:2|0:0,0:0:0:0:
367,166,155202,5,2,3:2:0:0:
394,75,155377,1,2,0:2:0:0:
458,144,155551,1,10,0:2:0:0:
303,97,155725,2,0,B|263:59|263:59|292:-3,1,106.25,2|0,0:2|0:0,0:0:0:0:
431,233,156074,5,8,0:2:0:0:
428,245,156162,1,8,0:2:0:0:
425,257,156249,1,8,0:2:0:0:
474,319,156423,1,0,3:2:0:0:
282,353,156598,6,0,P|206:365|155:308,1,159.375,6|0,3:2|0:0,0:0:0:0:
105,251,156946,2,0,L|130:140,1,106.25,10|0,0:2|0:0,0:0:0:0:
139,114,157208,1,2,0:3:0:0:
139,114,157295,1,2,0:3:0:0:
315,68,157470,6,0,L|303:119,1,53.125,2|0,3:2|0:0,0:0:0:0:
222,99,157644,2,0,L|233:47,1,53.125,10|0,0:2|0:0,0:0:0:0:
392,102,157819,6,0,B|301:133|263:54|272:47|224:-31|127:23,1,280.500002675057,2|2,3:2|0:3,0:0:0:0:
143,22,158255,1,2,0:3:0:0:
138,31,158342,1,8,0:2:0:0:
46,0,158516,1,2,0:3:0:0:
41,9,158603,1,2,0:3:0:0:
36,18,158691,2,0,L|51:71,1,53.125,2|0,0:2|0:0,0:0:0:0:
101,242,158865,5,0,3:2:0:0:
17,212,159039,2,0,P|72:158|149:166,1,159.375,10|0,0:2|0:0,0:0:0:0:
230,157,159388,6,0,L|198:327,1,159.375,2|0,3:2|0:0,0:0:0:0:
190,324,159737,1,8,0:2:0:0:
320,384,159912,1,2,0:2:0:0:
313,365,159999,1,2,0:3:0:0:
307,346,160086,1,0,0:0:0:0:
301,327,160173,1,0,0:0:0:0:
294,308,160260,1,0,3:2:0:0:
121,244,160435,2,0,B|59:218|14:280|14:280|60:304,1,159.375,10|0,0:2|0:0,0:0:0:0:
85,373,160784,5,2,3:2:0:0:
85,373,160871,1,2,0:2:0:0:
85,373,160958,2,0,P|109:362|127:329,1,53.125,2|2,0:2|0:2,0:0:0:0:
209,360,161132,1,10,0:2:0:0:
209,360,161219,1,2,0:2:0:0:
209,360,161306,2,0,P|211:333|191:301,1,53.125,2|10,0:2|0:2,0:0:0:0:
238,220,161481,5,2,0:2:0:0:
212,213,161568,1,2,0:2:0:0:
194,194,161655,1,2,3:2:0:0:
187,169,161742,1,2,0:2:0:0:
194,143,161830,1,10,0:2:0:0:
208,128,161917,1,2,0:2:0:0:
228,123,162004,1,2,0:2:0:0:
245,127,162091,1,2,0:2:0:0:
254,135,162179,6,0,P|155:167|100:202,1,159.375,6|0,3:2|0:0,0:0:0:0:
41,153,162528,2,0,P|36:101|70:63,1,106.25,10|0,0:2|0:0,0:0:0:0:
89,39,162789,1,2,0:3:0:0:
89,39,162877,1,2,0:3:0:0:
317,74,163051,6,0,L|334:10,1,53.125,2|0,3:2|0:0,0:0:0:0:
250,0,163225,2,0,L|236:51,1,53.125,10|0,0:2|0:0,0:0:0:0:
157,91,163400,6,0,L|450:19,1,280.500002675057,2|2,3:2|0:3,0:0:0:0:
438,29,163836,1,2,0:3:0:0:
446,35,163923,1,8,0:2:0:0:
352,156,164098,1,2,0:3:0:0:
360,162,164185,1,2,0:3:0:0:
368,168,164272,2,0,L|430:143,1,53.125,2|0,0:2|0:0,0:0:0:0:
351,64,164446,5,0,3:2:0:0:
274,204,164621,2,0,B|255:253|292:283|298:279|330:311|299:374,1,159.375,10|0,0:2|0:0,0:0:0:0:
296,367,164970,6,0,P|248:346|173:337,1,118.999996368408,2|0,0:2|0:0,0:0:0:0:
97,289,165493,2,0,P|139:257|184:197,1,118.999996368408,2|0,0:2|0:0,0:0:0:0:
265,155,166016,6,0,P|270:207|300:276,1,118.999996368408,2|0,0:2|3:2,0:0:0:0:
370,325,166539,1,8,0:2:0:0:
425,261,166714,1,0,3:2:0:0:
508,293,166888,2,0,L|514:313,4,14.874999546051,8|0|0|0|0,0:2|0:0|0:0|0:0|0:0,0:0:0:0:
422,146,167237,5,0,1:2:0:0:
422,146,167324,1,0,1:2:0:0:
422,146,167412,2,0,L|407:185,1,29.7499990921021,0|0,1:2|0:0,0:0:0:0:
486,201,167586,2,0,L|496:173,1,29.7499990921021,0|0,1:2|0:0,0:0:0:0:
487,85,167760,6,0,L|332:122,1,159.375,2|0,3:2|0:0,0:0:0:0:
248,81,168109,2,0,L|93:118,1,159.375,2|0,3:2|0:0,0:0:0:0:
27,178,168458,5,10,0:2:0:0:
95,241,168632,1,2,0:2:0:0:
74,332,168807,1,2,0:2:0:0:
185,214,168981,6,0,B|285:168|353:253|353:253|300:250|269:302,1,265.625,2|0,3:2|0:0,0:0:0:0:
345,335,169505,5,2,0:3:0:0:
349,347,169592,1,2,0:3:0:0:
354,359,169679,1,2,0:3:0:0:
359,371,169766,1,2,0:3:0:0:
364,384,169853,1,8,0:2:0:0:
437,316,170028,5,2,0:2:0:0:
469,232,170202,1,2,0:2:0:0:
380,246,170377,1,2,0:2:0:0:
372,0,170551,6,0,L|405:166,1,159.375,2|0,3:2|0:0,0:0:0:0:
412,164,170900,1,2,0:2:0:0:
293,55,171074,6,0,L|309:137,1,53.125,2|0,3:2|0:0,0:0:0:0:
323,187,171249,1,8,0:2:0:0:
323,187,171423,1,2,0:2:0:0:
512,146,171598,6,0,B|371:114|371:114|349:97|349:97|204:64,1,318.75,2|2,3:2|0:3,0:0:0:0:
147,0,172295,6,0,P|127:25|131:78,1,53.125,2|2,0:3|0:3,0:0:0:0:
40,66,172470,2,0,P|51:95|99:118,1,53.125,2|2,0:3|0:3,0:0:0:0:
149,169,172644,5,10,0:2:0:0:
172,156,172731,1,2,0:2:0:0:
198,155,172818,1,2,0:2:0:0:
223,164,172905,1,2,0:2:0:0:
242,183,172993,1,2,0:2:0:0:
249,198,173080,1,2,0:2:0:0:
250,215,173167,1,2,0:2:0:0:
244,230,173254,1,2,0:2:0:0:
236,239,173342,6,0,B|128:271|128:271|206:298,1,159.375,2|0,3:2|0:0,0:0:0:0:
250,325,173691,2,0,B|294:340|294:340|186:372,1,159.375,2|0,3:2|0:0,0:0:0:0:
103,384,174039,5,10,0:2:0:0:
42,322,174214,1,2,0:2:0:0:
64,239,174388,1,2,0:2:0:0:
263,84,174563,6,0,B|298:106|349:111|349:111|373:192|373:192|438:197|488:237,1,265.625,2|0,3:2|0:0,0:0:0:0:
511,279,175086,5,2,0:3:0:0:
502,288,175173,1,2,0:3:0:0:
491,296,175260,1,2,0:3:0:0:
478,299,175347,1,2,0:3:0:0:
465,298,175434,1,8,0:2:0:0:
405,359,175609,5,2,0:2:0:0:
381,275,175784,1,2,0:2:0:0:
357,191,175958,1,2,0:2:0:0:
159,336,176132,6,0,B|209:351|209:351|257:328|257:328|328:348,1,159.375,2|0,3:2|0:0,0:0:0:0:
320,337,176481,1,2,0:2:0:0:
274,161,176656,6,0,L|257:236,1,53.125,2|0,3:2|0:0,0:0:0:0:
203,262,176830,1,8,0:2:0:0:
203,262,177005,1,2,0:2:0:0:
33,125,177179,6,0,B|101:28|220:83|220:83|190:105|178:157,1,265.625,2|0,3:2|0:0,0:0:0:0:
186,142,177702,1,2,0:3:0:0:
274,161,177877,1,2,0:3:0:0:
362,180,178052,1,2,0:3:0:0:
486,59,178225,5,10,0:2:0:0:
426,3,178400,5,2,0:2:0:0:
349,26,178574,5,2,0:2:0:0:
331,105,178749,5,2,0:2:0:0:
452,313,178923,6,0,L|485:157,1,159.375,2|0,3:2|0:0,0:0:0:0:
416,109,179272,2,0,L|382:264,1,159.375,2|0,3:2|0:0,0:0:0:0:
364,343,179621,5,10,0:2:0:0:
279,322,179795,1,2,0:2:0:0:
219,384,179970,1,2,0:2:0:0:
157,155,180144,6,0,B|197:156|227:131|227:131|259:237|164:316,1,265.625,0|0,3:2|0:0,0:0:0:0:
125,362,180667,5,2,0:3:0:0:
114,354,180754,1,2,0:3:0:0:
105,344,180841,1,2,0:3:0:0:
100,332,180928,1,2,0:3:0:0:
98,319,181015,1,8,0:2:0:0:
117,230,181191,5,2,0:2:0:0:
31,259,181365,1,2,0:2:0:0:
49,169,181539,1,2,0:0:0:0:
178,303,181714,6,0,L|349:346,1,159.375,0|0,3:2|0:0,0:0:0:0:
345,354,182063,1,2,0:2:0:0:
215,219,182237,6,0,L|300:240,1,53.125,2|0,3:2|0:0,0:0:0:0:
347,254,182412,1,8,0:2:0:0:
347,254,182586,1,2,0:2:0:0:
103,289,182760,6,0,L|446:202,1,318.75,2|2,3:2|0:3,0:0:0:0:
470,151,183458,6,0,P|429:128|403:131,1,53.125,2|2,0:3|0:3,0:0:0:0:
357,70,183632,2,0,P|316:93|290:90,1,53.125,2|2,0:3|0:3,0:0:0:0:
224,134,183807,5,10,0:2:0:0:
230,108,183894,1,2,0:2:0:0:
226,82,183981,1,2,0:2:0:0:
213,59,184068,1,2,0:2:0:0:
192,44,184156,1,2,0:2:0:0:
172,39,184243,1,2,0:2:0:0:
151,41,184330,1,2,0:2:0:0:
137,51,184417,1,2,0:2:0:0:
130,61,184505,6,0,B|90:155|90:155|127:185|136:235,1,159.375,2|0,3:2|0:0,0:0:0:0:
37,228,184853,2,0,P|115:237|190:264,1,159.375,2|0,3:2|0:0,0:0:0:0:
255,324,185202,5,10,0:2:0:0:
276,237,185377,1,2,0:2:0:0:
211,175,185551,1,2,0:2:0:0:
117,363,185725,6,0,P|90:233|43:108,1,265.625,2|0,3:2|0:0,0:0:0:0:
0,42,186249,5,2,0:3:0:0:
8,32,186336,1,2,0:3:0:0:
20,26,186423,1,2,0:3:0:0:
33,23,186510,1,2,0:3:0:0:
46,25,186597,1,8,0:2:0:0:
125,67,186772,5,2,0:2:0:0:
200,19,186947,1,2,0:2:0:0:
205,108,187121,1,2,0:2:0:0:
416,129,187295,6,0,B|380:41|283:61|283:61|302:90|292:138,1,212.5,2|2,3:2|0:2,0:0:0:0:
410,283,187819,2,0,B|503:295|534:202|534:202|500:204|463:171,1,212.5,2|2,3:2|0:2,0:0:0:0:
275,208,188342,6,0,P|196:234|71:315,1,212.5,2|0,3:2|0:0,0:0:0:0:
205,108,188865,2,0,P|126:134|1:215,1,212.5,2|0,3:2|0:0,0:0:0:0:
362,245,189388,6,0,B|409:166|328:119|324:124|252:79|313:-2,1,267.749991828919,10|0,0:2|0:0,0:0:0:0:
319,2,190086,5,2,0:2:0:0:
319,2,190784,2,0,P|349:16|388:20,1,50.9999984436036,0|0,0:0|0:0,0:0:0:0:
336,94,191132,1,2,0:2:0:0:
336,94,191830,2,0,P|306:80|267:76,1,50.9999984436036,0|0,0:0|0:0,0:0:0:0:
125,17,192353,5,2,0:2:0:0:
152,92,192528,1,0,0:0:0:0:
179,167,192702,1,0,0:0:0:0:
127,227,192877,5,2,0:2:0:0:
127,227,193225,1,0,0:0:0:0:
49,213,193400,1,0,0:0:0:0:
49,213,193749,1,0,0:0:0:0:
22,138,193923,1,2,0:2:0:0:
309,319,195493,5,0,0:0:0:0:
309,319,195667,1,2,0:2:0:0:
309,319,196365,2,0,P|330:329|366:335,1,50.9999984436036,0|0,0:0|0:0,0:0:0:0:
419,384,196714,1,2,0:2:0:0:
419,384,197412,2,0,P|440:374|476:368,1,50.9999984436036,0|0,0:0|0:0,0:0:0:0:
511,238,197935,5,2,0:2:0:0:
486,161,198109,1,0,0:0:0:0:
461,84,198283,1,0,0:0:0:0:
382,67,198458,6,0,P|339:74|275:31,1,101.999996887207,2|0,0:2|0:0,0:0:0:0:
261,200,198981,2,0,P|259:149|229:109,1,101.999996887207,2|0,0:2|0:0,0:0:0:0:
380,184,199505,5,2,0:2:0:0:
204,287,200028,5,2,0:2:0:0:
204,287,200202,2,0,P|221:327|236:401,1,101.999996887207,2|0,0:2|0:0,0:0:0:0:
