osu file format v14

[General]
AudioFilename: audio.mp3
AudioLeadIn: 0
PreviewTime: 87418
Countdown: 0
SampleSet: Soft
StackLeniency: 0.7
Mode: 3
LetterboxInBreaks: 0
SpecialStyle: 0
WidescreenStoryboard: 1

[Editor]
Bookmarks: 16148,25523,40523,53648,78023,90210,97710,105210,112710,118335
DistanceSpacing: 1
BeatDivisor: 6
GridSize: 32
TimelineZoom: 3.099999

[Metadata]
Title:VIVIDVELOCITY
TitleUnicode:VIVIDVELOCITY
Artist:Synthion
ArtistUnicode:Synthion
Creator:Usagi_
Version:Normal
Source:
Tags:love progressive house happy hardcore J-core J core Jcore complextro envtuber vtuber virtual youtuber v tuber バーチャル youtuber pop english female vocalist vocals featured artist fa mappers' guild mg mpg electronic instrumental Irone osu
BeatmapID:4454779
BeatmapSetID:2120379

[Difficulty]
HPDrainRate:7
CircleSize:4
OverallDifficulty:7
ApproachRate:5
SliderMultiplier:1.4
SliderTickRate:1

[Events]
//Background and Video events
0,0,"bg.jpg",0,0
//Break Periods
//Storyboard Layer 0 (Background)
//Storyboard Layer 1 (Fail)
//Storyboard Layer 2 (Pass)
//Storyboard Layer 3 (Foreground)
//Storyboard Layer 4 (Overlay)
//Storyboard Sound Samples
Sample,18043,0,"Kick.wav",70
Sample,25543,0,"Kick.wav",70
Sample,28824,0,"Snare.wav",40
Sample,36324,0,"Snare.wav",40
Sample,42886,0,"Snare.wav",40
Sample,48511,0,"Snare.wav",40
Sample,50386,0,"Snare.wav",40
Sample,90230,0,"Kick.wav",70
Sample,101011,0,"Dubstep-snare.wav",45
Sample,104409,0,"Kick.wav",70
Sample,105230,0,"Kick.wav",70
Sample,105933,0,"Snare.wav",40
Sample,106401,0,"Snare.wav",40
Sample,106870,0,"Snare.wav",40
Sample,107808,0,"Snare.wav",40
Sample,108276,0,"Snare.wav",40
Sample,109683,0,"Snare.wav",40
Sample,110151,0,"Snare.wav",40
Sample,110620,0,"Snare.wav",40
Sample,111089,0,"Snare.wav",40
Sample,111558,0,"Snare.wav",40
Sample,112026,0,"Snare.wav",40
Sample,113198,0,"Kick.wav",70
Sample,113198,0,"Dubstep-snare.wav",45
Sample,115073,0,"Dubstep-snare.wav",45
Sample,116011,0,"Dubstep-snare.wav",45
Sample,120230,0,"Kick.wav",70
Sample,120581,0,"Kick.wav",70
Sample,120933,0,"Kick.wav",70
Sample,121284,0,"Kick.wav",70

[TimingPoints]
3043,234.375,4,2,1,60,1,0
25543,468.75,4,2,1,60,1,1
25543,-50,4,2,1,60,0,1
33043,-50,4,2,1,60,0,0
33511,-50,4,2,1,60,0,1
38668,-50,4,2,1,60,0,0
40543,-50,4,2,1,60,0,1
48043,-50,4,2,1,60,0,0
48511,-50,4,2,1,60,0,1
53668,-50,4,2,1,60,0,0
78043,234.375,4,2,1,60,1,0
90230,234.375,4,2,1,60,1,1
97730,-100,4,2,1,60,0,0
98198,-100,4,2,1,60,0,1
103355,-100,4,2,1,60,0,0
105230,-100,4,2,1,60,0,1
112730,-100,4,2,1,60,0,0
113198,-100,4,2,1,60,0,1
118355,-100,4,2,1,60,0,0

[HitObjects]
448,192,3043,5,0,0:0:0:0:
192,192,3628,1,0,0:0:0:0:
448,192,3863,1,0,0:0:0:0:
448,192,4683,1,0,0:0:0:0:
64,192,4918,1,0,0:0:0:0:
320,192,5386,1,0,0:0:0:0:
64,192,5738,1,0,0:0:0:0:
192,192,5972,1,0,0:0:0:0:
448,192,6793,1,0,0:0:0:0:
192,192,7378,1,0,0:0:0:0:
448,192,7613,1,0,0:0:0:0:
320,192,8433,1,0,0:0:0:0:
192,192,8668,1,0,0:0:0:0:
64,192,9019,1,0,0:0:0:0:
448,192,9253,1,0,0:0:0:0:
192,192,9488,1,0,0:0:0:0:
320,192,9839,1,0,0:0:0:0:
192,192,10074,1,0,0:0:0:0:
64,192,10308,1,0,0:0:0:0:
448,192,10543,1,0,0:0:0:0:
320,192,11128,1,0,0:0:0:0:
64,192,11363,1,0,0:0:0:0:
192,192,12183,1,0,0:0:0:0:
448,192,12418,1,0,0:0:0:0:
320,192,12886,1,0,0:0:0:0:
64,192,13238,1,0,0:0:0:0:
192,192,13472,1,0,0:0:0:0:
448,192,14293,1,0,0:0:0:0:
320,192,14878,1,0,0:0:0:0:
64,192,15113,1,0,0:0:0:0:
320,192,15933,1,0,0:0:0:0:
64,192,16168,1,0,0:0:0:70:Kick.wav
192,192,16168,1,0,0:0:0:0:
320,192,16519,1,0,0:0:0:70:Kick.wav
448,192,16519,1,0,0:0:0:0:
192,192,16871,1,0,0:0:0:70:Kick.wav
320,192,16871,1,0,0:0:0:0:
64,192,17105,1,0,0:0:0:0:
320,192,17222,1,0,0:0:0:70:Kick.wav
448,192,17222,1,0,0:0:0:0:
64,192,17457,1,0,0:0:0:70:Kick.wav
192,192,17457,1,0,0:0:0:0:
320,192,17574,128,0,18043:0:0:0:70:Kick.wav
64,192,18043,1,0,0:0:0:55:Build-up-snare.mp3
192,192,18043,1,0,0:0:0:70:Crash.wav
448,192,18394,1,0,0:0:0:55:Build-up-snare.mp3
192,192,18746,1,0,0:0:0:55:Build-up-snare.mp3
320,192,18980,1,0,0:0:0:55:Build-up-snare.mp3
448,192,19214,1,0,0:0:0:55:Build-up-snare.mp3
64,192,19332,1,0,0:0:0:55:Build-up-snare.mp3
320,192,19683,1,0,0:0:0:55:Build-up-snare.mp3
192,192,19918,1,0,0:0:0:55:Build-up-snare.mp3
448,192,20269,1,0,0:0:0:55:Build-up-snare.mp3
64,192,20621,1,0,0:0:0:55:Build-up-snare.mp3
448,192,20855,1,0,0:0:0:55:Build-up-snare.mp3
320,192,21089,1,0,0:0:0:55:Build-up-snare.mp3
64,192,21207,1,0,0:0:0:55:Build-up-snare.mp3
448,192,21558,1,0,0:0:0:55:Build-up-snare.mp3
64,192,21793,1,0,0:0:0:55:Build-up-snare.mp3
192,192,21793,1,0,0:0:0:0:
320,192,22027,1,0,0:0:0:55:Build-up-snare.mp3
448,192,22261,1,0,0:0:0:55:Build-up-snare.mp3
192,192,22496,1,0,0:0:0:55:Build-up-snare.mp3
64,192,22730,1,0,0:0:0:55:Build-up-snare.mp3
448,192,22964,1,0,0:0:0:55:Build-up-snare.mp3
320,192,23199,1,0,0:0:0:55:Build-up-snare.mp3
64,192,23433,1,0,0:0:0:55:Build-up-snare.mp3
192,192,23668,128,0,24605:0:0:0:55:Build-up-snare.mp3
320,192,24605,1,0,0:0:0:0:
448,192,25074,128,0,25308:0:0:0:0:
64,192,25308,1,0,0:0:0:0:
320,192,25543,1,0,0:0:0:70:Crash.wav
192,192,25777,1,0,0:0:0:0:
448,192,25894,1,0,0:0:0:0:
64,192,26128,1,0,0:0:0:0:
320,192,26246,1,0,0:0:0:0:
192,192,26480,1,0,0:0:0:70:Kick.wav
448,192,26714,1,0,0:0:0:0:
64,192,26832,1,0,0:0:0:0:
192,192,27066,1,0,0:0:0:0:
448,192,27183,1,0,0:0:0:0:
320,192,27418,1,0,0:0:0:70:Kick.wav
64,192,27652,1,0,0:0:0:0:
320,192,27769,1,0,0:0:0:0:
192,192,28003,1,0,0:0:0:0:
448,192,28121,1,0,0:0:0:0:
64,192,28355,1,0,0:0:0:70:Kick.wav
192,192,28589,1,0,0:0:0:0:
448,192,28824,1,0,0:0:0:70:Kick.wav
320,192,29058,1,0,0:0:0:0:
64,192,29293,1,0,0:0:0:70:Kick.wav
192,192,29527,1,0,0:0:0:0:
448,192,29644,1,0,0:0:0:0:
64,192,29878,1,0,0:0:0:0:
320,192,29996,1,0,0:0:0:0:
192,192,30230,1,0,0:0:0:70:Kick.wav
448,192,30464,1,0,0:0:0:0:
192,192,30582,1,0,0:0:0:0:
64,192,30816,1,0,0:0:0:0:
448,192,30933,1,0,0:0:0:0:
320,192,31168,1,0,0:0:0:70:Kick.wav
192,192,31402,1,0,0:0:0:0:
320,192,31636,1,0,0:0:0:45:Dubstep-snare.wav
448,192,31636,1,0,0:0:0:0:
192,192,31988,1,0,0:0:0:70:Kick.wav
448,192,32339,1,0,0:0:0:70:Kick.wav
64,192,32574,1,0,0:0:0:45:Dubstep-snare.wav
192,192,32574,1,0,0:0:0:0:
64,192,33043,1,0,0:0:0:70:Kick.wav
448,192,33394,1,0,0:0:0:0:
64,192,33628,1,0,0:0:0:0:
320,192,33746,1,0,0:0:0:0:
192,192,33980,1,0,0:0:0:70:Kick.wav
320,192,34214,1,0,0:0:0:0:
64,192,34332,1,0,0:0:0:0:
192,192,34566,1,0,0:0:0:0:
448,192,34683,1,0,0:0:0:0:
320,192,34918,1,0,0:0:0:70:Kick.wav
64,192,35152,1,0,0:0:0:0:
320,192,35269,1,0,0:0:0:0:
192,192,35503,1,0,0:0:0:0:
448,192,35621,1,0,0:0:0:0:
64,192,35855,1,0,0:0:0:70:Kick.wav
192,192,36089,1,0,0:0:0:0:
448,192,36324,1,0,0:0:0:70:Kick.wav
320,192,36558,1,0,0:0:0:0:
64,192,36793,1,0,0:0:0:70:Kick.wav
192,192,37027,1,0,0:0:0:0:
448,192,37144,1,0,0:0:0:0:
64,192,37378,1,0,0:0:0:0:
320,192,37496,1,0,0:0:0:0:
192,192,37730,1,0,0:0:0:70:Kick.wav
448,192,37964,1,0,0:0:0:0:
192,192,38082,1,0,0:0:0:0:
64,192,38316,1,0,0:0:0:0:
320,192,38433,1,0,0:0:0:0:
192,192,38668,1,0,0:0:0:70:Crash.wav
448,192,38668,1,0,0:0:0:70:Kick.wav
64,192,39019,1,0,0:0:0:70:Crash.wav
320,192,39019,1,0,0:0:0:70:Kick.wav
192,192,39371,1,0,0:0:0:70:Crash.wav
448,192,39371,1,0,0:0:0:70:Kick.wav
320,192,39722,1,0,0:0:0:70:Crash.wav
448,192,39722,1,0,0:0:0:70:Kick.wav
192,192,39957,128,0,40543:0:0:0:70:Kick.wav
320,192,40543,1,0,0:0:0:70:Crash.wav
448,192,40543,1,0,0:0:0:70:Kick.wav
64,192,41128,1,0,0:0:0:0:
192,192,41246,1,0,0:0:0:0:
448,192,41363,1,0,0:0:0:0:
320,192,42183,1,0,0:0:0:0:
192,192,42418,1,0,0:0:0:70:Kick.wav
448,192,42886,1,0,0:0:0:70:Kick.wav
320,192,43003,1,0,0:0:0:0:
192,192,43121,1,0,0:0:0:0:
64,192,43238,1,0,0:0:0:0:
192,192,43472,1,0,0:0:0:0:
320,192,43589,1,0,0:0:0:0:
192,192,44293,1,0,0:0:0:70:Kick.wav
64,192,44878,1,0,0:0:0:0:
192,192,44996,1,0,0:0:0:0:
448,192,45113,1,0,0:0:0:0:
448,192,45933,1,0,0:0:0:0:
320,192,46168,1,0,0:0:0:70:Kick.wav
64,192,46402,1,0,0:0:0:0:
320,192,46636,1,0,0:0:0:45:Dubstep-snare.wav
448,192,46636,1,0,0:0:0:0:
320,192,46988,1,0,0:0:0:70:Kick.wav
64,192,47339,1,0,0:0:0:70:Kick.wav
320,192,47574,1,0,0:0:0:45:Dubstep-snare.wav
448,192,47574,1,0,0:0:0:0:
192,192,48043,128,0,48394:0:0:0:70:Kick.wav
448,192,48394,1,0,0:0:0:0:
64,192,48511,1,0,0:0:0:70:Crash.wav
320,192,48511,1,0,0:0:0:70:Kick.wav
192,192,48628,1,0,0:0:0:0:
448,192,48746,1,0,0:0:0:0:
64,192,48863,1,0,0:0:0:0:
320,192,49683,1,0,0:0:0:0:
192,192,49918,1,0,0:0:0:70:Kick.wav
448,192,50386,1,0,0:0:0:70:Kick.wav
320,192,50503,1,0,0:0:0:0:
192,192,50621,1,0,0:0:0:0:
64,192,50738,1,0,0:0:0:0:
192,192,50972,1,0,0:0:0:0:
320,192,51089,1,0,0:0:0:0:
320,192,51793,1,0,0:0:0:70:Kick.wav
64,192,52378,1,0,0:0:0:0:
320,192,52496,1,0,0:0:0:0:
448,192,52613,1,0,0:0:0:0:
448,192,53433,1,0,0:0:0:0:
64,192,53668,1,0,0:0:0:70:Crash.wav
192,192,53668,128,0,55074:0:0:0:0:
320,192,55074,1,0,0:0:0:0:
64,192,55543,1,0,0:0:0:0:
448,192,55543,128,0,56949:0:0:0:0:
320,192,56949,1,0,0:0:0:0:
192,192,57183,128,0,58121:0:0:0:0:
448,192,58121,1,0,0:0:0:0:
64,192,58355,1,0,0:0:0:0:
192,192,58589,1,0,0:0:0:0:
448,192,58824,1,0,0:0:0:0:
320,192,59058,128,0,60699:0:0:0:0:
448,192,60699,1,0,0:0:0:0:
192,192,60933,128,0,62105:0:0:0:0:
64,192,62574,1,0,0:0:0:0:
192,192,62808,1,0,0:0:0:0:
320,192,63043,128,0,64214:0:0:0:0:
64,192,64214,1,0,0:0:0:0:
448,192,64449,1,0,0:0:0:0:
192,192,64683,128,0,65855:0:0:0:0:
64,192,66089,1,0,0:0:0:0:
320,192,66324,1,0,0:0:0:0:
448,192,66558,128,0,68199:0:0:0:0:
320,192,68199,1,0,0:0:0:0:
64,192,68433,128,0,70074:0:0:0:0:
320,192,70543,128,0,71714:0:0:0:0:
192,192,71949,1,0,0:0:0:0:
64,192,72183,128,0,73121:0:0:0:0:
320,192,73121,1,0,0:0:0:0:
448,192,73355,1,0,0:0:0:0:
64,192,73589,1,0,0:0:0:0:
448,192,73824,1,0,0:0:0:0:
320,192,74058,128,0,75699:0:0:0:0:
448,192,75699,1,0,0:0:0:0:
192,192,75933,128,0,77574:0:0:0:0:
448,192,77574,1,0,0:0:0:0:
64,192,77808,1,0,0:0:0:0:
320,192,78043,128,0,80386:0:0:0:70:Crash.wav
448,192,78043,128,0,80386:0:0:0:70:Kick.wav
192,192,80386,1,0,0:0:0:0:
448,192,80621,1,0,0:0:0:0:
64,192,80855,128,0,83199:0:0:0:70:Crash.wav
192,192,80855,128,0,83199:0:0:0:70:Kick.wav
320,192,83199,1,0,0:0:0:0:
64,192,83433,1,0,0:0:0:0:
320,192,83668,1,0,0:0:0:70:Crash.wav
448,192,83668,1,0,0:0:0:70:Kick.wav
64,192,84019,1,0,0:0:0:70:Crash.wav
192,192,84019,1,0,0:0:0:70:Kick.wav
320,192,84371,1,0,0:0:0:70:Crash.wav
448,192,84371,1,0,0:0:0:70:Kick.wav
64,192,84722,1,0,0:0:0:70:Crash.wav
192,192,84722,1,0,0:0:0:70:Kick.wav
320,192,85074,1,0,0:0:0:70:Crash.wav
448,192,85074,1,0,0:0:0:70:Kick.wav
64,192,85425,1,0,0:0:0:70:Crash.wav
192,192,85425,1,0,0:0:0:70:Kick.wav
320,192,85777,1,0,0:0:0:70:Crash.wav
448,192,85777,1,0,0:0:0:70:Kick.wav
64,192,86128,1,0,0:0:0:70:Crash.wav
192,192,86128,1,0,0:0:0:70:Kick.wav
64,192,86480,1,0,0:0:0:70:Kick.wav
448,192,86480,1,0,0:0:0:0:
192,192,87418,1,0,0:0:0:0:
448,192,87886,1,0,0:0:0:0:
64,192,88355,128,0,89293:0:0:0:0:
448,192,88941,128,0,89293:0:0:0:0:
192,192,89293,1,0,0:0:0:0:
320,192,90230,1,0,0:0:0:70:Crash.wav
192,192,90464,1,0,0:0:0:70:Kick.wav
448,192,90581,1,0,0:0:0:0:
448,192,90815,1,0,0:0:0:0:
192,192,90933,1,0,0:0:0:70:Kick.wav
64,192,91167,1,0,0:0:0:70:Kick.wav
448,192,91401,1,0,0:0:0:70:Kick.wav
192,192,91519,1,0,0:0:0:0:
64,192,91753,1,0,0:0:0:0:
448,192,91870,1,0,0:0:0:70:Kick.wav
320,192,92105,1,0,0:0:0:70:Kick.wav
64,192,92339,1,0,0:0:0:70:Kick.wav
448,192,92456,1,0,0:0:0:0:
448,192,92690,1,0,0:0:0:0:
64,192,92808,1,0,0:0:0:70:Kick.wav
448,192,93042,1,0,0:0:0:70:Kick.wav
320,192,93276,1,0,0:0:0:70:Kick.wav
192,192,93511,1,0,0:0:0:70:Kick.wav
64,192,93745,1,0,0:0:0:70:Kick.wav
320,192,93980,1,0,0:0:0:70:Kick.wav
192,192,94214,1,0,0:0:0:70:Kick.wav
448,192,94331,1,0,0:0:0:0:
448,192,94565,1,0,0:0:0:0:
192,192,94683,1,0,0:0:0:70:Kick.wav
64,192,94917,1,0,0:0:0:70:Kick.wav
448,192,95151,1,0,0:0:0:70:Kick.wav
192,192,95269,1,0,0:0:0:0:
64,192,95503,1,0,0:0:0:0:
448,192,95620,1,0,0:0:0:70:Kick.wav
320,192,95855,1,0,0:0:0:70:Kick.wav
64,192,96089,1,0,0:0:0:70:Kick.wav
448,192,96206,1,0,0:0:0:0:
448,192,96440,1,0,0:0:0:0:
64,192,96558,1,0,0:0:0:70:Kick.wav
320,192,96792,1,0,0:0:0:70:Kick.wav
64,192,96909,1,0,0:0:0:70:Kick.wav
448,192,97026,1,0,0:0:0:70:Kick.wav
192,192,97144,1,0,0:0:0:70:Kick.wav
320,192,97261,1,0,0:0:0:70:Kick.wav
64,192,97495,1,0,0:0:0:70:Kick.wav
320,192,97730,1,0,0:0:0:70:Kick.wav
64,192,98081,1,0,0:0:0:0:
448,192,98315,1,0,0:0:0:0:
192,192,98433,1,0,0:0:0:70:Kick.wav
320,192,98667,1,0,0:0:0:70:Kick.wav
192,192,98901,1,0,0:0:0:70:Kick.wav
448,192,99019,1,0,0:0:0:0:
320,192,99253,1,0,0:0:0:0:
64,192,99370,1,0,0:0:0:70:Kick.wav
192,192,99605,1,0,0:0:0:70:Kick.wav
448,192,99839,1,0,0:0:0:70:Kick.wav
192,192,99956,1,0,0:0:0:0:
320,192,100190,1,0,0:0:0:0:
64,192,100308,1,0,0:0:0:70:Kick.wav
320,192,100542,1,0,0:0:0:70:Kick.wav
448,192,100776,1,0,0:0:0:70:Kick.wav
64,192,101011,1,0,0:0:0:70:Kick.wav
192,192,101245,1,0,0:0:0:70:Kick.wav
448,192,101480,1,0,0:0:0:70:Kick.wav
320,192,101714,1,0,0:0:0:70:Kick.wav
64,192,101831,1,0,0:0:0:0:
448,192,102065,1,0,0:0:0:0:
192,192,102183,1,0,0:0:0:70:Kick.wav
320,192,102417,1,0,0:0:0:70:Kick.wav
64,192,102651,1,0,0:0:0:70:Kick.wav
320,192,102769,1,0,0:0:0:0:
448,192,103003,1,0,0:0:0:0:
192,192,103120,1,0,0:0:0:70:Kick.wav
64,192,103355,1,0,0:0:0:70:Crash.wav
320,192,103355,1,0,0:0:0:70:Kick.wav
192,192,103706,1,0,0:0:0:70:Crash.wav
448,192,103706,1,0,0:0:0:70:Kick.wav
64,192,104058,1,0,0:0:0:70:Crash.wav
320,192,104058,1,0,0:0:0:70:Kick.wav
448,192,104292,1,0,0:0:0:0:
192,192,104409,1,0,0:0:0:70:Crash.wav
320,192,104526,1,0,0:0:0:0:
64,192,104761,1,0,0:0:0:70:Kick.wav
320,192,104995,1,0,0:0:0:70:Kick.wav
64,192,105230,1,0,0:0:0:70:Crash.wav
448,192,105581,1,0,0:0:0:0:
192,192,105815,1,0,0:0:0:0:
320,192,105933,1,0,0:0:0:70:Kick.wav
448,192,106050,1,0,0:0:0:0:
64,192,106284,1,0,0:0:0:0:
192,192,106401,1,0,0:0:0:70:Kick.wav
320,192,106519,1,0,0:0:0:0:
448,192,106753,1,0,0:0:0:0:
64,192,106870,1,0,0:0:0:70:Kick.wav
192,192,107105,1,0,0:0:0:70:Kick.wav
320,192,107573,1,0,0:0:0:70:Kick.wav
448,192,107690,1,0,0:0:0:0:
192,192,107808,1,0,0:0:0:70:Kick.wav
64,192,107925,1,0,0:0:0:0:
192,192,108159,1,0,0:0:0:0:
320,192,108276,1,0,0:0:0:70:Kick.wav
64,192,108511,1,0,0:0:0:70:Kick.wav
448,192,108980,1,0,0:0:0:70:Kick.wav
64,192,109331,1,0,0:0:0:0:
320,192,109565,1,0,0:0:0:0:
192,192,109683,1,0,0:0:0:70:Kick.wav
64,192,109800,1,0,0:0:0:0:
448,192,110034,1,0,0:0:0:0:
320,192,110151,1,0,0:0:0:70:Kick.wav
192,192,110269,1,0,0:0:0:0:
64,192,110620,1,0,0:0:0:70:Kick.wav
448,192,110855,1,0,0:0:0:70:Kick.wav
320,192,111089,1,0,0:0:0:70:Kick.wav
64,192,111323,1,0,0:0:0:70:Kick.wav
192,192,111558,1,0,0:0:0:70:Kick.wav
320,192,111792,1,0,0:0:0:70:Kick.wav
448,192,112026,1,0,0:0:0:70:Kick.wav
64,192,112261,1,0,0:0:0:70:Kick.wav
64,192,112495,1,0,0:0:0:70:Kick.wav
448,192,112730,1,0,0:0:0:70:Kick.wav
320,192,113081,1,0,0:0:0:0:
64,192,113198,1,0,0:0:0:70:Crash.wav
192,192,113315,1,0,0:0:0:70:Kick.wav
320,192,113433,1,0,0:0:0:70:Kick.wav
448,192,113550,1,0,0:0:0:70:Kick.wav
192,192,113784,1,0,0:0:0:70:Kick.wav
320,192,113901,1,0,0:0:0:70:Kick.wav
448,192,114019,1,0,0:0:0:70:Kick.wav
64,192,114253,1,0,0:0:0:70:Kick.wav
448,192,114370,1,0,0:0:0:70:Kick.wav
192,192,114605,1,0,0:0:0:70:Kick.wav
64,192,115073,1,0,0:0:0:70:Kick.wav
192,192,115190,1,0,0:0:0:70:Kick.wav
320,192,115308,1,0,0:0:0:70:Kick.wav
64,192,115425,1,0,0:0:0:70:Kick.wav
320,192,115659,1,0,0:0:0:70:Kick.wav
192,192,115776,1,0,0:0:0:70:Kick.wav
448,192,116011,1,0,0:0:0:70:Kick.wav
320,192,116245,1,0,0:0:0:70:Kick.wav
64,192,116480,1,0,0:0:0:70:Kick.wav
192,192,116480,1,0,0:0:0:70:Dubstep-snare.wav
320,192,116714,1,0,0:0:0:70:Kick.wav
64,192,116948,1,0,0:0:0:70:Kick.wav
448,192,116948,1,0,0:0:0:45:Dubstep-snare.wav
192,192,117183,1,0,0:0:0:70:Kick.wav
320,192,117417,1,0,0:0:0:70:Kick.wav
448,192,117417,1,0,0:0:0:0:
64,192,117651,1,0,0:0:0:70:Kick.wav
192,192,117651,1,0,0:0:0:0:
320,192,117886,1,0,0:0:0:70:Kick.wav
448,192,117886,1,0,0:0:0:0:
64,192,118120,1,0,0:0:0:70:Kick.wav
192,192,118120,1,0,0:0:0:0:
320,192,118355,1,0,0:0:0:70:Crash.wav
448,192,118355,1,0,0:0:0:70:Kick.wav
64,192,118706,1,0,0:0:0:70:Crash.wav
448,192,118706,1,0,0:0:0:70:Kick.wav
64,192,119058,1,0,0:0:0:70:Crash.wav
320,192,119058,1,0,0:0:0:70:Kick.wav
192,192,119409,1,0,0:0:0:70:Crash.wav
320,192,119409,1,0,0:0:0:70:Kick.wav
448,192,119761,128,0,119995:0:0:0:0:
192,192,119995,128,0,120230:0:0:0:0:
64,192,120230,1,0,0:0:0:70:Crash.wav
448,192,120347,1,0,0:0:0:70:Kick.wav
192,192,120581,1,0,0:0:0:70:Crash.wav
320,192,120815,1,0,0:0:0:70:Kick.wav
64,192,120933,1,0,0:0:0:70:Crash.wav
448,192,121050,1,0,0:0:0:70:Kick.wav
192,192,121284,1,0,0:0:0:70:Crash.wav
64,192,121519,1,0,0:0:0:0:
448,192,121636,1,0,0:0:0:0:
320,192,121753,1,0,0:0:0:0:
192,192,121870,1,0,0:0:0:0:
320,192,122105,1,0,0:0:0:70:Crash.wav
448,192,122105,1,0,0:0:0:70:Kick.wav
64,192,122456,1,0,0:0:0:70:Crash.wav
192,192,122456,1,0,0:0:0:70:Kick.wav
64,192,122808,1,0,0:0:0:70:Crash.wav
320,192,122808,1,0,0:0:0:70:Kick.wav
320,192,123159,1,0,0:0:0:70:Crash.wav
448,192,123159,1,0,0:0:0:70:Kick.wav
64,192,123511,1,0,0:0:0:70:Crash.wav
192,192,123511,1,0,0:0:0:70:Kick.wav
192,192,123862,1,0,0:0:0:70:Crash.wav
448,192,123862,1,0,0:0:0:70:Kick.wav
64,192,124214,128,0,126323:0:0:0:70:Crash.wav
448,192,124214,128,0,126323:0:0:0:70:Kick.wav
64,192,126792,1,0,0:0:0:70:Crash.wav
448,192,126792,1,0,0:0:0:70:Kick.wav
