osu file format v14

[General]
AudioFilename: audio.mp3
AudioLeadIn: 0
PreviewTime: 87418
Countdown: 0
SampleSet: Soft
StackLeniency: 0.7
Mode: 3
LetterboxInBreaks: 0
SpecialStyle: 0
WidescreenStoryboard: 1

[Editor]
Bookmarks: 16148,25523,40523,53648,78023,90210,97710,105210,112710,118335
DistanceSpacing: 1
BeatDivisor: 2
GridSize: 32
TimelineZoom: 1.2

[Metadata]
Title:VIVIDVELOCITY
TitleUnicode:VIVIDVELOCITY
Artist:Synthion
ArtistUnicode:Synthion
Creator:Usagi_
Version:Irone's Easy
Source:
Tags:love progressive house happy hardcore J-core J core Jcore complextro envtuber vtuber virtual youtuber v tuber バーチャル youtuber pop english female vocalist vocals featured artist fa mappers' guild mg mpg electronic instrumental Irone osu
BeatmapID:4485747
BeatmapSetID:2120379

[Difficulty]
HPDrainRate:6.5
CircleSize:4
OverallDifficulty:6.5
ApproachRate:5
SliderMultiplier:1.4
SliderTickRate:1

[Events]
//Background and Video events
0,0,"bg.jpg",0,0
//Break Periods
//Storyboard Layer 0 (Background)
//Storyboard Layer 1 (Fail)
//Storyboard Layer 2 (Pass)
//Storyboard Layer 3 (Foreground)
//Storyboard Layer 4 (Overlay)
//Storyboard Sound Samples
Sample,18043,0,"Kick.wav",70
Sample,26011,0,"Snare.wav",40
Sample,26949,0,"Snare.wav",40
Sample,27886,0,"Snare.wav",40
Sample,28824,0,"Snare.wav",40
Sample,29761,0,"Snare.wav",40
Sample,30699,0,"Snare.wav",40
Sample,33511,0,"Snare.wav",40
Sample,34449,0,"Snare.wav",40
Sample,35386,0,"Snare.wav",40
Sample,36324,0,"Snare.wav",40
Sample,37261,0,"Snare.wav",40
Sample,38199,0,"Snare.wav",40
Sample,38668,0,"Kick.wav",70
Sample,39019,0,"Kick.wav",70
Sample,39371,0,"Kick.wav",70
Sample,39722,0,"Kick.wav",70
Sample,41011,0,"Snare.wav",40
Sample,41949,0,"Snare.wav",40
Sample,42886,0,"Snare.wav",40
Sample,43824,0,"Snare.wav",40
Sample,44761,0,"Snare.wav",40
Sample,45699,0,"Snare.wav",40
Sample,48511,0,"Snare.wav",40
Sample,49449,0,"Snare.wav",40
Sample,50386,0,"Snare.wav",40
Sample,51324,0,"Snare.wav",40
Sample,52261,0,"Snare.wav",40
Sample,53199,0,"Snare.wav",40
Sample,83668,0,"Kick.wav",70
Sample,84019,0,"Kick.wav",70
Sample,84371,0,"Kick.wav",70
Sample,84722,0,"Kick.wav",70
Sample,85074,0,"Kick.wav",70
Sample,85425,0,"Kick.wav",70
Sample,85777,0,"Kick.wav",70
Sample,86128,0,"Kick.wav",70
Sample,98198,0,"Dubstep-snare.wav",45
Sample,101011,0,"Dubstep-snare.wav",45
Sample,103355,0,"Kick.wav",70
Sample,103706,0,"Kick.wav",70
Sample,104058,0,"Kick.wav",70
Sample,104409,0,"Kick.wav",70
Sample,108276,0,"Snare.wav",40
Sample,111089,0,"Snare.wav",40
Sample,112026,0,"Snare.wav",40
Sample,113198,0,"Dubstep-snare.wav",45
Sample,116480,0,"Dubstep-snare.wav",70
Sample,118355,0,"Kick.wav",70
Sample,118706,0,"Kick.wav",70
Sample,119058,0,"Kick.wav",70
Sample,119409,0,"Kick.wav",70
Sample,120230,0,"Kick.wav",70
Sample,120581,0,"Kick.wav",70
Sample,120933,0,"Kick.wav",70
Sample,121284,0,"Kick.wav",70
Sample,122105,0,"Kick.wav",70
Sample,122456,0,"Kick.wav",70
Sample,122808,0,"Kick.wav",70
Sample,123159,0,"Kick.wav",70
Sample,123511,0,"Kick.wav",70
Sample,123862,0,"Kick.wav",70
Sample,124214,0,"Kick.wav",70

[TimingPoints]
3043,234.375,4,2,1,60,1,0
25543,468.75,4,2,1,60,1,1
25543,-50,4,2,1,60,0,1
33043,-50,4,2,1,60,0,0
33511,-50,4,2,1,60,0,1
38668,-50,4,2,1,60,0,0
40543,-50,4,2,1,60,0,1
48043,-50,4,2,1,60,0,0
48511,-50,4,2,1,60,0,1
53668,-50,4,2,1,60,0,0
78043,234.375,4,2,1,60,1,0
90230,234.375,4,2,1,60,1,1
97730,-100,4,2,1,60,0,0
98198,-100,4,2,1,60,0,1
103355,-100,4,2,1,60,0,0
105230,-100,4,2,1,60,0,1
112730,-100,4,2,1,60,0,0
113198,-100,4,2,1,60,0,1
118355,-100,4,2,1,60,0,0

[HitObjects]
448,192,3043,5,0,0:0:0:0:
448,192,3980,1,0,0:0:0:0:
64,192,4918,1,0,0:0:0:0:
64,192,5855,1,0,0:0:0:0:
192,192,6324,1,0,0:0:0:0:
320,192,6793,1,0,0:0:0:0:
320,192,7730,1,0,0:0:0:0:
192,192,8668,1,0,0:0:0:0:
192,192,9605,1,0,0:0:0:0:
320,192,10074,1,0,0:0:0:0:
448,192,10543,1,0,0:0:0:0:
448,192,11480,1,0,0:0:0:0:
192,192,12418,1,0,0:0:0:0:
192,192,13355,1,0,0:0:0:0:
320,192,13824,1,0,0:0:0:0:
64,192,14293,1,0,0:0:0:0:
64,192,15230,1,0,0:0:0:0:
320,192,16168,1,0,0:0:0:70:Kick.wav
320,192,16519,1,0,0:0:0:70:Kick.wav
192,192,16871,1,0,0:0:0:70:Kick.wav
192,192,17222,1,0,0:0:0:70:Kick.wav
448,192,17574,128,0,18043:0:0:0:70:Kick.wav
64,192,18043,1,0,0:0:0:55:Build-up-snare.mp3
192,192,18043,1,0,0:0:0:70:Crash.wav
320,192,18746,1,0,0:0:0:55:Build-up-snare.mp3
64,192,18980,1,0,0:0:0:55:Build-up-snare.mp3
448,192,19214,1,0,0:0:0:55:Build-up-snare.mp3
448,192,19683,1,0,0:0:0:55:Build-up-snare.mp3
320,192,19918,1,0,0:0:0:55:Build-up-snare.mp3
192,192,20621,1,0,0:0:0:55:Build-up-snare.mp3
448,192,20855,1,0,0:0:0:55:Build-up-snare.mp3
64,192,21089,1,0,0:0:0:55:Build-up-snare.mp3
64,192,21558,1,0,0:0:0:55:Build-up-snare.mp3
192,192,21793,128,0,22261:0:0:0:55:Build-up-snare.mp3
448,192,22261,128,0,22730:0:0:0:55:Build-up-snare.mp3
320,192,22730,128,0,23199:0:0:0:55:Build-up-snare.mp3
192,192,23199,128,0,23668:0:0:0:55:Build-up-snare.mp3
64,192,23668,128,0,24605:0:0:0:55:Build-up-snare.mp3
320,192,24605,1,0,0:0:0:0:
320,192,25543,1,0,0:0:0:70:Crash.wav
448,192,25543,1,0,0:0:0:70:Kick.wav
64,192,26011,1,0,0:0:0:70:Kick.wav
192,192,26480,1,0,0:0:0:70:Kick.wav
320,192,26949,1,0,0:0:0:70:Kick.wav
448,192,27418,1,0,0:0:0:70:Kick.wav
192,192,27886,1,0,0:0:0:70:Kick.wav
448,192,28355,1,0,0:0:0:70:Kick.wav
320,192,28589,1,0,0:0:0:0:
192,192,28824,1,0,0:0:0:70:Kick.wav
64,192,29058,1,0,0:0:0:0:
448,192,29293,1,0,0:0:0:70:Kick.wav
64,192,29761,1,0,0:0:0:70:Kick.wav
192,192,30230,1,0,0:0:0:70:Kick.wav
448,192,30699,1,0,0:0:0:70:Kick.wav
320,192,31168,1,0,0:0:0:70:Kick.wav
192,192,31636,1,0,0:0:0:45:Dubstep-snare.wav
192,192,31988,1,0,0:0:0:70:Kick.wav
320,192,32339,1,0,0:0:0:70:Kick.wav
64,192,32574,1,0,0:0:0:45:Dubstep-snare.wav
192,192,33043,1,0,0:0:0:70:Kick.wav
320,192,33511,1,0,0:0:0:70:Crash.wav
448,192,33511,1,0,0:0:0:70:Kick.wav
64,192,33980,1,0,0:0:0:70:Kick.wav
320,192,34449,1,0,0:0:0:70:Kick.wav
192,192,34918,1,0,0:0:0:70:Kick.wav
448,192,35386,1,0,0:0:0:70:Kick.wav
64,192,35855,1,0,0:0:0:70:Kick.wav
192,192,36089,1,0,0:0:0:0:
320,192,36324,1,0,0:0:0:70:Kick.wav
448,192,36558,1,0,0:0:0:0:
64,192,36793,1,0,0:0:0:70:Kick.wav
320,192,37261,1,0,0:0:0:70:Kick.wav
192,192,37730,1,0,0:0:0:70:Kick.wav
448,192,38199,1,0,0:0:0:70:Kick.wav
64,192,38668,1,0,0:0:0:70:Crash.wav
192,192,39019,1,0,0:0:0:70:Crash.wav
448,192,39371,1,0,0:0:0:70:Crash.wav
320,192,39722,1,0,0:0:0:70:Crash.wav
64,192,39957,128,0,40543:0:0:0:70:Kick.wav
320,192,40543,1,0,0:0:0:70:Crash.wav
448,192,40543,1,0,0:0:0:70:Kick.wav
192,192,41011,1,0,0:0:0:70:Kick.wav
64,192,41246,1,0,0:0:0:0:
320,192,41480,1,0,0:0:0:70:Kick.wav
192,192,41949,1,0,0:0:0:70:Kick.wav
320,192,42183,1,0,0:0:0:0:
448,192,42418,1,0,0:0:0:70:Kick.wav
64,192,42886,1,0,0:0:0:70:Kick.wav
448,192,43355,1,0,0:0:0:70:Kick.wav
320,192,43589,1,0,0:0:0:0:
64,192,43824,1,0,0:0:0:70:Kick.wav
192,192,44058,1,0,0:0:0:0:
320,192,44293,1,0,0:0:0:70:Kick.wav
64,192,44761,1,0,0:0:0:70:Kick.wav
192,192,44996,1,0,0:0:0:0:
448,192,45230,1,0,0:0:0:70:Kick.wav
320,192,45699,1,0,0:0:0:70:Kick.wav
64,192,45933,1,0,0:0:0:0:
448,192,46168,1,0,0:0:0:70:Kick.wav
192,192,46636,1,0,0:0:0:45:Dubstep-snare.wav
320,192,46988,1,0,0:0:0:70:Kick.wav
320,192,47339,1,0,0:0:0:70:Kick.wav
64,192,47574,1,0,0:0:0:45:Dubstep-snare.wav
448,192,48043,128,0,48511:0:0:0:70:Kick.wav
64,192,48511,1,0,0:0:0:70:Crash.wav
192,192,48511,1,0,0:0:0:70:Kick.wav
320,192,48746,1,0,0:0:0:0:
448,192,48980,1,0,0:0:0:70:Kick.wav
192,192,49449,1,0,0:0:0:70:Kick.wav
448,192,49683,1,0,0:0:0:0:
64,192,49918,1,0,0:0:0:70:Kick.wav
320,192,50386,1,0,0:0:0:70:Kick.wav
64,192,50855,1,0,0:0:0:70:Kick.wav
320,192,51089,1,0,0:0:0:0:
192,192,51324,1,0,0:0:0:70:Kick.wav
448,192,51558,1,0,0:0:0:0:
64,192,51793,1,0,0:0:0:70:Kick.wav
320,192,52261,1,0,0:0:0:70:Kick.wav
448,192,52496,1,0,0:0:0:0:
192,192,52730,1,0,0:0:0:70:Kick.wav
320,192,53199,1,0,0:0:0:70:Kick.wav
192,192,53433,1,0,0:0:0:0:
64,192,53668,1,0,0:0:0:70:Crash.wav
448,192,53668,128,0,55074:0:0:0:0:
192,192,55074,1,0,0:0:0:0:
320,192,55543,128,0,57183:0:0:0:0:
64,192,57183,128,0,58121:0:0:0:0:
192,192,58121,128,0,59058:0:0:0:0:
448,192,59058,128,0,60933:0:0:0:0:
192,192,60933,128,0,62105:0:0:0:0:
320,192,63043,128,0,64683:0:0:0:0:
192,192,64683,128,0,66558:0:0:0:0:
448,192,66558,128,0,68433:0:0:0:0:
64,192,68433,128,0,70543:0:0:0:0:
448,192,70543,128,0,71949:0:0:0:0:
192,192,71949,1,0,0:0:0:0:
64,192,72183,128,0,73121:0:0:0:0:
448,192,73121,1,0,0:0:0:0:
320,192,73355,1,0,0:0:0:0:
192,192,73589,1,0,0:0:0:0:
64,192,73824,1,0,0:0:0:0:
320,192,74058,128,0,75699:0:0:0:0:
64,192,75699,1,0,0:0:0:0:
192,192,75933,128,0,77574:0:0:0:0:
64,192,78043,128,0,80386:0:0:0:70:Crash.wav
448,192,78043,1,0,0:0:0:70:Kick.wav
64,192,80855,1,0,0:0:0:70:Crash.wav
448,192,80855,128,0,83199:0:0:0:70:Kick.wav
64,192,83668,1,0,0:0:0:70:Crash.wav
64,192,84019,1,0,0:0:0:70:Crash.wav
192,192,84371,1,0,0:0:0:70:Crash.wav
192,192,84722,1,0,0:0:0:70:Crash.wav
320,192,85074,1,0,0:0:0:70:Crash.wav
320,192,85425,1,0,0:0:0:70:Crash.wav
448,192,85777,1,0,0:0:0:70:Crash.wav
448,192,86128,1,0,0:0:0:70:Crash.wav
64,192,86480,1,0,0:0:0:70:Kick.wav
64,192,88355,128,0,89293:0:0:0:0:
448,192,89293,1,0,0:0:0:0:
320,192,90230,1,0,0:0:0:70:Crash.wav
448,192,90230,1,0,0:0:0:70:Kick.wav
64,192,90581,1,0,0:0:0:0:
448,192,90933,1,0,0:0:0:70:Kick.wav
192,192,91167,1,0,0:0:0:70:Kick.wav
320,192,91401,1,0,0:0:0:70:Kick.wav
320,192,91870,1,0,0:0:0:70:Kick.wav
64,192,92105,1,0,0:0:0:70:Kick.wav
448,192,92456,1,0,0:0:0:0:
192,192,92808,1,0,0:0:0:70:Kick.wav
448,192,93042,1,0,0:0:0:70:Kick.wav
320,192,93276,1,0,0:0:0:70:Kick.wav
192,192,93511,1,0,0:0:0:70:Kick.wav
64,192,93745,1,0,0:0:0:70:Kick.wav
448,192,93980,1,0,0:0:0:70:Kick.wav
192,192,94331,1,0,0:0:0:0:
320,192,94683,1,0,0:0:0:70:Kick.wav
64,192,94917,1,0,0:0:0:70:Kick.wav
192,192,95151,1,0,0:0:0:70:Kick.wav
192,192,95620,1,0,0:0:0:70:Kick.wav
448,192,95855,1,0,0:0:0:70:Kick.wav
320,192,96206,1,0,0:0:0:0:
64,192,96558,1,0,0:0:0:70:Kick.wav
448,192,96792,1,0,0:0:0:70:Kick.wav
320,192,97026,1,0,0:0:0:70:Kick.wav
64,192,97261,128,0,97495:0:0:0:70:Kick.wav
192,192,97495,128,0,97730:0:0:0:70:Kick.wav
320,192,97730,1,0,0:0:0:70:Kick.wav
64,192,98198,1,0,0:0:0:70:Crash.wav
192,192,98198,1,0,0:0:0:70:Kick.wav
448,192,98433,1,0,0:0:0:70:Kick.wav
320,192,98667,1,0,0:0:0:70:Kick.wav
64,192,98901,1,0,0:0:0:70:Kick.wav
64,192,99370,1,0,0:0:0:70:Kick.wav
448,192,99605,1,0,0:0:0:70:Kick.wav
192,192,99956,1,0,0:0:0:0:
320,192,100308,1,0,0:0:0:70:Kick.wav
64,192,100542,1,0,0:0:0:70:Kick.wav
448,192,100776,1,0,0:0:0:70:Kick.wav
192,192,101011,1,0,0:0:0:70:Kick.wav
320,192,101245,1,0,0:0:0:70:Kick.wav
448,192,101480,1,0,0:0:0:70:Kick.wav
64,192,101831,1,0,0:0:0:0:
320,192,102183,1,0,0:0:0:70:Kick.wav
192,192,102417,1,0,0:0:0:70:Kick.wav
448,192,102651,1,0,0:0:0:70:Kick.wav
448,192,103120,1,0,0:0:0:70:Kick.wav
64,192,103355,1,0,0:0:0:70:Crash.wav
192,192,103706,1,0,0:0:0:70:Crash.wav
320,192,104058,1,0,0:0:0:70:Crash.wav
448,192,104409,1,0,0:0:0:70:Crash.wav
64,192,104644,128,0,105230:0:0:0:70:Kick.wav
320,192,105230,1,0,0:0:0:70:Crash.wav
448,192,105230,1,0,0:0:0:70:Kick.wav
192,192,105698,1,0,0:0:0:70:Kick.wav
64,192,105933,1,0,0:0:0:70:Kick.wav
448,192,105933,1,0,0:0:0:40:Snare.wav
320,192,106167,1,0,0:0:0:70:Kick.wav
192,192,106636,1,0,0:0:0:70:Kick.wav
320,192,106870,1,0,0:0:0:70:Kick.wav
448,192,106870,1,0,0:0:0:40:Snare.wav
64,192,107105,1,0,0:0:0:70:Kick.wav
448,192,107573,1,0,0:0:0:70:Kick.wav
192,192,107808,1,0,0:0:0:70:Kick.wav
320,192,107808,1,0,0:0:0:40:Snare.wav
64,192,108042,1,0,0:0:0:70:Kick.wav
320,192,108276,1,0,0:0:0:70:Kick.wav
192,192,108511,128,0,108980:0:0:0:70:Kick.wav
448,192,108980,1,0,0:0:0:70:Kick.wav
64,192,109448,1,0,0:0:0:70:Kick.wav
192,192,109683,1,0,0:0:0:70:Kick.wav
320,192,109683,1,0,0:0:0:40:Snare.wav
448,192,109917,1,0,0:0:0:70:Kick.wav
64,192,110386,1,0,0:0:0:70:Kick.wav
320,192,110620,1,0,0:0:0:70:Kick.wav
448,192,110620,1,0,0:0:0:40:Snare.wav
192,192,110855,1,0,0:0:0:70:Kick.wav
64,192,111089,1,0,0:0:0:70:Kick.wav
320,192,111323,1,0,0:0:0:70:Kick.wav
448,192,111792,1,0,0:0:0:70:Kick.wav
320,192,112026,1,0,0:0:0:70:Kick.wav
192,192,112261,128,0,112495:0:0:0:70:Kick.wav
64,192,112495,128,0,112730:0:0:0:70:Kick.wav
448,192,112730,1,0,0:0:0:70:Kick.wav
64,192,113198,1,0,0:0:0:70:Crash.wav
192,192,113198,1,0,0:0:0:70:Kick.wav
448,192,113433,1,0,0:0:0:70:Kick.wav
192,192,113667,1,0,0:0:0:70:Kick.wav
320,192,114136,1,0,0:0:0:70:Kick.wav
448,192,114136,1,0,0:0:0:45:Dubstep-snare.wav
64,192,114370,1,0,0:0:0:70:Kick.wav
320,192,114605,1,0,0:0:0:70:Kick.wav
192,192,115073,1,0,0:0:0:70:Kick.wav
448,192,115073,1,0,0:0:0:45:Dubstep-snare.wav
320,192,115308,1,0,0:0:0:70:Kick.wav
192,192,115542,1,0,0:0:0:70:Kick.wav
64,192,116011,1,0,0:0:0:70:Kick.wav
320,192,116011,1,0,0:0:0:45:Dubstep-snare.wav
192,192,116245,1,0,0:0:0:70:Kick.wav
320,192,116480,1,0,0:0:0:70:Kick.wav
320,192,116948,1,0,0:0:0:70:Kick.wav
448,192,116948,1,0,0:0:0:45:Dubstep-snare.wav
64,192,117183,1,0,0:0:0:70:Kick.wav
448,192,117417,128,0,118355:0:0:0:70:Kick.wav
64,192,118355,1,0,0:0:0:70:Crash.wav
64,192,118706,1,0,0:0:0:70:Crash.wav
448,192,119058,1,0,0:0:0:70:Crash.wav
448,192,119409,1,0,0:0:0:70:Crash.wav
192,192,120230,1,0,0:0:0:70:Crash.wav
192,192,120581,1,0,0:0:0:70:Crash.wav
320,192,120933,1,0,0:0:0:70:Crash.wav
320,192,121284,1,0,0:0:0:70:Crash.wav
64,192,122105,128,0,122456:0:0:0:70:Crash.wav
192,192,122456,128,0,122808:0:0:0:70:Crash.wav
448,192,122808,128,0,123159:0:0:0:70:Crash.wav
320,192,123159,128,0,123511:0:0:0:70:Crash.wav
192,192,123511,128,0,123862:0:0:0:70:Crash.wav
64,192,123862,128,0,124214:0:0:0:70:Crash.wav
448,192,124214,128,0,126323:0:0:0:70:Crash.wav
64,192,126792,1,0,0:0:0:70:Crash.wav
448,192,126792,1,0,0:0:0:70:Kick.wav
