osu file format v14

[General]
AudioFilename: audio.mp3
AudioLeadIn: 0
PreviewTime: 87418
Countdown: 0
SampleSet: Soft
StackLeniency: 0.7
Mode: 3
LetterboxInBreaks: 0
SpecialStyle: 0
WidescreenStoryboard: 1

[Editor]
Bookmarks: 16148,25523,40523,53648,78023,90210,97710,105210,112710,118335
DistanceSpacing: 1
BeatDivisor: 12
GridSize: 32
TimelineZoom: 3.099999

[Metadata]
Title:VIVIDVELOCITY
TitleUnicode:VIVIDVELOCITY
Artist:Synthion
ArtistUnicode:Synthion
Creator:Usagi_
Version:Extra
Source:
Tags:love progressive house happy hardcore J-core J core Jcore complextro envtuber vtuber virtual youtuber v tuber バーチャル youtuber pop english female vocalist vocals featured artist fa mappers' guild mg mpg electronic instrumental Irone osu
BeatmapID:4454775
BeatmapSetID:2120379

[Difficulty]
HPDrainRate:8.5
CircleSize:4
OverallDifficulty:8.5
ApproachRate:5
SliderMultiplier:1.4
SliderTickRate:1

[Events]
//Background and Video events
0,0,"bg.jpg",0,0
//Break Periods
//Storyboard Layer 0 (Background)
//Storyboard Layer 1 (Fail)
//Storyboard Layer 2 (Pass)
//Storyboard Layer 3 (Foreground)
//Storyboard Layer 4 (Overlay)
//Storyboard Sound Samples

[TimingPoints]
3043,234.375,4,2,1,60,1,0
25543,468.75,4,2,1,60,1,1
25543,-50,4,2,1,60,0,1
33043,-50,4,2,1,60,0,0
33511,-50,4,2,1,60,0,1
38668,-50,4,2,1,60,0,0
40543,-50,4,2,1,60,0,1
48043,-50,4,2,1,60,0,0
48511,-50,4,2,1,60,0,1
53668,-50,4,2,1,60,0,0
78043,234.375,4,2,1,60,1,0
90230,234.375,4,2,1,60,1,1
97730,-100,4,2,1,60,0,0
98198,-100,4,2,1,60,0,1
103355,-100,4,2,1,60,0,0
105230,-100,4,2,1,60,0,1
112730,-100,4,2,1,60,0,0
113198,-100,4,2,1,60,0,1
118355,-100,4,2,1,60,0,0

[HitObjects]
64,192,3043,5,0,0:0:0:0:
448,192,3043,128,0,3511:0:0:0:0:
320,192,3160,1,0,0:0:0:0:
192,192,3277,1,0,0:0:0:0:
64,192,3394,1,0,0:0:0:0:
320,192,3511,1,0,0:0:0:0:
64,192,3628,128,0,3746:0:0:0:0:
192,192,3746,128,0,3863:0:0:0:0:
320,192,3863,128,0,4332:0:0:0:0:
64,192,3980,1,0,0:0:0:0:
448,192,4097,1,0,0:0:0:0:
192,192,4214,1,0,0:0:0:0:
64,192,4332,1,0,0:0:0:0:
448,192,4449,1,0,0:0:0:0:
64,192,4566,1,0,0:0:0:0:
448,192,4683,128,0,4918:0:0:0:0:
192,192,4800,1,0,0:0:0:0:
64,192,4918,128,0,5269:0:0:0:0:
320,192,5035,1,0,0:0:0:0:
448,192,5152,1,0,0:0:0:0:
320,192,5269,1,0,0:0:0:0:
192,192,5386,128,0,5503:0:0:0:0:
320,192,5503,128,0,5621:0:0:0:0:
192,192,5621,128,0,5738:0:0:0:0:
64,192,5738,128,0,5855:0:0:0:0:
320,192,5855,1,0,0:0:0:0:
192,192,5972,128,0,6089:0:0:0:0:
320,192,6089,128,0,6558:0:0:0:0:
64,192,6207,1,0,0:0:0:0:
448,192,6324,1,0,0:0:0:0:
192,192,6441,1,0,0:0:0:0:
64,192,6558,1,0,0:0:0:0:
448,192,6675,1,0,0:0:0:0:
64,192,6793,128,0,7261:0:0:0:0:
192,192,6910,1,0,0:0:0:0:
448,192,7027,1,0,0:0:0:0:
320,192,7144,1,0,0:0:0:0:
192,192,7261,1,0,0:0:0:0:
448,192,7378,128,0,7496:0:0:0:0:
192,192,7496,128,0,7613:0:0:0:0:
320,192,7613,128,0,8082:0:0:0:0:
64,192,7730,1,0,0:0:0:0:
448,192,7847,1,0,0:0:0:0:
192,192,7964,1,0,0:0:0:0:
64,192,8082,1,0,0:0:0:0:
448,192,8199,1,0,0:0:0:0:
320,192,8316,1,0,0:0:0:0:
64,192,8433,128,0,8668:0:0:0:0:
448,192,8550,1,0,0:0:0:0:
320,192,8668,128,0,9019:0:0:0:0:
192,192,8785,1,0,0:0:0:0:
448,192,8902,1,0,0:0:0:0:
64,192,9019,128,0,9136:0:0:0:0:
192,192,9136,128,0,9253:0:0:0:0:
448,192,9253,128,0,9371:0:0:0:0:
320,192,9371,128,0,9488:0:0:0:0:
64,192,9488,128,0,9605:0:0:0:0:
448,192,9605,128,0,9839:0:0:0:0:
192,192,9722,1,0,0:0:0:0:
320,192,9839,128,0,10074:0:0:0:0:
64,192,9957,1,0,0:0:0:0:
192,192,10074,128,0,10308:0:0:0:0:
448,192,10191,1,0,0:0:0:0:
64,192,10308,128,0,10543:0:0:0:0:
320,192,10425,1,0,0:0:0:0:
192,192,10543,1,0,0:0:0:0:
448,192,10543,128,0,11011:0:0:0:0:
64,192,10660,1,0,0:0:0:0:
320,192,10777,1,0,0:0:0:0:
192,192,10894,1,0,0:0:0:0:
64,192,11011,1,0,0:0:0:0:
320,192,11128,128,0,11246:0:0:0:0:
64,192,11246,128,0,11363:0:0:0:0:
192,192,11363,128,0,11832:0:0:0:0:
448,192,11480,1,0,0:0:0:0:
320,192,11597,1,0,0:0:0:0:
64,192,11714,1,0,0:0:0:0:
448,192,11832,1,0,0:0:0:0:
320,192,11949,1,0,0:0:0:0:
64,192,12066,1,0,0:0:0:0:
320,192,12183,128,0,12418:0:0:0:0:
192,192,12300,1,0,0:0:0:0:
64,192,12418,128,0,12769:0:0:0:0:
448,192,12535,1,0,0:0:0:0:
192,192,12652,1,0,0:0:0:0:
320,192,12769,1,0,0:0:0:0:
192,192,12886,128,0,13003:0:0:0:0:
448,192,13003,128,0,13121:0:0:0:0:
320,192,13121,128,0,13238:0:0:0:0:
64,192,13238,128,0,13355:0:0:0:0:
448,192,13355,1,0,0:0:0:0:
320,192,13472,128,0,13589:0:0:0:0:
192,192,13589,128,0,14058:0:0:0:0:
64,192,13707,1,0,0:0:0:0:
448,192,13824,1,0,0:0:0:0:
320,192,13941,1,0,0:0:0:0:
64,192,14058,1,0,0:0:0:0:
320,192,14175,1,0,0:0:0:0:
448,192,14293,128,0,14527:0:0:0:0:
64,192,14410,1,0,0:0:0:0:
192,192,14527,1,0,0:0:0:0:
320,192,14644,1,0,0:0:0:0:
64,192,14761,1,0,0:0:0:0:
448,192,14878,128,0,14996:0:0:0:0:
320,192,14996,128,0,15113:0:0:0:0:
192,192,15113,128,0,15582:0:0:0:0:
64,192,15230,1,0,0:0:0:0:
448,192,15347,1,0,0:0:0:0:
320,192,15464,1,0,0:0:0:0:
64,192,15582,1,0,0:0:0:0:
448,192,15699,1,0,0:0:0:0:
192,192,15816,1,0,0:0:0:0:
320,192,15933,128,0,16050:0:0:0:0:
64,192,16168,128,0,16285:0:0:0:70:Kick.wav
192,192,16168,128,0,16285:0:0:0:0:
448,192,16168,128,0,16402:0:0:0:0:
192,192,16402,1,0,0:0:0:0:
64,192,16519,128,0,16753:0:0:0:70:Kick.wav
320,192,16519,128,0,16636:0:0:0:0:
448,192,16519,128,0,16636:0:0:0:0:
320,192,16753,1,0,0:0:0:0:
64,192,16871,128,0,16988:0:0:0:70:Kick.wav
192,192,16871,128,0,16988:0:0:0:0:
448,192,16871,128,0,17105:0:0:0:0:
192,192,17105,128,0,17339:0:0:0:0:
320,192,17222,128,0,17339:0:0:0:70:Kick.wav
448,192,17222,128,0,17339:0:0:0:0:
64,192,17457,1,0,0:0:0:70:Kick.wav
192,192,17457,1,0,0:0:0:0:
320,192,17574,1,0,0:0:0:70:Kick.wav
448,192,17574,1,0,0:0:0:0:
192,192,17632,1,0,0:0:0:70:Kick.wav
64,192,17691,1,0,0:0:0:70:Kick.wav
320,192,17691,1,0,0:0:0:0:
192,192,17808,1,0,0:0:0:70:Kick.wav
192,192,17925,1,0,0:0:0:70:Kick.wav
64,192,18043,1,0,0:0:0:55:Build-up-snare.mp3
320,192,18043,1,0,0:0:0:70:Crash.wav
448,192,18043,1,0,0:0:0:70:Kick.wav
64,192,18160,1,0,0:0:0:0:
448,192,18277,1,0,0:0:0:0:
64,192,18394,1,0,0:0:0:55:Build-up-snare.mp3
192,192,18394,1,0,0:0:0:0:
448,192,18394,1,0,0:0:0:0:
320,192,18511,1,0,0:0:0:0:
64,192,18628,1,0,0:0:0:0:
64,192,18746,1,0,0:0:0:55:Build-up-snare.mp3
320,192,18746,1,0,0:0:0:0:
448,192,18746,1,0,0:0:0:0:
320,192,18863,1,0,0:0:0:0:
64,192,18980,1,0,0:0:0:55:Build-up-snare.mp3
192,192,18980,1,0,0:0:0:0:
448,192,18980,1,0,0:0:0:0:
448,192,19097,1,0,0:0:0:0:
64,192,19214,1,0,0:0:0:55:Build-up-snare.mp3
192,192,19214,1,0,0:0:0:0:
192,192,19332,1,0,0:0:0:55:Build-up-snare.mp3
320,192,19332,1,0,0:0:0:0:
448,192,19332,1,0,0:0:0:0:
320,192,19449,1,0,0:0:0:0:
64,192,19566,1,0,0:0:0:0:
64,192,19683,1,0,0:0:0:55:Build-up-snare.mp3
320,192,19683,1,0,0:0:0:0:
448,192,19683,1,0,0:0:0:0:
320,192,19800,1,0,0:0:0:0:
64,192,19918,1,0,0:0:0:55:Build-up-snare.mp3
192,192,19918,1,0,0:0:0:0:
448,192,19918,1,0,0:0:0:0:
64,192,20035,1,0,0:0:0:0:
448,192,20152,1,0,0:0:0:0:
64,192,20269,1,0,0:0:0:55:Build-up-snare.mp3
192,192,20269,1,0,0:0:0:0:
448,192,20269,1,0,0:0:0:0:
320,192,20386,1,0,0:0:0:0:
64,192,20503,1,0,0:0:0:0:
64,192,20621,1,0,0:0:0:55:Build-up-snare.mp3
320,192,20621,1,0,0:0:0:0:
448,192,20621,1,0,0:0:0:0:
320,192,20738,1,0,0:0:0:0:
64,192,20855,1,0,0:0:0:55:Build-up-snare.mp3
192,192,20855,1,0,0:0:0:0:
448,192,20855,1,0,0:0:0:0:
448,192,20972,1,0,0:0:0:0:
64,192,21089,1,0,0:0:0:55:Build-up-snare.mp3
192,192,21089,1,0,0:0:0:0:
192,192,21207,1,0,0:0:0:55:Build-up-snare.mp3
320,192,21207,1,0,0:0:0:0:
448,192,21207,1,0,0:0:0:0:
320,192,21324,1,0,0:0:0:0:
64,192,21441,1,0,0:0:0:0:
64,192,21558,1,0,0:0:0:55:Build-up-snare.mp3
320,192,21558,1,0,0:0:0:0:
448,192,21558,1,0,0:0:0:0:
320,192,21675,1,0,0:0:0:55:Build-up-snare.mp3
64,192,21793,1,0,0:0:0:55:Build-up-snare.mp3
192,192,21793,1,0,0:0:0:0:
448,192,21793,1,0,0:0:0:0:
64,192,21910,1,0,0:0:0:55:Build-up-snare.mp3
192,192,21910,1,0,0:0:0:0:
64,192,22027,1,0,0:0:0:55:Build-up-snare.mp3
320,192,22027,1,0,0:0:0:0:
448,192,22027,1,0,0:0:0:0:
320,192,22144,1,0,0:0:0:55:Build-up-snare.mp3
448,192,22144,1,0,0:0:0:0:
64,192,22261,1,0,0:0:0:55:Build-up-snare.mp3
192,192,22261,1,0,0:0:0:0:
448,192,22261,1,0,0:0:0:0:
64,192,22378,1,0,0:0:0:55:Build-up-snare.mp3
192,192,22378,1,0,0:0:0:0:
192,192,22496,1,0,0:0:0:55:Build-up-snare.mp3
320,192,22496,1,0,0:0:0:0:
448,192,22496,1,0,0:0:0:0:
320,192,22613,1,0,0:0:0:55:Build-up-snare.mp3
448,192,22613,1,0,0:0:0:0:
64,192,22730,1,0,0:0:0:55:Build-up-snare.mp3
192,192,22730,1,0,0:0:0:0:
448,192,22730,1,0,0:0:0:0:
192,192,22847,1,0,0:0:0:55:Build-up-snare.mp3
320,192,22847,1,0,0:0:0:0:
64,192,22964,1,0,0:0:0:55:Build-up-snare.mp3
320,192,22964,1,0,0:0:0:0:
448,192,22964,1,0,0:0:0:0:
64,192,23082,1,0,0:0:0:55:Build-up-snare.mp3
192,192,23082,1,0,0:0:0:0:
64,192,23199,1,0,0:0:0:55:Build-up-snare.mp3
192,192,23199,1,0,0:0:0:0:
448,192,23199,1,0,0:0:0:0:
320,192,23316,1,0,0:0:0:55:Build-up-snare.mp3
448,192,23316,1,0,0:0:0:0:
64,192,23433,1,0,0:0:0:55:Build-up-snare.mp3
320,192,23433,1,0,0:0:0:0:
448,192,23433,1,0,0:0:0:0:
64,192,23550,1,0,0:0:0:55:Build-up-snare.mp3
192,192,23550,1,0,0:0:0:0:
64,192,23668,1,0,0:0:0:55:Build-up-snare.mp3
192,192,23668,1,0,0:0:0:0:
320,192,23726,1,0,0:0:0:0:
448,192,23785,1,0,0:0:0:0:
64,192,23843,1,0,0:0:0:0:
192,192,23902,1,0,0:0:0:0:
320,192,23960,1,0,0:0:0:0:
448,192,24019,1,0,0:0:0:0:
64,192,24078,1,0,0:0:0:0:
192,192,24136,1,0,0:0:0:0:
448,192,24195,1,0,0:0:0:0:
320,192,24253,1,0,0:0:0:0:
192,192,24312,1,0,0:0:0:0:
64,192,24371,1,0,0:0:0:0:
448,192,24429,1,0,0:0:0:0:
320,192,24488,1,0,0:0:0:0:
192,192,24546,1,0,0:0:0:0:
64,192,24605,1,0,0:0:0:0:
192,192,24918,1,0,0:0:0:0:
320,192,24996,1,0,0:0:0:0:
448,192,24996,1,0,0:0:0:0:
64,192,25074,1,0,0:0:0:0:
192,192,25074,1,0,0:0:0:0:
320,192,25191,1,0,0:0:0:0:
64,192,25308,1,0,0:0:0:0:
448,192,25308,1,0,0:0:0:0:
64,192,25543,1,0,0:0:0:70:Crash.wav
192,192,25543,1,0,0:0:0:70:Kick.wav
448,192,25543,1,0,0:0:0:0:
192,192,25660,1,0,0:0:0:0:
320,192,25777,1,0,0:0:0:0:
448,192,25777,1,0,0:0:0:0:
64,192,25894,1,0,0:0:0:0:
192,192,25894,1,0,0:0:0:0:
64,192,26011,1,0,0:0:0:70:Kick.wav
320,192,26011,1,0,0:0:0:40:Snare.wav
448,192,26011,1,0,0:0:0:0:
192,192,26128,1,0,0:0:0:0:
320,192,26128,1,0,0:0:0:0:
64,192,26246,1,0,0:0:0:0:
448,192,26246,1,0,0:0:0:0:
192,192,26363,1,0,0:0:0:0:
64,192,26480,1,0,0:0:0:70:Kick.wav
320,192,26480,1,0,0:0:0:0:
448,192,26480,1,0,0:0:0:0:
320,192,26597,1,0,0:0:0:0:
64,192,26714,1,0,0:0:0:0:
192,192,26714,1,0,0:0:0:0:
320,192,26832,1,0,0:0:0:0:
448,192,26832,1,0,0:0:0:0:
64,192,26949,1,0,0:0:0:70:Kick.wav
192,192,26949,1,0,0:0:0:40:Snare.wav
448,192,26949,1,0,0:0:0:0:
192,192,27066,1,0,0:0:0:0:
320,192,27066,1,0,0:0:0:0:
64,192,27183,1,0,0:0:0:0:
448,192,27183,1,0,0:0:0:0:
320,192,27300,1,0,0:0:0:0:
64,192,27418,1,0,0:0:0:70:Kick.wav
192,192,27418,1,0,0:0:0:0:
448,192,27418,1,0,0:0:0:0:
192,192,27535,1,0,0:0:0:0:
320,192,27652,1,0,0:0:0:0:
448,192,27652,1,0,0:0:0:0:
64,192,27769,1,0,0:0:0:0:
192,192,27769,1,0,0:0:0:0:
64,192,27886,1,0,0:0:0:70:Kick.wav
320,192,27886,1,0,0:0:0:40:Snare.wav
448,192,27886,1,0,0:0:0:0:
192,192,28003,1,0,0:0:0:0:
320,192,28003,1,0,0:0:0:0:
64,192,28121,1,0,0:0:0:0:
448,192,28121,1,0,0:0:0:0:
192,192,28238,1,0,0:0:0:0:
64,192,28355,1,0,0:0:0:70:Kick.wav
320,192,28355,1,0,0:0:0:0:
448,192,28355,1,0,0:0:0:0:
448,192,28472,1,0,0:0:0:0:
64,192,28589,1,0,0:0:0:0:
192,192,28589,1,0,0:0:0:0:
192,192,28707,1,0,0:0:0:0:
64,192,28824,1,0,0:0:0:70:Kick.wav
320,192,28824,1,0,0:0:0:40:Snare.wav
448,192,28824,1,0,0:0:0:0:
320,192,28941,1,0,0:0:0:0:
64,192,29058,1,0,0:0:0:0:
448,192,29058,1,0,0:0:0:0:
64,192,29175,1,0,0:0:0:0:
192,192,29293,1,0,0:0:0:70:Kick.wav
320,192,29293,1,0,0:0:0:0:
448,192,29293,1,0,0:0:0:0:
192,192,29410,1,0,0:0:0:0:
320,192,29527,1,0,0:0:0:0:
448,192,29527,1,0,0:0:0:0:
64,192,29644,1,0,0:0:0:0:
192,192,29644,1,0,0:0:0:0:
192,192,29761,1,0,0:0:0:70:Kick.wav
320,192,29761,1,0,0:0:0:40:Snare.wav
448,192,29761,1,0,0:0:0:0:
64,192,29878,1,0,0:0:0:0:
448,192,29878,1,0,0:0:0:0:
192,192,29996,1,0,0:0:0:0:
320,192,29996,1,0,0:0:0:0:
448,192,30113,1,0,0:0:0:0:
64,192,30230,1,0,0:0:0:70:Kick.wav
192,192,30230,1,0,0:0:0:0:
320,192,30230,1,0,0:0:0:0:
320,192,30347,1,0,0:0:0:0:
64,192,30464,1,0,0:0:0:0:
192,192,30464,1,0,0:0:0:0:
320,192,30582,1,0,0:0:0:0:
448,192,30582,1,0,0:0:0:0:
64,192,30699,1,0,0:0:0:70:Kick.wav
192,192,30699,1,0,0:0:0:40:Snare.wav
320,192,30699,1,0,0:0:0:0:
64,192,30816,1,0,0:0:0:0:
448,192,30816,1,0,0:0:0:0:
192,192,30933,1,0,0:0:0:0:
320,192,30933,1,0,0:0:0:0:
448,192,31050,1,0,0:0:0:0:
64,192,31168,1,0,0:0:0:70:Kick.wav
192,192,31168,1,0,0:0:0:0:
320,192,31168,1,0,0:0:0:0:
192,192,31285,1,0,0:0:0:0:
448,192,31402,1,0,0:0:0:0:
320,192,31421,1,0,0:0:0:0:
64,192,31519,1,0,0:0:0:0:
192,192,31539,1,0,0:0:0:0:
64,192,31636,1,0,0:0:0:45:Dubstep-snare.wav
320,192,31636,1,0,0:0:0:0:
448,192,31636,1,0,0:0:0:0:
320,192,31753,1,0,0:0:0:0:
448,192,31773,1,0,0:0:0:0:
192,192,31871,1,0,0:0:0:0:
64,192,31890,1,0,0:0:0:0:
320,192,31988,1,0,0:0:0:70:Kick.wav
448,192,31988,1,0,0:0:0:0:
192,192,32105,1,0,0:0:0:0:
320,192,32164,1,0,0:0:0:0:
448,192,32222,1,0,0:0:0:0:
64,192,32281,1,0,0:0:0:0:
320,192,32339,1,0,0:0:0:70:Kick.wav
448,192,32339,1,0,0:0:0:0:
192,192,32398,1,0,0:0:0:0:
64,192,32457,1,0,0:0:0:0:
448,192,32515,1,0,0:0:0:0:
64,192,32574,1,0,0:0:0:45:Dubstep-snare.wav
320,192,32574,1,0,0:0:0:0:
192,192,32632,1,0,0:0:0:0:
320,192,32691,1,0,0:0:0:0:
448,192,32750,1,0,0:0:0:0:
64,192,32808,1,0,0:0:0:0:
192,192,32867,1,0,0:0:0:0:
320,192,32925,1,0,0:0:0:0:
448,192,32984,1,0,0:0:0:0:
64,192,33043,1,0,0:0:0:70:Kick.wav
192,192,33043,1,0,0:0:0:0:
320,192,33160,1,0,0:0:0:0:
320,192,33277,1,0,0:0:0:0:
64,192,33394,1,0,0:0:0:0:
448,192,33394,1,0,0:0:0:0:
64,192,33511,1,0,0:0:0:70:Crash.wav
192,192,33511,1,0,0:0:0:70:Kick.wav
448,192,33511,1,0,0:0:0:40:Snare.wav
192,192,33628,1,0,0:0:0:0:
320,192,33628,1,0,0:0:0:0:
64,192,33746,1,0,0:0:0:0:
448,192,33746,1,0,0:0:0:0:
320,192,33863,1,0,0:0:0:0:
64,192,33980,1,0,0:0:0:70:Kick.wav
192,192,33980,1,0,0:0:0:0:
448,192,33980,1,0,0:0:0:0:
192,192,34097,1,0,0:0:0:0:
320,192,34214,1,0,0:0:0:0:
448,192,34214,1,0,0:0:0:0:
64,192,34332,1,0,0:0:0:0:
192,192,34332,1,0,0:0:0:0:
64,192,34449,1,0,0:0:0:70:Kick.wav
320,192,34449,1,0,0:0:0:40:Snare.wav
448,192,34449,1,0,0:0:0:0:
192,192,34566,1,0,0:0:0:0:
320,192,34566,1,0,0:0:0:0:
64,192,34683,1,0,0:0:0:0:
448,192,34683,1,0,0:0:0:0:
192,192,34800,1,0,0:0:0:0:
64,192,34918,1,0,0:0:0:70:Kick.wav
320,192,34918,1,0,0:0:0:0:
448,192,34918,1,0,0:0:0:0:
320,192,35035,1,0,0:0:0:0:
64,192,35152,1,0,0:0:0:0:
192,192,35152,1,0,0:0:0:0:
320,192,35269,1,0,0:0:0:0:
448,192,35269,1,0,0:0:0:0:
64,192,35386,1,0,0:0:0:70:Kick.wav
192,192,35386,1,0,0:0:0:40:Snare.wav
448,192,35386,1,0,0:0:0:0:
192,192,35503,1,0,0:0:0:0:
320,192,35503,1,0,0:0:0:0:
64,192,35621,1,0,0:0:0:0:
448,192,35621,1,0,0:0:0:0:
320,192,35738,1,0,0:0:0:0:
64,192,35855,1,0,0:0:0:70:Kick.wav
192,192,35855,1,0,0:0:0:0:
448,192,35855,1,0,0:0:0:0:
64,192,35972,1,0,0:0:0:0:
320,192,36089,1,0,0:0:0:0:
448,192,36089,1,0,0:0:0:0:
320,192,36207,1,0,0:0:0:0:
64,192,36324,1,0,0:0:0:70:Kick.wav
192,192,36324,1,0,0:0:0:40:Snare.wav
448,192,36324,1,0,0:0:0:0:
192,192,36441,1,0,0:0:0:0:
64,192,36558,1,0,0:0:0:0:
448,192,36558,1,0,0:0:0:0:
448,192,36675,1,0,0:0:0:0:
64,192,36793,1,0,0:0:0:70:Kick.wav
192,192,36793,1,0,0:0:0:0:
320,192,36793,1,0,0:0:0:0:
320,192,36910,1,0,0:0:0:0:
64,192,37027,1,0,0:0:0:0:
192,192,37027,1,0,0:0:0:0:
320,192,37144,1,0,0:0:0:0:
448,192,37144,1,0,0:0:0:0:
64,192,37261,1,0,0:0:0:70:Kick.wav
192,192,37261,1,0,0:0:0:40:Snare.wav
320,192,37261,1,0,0:0:0:0:
64,192,37378,1,0,0:0:0:0:
448,192,37378,1,0,0:0:0:0:
192,192,37496,1,0,0:0:0:0:
320,192,37496,1,0,0:0:0:0:
448,192,37613,1,0,0:0:0:0:
64,192,37730,1,0,0:0:0:70:Kick.wav
192,192,37730,1,0,0:0:0:0:
320,192,37730,1,0,0:0:0:0:
192,192,37847,1,0,0:0:0:0:
320,192,37964,1,0,0:0:0:0:
448,192,37964,1,0,0:0:0:0:
192,192,38082,1,0,0:0:0:0:
320,192,38082,1,0,0:0:0:0:
64,192,38199,1,0,0:0:0:70:Kick.wav
192,192,38199,1,0,0:0:0:40:Snare.wav
448,192,38199,1,0,0:0:0:0:
64,192,38316,1,0,0:0:0:0:
448,192,38316,1,0,0:0:0:0:
192,192,38433,1,0,0:0:0:0:
320,192,38433,1,0,0:0:0:0:
448,192,38550,1,0,0:0:0:0:
64,192,38668,1,0,0:0:0:70:Crash.wav
192,192,38668,1,0,0:0:0:70:Kick.wav
320,192,38668,1,0,0:0:0:0:
64,192,38785,1,0,0:0:0:0:
320,192,38902,1,0,0:0:0:0:
64,192,39019,1,0,0:0:0:70:Crash.wav
192,192,39019,1,0,0:0:0:70:Kick.wav
448,192,39019,1,0,0:0:0:0:
448,192,39136,1,0,0:0:0:0:
192,192,39253,1,0,0:0:0:0:
64,192,39371,1,0,0:0:0:70:Crash.wav
320,192,39371,1,0,0:0:0:70:Kick.wav
448,192,39371,1,0,0:0:0:0:
64,192,39488,1,0,0:0:0:0:
320,192,39605,1,0,0:0:0:0:
448,192,39605,1,0,0:0:0:0:
64,192,39722,1,0,0:0:0:70:Crash.wav
192,192,39722,1,0,0:0:0:70:Kick.wav
448,192,39722,1,0,0:0:0:0:
64,192,39839,1,0,0:0:0:0:
320,192,39839,1,0,0:0:0:0:
192,192,39957,1,0,0:0:0:70:Kick.wav
64,192,40074,1,0,0:0:0:0:
448,192,40074,1,0,0:0:0:0:
320,192,40132,1,0,0:0:0:0:
192,192,40191,1,0,0:0:0:0:
64,192,40250,1,0,0:0:0:0:
320,192,40308,1,0,0:0:0:0:
448,192,40367,1,0,0:0:0:0:
64,192,40425,1,0,0:0:0:0:
192,192,40484,1,0,0:0:0:0:
320,192,40543,1,0,0:0:0:70:Crash.wav
448,192,40543,1,0,0:0:0:70:Kick.wav
320,192,40660,1,0,0:0:0:0:
64,192,40777,1,0,0:0:0:0:
192,192,40777,1,0,0:0:0:0:
320,192,40894,1,0,0:0:0:0:
448,192,40894,1,0,0:0:0:0:
64,192,41011,1,0,0:0:0:70:Kick.wav
192,192,41011,1,0,0:0:0:40:Snare.wav
448,192,41011,1,0,0:0:0:0:
192,192,41128,1,0,0:0:0:0:
320,192,41128,1,0,0:0:0:0:
64,192,41246,1,0,0:0:0:0:
448,192,41246,1,0,0:0:0:0:
192,192,41363,1,0,0:0:0:0:
320,192,41363,1,0,0:0:0:0:
64,192,41480,1,0,0:0:0:70:Kick.wav
320,192,41480,1,0,0:0:0:0:
448,192,41480,1,0,0:0:0:0:
192,192,41597,1,0,0:0:0:0:
320,192,41714,1,0,0:0:0:0:
448,192,41714,1,0,0:0:0:0:
64,192,41832,1,0,0:0:0:0:
192,192,41832,1,0,0:0:0:0:
64,192,41949,1,0,0:0:0:70:Kick.wav
320,192,41949,1,0,0:0:0:40:Snare.wav
448,192,41949,1,0,0:0:0:0:
192,192,42066,1,0,0:0:0:0:
320,192,42066,1,0,0:0:0:0:
64,192,42183,1,0,0:0:0:0:
448,192,42183,1,0,0:0:0:0:
192,192,42300,1,0,0:0:0:0:
64,192,42418,1,0,0:0:0:70:Kick.wav
320,192,42418,1,0,0:0:0:0:
448,192,42418,1,0,0:0:0:0:
320,192,42535,1,0,0:0:0:0:
64,192,42652,1,0,0:0:0:0:
192,192,42652,1,0,0:0:0:0:
320,192,42769,1,0,0:0:0:0:
448,192,42769,1,0,0:0:0:0:
64,192,42886,1,0,0:0:0:70:Kick.wav
192,192,42886,1,0,0:0:0:40:Snare.wav
448,192,42886,1,0,0:0:0:0:
192,192,43003,1,0,0:0:0:0:
320,192,43003,1,0,0:0:0:0:
64,192,43121,1,0,0:0:0:0:
448,192,43121,1,0,0:0:0:0:
192,192,43238,1,0,0:0:0:0:
320,192,43238,1,0,0:0:0:0:
64,192,43355,1,0,0:0:0:70:Kick.wav
320,192,43355,1,0,0:0:0:0:
448,192,43355,1,0,0:0:0:0:
64,192,43472,1,0,0:0:0:0:
192,192,43472,1,0,0:0:0:0:
320,192,43589,1,0,0:0:0:0:
448,192,43589,1,0,0:0:0:0:
320,192,43707,1,0,0:0:0:0:
64,192,43824,1,0,0:0:0:70:Kick.wav
192,192,43824,1,0,0:0:0:40:Snare.wav
448,192,43824,1,0,0:0:0:0:
64,192,43941,1,0,0:0:0:0:
192,192,44058,1,0,0:0:0:0:
448,192,44058,1,0,0:0:0:0:
192,192,44175,1,0,0:0:0:0:
64,192,44293,1,0,0:0:0:70:Kick.wav
320,192,44293,1,0,0:0:0:0:
448,192,44293,1,0,0:0:0:0:
320,192,44410,1,0,0:0:0:0:
64,192,44527,1,0,0:0:0:0:
192,192,44527,1,0,0:0:0:0:
320,192,44644,1,0,0:0:0:0:
448,192,44644,1,0,0:0:0:0:
64,192,44761,1,0,0:0:0:70:Kick.wav
192,192,44761,1,0,0:0:0:40:Snare.wav
320,192,44761,1,0,0:0:0:0:
64,192,44878,1,0,0:0:0:0:
448,192,44878,1,0,0:0:0:0:
192,192,44996,1,0,0:0:0:0:
320,192,44996,1,0,0:0:0:0:
64,192,45113,1,0,0:0:0:0:
448,192,45113,1,0,0:0:0:0:
192,192,45230,1,0,0:0:0:70:Kick.wav
320,192,45230,1,0,0:0:0:0:
448,192,45230,1,0,0:0:0:0:
64,192,45347,1,0,0:0:0:0:
320,192,45464,1,0,0:0:0:0:
448,192,45464,1,0,0:0:0:0:
64,192,45582,1,0,0:0:0:0:
192,192,45582,1,0,0:0:0:0:
192,192,45699,1,0,0:0:0:70:Kick.wav
320,192,45699,1,0,0:0:0:40:Snare.wav
448,192,45699,1,0,0:0:0:0:
64,192,45816,1,0,0:0:0:0:
448,192,45816,1,0,0:0:0:0:
192,192,45933,1,0,0:0:0:0:
320,192,45933,1,0,0:0:0:0:
64,192,46050,1,0,0:0:0:0:
192,192,46168,1,0,0:0:0:70:Kick.wav
320,192,46168,1,0,0:0:0:0:
448,192,46168,1,0,0:0:0:0:
320,192,46285,1,0,0:0:0:0:
64,192,46402,1,0,0:0:0:0:
192,192,46421,1,0,0:0:0:0:
448,192,46519,1,0,0:0:0:0:
320,192,46539,1,0,0:0:0:0:
64,192,46636,1,0,0:0:0:45:Dubstep-snare.wav
192,192,46636,1,0,0:0:0:0:
448,192,46636,1,0,0:0:0:0:
192,192,46753,1,0,0:0:0:0:
64,192,46773,1,0,0:0:0:0:
320,192,46871,1,0,0:0:0:0:
448,192,46890,1,0,0:0:0:0:
64,192,46988,1,0,0:0:0:70:Kick.wav
192,192,46988,1,0,0:0:0:0:
320,192,47105,1,0,0:0:0:0:
192,192,47164,1,0,0:0:0:0:
64,192,47222,1,0,0:0:0:0:
448,192,47281,1,0,0:0:0:0:
64,192,47339,1,0,0:0:0:70:Kick.wav
192,192,47339,1,0,0:0:0:0:
320,192,47398,1,0,0:0:0:0:
448,192,47457,1,0,0:0:0:0:
64,192,47515,1,0,0:0:0:0:
192,192,47574,1,0,0:0:0:45:Dubstep-snare.wav
448,192,47574,1,0,0:0:0:0:
320,192,47632,1,0,0:0:0:0:
192,192,47691,1,0,0:0:0:0:
64,192,47750,1,0,0:0:0:0:
320,192,47808,1,0,0:0:0:0:
448,192,47867,1,0,0:0:0:0:
192,192,47925,1,0,0:0:0:0:
320,192,47984,1,0,0:0:0:0:
64,192,48043,1,0,0:0:0:70:Kick.wav
448,192,48043,1,0,0:0:0:0:
192,192,48101,1,0,0:0:0:0:
448,192,48160,1,0,0:0:0:0:
320,192,48218,1,0,0:0:0:0:
64,192,48277,1,0,0:0:0:0:
192,192,48277,1,0,0:0:0:0:
448,192,48335,1,0,0:0:0:0:
64,192,48394,1,0,0:0:0:0:
192,192,48394,1,0,0:0:0:0:
64,192,48511,1,0,0:0:0:70:Crash.wav
192,192,48511,1,0,0:0:0:70:Kick.wav
448,192,48511,1,0,0:0:0:40:Snare.wav
192,192,48628,1,0,0:0:0:0:
320,192,48628,1,0,0:0:0:0:
64,192,48746,1,0,0:0:0:0:
448,192,48746,1,0,0:0:0:0:
192,192,48863,1,0,0:0:0:0:
320,192,48863,1,0,0:0:0:0:
64,192,48980,1,0,0:0:0:70:Kick.wav
320,192,48980,1,0,0:0:0:0:
448,192,48980,1,0,0:0:0:0:
192,192,49097,1,0,0:0:0:0:
320,192,49214,1,0,0:0:0:0:
448,192,49214,1,0,0:0:0:0:
64,192,49332,1,0,0:0:0:0:
192,192,49332,1,0,0:0:0:0:
64,192,49449,1,0,0:0:0:70:Kick.wav
320,192,49449,1,0,0:0:0:40:Snare.wav
448,192,49449,1,0,0:0:0:0:
192,192,49566,1,0,0:0:0:0:
320,192,49566,1,0,0:0:0:0:
64,192,49683,1,0,0:0:0:0:
448,192,49683,1,0,0:0:0:0:
320,192,49800,1,0,0:0:0:0:
64,192,49918,1,0,0:0:0:70:Kick.wav
192,192,49918,1,0,0:0:0:0:
448,192,49918,1,0,0:0:0:0:
192,192,50035,1,0,0:0:0:0:
320,192,50152,1,0,0:0:0:0:
448,192,50152,1,0,0:0:0:0:
64,192,50269,1,0,0:0:0:0:
192,192,50269,1,0,0:0:0:0:
64,192,50386,1,0,0:0:0:70:Kick.wav
320,192,50386,1,0,0:0:0:40:Snare.wav
448,192,50386,1,0,0:0:0:0:
192,192,50503,1,0,0:0:0:0:
320,192,50503,1,0,0:0:0:0:
64,192,50621,1,0,0:0:0:0:
448,192,50621,1,0,0:0:0:0:
192,192,50738,1,0,0:0:0:0:
320,192,50738,1,0,0:0:0:0:
64,192,50855,1,0,0:0:0:70:Kick.wav
192,192,50855,1,0,0:0:0:0:
448,192,50855,1,0,0:0:0:0:
320,192,50972,1,0,0:0:0:0:
64,192,51089,1,0,0:0:0:0:
192,192,51089,1,0,0:0:0:0:
320,192,51207,1,0,0:0:0:0:
448,192,51207,1,0,0:0:0:0:
64,192,51324,1,0,0:0:0:70:Kick.wav
192,192,51324,1,0,0:0:0:40:Snare.wav
448,192,51324,1,0,0:0:0:0:
192,192,51441,1,0,0:0:0:0:
64,192,51558,1,0,0:0:0:0:
320,192,51558,1,0,0:0:0:0:
320,192,51675,1,0,0:0:0:0:
64,192,51793,1,0,0:0:0:70:Kick.wav
192,192,51793,1,0,0:0:0:0:
448,192,51793,1,0,0:0:0:0:
192,192,51910,1,0,0:0:0:0:
320,192,52027,1,0,0:0:0:0:
448,192,52027,1,0,0:0:0:0:
64,192,52144,1,0,0:0:0:0:
192,192,52144,1,0,0:0:0:0:
192,192,52261,1,0,0:0:0:70:Kick.wav
320,192,52261,1,0,0:0:0:40:Snare.wav
448,192,52261,1,0,0:0:0:0:
64,192,52378,1,0,0:0:0:0:
448,192,52378,1,0,0:0:0:0:
192,192,52496,1,0,0:0:0:0:
320,192,52496,1,0,0:0:0:0:
64,192,52613,1,0,0:0:0:0:
448,192,52613,1,0,0:0:0:0:
64,192,52730,1,0,0:0:0:70:Kick.wav
192,192,52730,1,0,0:0:0:0:
320,192,52730,1,0,0:0:0:0:
448,192,52847,1,0,0:0:0:0:
64,192,52964,1,0,0:0:0:0:
192,192,52964,1,0,0:0:0:0:
320,192,53082,1,0,0:0:0:0:
448,192,53082,1,0,0:0:0:0:
64,192,53199,1,0,0:0:0:70:Kick.wav
192,192,53199,1,0,0:0:0:40:Snare.wav
320,192,53199,1,0,0:0:0:0:
64,192,53316,1,0,0:0:0:0:
320,192,53433,1,0,0:0:0:0:
448,192,53433,1,0,0:0:0:0:
320,192,53550,1,0,0:0:0:0:
64,192,53668,128,0,53902:0:0:0:70:Crash.wav
192,192,53668,1,0,0:0:0:0:
448,192,53668,128,0,53902:0:0:0:0:
64,192,54019,128,0,54253:0:0:0:0:
448,192,54019,128,0,54253:0:0:0:0:
64,192,54371,128,0,54605:0:0:0:0:
448,192,54371,128,0,54605:0:0:0:0:
64,192,54722,128,0,54957:0:0:0:0:
448,192,54722,128,0,54957:0:0:0:0:
320,192,54957,1,0,0:0:0:0:
192,192,55074,128,0,55191:0:0:0:0:
192,192,55308,128,0,55425:0:0:0:0:
64,192,55543,1,0,0:0:0:0:
448,192,55543,128,0,56949:0:0:0:0:
320,192,55660,1,0,0:0:0:0:
192,192,55777,1,0,0:0:0:0:
64,192,55894,1,0,0:0:0:0:
320,192,56011,1,0,0:0:0:0:
192,192,56128,1,0,0:0:0:0:
64,192,56246,1,0,0:0:0:0:
320,192,56363,1,0,0:0:0:0:
192,192,56480,1,0,0:0:0:0:
64,192,56597,1,0,0:0:0:0:
320,192,56714,1,0,0:0:0:0:
192,192,56832,1,0,0:0:0:0:
320,192,56949,128,0,57183:0:0:0:0:
192,192,57066,1,0,0:0:0:0:
64,192,57183,128,0,58121:0:0:0:0:
448,192,57300,1,0,0:0:0:0:
320,192,57418,1,0,0:0:0:0:
192,192,57535,1,0,0:0:0:0:
448,192,57652,1,0,0:0:0:0:
320,192,57769,1,0,0:0:0:0:
192,192,57886,1,0,0:0:0:0:
448,192,58003,1,0,0:0:0:0:
320,192,58121,128,0,58355:0:0:0:0:
192,192,58238,1,0,0:0:0:0:
448,192,58355,128,0,58589:0:0:0:0:
192,192,58472,1,0,0:0:0:0:
64,192,58589,128,0,58824:0:0:0:0:
320,192,58707,1,0,0:0:0:0:
448,192,58824,128,0,59058:0:0:0:0:
64,192,58941,1,0,0:0:0:0:
192,192,59058,128,0,60699:0:0:0:0:
320,192,59175,1,0,0:0:0:0:
448,192,59293,1,0,0:0:0:0:
64,192,59410,1,0,0:0:0:0:
320,192,59527,1,0,0:0:0:0:
448,192,59644,1,0,0:0:0:0:
64,192,59761,1,0,0:0:0:0:
320,192,59878,1,0,0:0:0:0:
448,192,59996,1,0,0:0:0:0:
64,192,60113,1,0,0:0:0:0:
320,192,60230,1,0,0:0:0:0:
448,192,60347,1,0,0:0:0:0:
64,192,60464,1,0,0:0:0:0:
320,192,60582,1,0,0:0:0:0:
448,192,60699,128,0,60933:0:0:0:0:
192,192,60816,1,0,0:0:0:0:
64,192,60933,128,0,62105:0:0:0:0:
320,192,61050,1,0,0:0:0:0:
448,192,61168,1,0,0:0:0:0:
192,192,61285,1,0,0:0:0:0:
320,192,61402,1,0,0:0:0:0:
448,192,61519,1,0,0:0:0:0:
192,192,61636,1,0,0:0:0:0:
320,192,61753,1,0,0:0:0:0:
448,192,61871,1,0,0:0:0:0:
192,192,61988,1,0,0:0:0:0:
320,192,62105,1,0,0:0:0:0:
448,192,62222,1,0,0:0:0:0:
192,192,62339,1,0,0:0:0:0:
64,192,62457,1,0,0:0:0:0:
320,192,62574,128,0,62808:0:0:0:0:
192,192,62691,1,0,0:0:0:0:
64,192,62808,128,0,63043:0:0:0:0:
448,192,62925,1,0,0:0:0:0:
320,192,63043,128,0,64214:0:0:0:0:
192,192,63160,1,0,0:0:0:0:
64,192,63277,1,0,0:0:0:0:
448,192,63394,1,0,0:0:0:0:
192,192,63511,1,0,0:0:0:0:
64,192,63628,1,0,0:0:0:0:
448,192,63746,1,0,0:0:0:0:
192,192,63863,1,0,0:0:0:0:
64,192,63980,1,0,0:0:0:0:
448,192,64097,1,0,0:0:0:0:
64,192,64214,128,0,64449:0:0:0:0:
320,192,64332,1,0,0:0:0:0:
448,192,64449,128,0,64683:0:0:0:0:
64,192,64566,1,0,0:0:0:0:
192,192,64683,128,0,65855:0:0:0:0:
320,192,64800,1,0,0:0:0:0:
448,192,64918,1,0,0:0:0:0:
64,192,65035,1,0,0:0:0:0:
320,192,65152,1,0,0:0:0:0:
448,192,65269,1,0,0:0:0:0:
64,192,65386,1,0,0:0:0:0:
320,192,65503,1,0,0:0:0:0:
448,192,65621,1,0,0:0:0:0:
64,192,65738,1,0,0:0:0:0:
320,192,65855,1,0,0:0:0:0:
448,192,65972,1,0,0:0:0:0:
64,192,66089,128,0,66324:0:0:0:0:
320,192,66207,1,0,0:0:0:0:
192,192,66324,128,0,66558:0:0:0:0:
448,192,66441,1,0,0:0:0:0:
320,192,66558,128,0,67964:0:0:0:0:
64,192,66675,1,0,0:0:0:0:
448,192,66793,1,0,0:0:0:0:
192,192,66910,1,0,0:0:0:0:
64,192,67027,1,0,0:0:0:0:
448,192,67144,1,0,0:0:0:0:
192,192,67261,1,0,0:0:0:0:
64,192,67378,1,0,0:0:0:0:
448,192,67496,1,0,0:0:0:0:
192,192,67613,1,0,0:0:0:0:
64,192,67730,1,0,0:0:0:0:
448,192,67847,1,0,0:0:0:0:
192,192,67964,1,0,0:0:0:0:
64,192,68082,1,0,0:0:0:0:
448,192,68199,128,0,68433:0:0:0:0:
320,192,68316,1,0,0:0:0:0:
64,192,68433,128,0,70074:0:0:0:0:
192,192,68550,1,0,0:0:0:0:
320,192,68668,1,0,0:0:0:0:
448,192,68785,1,0,0:0:0:0:
192,192,68902,1,0,0:0:0:0:
320,192,69019,1,0,0:0:0:0:
448,192,69136,1,0,0:0:0:0:
192,192,69253,1,0,0:0:0:0:
320,192,69371,1,0,0:0:0:0:
448,192,69488,1,0,0:0:0:0:
192,192,69605,1,0,0:0:0:0:
320,192,69722,1,0,0:0:0:0:
448,192,69839,1,0,0:0:0:0:
192,192,69957,1,0,0:0:0:0:
320,192,70074,1,0,0:0:0:0:
448,192,70191,1,0,0:0:0:0:
64,192,70308,1,0,0:0:0:0:
192,192,70425,1,0,0:0:0:0:
64,192,70543,1,0,0:0:0:0:
448,192,70543,128,0,71714:0:0:0:0:
320,192,70660,1,0,0:0:0:0:
192,192,70777,1,0,0:0:0:0:
64,192,70894,1,0,0:0:0:0:
320,192,71011,1,0,0:0:0:0:
192,192,71128,1,0,0:0:0:0:
64,192,71246,1,0,0:0:0:0:
320,192,71363,1,0,0:0:0:0:
192,192,71480,1,0,0:0:0:0:
64,192,71597,1,0,0:0:0:0:
320,192,71714,1,0,0:0:0:0:
192,192,71832,1,0,0:0:0:0:
320,192,71949,128,0,72183:0:0:0:0:
192,192,72066,1,0,0:0:0:0:
64,192,72183,128,0,72652:0:0:0:0:
448,192,72300,1,0,0:0:0:0:
320,192,72418,1,0,0:0:0:0:
192,192,72535,1,0,0:0:0:0:
448,192,72652,1,0,0:0:0:0:
320,192,72769,1,0,0:0:0:0:
192,192,72886,1,0,0:0:0:0:
448,192,73003,1,0,0:0:0:0:
320,192,73121,128,0,73355:0:0:0:0:
64,192,73238,1,0,0:0:0:0:
448,192,73355,128,0,73589:0:0:0:0:
192,192,73472,1,0,0:0:0:0:
64,192,73589,128,0,73824:0:0:0:0:
320,192,73707,1,0,0:0:0:0:
448,192,73824,128,0,74058:0:0:0:0:
64,192,73941,1,0,0:0:0:0:
192,192,74058,128,0,75699:0:0:0:0:
320,192,74175,1,0,0:0:0:0:
448,192,74293,1,0,0:0:0:0:
64,192,74410,1,0,0:0:0:0:
320,192,74527,1,0,0:0:0:0:
448,192,74644,1,0,0:0:0:0:
64,192,74761,1,0,0:0:0:0:
320,192,74878,1,0,0:0:0:0:
448,192,74996,1,0,0:0:0:0:
64,192,75113,1,0,0:0:0:0:
320,192,75230,1,0,0:0:0:0:
448,192,75347,1,0,0:0:0:0:
64,192,75464,1,0,0:0:0:0:
320,192,75582,1,0,0:0:0:0:
448,192,75699,128,0,75933:0:0:0:0:
192,192,75816,1,0,0:0:0:0:
64,192,75933,128,0,77105:0:0:0:0:
320,192,76050,1,0,0:0:0:0:
448,192,76168,128,0,76402:0:0:0:0:
192,192,76285,1,0,0:0:0:0:
320,192,76402,1,0,0:0:0:0:
448,192,76519,128,0,76753:0:0:0:0:
192,192,76636,1,0,0:0:0:0:
320,192,76753,1,0,0:0:0:0:
448,192,76871,128,0,77105:0:0:0:0:
192,192,76988,128,0,77222:0:0:0:0:
320,192,77105,128,0,77457:0:0:0:0:
448,192,77222,128,0,77339:0:0:0:0:
192,192,77339,128,0,77574:0:0:0:0:
64,192,77457,128,0,77574:0:0:0:0:
448,192,77574,128,0,77808:0:0:0:0:
64,192,77808,128,0,78043:0:0:0:0:
192,192,78043,1,0,0:0:0:70:Crash.wav
448,192,78043,1,0,0:0:0:70:Kick.wav
320,192,78101,1,0,0:0:0:0:
64,192,78160,1,0,0:0:0:0:
192,192,78218,1,0,0:0:0:0:
320,192,78277,1,0,0:0:0:0:
448,192,78335,1,0,0:0:0:0:
192,192,78394,1,0,0:0:0:0:
64,192,78453,1,0,0:0:0:0:
320,192,78511,1,0,0:0:0:0:
448,192,78511,1,0,0:0:0:0:
192,192,78570,1,0,0:0:0:0:
64,192,78628,1,0,0:0:0:0:
320,192,78687,1,0,0:0:0:0:
448,192,78746,1,0,0:0:0:0:
64,192,78804,1,0,0:0:0:0:
192,192,78863,1,0,0:0:0:0:
320,192,78921,1,0,0:0:0:0:
64,192,78980,1,0,0:0:0:0:
448,192,78980,1,0,0:0:0:0:
192,192,79039,1,0,0:0:0:0:
448,192,79097,1,0,0:0:0:0:
320,192,79156,1,0,0:0:0:0:
192,192,79214,1,0,0:0:0:0:
64,192,79273,1,0,0:0:0:0:
320,192,79332,1,0,0:0:0:0:
448,192,79390,1,0,0:0:0:0:
64,192,79449,1,0,0:0:0:0:
192,192,79449,1,0,0:0:0:0:
320,192,79507,1,0,0:0:0:0:
64,192,79566,1,0,0:0:0:0:
448,192,79566,1,0,0:0:0:0:
192,192,79625,1,0,0:0:0:0:
320,192,79683,1,0,0:0:0:0:
448,192,79742,1,0,0:0:0:0:
192,192,79800,1,0,0:0:0:0:
64,192,79859,1,0,0:0:0:0:
320,192,79918,1,0,0:0:0:0:
448,192,79918,1,0,0:0:0:0:
192,192,79976,1,0,0:0:0:0:
64,192,80035,1,0,0:0:0:0:
448,192,80093,1,0,0:0:0:0:
192,192,80152,1,0,0:0:0:0:
320,192,80152,1,0,0:0:0:0:
64,192,80210,1,0,0:0:0:0:
448,192,80269,1,0,0:0:0:0:
320,192,80328,1,0,0:0:0:0:
64,192,80386,128,0,80621:0:0:0:0:
320,192,80621,128,0,80855:0:0:0:0:
64,192,80855,1,0,0:0:0:70:Crash.wav
448,192,80855,1,0,0:0:0:70:Kick.wav
192,192,80914,1,0,0:0:0:0:
448,192,80972,1,0,0:0:0:0:
320,192,81031,1,0,0:0:0:0:
192,192,81089,1,0,0:0:0:0:
64,192,81148,1,0,0:0:0:0:
320,192,81207,1,0,0:0:0:0:
448,192,81265,1,0,0:0:0:0:
64,192,81324,1,0,0:0:0:0:
192,192,81324,1,0,0:0:0:0:
320,192,81382,1,0,0:0:0:0:
448,192,81441,1,0,0:0:0:0:
192,192,81500,1,0,0:0:0:0:
64,192,81558,1,0,0:0:0:0:
448,192,81617,1,0,0:0:0:0:
320,192,81675,1,0,0:0:0:0:
192,192,81734,1,0,0:0:0:0:
64,192,81793,1,0,0:0:0:0:
448,192,81793,1,0,0:0:0:0:
320,192,81851,1,0,0:0:0:0:
64,192,81910,1,0,0:0:0:0:
192,192,81968,1,0,0:0:0:0:
320,192,82027,1,0,0:0:0:0:
448,192,82085,1,0,0:0:0:0:
192,192,82144,1,0,0:0:0:0:
64,192,82203,1,0,0:0:0:0:
320,192,82261,1,0,0:0:0:0:
448,192,82261,1,0,0:0:0:0:
192,192,82320,1,0,0:0:0:0:
64,192,82378,1,0,0:0:0:0:
448,192,82378,1,0,0:0:0:0:
320,192,82437,1,0,0:0:0:0:
64,192,82496,1,0,0:0:0:0:
192,192,82496,1,0,0:0:0:0:
448,192,82554,1,0,0:0:0:0:
320,192,82613,1,0,0:0:0:0:
64,192,82671,1,0,0:0:0:0:
192,192,82730,1,0,0:0:0:0:
320,192,82730,1,0,0:0:0:0:
448,192,82789,1,0,0:0:0:0:
64,192,82847,1,0,0:0:0:0:
192,192,82906,1,0,0:0:0:0:
320,192,82964,1,0,0:0:0:0:
448,192,82964,1,0,0:0:0:0:
192,192,83023,1,0,0:0:0:0:
64,192,83082,1,0,0:0:0:0:
448,192,83140,1,0,0:0:0:0:
320,192,83199,128,0,83433:0:0:0:0:
64,192,83433,128,0,83668:0:0:0:0:
320,192,83668,128,0,83902:0:0:0:70:Crash.wav
448,192,83668,128,0,83902:0:0:0:70:Kick.wav
192,192,83746,1,0,0:0:0:0:
64,192,83824,1,0,0:0:0:0:
64,192,84019,128,0,84253:0:0:0:70:Crash.wav
192,192,84019,128,0,84253:0:0:0:70:Kick.wav
320,192,84097,1,0,0:0:0:0:
448,192,84175,1,0,0:0:0:0:
320,192,84371,128,0,84605:0:0:0:70:Crash.wav
448,192,84371,128,0,84605:0:0:0:70:Kick.wav
192,192,84449,1,0,0:0:0:0:
64,192,84527,1,0,0:0:0:0:
64,192,84722,128,0,84957:0:0:0:70:Crash.wav
192,192,84722,128,0,84957:0:0:0:70:Kick.wav
320,192,84781,1,0,0:0:0:0:
448,192,84839,1,0,0:0:0:0:
320,192,85074,128,0,85308:0:0:0:70:Crash.wav
448,192,85074,128,0,85308:0:0:0:70:Kick.wav
192,192,85132,128,0,85308:0:0:0:0:
64,192,85191,1,0,0:0:0:0:
64,192,85425,128,0,85660:0:0:0:70:Crash.wav
192,192,85425,128,0,85660:0:0:0:70:Kick.wav
320,192,85484,128,0,85660:0:0:0:0:
448,192,85543,1,0,0:0:0:0:
320,192,85777,128,0,86011:0:0:0:70:Crash.wav
448,192,85777,128,0,86011:0:0:0:70:Kick.wav
192,192,85835,128,0,86011:0:0:0:0:
64,192,85894,128,0,86011:0:0:0:0:
64,192,86128,128,0,86363:0:0:0:70:Crash.wav
192,192,86128,128,0,86363:0:0:0:70:Kick.wav
320,192,86187,128,0,86363:0:0:0:0:
448,192,86246,128,0,86363:0:0:0:0:
320,192,86480,1,0,0:0:0:70:Kick.wav
448,192,86480,1,0,0:0:0:0:
64,192,87418,128,0,87886:0:0:0:0:
448,192,87886,128,0,88824:0:0:0:0:
64,192,88238,1,0,0:0:0:0:
192,192,88355,1,0,0:0:0:0:
320,192,88589,128,0,88765:0:0:0:0:
64,192,88746,128,0,89136:0:0:0:0:
192,192,88902,128,0,89058:0:0:0:0:
320,192,88980,1,0,0:0:0:0:
448,192,89058,128,0,89214:0:0:0:0:
320,192,89136,128,0,89293:0:0:0:0:
192,192,89214,128,0,89293:0:0:0:0:
64,192,89293,1,0,0:0:0:0:
448,192,89410,1,0,0:0:0:0:
64,192,90230,1,0,0:0:0:70:Crash.wav
192,192,90230,1,0,0:0:0:70:Kick.wav
320,192,90230,1,0,0:0:0:0:
448,192,90230,1,0,0:0:0:0:
320,192,90347,1,0,0:0:0:0:
64,192,90464,1,0,0:0:0:70:Kick.wav
192,192,90464,1,0,0:0:0:0:
448,192,90464,1,0,0:0:0:0:
64,192,90581,1,0,0:0:0:0:
320,192,90581,1,0,0:0:0:0:
192,192,90698,1,0,0:0:0:70:Kick.wav
320,192,90815,1,0,0:0:0:0:
448,192,90815,1,0,0:0:0:0:
64,192,90933,1,0,0:0:0:70:Kick.wav
192,192,90933,1,0,0:0:0:0:
448,192,90933,1,0,0:0:0:0:
64,192,91050,1,0,0:0:0:0:
192,192,91167,1,0,0:0:0:70:Kick.wav
320,192,91167,1,0,0:0:0:0:
448,192,91167,1,0,0:0:0:0:
192,192,91284,1,0,0:0:0:0:
64,192,91401,1,0,0:0:0:70:Kick.wav
320,192,91401,1,0,0:0:0:0:
448,192,91401,1,0,0:0:0:0:
192,192,91519,1,0,0:0:0:0:
448,192,91519,1,0,0:0:0:0:
320,192,91636,1,0,0:0:0:70:Kick.wav
64,192,91753,1,0,0:0:0:0:
192,192,91753,1,0,0:0:0:0:
64,192,91870,1,0,0:0:0:70:Kick.wav
320,192,91870,1,0,0:0:0:0:
448,192,91870,1,0,0:0:0:0:
448,192,91987,1,0,0:0:0:0:
64,192,92105,1,0,0:0:0:70:Kick.wav
192,192,92105,1,0,0:0:0:0:
320,192,92105,1,0,0:0:0:0:
320,192,92222,1,0,0:0:0:0:
64,192,92339,1,0,0:0:0:70:Kick.wav
192,192,92339,1,0,0:0:0:0:
448,192,92339,1,0,0:0:0:0:
64,192,92456,1,0,0:0:0:0:
320,192,92456,1,0,0:0:0:0:
192,192,92573,1,0,0:0:0:70:Kick.wav
320,192,92690,1,0,0:0:0:0:
448,192,92690,1,0,0:0:0:0:
64,192,92808,1,0,0:0:0:70:Kick.wav
192,192,92808,1,0,0:0:0:0:
320,192,92808,1,0,0:0:0:0:
192,192,92925,1,0,0:0:0:0:
64,192,93042,1,0,0:0:0:70:Kick.wav
320,192,93042,1,0,0:0:0:0:
448,192,93042,1,0,0:0:0:0:
448,192,93159,1,0,0:0:0:0:
64,192,93276,1,0,0:0:0:70:Kick.wav
192,192,93276,1,0,0:0:0:0:
320,192,93276,1,0,0:0:0:0:
320,192,93394,1,0,0:0:0:0:
64,192,93511,1,0,0:0:0:70:Kick.wav
192,192,93511,1,0,0:0:0:0:
448,192,93511,1,0,0:0:0:0:
192,192,93628,1,0,0:0:0:0:
64,192,93745,1,0,0:0:0:70:Kick.wav
320,192,93745,1,0,0:0:0:0:
448,192,93745,1,0,0:0:0:0:
64,192,93862,1,0,0:0:0:0:
192,192,93980,1,0,0:0:0:70:Kick.wav
320,192,93980,1,0,0:0:0:0:
448,192,93980,1,0,0:0:0:0:
320,192,94097,1,0,0:0:0:0:
64,192,94214,1,0,0:0:0:70:Kick.wav
192,192,94214,1,0,0:0:0:0:
448,192,94214,1,0,0:0:0:0:
64,192,94331,1,0,0:0:0:0:
320,192,94331,1,0,0:0:0:0:
192,192,94448,1,0,0:0:0:70:Kick.wav
320,192,94565,1,0,0:0:0:0:
448,192,94565,1,0,0:0:0:0:
64,192,94683,1,0,0:0:0:70:Kick.wav
192,192,94683,1,0,0:0:0:0:
448,192,94683,1,0,0:0:0:0:
64,192,94800,1,0,0:0:0:0:
192,192,94917,1,0,0:0:0:70:Kick.wav
320,192,94917,1,0,0:0:0:0:
448,192,94917,1,0,0:0:0:0:
192,192,95034,1,0,0:0:0:0:
64,192,95151,1,0,0:0:0:70:Kick.wav
320,192,95151,1,0,0:0:0:0:
448,192,95151,1,0,0:0:0:0:
192,192,95269,1,0,0:0:0:0:
448,192,95269,1,0,0:0:0:0:
320,192,95386,1,0,0:0:0:70:Kick.wav
64,192,95503,1,0,0:0:0:0:
192,192,95503,1,0,0:0:0:0:
64,192,95620,1,0,0:0:0:70:Kick.wav
320,192,95620,1,0,0:0:0:0:
448,192,95620,1,0,0:0:0:0:
448,192,95737,1,0,0:0:0:0:
64,192,95855,1,0,0:0:0:70:Kick.wav
192,192,95855,1,0,0:0:0:0:
320,192,95855,1,0,0:0:0:0:
320,192,95972,1,0,0:0:0:0:
64,192,96089,1,0,0:0:0:70:Kick.wav
192,192,96089,1,0,0:0:0:0:
448,192,96089,1,0,0:0:0:0:
192,192,96206,1,0,0:0:0:0:
320,192,96206,1,0,0:0:0:0:
64,192,96323,1,0,0:0:0:70:Kick.wav
320,192,96440,1,0,0:0:0:0:
448,192,96440,1,0,0:0:0:0:
64,192,96558,1,0,0:0:0:70:Kick.wav
192,192,96558,1,0,0:0:0:0:
448,192,96558,1,0,0:0:0:0:
192,192,96675,1,0,0:0:0:0:
320,192,96792,1,0,0:0:0:70:Kick.wav
448,192,96792,1,0,0:0:0:0:
64,192,96851,1,0,0:0:0:0:
192,192,96909,1,0,0:0:0:70:Kick.wav
448,192,96968,1,0,0:0:0:70:Kick.wav
320,192,97026,1,0,0:0:0:70:Kick.wav
192,192,97085,1,0,0:0:0:0:
320,192,97144,1,0,0:0:0:70:Kick.wav
448,192,97202,1,0,0:0:0:0:
64,192,97261,1,0,0:0:0:70:Kick.wav
192,192,97290,1,0,0:0:0:70:Kick.wav
320,192,97319,1,0,0:0:0:70:Kick.wav
448,192,97349,1,0,0:0:0:70:Kick.wav
64,192,97378,1,0,0:0:0:70:Kick.wav
448,192,97495,1,0,0:0:0:70:Kick.wav
320,192,97524,1,0,0:0:0:70:Kick.wav
192,192,97554,1,0,0:0:0:70:Kick.wav
64,192,97583,1,0,0:0:0:70:Kick.wav
448,192,97612,1,0,0:0:0:70:Kick.wav
64,192,97730,1,0,0:0:0:70:Kick.wav
320,192,97730,1,0,0:0:0:0:
192,192,97847,1,0,0:0:0:0:
192,192,97964,1,0,0:0:0:0:
320,192,98081,1,0,0:0:0:0:
64,192,98198,1,0,0:0:0:70:Crash.wav
192,192,98198,1,0,0:0:0:70:Kick.wav
448,192,98198,1,0,0:0:0:45:Dubstep-snare.wav
192,192,98315,1,0,0:0:0:0:
320,192,98315,1,0,0:0:0:0:
64,192,98433,1,0,0:0:0:70:Kick.wav
448,192,98433,1,0,0:0:0:0:
192,192,98550,1,0,0:0:0:0:
320,192,98550,1,0,0:0:0:0:
64,192,98667,1,0,0:0:0:70:Kick.wav
320,192,98667,1,0,0:0:0:0:
448,192,98667,1,0,0:0:0:0:
192,192,98784,1,0,0:0:0:0:
320,192,98901,1,0,0:0:0:70:Kick.wav
448,192,98901,1,0,0:0:0:0:
64,192,99019,1,0,0:0:0:0:
192,192,99019,1,0,0:0:0:0:
64,192,99136,1,0,0:0:0:70:Kick.wav
320,192,99136,1,0,0:0:0:45:Dubstep-snare.wav
448,192,99136,1,0,0:0:0:0:
192,192,99253,1,0,0:0:0:0:
320,192,99253,1,0,0:0:0:0:
64,192,99370,1,0,0:0:0:70:Kick.wav
448,192,99370,1,0,0:0:0:0:
192,192,99487,1,0,0:0:0:0:
320,192,99487,1,0,0:0:0:0:
64,192,99605,1,0,0:0:0:70:Kick.wav
192,192,99605,1,0,0:0:0:0:
448,192,99605,1,0,0:0:0:0:
320,192,99722,1,0,0:0:0:0:
64,192,99839,1,0,0:0:0:70:Kick.wav
192,192,99839,1,0,0:0:0:0:
320,192,99956,1,0,0:0:0:0:
448,192,99956,1,0,0:0:0:0:
64,192,100073,1,0,0:0:0:70:Kick.wav
192,192,100073,1,0,0:0:0:45:Dubstep-snare.wav
448,192,100073,1,0,0:0:0:0:
192,192,100190,1,0,0:0:0:0:
320,192,100190,1,0,0:0:0:0:
64,192,100308,1,0,0:0:0:70:Kick.wav
448,192,100308,1,0,0:0:0:0:
192,192,100425,1,0,0:0:0:0:
320,192,100425,1,0,0:0:0:0:
64,192,100542,1,0,0:0:0:70:Kick.wav
192,192,100542,1,0,0:0:0:0:
448,192,100542,1,0,0:0:0:0:
320,192,100659,1,0,0:0:0:0:
64,192,100776,1,0,0:0:0:70:Kick.wav
192,192,100776,1,0,0:0:0:0:
192,192,100894,1,0,0:0:0:0:
64,192,101011,1,0,0:0:0:70:Kick.wav
320,192,101011,1,0,0:0:0:45:Dubstep-snare.wav
448,192,101011,1,0,0:0:0:0:
448,192,101128,1,0,0:0:0:0:
64,192,101245,1,0,0:0:0:70:Kick.wav
320,192,101245,1,0,0:0:0:0:
320,192,101362,1,0,0:0:0:0:
64,192,101480,1,0,0:0:0:70:Kick.wav
192,192,101480,1,0,0:0:0:0:
448,192,101480,1,0,0:0:0:0:
192,192,101597,1,0,0:0:0:0:
320,192,101714,1,0,0:0:0:70:Kick.wav
448,192,101714,1,0,0:0:0:0:
64,192,101831,1,0,0:0:0:0:
192,192,101831,1,0,0:0:0:0:
192,192,101948,1,0,0:0:0:70:Kick.wav
320,192,101948,1,0,0:0:0:45:Dubstep-snare.wav
448,192,101948,1,0,0:0:0:0:
64,192,102065,1,0,0:0:0:0:
448,192,102065,1,0,0:0:0:0:
192,192,102183,1,0,0:0:0:70:Kick.wav
320,192,102183,1,0,0:0:0:0:
64,192,102300,1,0,0:0:0:0:
448,192,102300,1,0,0:0:0:0:
64,192,102417,1,0,0:0:0:70:Kick.wav
192,192,102417,1,0,0:0:0:0:
320,192,102417,1,0,0:0:0:0:
448,192,102534,1,0,0:0:0:0:
64,192,102651,1,0,0:0:0:70:Kick.wav
192,192,102651,1,0,0:0:0:0:
320,192,102769,1,0,0:0:0:0:
448,192,102769,1,0,0:0:0:0:
64,192,102886,1,0,0:0:0:70:Kick.wav
192,192,102886,1,0,0:0:0:45:Dubstep-snare.wav
320,192,102886,1,0,0:0:0:0:
64,192,103003,1,0,0:0:0:0:
448,192,103003,1,0,0:0:0:0:
192,192,103120,1,0,0:0:0:70:Kick.wav
320,192,103120,1,0,0:0:0:0:
64,192,103237,1,0,0:0:0:0:
448,192,103237,1,0,0:0:0:0:
192,192,103355,1,0,0:0:0:70:Crash.wav
320,192,103355,1,0,0:0:0:70:Kick.wav
448,192,103355,1,0,0:0:0:0:
192,192,103472,1,0,0:0:0:0:
320,192,103589,1,0,0:0:0:0:
64,192,103706,1,0,0:0:0:70:Crash.wav
192,192,103706,1,0,0:0:0:70:Kick.wav
448,192,103706,1,0,0:0:0:0:
448,192,103823,1,0,0:0:0:0:
192,192,103940,1,0,0:0:0:0:
64,192,104058,1,0,0:0:0:70:Crash.wav
320,192,104058,1,0,0:0:0:70:Kick.wav
448,192,104058,1,0,0:0:0:0:
64,192,104175,1,0,0:0:0:0:
320,192,104292,1,0,0:0:0:0:
448,192,104292,1,0,0:0:0:0:
64,192,104409,1,0,0:0:0:70:Crash.wav
192,192,104409,1,0,0:0:0:70:Kick.wav
448,192,104409,1,0,0:0:0:0:
64,192,104526,1,0,0:0:0:0:
320,192,104526,1,0,0:0:0:0:
192,192,104644,1,0,0:0:0:70:Kick.wav
320,192,104644,1,0,0:0:0:0:
448,192,104644,1,0,0:0:0:0:
64,192,104761,1,0,0:0:0:70:Kick.wav
192,192,104790,1,0,0:0:0:70:Kick.wav
320,192,104819,1,0,0:0:0:70:Kick.wav
448,192,104849,1,0,0:0:0:70:Kick.wav
64,192,104878,1,0,0:0:0:70:Kick.wav
320,192,104995,1,0,0:0:0:70:Kick.wav
192,192,105024,1,0,0:0:0:70:Kick.wav
64,192,105054,1,0,0:0:0:70:Kick.wav
448,192,105112,1,0,0:0:0:70:Kick.wav
320,192,105142,1,0,0:0:0:70:Kick.wav
192,192,105171,1,0,0:0:0:70:Kick.wav
64,192,105230,1,0,0:0:0:70:Crash.wav
448,192,105230,1,0,0:0:0:70:Kick.wav
192,192,105347,1,0,0:0:0:0:
64,192,105464,1,0,0:0:0:70:Kick.wav
320,192,105464,1,0,0:0:0:40:Snare.wav
448,192,105464,1,0,0:0:0:0:
192,192,105581,1,0,0:0:0:0:
448,192,105581,1,0,0:0:0:0:
320,192,105698,1,0,0:0:0:70:Kick.wav
64,192,105815,1,0,0:0:0:0:
192,192,105815,1,0,0:0:0:0:
64,192,105933,1,0,0:0:0:70:Kick.wav
320,192,105933,1,0,0:0:0:40:Snare.wav
448,192,105933,1,0,0:0:0:0:
320,192,106050,1,0,0:0:0:0:
448,192,106050,1,0,0:0:0:0:
64,192,106167,1,0,0:0:0:70:Kick.wav
192,192,106167,1,0,0:0:0:0:
192,192,106284,1,0,0:0:0:0:
448,192,106284,1,0,0:0:0:0:
64,192,106401,1,0,0:0:0:70:Kick.wav
320,192,106401,1,0,0:0:0:40:Snare.wav
448,192,106401,1,0,0:0:0:0:
64,192,106519,1,0,0:0:0:0:
320,192,106519,1,0,0:0:0:0:
192,192,106636,1,0,0:0:0:70:Kick.wav
320,192,106753,1,0,0:0:0:0:
448,192,106753,1,0,0:0:0:0:
64,192,106870,1,0,0:0:0:70:Kick.wav
192,192,106870,1,0,0:0:0:40:Snare.wav
448,192,106870,1,0,0:0:0:0:
64,192,106987,1,0,0:0:0:0:
192,192,106987,1,0,0:0:0:0:
64,192,107105,1,0,0:0:0:70:Kick.wav
320,192,107105,1,0,0:0:0:0:
448,192,107105,1,0,0:0:0:0:
320,192,107222,1,0,0:0:0:0:
64,192,107339,1,0,0:0:0:70:Kick.wav
192,192,107339,1,0,0:0:0:40:Snare.wav
448,192,107339,1,0,0:0:0:0:
192,192,107456,1,0,0:0:0:0:
64,192,107573,1,0,0:0:0:70:Kick.wav
320,192,107573,1,0,0:0:0:0:
448,192,107573,1,0,0:0:0:0:
320,192,107690,1,0,0:0:0:0:
448,192,107690,1,0,0:0:0:0:
64,192,107808,1,0,0:0:0:70:Kick.wav
192,192,107808,1,0,0:0:0:40:Snare.wav
320,192,107808,1,0,0:0:0:0:
64,192,107925,1,0,0:0:0:0:
192,192,107925,1,0,0:0:0:0:
64,192,108042,1,0,0:0:0:70:Kick.wav
320,192,108042,1,0,0:0:0:0:
192,192,108159,1,0,0:0:0:0:
448,192,108159,1,0,0:0:0:0:
64,192,108276,1,0,0:0:0:70:Kick.wav
320,192,108276,1,0,0:0:0:40:Snare.wav
448,192,108276,1,0,0:0:0:0:
320,192,108394,1,0,0:0:0:0:
64,192,108511,1,0,0:0:0:70:Kick.wav
448,192,108511,1,0,0:0:0:0:
192,192,108569,1,0,0:0:0:0:
320,192,108628,1,0,0:0:0:0:
448,192,108687,1,0,0:0:0:0:
64,192,108745,1,0,0:0:0:70:Kick.wav
192,192,108745,1,0,0:0:0:40:Snare.wav
320,192,108804,1,0,0:0:0:0:
192,192,108862,1,0,0:0:0:0:
64,192,108921,1,0,0:0:0:0:
320,192,108980,1,0,0:0:0:70:Kick.wav
448,192,108980,1,0,0:0:0:0:
320,192,109097,1,0,0:0:0:0:
64,192,109214,1,0,0:0:0:70:Kick.wav
192,192,109214,1,0,0:0:0:40:Snare.wav
448,192,109214,1,0,0:0:0:0:
64,192,109331,1,0,0:0:0:0:
192,192,109331,1,0,0:0:0:0:
448,192,109448,1,0,0:0:0:70:Kick.wav
64,192,109565,1,0,0:0:0:0:
320,192,109565,1,0,0:0:0:0:
64,192,109683,1,0,0:0:0:70:Kick.wav
192,192,109683,1,0,0:0:0:40:Snare.wav
448,192,109683,1,0,0:0:0:0:
192,192,109800,1,0,0:0:0:0:
448,192,109800,1,0,0:0:0:0:
320,192,109917,1,0,0:0:0:70:Kick.wav
64,192,110034,1,0,0:0:0:0:
192,192,110034,1,0,0:0:0:0:
64,192,110151,1,0,0:0:0:70:Kick.wav
320,192,110151,1,0,0:0:0:40:Snare.wav
448,192,110151,1,0,0:0:0:0:
320,192,110269,1,0,0:0:0:0:
448,192,110269,1,0,0:0:0:0:
192,192,110386,1,0,0:0:0:70:Kick.wav
64,192,110503,1,0,0:0:0:0:
448,192,110503,1,0,0:0:0:0:
64,192,110620,1,0,0:0:0:70:Kick.wav
320,192,110620,1,0,0:0:0:40:Snare.wav
448,192,110620,1,0,0:0:0:0:
192,192,110737,1,0,0:0:0:0:
320,192,110737,1,0,0:0:0:0:
64,192,110855,1,0,0:0:0:70:Kick.wav
192,192,110855,1,0,0:0:0:0:
448,192,110855,1,0,0:0:0:0:
320,192,110933,1,0,0:0:0:0:
64,192,111011,1,0,0:0:0:0:
320,192,111089,1,0,0:0:0:70:Kick.wav
448,192,111089,1,0,0:0:0:40:Snare.wav
64,192,111167,1,0,0:0:0:0:
448,192,111245,1,0,0:0:0:0:
64,192,111323,1,0,0:0:0:70:Kick.wav
192,192,111323,1,0,0:0:0:0:
448,192,111401,1,0,0:0:0:0:
192,192,111480,1,0,0:0:0:0:
320,192,111558,1,0,0:0:0:70:Kick.wav
448,192,111558,1,0,0:0:0:40:Snare.wav
192,192,111636,1,0,0:0:0:0:
320,192,111714,1,0,0:0:0:0:
64,192,111792,1,0,0:0:0:70:Kick.wav
192,192,111792,1,0,0:0:0:0:
448,192,111792,1,0,0:0:0:0:
320,192,111909,1,0,0:0:0:70:Kick.wav
448,192,111909,1,0,0:0:0:0:
64,192,111968,1,0,0:0:0:70:Kick.wav
192,192,111968,1,0,0:0:0:0:
320,192,112026,1,0,0:0:0:70:Kick.wav
448,192,112026,1,0,0:0:0:40:Snare.wav
64,192,112144,1,0,0:0:0:70:Kick.wav
192,192,112144,1,0,0:0:0:0:
448,192,112261,1,0,0:0:0:70:Kick.wav
320,192,112290,1,0,0:0:0:70:Kick.wav
192,192,112319,1,0,0:0:0:70:Kick.wav
64,192,112349,1,0,0:0:0:70:Kick.wav
448,192,112378,1,0,0:0:0:70:Kick.wav
64,192,112495,1,0,0:0:0:70:Kick.wav
192,192,112524,1,0,0:0:0:70:Kick.wav
320,192,112554,1,0,0:0:0:70:Kick.wav
448,192,112583,1,0,0:0:0:70:Kick.wav
64,192,112612,1,0,0:0:0:70:Kick.wav
192,192,112730,1,0,0:0:0:70:Kick.wav
448,192,112730,1,0,0:0:0:0:
192,192,113081,1,0,0:0:0:0:
320,192,113140,1,0,0:0:0:0:
64,192,113198,1,0,0:0:0:70:Crash.wav
192,192,113198,1,0,0:0:0:70:Kick.wav
448,192,113198,1,0,0:0:0:45:Dubstep-snare.wav
320,192,113315,1,0,0:0:0:70:Kick.wav
448,192,113315,1,0,0:0:0:0:
64,192,113433,1,0,0:0:0:70:Kick.wav
192,192,113433,1,0,0:0:0:0:
64,192,113550,1,0,0:0:0:70:Kick.wav
448,192,113550,1,0,0:0:0:0:
192,192,113667,1,0,0:0:0:70:Kick.wav
320,192,113667,1,0,0:0:0:0:
192,192,113784,1,0,0:0:0:70:Kick.wav
448,192,113784,1,0,0:0:0:0:
320,192,113901,1,0,0:0:0:70:Kick.wav
448,192,113901,1,0,0:0:0:0:
64,192,114019,1,0,0:0:0:70:Kick.wav
192,192,114019,1,0,0:0:0:0:
64,192,114136,1,0,0:0:0:70:Kick.wav
320,192,114136,1,0,0:0:0:45:Dubstep-snare.wav
448,192,114136,1,0,0:0:0:0:
192,192,114253,1,0,0:0:0:70:Kick.wav
448,192,114253,1,0,0:0:0:0:
192,192,114370,1,0,0:0:0:70:Kick.wav
320,192,114370,1,0,0:0:0:0:
64,192,114487,1,0,0:0:0:70:Kick.wav
320,192,114487,1,0,0:0:0:0:
64,192,114605,1,0,0:0:0:70:Kick.wav
448,192,114605,1,0,0:0:0:0:
320,192,114722,1,0,0:0:0:70:Kick.wav
448,192,114722,1,0,0:0:0:0:
64,192,114839,1,0,0:0:0:70:Kick.wav
192,192,114839,1,0,0:0:0:0:
64,192,114956,1,0,0:0:0:70:Kick.wav
448,192,114956,1,0,0:0:0:0:
192,192,115073,1,0,0:0:0:70:Kick.wav
320,192,115073,1,0,0:0:0:45:Dubstep-snare.wav
448,192,115073,1,0,0:0:0:0:
64,192,115190,1,0,0:0:0:70:Kick.wav
192,192,115190,1,0,0:0:0:0:
64,192,115308,1,0,0:0:0:70:Kick.wav
448,192,115308,1,0,0:0:0:0:
192,192,115425,1,0,0:0:0:70:Kick.wav
320,192,115425,1,0,0:0:0:0:
192,192,115542,1,0,0:0:0:70:Kick.wav
448,192,115542,1,0,0:0:0:0:
64,192,115659,1,0,0:0:0:70:Kick.wav
448,192,115659,1,0,0:0:0:0:
64,192,115776,1,0,0:0:0:70:Kick.wav
320,192,115776,1,0,0:0:0:0:
192,192,115894,1,0,0:0:0:70:Kick.wav
320,192,115894,1,0,0:0:0:0:
64,192,116011,1,0,0:0:0:70:Kick.wav
192,192,116011,1,0,0:0:0:45:Dubstep-snare.wav
448,192,116011,1,0,0:0:0:0:
320,192,116128,1,0,0:0:0:70:Kick.wav
448,192,116128,1,0,0:0:0:0:
64,192,116245,1,0,0:0:0:70:Kick.wav
192,192,116245,1,0,0:0:0:0:
192,192,116362,1,0,0:0:0:70:Kick.wav
64,192,116480,1,0,0:0:0:70:Kick.wav
320,192,116480,1,0,0:0:0:70:Dubstep-snare.wav
448,192,116480,1,0,0:0:0:0:
320,192,116597,1,0,0:0:0:70:Kick.wav
448,192,116597,1,0,0:0:0:0:
64,192,116714,1,0,0:0:0:70:Kick.wav
192,192,116714,1,0,0:0:0:0:
64,192,116831,1,0,0:0:0:70:Kick.wav
192,192,116831,1,0,0:0:0:0:
64,192,116948,1,0,0:0:0:70:Kick.wav
320,192,116948,1,0,0:0:0:45:Dubstep-snare.wav
448,192,116948,1,0,0:0:0:0:
320,192,117065,1,0,0:0:0:70:Kick.wav
448,192,117065,1,0,0:0:0:0:
64,192,117183,1,0,0:0:0:70:Kick.wav
192,192,117183,1,0,0:0:0:0:
64,192,117300,1,0,0:0:0:70:Kick.wav
192,192,117300,1,0,0:0:0:0:
320,192,117417,1,0,0:0:0:70:Kick.wav
448,192,117417,1,0,0:0:0:0:
192,192,117476,1,0,0:0:0:70:Kick.wav
64,192,117534,1,0,0:0:0:70:Kick.wav
320,192,117593,1,0,0:0:0:70:Kick.wav
64,192,117651,1,0,0:0:0:70:Kick.wav
448,192,117651,1,0,0:0:0:0:
192,192,117710,1,0,0:0:0:70:Kick.wav
320,192,117769,1,0,0:0:0:70:Kick.wav
448,192,117827,1,0,0:0:0:70:Kick.wav
64,192,117886,1,0,0:0:0:70:Kick.wav
192,192,117886,1,0,0:0:0:0:
320,192,117944,1,0,0:0:0:70:Kick.wav
448,192,118003,1,0,0:0:0:70:Kick.wav
192,192,118062,1,0,0:0:0:70:Kick.wav
64,192,118120,1,0,0:0:0:70:Kick.wav
448,192,118120,1,0,0:0:0:0:
320,192,118179,1,0,0:0:0:70:Kick.wav
192,192,118237,1,0,0:0:0:70:Kick.wav
64,192,118296,1,0,0:0:0:70:Kick.wav
320,192,118355,128,0,118589:0:0:0:70:Crash.wav
448,192,118355,128,0,118589:0:0:0:70:Kick.wav
192,192,118413,1,0,0:0:0:0:
64,192,118472,1,0,0:0:0:0:
64,192,118706,128,0,118940:0:0:0:70:Crash.wav
192,192,118706,128,0,118940:0:0:0:70:Kick.wav
320,192,118765,1,0,0:0:0:0:
448,192,118823,1,0,0:0:0:0:
320,192,119058,128,0,119292:0:0:0:70:Crash.wav
448,192,119058,128,0,119292:0:0:0:70:Kick.wav
192,192,119116,1,0,0:0:0:0:
64,192,119175,1,0,0:0:0:0:
64,192,119409,128,0,119644:0:0:0:70:Crash.wav
192,192,119409,128,0,119644:0:0:0:70:Kick.wav
320,192,119468,1,0,0:0:0:0:
448,192,119526,1,0,0:0:0:0:
448,192,119761,1,0,0:0:0:0:
64,192,119878,1,0,0:0:0:0:
320,192,119995,1,0,0:0:0:0:
192,192,120112,1,0,0:0:0:0:
64,192,120230,1,0,0:0:0:70:Crash.wav
448,192,120230,128,0,120464:0:0:0:70:Kick.wav
64,192,120347,128,0,120464:0:0:0:70:Kick.wav
320,192,120347,1,0,0:0:0:0:
320,192,120581,128,0,120757:0:0:0:70:Crash.wav
448,192,120581,128,0,120757:0:0:0:70:Kick.wav
192,192,120640,1,0,0:0:0:0:
64,192,120698,1,0,0:0:0:0:
192,192,120815,1,0,0:0:0:70:Kick.wav
320,192,120874,1,0,0:0:0:70:Kick.wav
64,192,120933,128,0,121167:0:0:0:70:Crash.wav
448,192,120933,1,0,0:0:0:70:Kick.wav
320,192,121050,1,0,0:0:0:70:Kick.wav
448,192,121050,128,0,121167:0:0:0:0:
64,192,121284,128,0,121460:0:0:0:70:Crash.wav
192,192,121284,128,0,121460:0:0:0:70:Kick.wav
320,192,121343,1,0,0:0:0:0:
448,192,121401,1,0,0:0:0:0:
320,192,121519,1,0,0:0:0:0:
192,192,121577,1,0,0:0:0:0:
64,192,121636,1,0,0:0:0:0:
320,192,121753,1,0,0:0:0:0:
192,192,121870,1,0,0:0:0:0:
320,192,122105,1,0,0:0:0:70:Crash.wav
448,192,122105,1,0,0:0:0:70:Kick.wav
192,192,122163,1,0,0:0:0:70:Kick.wav
64,192,122222,1,0,0:0:0:70:Kick.wav
448,192,122222,1,0,0:0:0:0:
64,192,122456,1,0,0:0:0:70:Crash.wav
192,192,122456,1,0,0:0:0:70:Kick.wav
320,192,122515,1,0,0:0:0:70:Kick.wav
64,192,122573,1,0,0:0:0:70:Kick.wav
448,192,122573,1,0,0:0:0:0:
320,192,122808,1,0,0:0:0:70:Crash.wav
448,192,122808,1,0,0:0:0:70:Kick.wav
192,192,122866,1,0,0:0:0:70:Kick.wav
320,192,122925,1,0,0:0:0:70:Kick.wav
448,192,122925,1,0,0:0:0:0:
64,192,123159,1,0,0:0:0:70:Crash.wav
192,192,123159,1,0,0:0:0:70:Kick.wav
320,192,123218,1,0,0:0:0:70:Kick.wav
64,192,123276,1,0,0:0:0:70:Kick.wav
448,192,123276,1,0,0:0:0:0:
320,192,123511,1,0,0:0:0:70:Crash.wav
448,192,123511,1,0,0:0:0:70:Kick.wav
192,192,123569,1,0,0:0:0:70:Kick.wav
64,192,123628,1,0,0:0:0:70:Kick.wav
448,192,123628,1,0,0:0:0:0:
64,192,123862,1,0,0:0:0:70:Crash.wav
192,192,123862,1,0,0:0:0:70:Kick.wav
320,192,123921,1,0,0:0:0:70:Kick.wav
64,192,123980,1,0,0:0:0:70:Kick.wav
192,192,123980,1,0,0:0:0:0:
320,192,124214,1,0,0:0:0:70:Crash.wav
448,192,124214,1,0,0:0:0:70:Kick.wav
192,192,124272,1,0,0:0:0:70:Kick.wav
64,192,124331,1,0,0:0:0:70:Kick.wav
320,192,124390,1,0,0:0:0:70:Kick.wav
64,192,124448,1,0,0:0:0:70:Kick.wav
448,192,124448,1,0,0:0:0:0:
192,192,124507,1,0,0:0:0:70:Kick.wav
320,192,124565,1,0,0:0:0:70:Kick.wav
448,192,124624,1,0,0:0:0:70:Kick.wav
64,192,124683,1,0,0:0:0:70:Kick.wav
192,192,124683,1,0,0:0:0:0:
320,192,124741,1,0,0:0:0:70:Kick.wav
448,192,124800,1,0,0:0:0:70:Kick.wav
192,192,124858,1,0,0:0:0:70:Kick.wav
64,192,124917,1,0,0:0:0:70:Kick.wav
448,192,124917,1,0,0:0:0:0:
320,192,124976,1,0,0:0:0:70:Kick.wav
192,192,125034,1,0,0:0:0:70:Kick.wav
64,192,125093,1,0,0:0:0:70:Kick.wav
320,192,125151,1,0,0:0:0:70:Kick.wav
448,192,125151,1,0,0:0:0:0:
192,192,125210,1,0,0:0:0:70:Kick.wav
64,192,125269,1,0,0:0:0:70:Kick.wav
320,192,125327,1,0,0:0:0:70:Kick.wav
64,192,125386,1,0,0:0:0:70:Kick.wav
192,192,125386,1,0,0:0:0:0:
320,192,125464,1,0,0:0:0:70:Kick.wav
448,192,125464,1,0,0:0:0:0:
64,192,125542,1,0,0:0:0:70:Kick.wav
192,192,125542,1,0,0:0:0:0:
320,192,125620,1,0,0:0:0:70:Kick.wav
448,192,125620,1,0,0:0:0:0:
64,192,125737,1,0,0:0:0:70:Kick.wav
448,192,125737,1,0,0:0:0:0:
64,192,125855,1,0,0:0:0:70:Kick.wav
320,192,125855,1,0,0:0:0:0:
192,192,125972,1,0,0:0:0:70:Kick.wav
320,192,125972,1,0,0:0:0:0:
192,192,126089,1,0,0:0:0:70:Kick.wav
448,192,126089,1,0,0:0:0:0:
64,192,126323,1,0,0:0:0:0:
320,192,126440,1,0,0:0:0:0:
64,192,126792,1,0,0:0:0:70:Crash.wav
192,192,126792,1,0,0:0:0:70:Kick.wav
448,192,126792,1,0,0:0:0:0:
