osu file format v14

[General]
AudioFilename: audio.mp3
AudioLeadIn: 0
PreviewTime: 165076
Countdown: 1
SampleSet: Normal
StackLeniency: 0.9
Mode: 0
LetterboxInBreaks: 0
WidescreenStoryboard: 1

[Editor]
DistanceSpacing: 0.1
BeatDivisor: 2
GridSize: 8
TimelineZoom: 1

[Metadata]
Title:Spica
TitleUnicode:Spica
Artist:Synthion
ArtistUnicode:Synthion
Creator:Satanichiaaa
Version:Hard
Source:
Tags:StardustEP Dreamscape Rem Ram Jump
BeatmapID:1584000
BeatmapSetID:752428

[Difficulty]
HPDrainRate:5
CircleSize:4
OverallDifficulty:4
ApproachRate:7
SliderMultiplier:1.6
SliderTickRate:1

[Events]
//Background and Video events
0,0,"iuuiu.png",0,0
//Break Periods
2,15276,28876
2,90276,104176
//Storyboard Layer 0 (Background)
//Storyboard Layer 1 (Fail)
//Storyboard Layer 2 (Pass)
//Storyboard Layer 3 (Foreground)
//Storyboard Layer 4 (Overlay)
//Storyboard Sound Samples

[TimingPoints]
76,312.5,3,1,1,100,1,0
76,-100,3,1,1,40,0,0
45076,-100,3,1,1,100,0,0
58201,-100,3,1,1,60,0,0
60076,-100,3,1,1,100,0,1
75076,-200,3,1,1,100,0,0
105076,-100,3,1,1,50,0,0
120076,-100,3,1,1,100,0,0
150076,-133.333333333333,3,1,1,100,0,0
165076,-100,3,1,1,100,0,0
165388,-100,3,1,1,50,0,0
166013,-100,3,1,1,100,0,0
166951,-100,3,1,1,50,0,0
168826,-100,3,1,1,100,0,1
195076,-200,3,1,1,30,0,0

[Colours]
Combo1 : 255,0,128
Combo2 : 255,0,0
Combo3 : 0,255,0
Combo4 : 0,0,255

[HitObjects]
144,104,76,6,8,P|152:192|208:312,2,160,8|8|8,0:0|0:0|0:0,0:0:0:0:
288,152,1013,2,8,P|312:264|280:328,2,160
64,176,1951,2,8,P|88:264|208:336,2,160
208,136,2888,2,8,P|384:96|416:112,2,160
104,136,3826,6,0,P|128:224|176:288,1,160
272,96,4451,1,8,0:0:0:0:
216,192,4763,6,0,P|296:264|376:280,1,160
432,280,5388,1,8,0:0:0:0:
432,120,5701,6,0,P|344:72|248:56,1,160
184,136,6326,1,8,0:0:0:0:
56,232,6638,6,0,P|192:336|240:336,1,160
320,192,7263,1,8,0:0:0:0:
256,64,7576,6,8,P|144:72|80:112,1,160
144,248,8201,1,8,0:0:0:0:
304,328,8513,6,8,P|384:304|408:224,1,160,8|8,0:0|0:0,0:0:0:0:
368,80,9138,1,8,0:0:0:0:
224,56,9451,6,8,P|128:80|64:136,1,160,8|8,0:0|0:0,0:0:0:0:
56,256,10076,1,8,0:0:0:0:
192,176,10388,6,8,P|200:280|264:368,1,160,8|8,0:0|0:0,0:0:0:0:
288,224,11013,1,8,0:0:0:0:
96,240,11326,6,8,P|88:160|104:80,1,160
200,160,11951,1,8,0:0:0:0:
240,288,12263,6,8,P|328:328|416:312,1,160,8|8,0:0|0:0,0:0:0:0:
416,200,12888,1,8,0:0:0:0:
408,72,13201,6,8,P|296:48|200:56,1,160,8|8,0:0|0:0,0:0:0:0:
192,128,13826,1,8,0:0:0:0:
64,208,14138,6,8,P|112:320|192:352,1,160,8|8,0:0|0:0,0:0:0:0:
256,256,14763,1,8,0:0:0:0:
256,64,15076,1,8,0:0:0:0:
56,248,30076,6,8,P|88:280|200:320,2,160
72,112,31013,2,8,P|176:80|232:120,2,160
240,216,31951,6,8,P|288:80|264:56,2,160
184,136,32888,2,8,P|168:296|184:312,2,160
416,120,33826,6,8,P|328:80|240:96,2,160
280,224,34763,2,8,P|112:232|80:208,2,160
120,96,35701,6,8,B|208:40|208:40|208:144,2,160
168,200,36638,2,8,P|344:216|368:192,2,160
296,160,37576,6,8,P|472:136|472:176,2,160
248,272,38513,2,8,P|128:176|176:128,2,160
168,120,39451,6,8,P|328:88|352:112,2,160
320,168,40388,2,8,P|232:328|208:312,2,160
48,96,41326,5,8,0:0:0:0:
144,192,41638,1,8,0:0:0:0:
256,80,41951,1,8,0:0:0:0:
128,80,42263,5,8,0:0:0:0:
240,192,42576,1,8,0:0:0:0:
376,80,42888,1,8,0:0:0:0:
368,184,43201,5,8,0:0:0:0:
312,272,43513,1,8,0:0:0:0:
208,312,43826,1,8,0:0:0:0:
160,192,44138,6,8,P|144:48|176:32,2,160
256,40,45076,5,4,0:0:0:0:
208,120,45388,2,8,P|280:128|312:112,1,80
408,128,45857,5,8,0:0:0:0:
408,128,46013,2,8,L|408:208,5,80
320,112,46951,5,10,0:0:0:0:
176,216,47263,1,10,0:0:0:0:
216,56,47576,1,10,0:0:0:0:
72,144,47888,6,8,L|144:96,4,80
256,256,48826,5,8,0:0:0:0:
285,342,49138,2,8,P|246:347|208:336,1,80
112,224,49607,5,8,0:0:0:0:
112,224,49763,2,8,L|176:160,5,80
112,112,50701,5,2,0:0:0:0:
224,56,51013,1,2,0:0:0:0:
336,104,51326,1,2,0:0:0:0:
328,224,51638,6,8,L|264:176,4,80
256,40,52576,5,8,0:0:0:0:
208,120,52888,2,8,P|280:128|312:112,1,80
88,96,53357,5,8,0:0:0:0:
88,104,53513,2,8,L|88:200,5,80
184,128,54451,5,2,0:0:0:0:
216,248,54763,1,2,0:0:0:0:
328,176,55076,1,2,0:0:0:0:
416,240,55388,6,8,L|344:288,4,80
256,256,56326,5,8,0:0:0:0:
285,342,56638,2,8,P|246:347|208:336,1,80
112,224,57107,5,8,0:0:0:0:
112,224,57263,2,8,L|176:168,5,80
136,64,58201,5,2,0:0:0:0:
256,192,58669,1,2,0:0:0:0:
384,64,59138,1,2,0:0:0:0:
256,72,60076,5,8,0:0:0:0:
336,176,60544,1,8,0:0:0:0:
256,264,61013,1,8,0:0:0:0:
176,176,61326,6,8,L|96:176,3,80,8|8|8|8,0:0|0:0|0:0|0:0,0:0:0:0:
112,80,61951,5,8,0:0:0:0:
256,64,62263,1,8,0:0:0:0:
320,184,62576,1,8,0:0:0:0:
192,264,62888,6,8,L|256:320,4,80,8|8|8|8|8,0:0|0:0|0:0|0:0|0:0,0:0:0:0:
256,192,63826,5,8,0:0:0:0:
360,72,64294,1,8,0:0:0:0:
152,72,64763,1,8,0:0:0:0:
152,160,65076,6,8,L|152:256,3,80,8|8|8|8,0:0|0:0|0:0|0:0,0:0:0:0:
168,320,65701,5,8,0:0:0:0:
256,208,66013,1,8,0:0:0:0:
352,312,66326,1,8,0:0:0:0:
352,184,66638,6,8,L|352:88,3,80,8|8|8|8,0:0|0:0|0:0|0:0,0:0:0:0:
80,80,67576,5,8,0:0:0:0:
80,192,68044,1,8,0:0:0:0:
168,240,68513,1,8,0:0:0:0:
192,112,68982,5,8,0:0:0:0:
280,160,69451,1,8,0:0:0:0:
280,272,69919,1,8,0:0:0:0:
400,264,70388,5,8,0:0:0:0:
400,144,70857,1,8,0:0:0:0:
312,64,71326,1,8,0:0:0:0:
248,168,71794,5,8,0:0:0:0:
176,80,72263,1,0,0:0:0:0:
80,152,72732,1,0,0:0:0:0:
160,216,73201,5,8,0:0:0:0:
240,304,73669,1,8,0:0:0:0:
376,304,74138,1,8,0:0:0:0:
264,136,74607,6,8,L|264:216,2,80
160,104,75076,6,8,P|120:152|144:224,1,120
176,296,76013,2,8,P|280:328|304:304,1,120,8|8,0:0|0:0,0:0:0:0:
232,200,76951,2,8,P|280:184|368:232,1,120,8|8,0:0|0:0,0:0:0:0:
424,288,77888,2,8,P|448:240|424:168,1,120,8|8,0:0|0:0,0:0:0:0:
392,72,78826,6,8,P|344:56|241:56,1,120,8|8,0:0|0:0,0:0:0:0:
304,192,79763,2,8,P|224:176|192:136,1,120,8|8,0:0|0:0,0:0:0:0:
88,80,80701,2,8,P|48:128|48:192,1,120,8|8,0:0|0:0,0:0:0:0:
152,200,81638,2,8,P|184:296|160:328,1,120,8|8,0:0|0:0,0:0:0:0:
256,256,82576,6,8,P|320:232|376:248,1,120,8|8,0:0|0:0,0:0:0:0:
464,248,83513,2,8,P|464:200|440:128,1,120,8|8,0:0|0:0,0:0:0:0:
352,120,84451,2,8,P|280:136|232:112,1,120,8|8,0:0|0:0,0:0:0:0:
152,112,85388,2,8,P|112:160|104:224,1,120,8|8,0:0|0:0,0:0:0:0:
144,296,86326,6,8,P|224:336|272:320,1,120,8|8,0:0|0:0,0:0:0:0:
368,288,87263,2,8,P|416:232|392:168,1,120,8|8,0:0|0:0,0:0:0:0:
304,80,88201,2,8,P|248:72|168:96,1,120,8|8,0:0|0:0,0:0:0:0:
120,224,89138,2,8,P|184:272|232:264,1,120,8|8,0:0|0:0,0:0:0:0:
368,176,90076,1,8,0:0:0:0:
192,152,105076,5,8,0:0:0:0:
320,120,106013,1,8,0:0:0:0:
208,280,106638,2,8,P|160:168|184:152,1,160,8|8,0:0|0:0,0:0:0:0:
344,80,107888,1,8,0:0:0:0:
256,160,108826,5,8,0:0:0:0:
144,240,109763,1,8,0:0:0:0:
288,288,110076,2,8,P|392:232|416:184,2,160,8|8|8,0:0|0:0|0:0,0:0:0:0:
288,72,111638,1,8,0:0:0:0:
176,112,112576,6,8,P|112:176|128:248,1,160,8|8,0:0|0:0,0:0:0:0:
216,320,113513,1,8,0:0:0:0:
240,184,113826,2,8,P|344:208|328:248,2,160,8|8|8,0:0|0:0|0:0,0:0:0:0:
128,192,115076,5,8,0:0:0:0:
32,176,115388,2,8,P|88:104|160:80,2,160,8|8|8,0:0|0:0|0:0,0:0:0:0:
80,264,116326,2,8,P|208:312|216:296,1,160,8|8,0:0|0:0,0:0:0:0:
152,208,117263,1,8,0:0:0:0:
256,320,118201,5,8,0:0:0:0:
360,264,118513,2,8,P|304:184|240:192,2,160
256,40,120076,5,4,0:0:0:0:
208,120,120388,2,8,P|280:128|312:112,1,80
392,136,120857,5,8,0:0:0:0:
392,136,121013,2,8,P|376:200|360:200,5,80,8|8|8|8|8|8,0:0|0:0|0:0|0:0|0:0|0:0,0:0:0:0:
288,216,121951,5,2,0:0:0:0:
200,312,122263,1,2,0:0:0:0:
128,208,122576,1,2,0:0:0:0:
240,144,122888,2,8,P|304:208|296:224,4,80
256,256,123826,5,8,0:0:0:0:
285,342,124138,2,8,P|246:347|208:336,1,80
112,280,124607,5,8,0:0:0:0:
112,280,124763,2,8,L|152:192,5,80
80,152,125701,5,2,0:0:0:0:
256,128,126013,1,2,0:0:0:0:
144,32,126326,1,2,0:0:0:0:
168,224,126638,6,8,L|208:304,4,80
256,40,127576,5,8,0:0:0:0:
208,120,127888,2,8,P|280:128|312:112,1,80
144,224,128513,5,8,0:0:0:0:
328,152,128982,1,8,0:0:0:0:
256,256,129451,5,8,0:0:0:0:
285,342,129763,2,8,P|246:347|208:336,1,80,8|8,0:0|0:0,0:0:0:0:
80,280,130388,5,8,0:0:0:0:
112,128,130857,1,8,0:0:0:0:
256,192,131326,12,8,135076,0:0:0:0:
256,48,135544,6,8,L|256:128,1,80,10|8,0:0|0:0,0:0:0:0:
160,128,136013,5,8,0:0:0:0:
24,184,136326,1,8,0:0:0:0:
120,248,136638,2,8,P|216:320|256:256,1,160,10|8,0:0|0:0,0:0:0:0:
304,192,137263,5,8,0:0:0:0:
424,200,137576,2,0,P|424:96|360:88,1,160,2|8,0:0|0:0,0:0:0:0:
256,80,138201,5,8,0:0:0:0:
152,136,138513,2,0,P|112:216|144:280,1,160,2|8,0:0|0:0,0:0:0:0:
256,200,139138,5,2,0:0:0:0:
328,280,139451,2,0,P|376:192|344:136,1,160,2|8,0:0|0:0,0:0:0:0:
256,200,140076,5,8,0:0:0:0:
312,128,140388,2,0,P|240:88|176:136,1,160,2|0,0:0|0:0,0:0:0:0:
112,208,141013,5,8,0:0:0:0:
40,288,141326,2,0,P|128:320|192:280,1,160,2|8,0:0|0:0,0:0:0:0:
360,224,141951,5,8,0:0:0:0:
280,288,142263,2,0,P|360:320|440:288,1,160,2|8,0:0|0:0,0:0:0:0:
328,160,142888,5,8,0:0:0:0:
384,72,143201,2,0,P|272:56|224:80,1,160,2|8,0:0|0:0,0:0:0:0:
128,184,143826,5,8,0:0:0:0:
88,96,144138,2,0,P|40:176|48:240,1,160,2|8,0:0|0:0,0:0:0:0:
208,248,144763,5,8,0:0:0:0:
120,304,145075,2,0,P|216:344|296:320,1,160,2|8,0:0|0:0,0:0:0:0:
368,208,145701,5,8,0:0:0:0:
432,272,146013,2,0,P|448:176|416:128,1,160,2|8,0:0|0:0,0:0:0:0:
240,168,146638,5,8,0:0:0:0:
304,112,146951,2,0,P|232:72|168:104,1,160,2|8,0:0|0:0,0:0:0:0:
208,240,147576,5,8,0:0:0:0:
96,240,147888,2,0,P|144:328|200:352,1,160,2|8,0:0|0:0,0:0:0:0:
272,200,148513,5,8,0:0:0:0:
384,288,148826,1,8,0:0:0:0:
408,144,149138,1,8,0:0:0:0:
304,64,149451,2,0,P|208:56|144:88,1,160,2|8,0:0|0:0,0:0:0:0:
240,144,150076,6,0,B|416:208|384:304|280:368|216:312|176:224|184:208,1,360.000013732911,8|0,0:0|0:0,0:0:0:0:
112,216,151326,6,8,P|168:160|176:160,1,60.0000022888184
96,56,151951,1,8,0:0:0:0:
208,248,152419,1,8,0:0:0:0:
320,72,152888,2,8,P|400:104|400:216,1,180.000006866455,8|8,0:0|0:0,0:0:0:0:
256,328,153826,6,8,B|176:328|56:240|128:160|176:112|224:72|384:96|328:232|352:288,1,540.000020599366,8|8,0:0|0:0,0:0:0:0:
472,184,155701,2,8,B|376:136|272:176|200:208|120:152,1,360.000013732911,8|8,0:0|0:0,0:0:0:0:
56,96,156951,5,8,0:0:0:0:
264,64,157263,1,8,0:0:0:0:
168,168,157576,2,8,B|192:240|104:288|96:288|96:288|288:296,1,300.000011444092,8|8,0:0|0:0,0:0:0:0:
304,296,158513,1,8,0:0:0:0:
408,224,158826,1,8,0:0:0:0:
304,216,159294,6,8,P|224:160|264:64,1,180.000006866455,8|8,0:0|0:0,0:0:0:0:
320,128,160232,2,8,P|416:128|432:224,1,180.000006866455,8|8,0:0|0:0,0:0:0:0:
256,192,161326,12,2,165076,0:0:0:0:
256,240,165388,6,8,L|256:336,3,80
152,264,166013,5,2,0:0:0:0:
256,152,166482,1,2,0:0:0:0:
256,336,166951,5,8,0:0:0:0:
384,272,167263,1,8,0:0:0:0:
448,168,167576,1,8,0:0:0:0:
360,56,167888,1,8,0:0:0:0:
248,136,168201,1,8,0:0:0:0:
264,256,168513,1,8,0:0:0:0:
256,40,168826,5,4,0:0:0:0:
208,120,169138,2,8,P|280:128|312:112,1,80
88,160,169607,5,8,0:0:0:0:
88,160,169763,2,8,L|104:248,5,80
32,256,170701,5,2,0:0:0:0:
112,336,171013,1,2,0:0:0:0:
216,256,171326,1,2,0:0:0:0:
368,304,171638,2,8,L|304:240,4,80
256,256,172576,5,12,0:0:0:0:
285,342,172888,2,8,P|246:347|208:336,1,80
368,248,173357,5,8,0:0:0:0:
368,248,173513,2,8,L|312:176,5,80
240,192,174451,5,2,0:0:0:0:
240,48,174763,1,2,0:0:0:0:
120,120,175076,1,2,0:0:0:0:
160,208,175388,2,8,L|160:296,4,80
256,40,176326,5,12,0:0:0:0:
208,120,176638,2,8,P|280:128|312:112,1,80
176,200,177107,5,8,0:0:0:0:
176,200,177263,2,8,L|192:288,5,80
112,304,178201,5,2,0:0:0:0:
272,240,178513,1,2,0:0:0:0:
376,160,178826,1,2,0:0:0:0:
224,144,179138,2,8,L|160:80,4,80
256,256,180076,5,12,0:0:0:0:
285,342,180388,2,8,P|246:347|208:336,1,80
144,200,180857,5,8,0:0:0:0:
144,200,181014,2,8,L|216:136,5,80
272,64,181951,5,2,0:0:0:0:
376,184,182263,1,2,0:0:0:0:
224,272,182576,1,2,0:0:0:0:
80,208,182888,2,8,L|152:152,4,80
56,328,183826,6,4,P|152:336|208:240,1,160,4|8,0:0|0:0,0:0:0:0:
200,232,184451,1,8,0:0:0:0:
240,272,184763,2,0,P|336:216|328:176,1,160,6|8,0:0|0:0,0:0:0:0:
296,136,185388,1,8,0:0:0:0:
360,144,185701,2,0,P|424:80|384:40,1,160,6|8,0:0|0:0,0:0:0:0:
320,32,186326,1,8,0:0:0:0:
256,184,186638,6,0,L|256:232,8,40
256,40,187576,5,12,0:0:0:0:
208,120,187888,2,8,P|280:128|312:112,1,80
120,160,188357,5,8,0:0:0:0:
120,160,188513,2,8,L|120:240,5,80
224,224,189451,5,2,0:0:0:0:
112,336,189763,1,2,0:0:0:0:
320,328,190076,1,2,0:0:0:0:
424,208,190388,2,8,L|360:136,4,80
256,256,191326,5,12,0:0:0:0:
285,342,191638,2,8,P|246:347|208:336,1,80
64,240,192107,5,8,0:0:0:0:
64,240,192263,2,8,L|64:144,5,80
72,64,193201,5,2,0:0:0:0:
208,208,193513,1,2,0:0:0:0:
392,72,193826,1,2,0:0:0:0:
352,184,194138,2,8,L|320:264,5,80
248,336,195076,6,0,B|136:336|48:184|96:128|176:80|176:80|304:64,1,480,4|0,0:0|0:0,0:0:0:0:
448,120,198826,2,0,B|392:280|272:344|272:344|64:288,1,480,0|0,0:0|0:0,0:0:0:0:
40,200,202576,2,0,P|120:88|432:168,1,480,0|0,0:0|0:0,0:0:0:0:
408,208,205388,2,0,P|272:328|192:328,1,240,0|0,0:0|0:0,0:0:0:0:
98,277,206638,2,0,P|60:221|223:73,1,320,0|0,0:0|0:0,0:0:0:0:
220,162,208201,2,0,B|292:151|394:296|394:296|175:318,1,440,0|0,0:0|0:0,0:0:0:0:
256,192,210076,12,0,214138,0:0:0:0:
