osu file format v14

[General]
AudioFilename: audio.mp3
AudioLeadIn: 0
PreviewTime: 47575
Countdown: 1
SampleSet: Soft
StackLeniency: 0.6
Mode: 0
LetterboxInBreaks: 0
WidescreenStoryboard: 0

[Editor]
Bookmarks: 12000,18000,24000,30002,34849,34872,34895,34919,34966,34989,35013,35036,36002,42002,48000,54002,60002,66002,72000,84000,89974,96000,108002,120000,132002,144000,150002,156002,162002,168002,174002,180000,191972,197972,201159,204000
DistanceSpacing: 1.1
BeatDivisor: 8
GridSize: 16
TimelineZoom: 3.000005

[Metadata]
Title:Cake pop
TitleUnicode:Cake pop
Artist:Synthion
ArtistUnicode:Synthion
Creator:40505Al Capone
Version:40505 the Tea's Collab
Source:
Tags:Fanservice Lovecore future bass wub electronic cute
BeatmapID:1756919
BeatmapSetID:839253

[Difficulty]
HPDrainRate:6
CircleSize:4.5
OverallDifficulty:7
ApproachRate:9.5
SliderMultiplier:1.99999990463257
SliderTickRate:1

[Events]
//Background and Video events
0,0,"sunset bg.jpg",0,0
//Break Periods
2,120174,131449
//Storyboard Layer 0 (Background)
//Storyboard Layer 1 (Fail)
//Storyboard Layer 2 (Pass)
//Storyboard Layer 3 (Foreground)
//Storyboard Sound Samples

[TimingPoints]
0,375,4,2,0,32,1,0
0,-133.333333333333,4,2,0,32,0,0
187,-133.333333333333,4,2,0,32,0,0
722,375,4,2,0,32,1,0
722,-133.333333333333,4,2,0,32,0,0
1284,-100,4,2,0,32,0,0
1659,-100,4,2,0,32,0,0
2222,-100,4,2,0,32,0,0
2409,-100,4,2,0,32,0,0
3159,-100,4,2,0,32,0,0
3722,-100,4,2,0,32,0,0
4472,-100,4,2,0,32,0,0
4659,-100,4,2,0,32,0,0
5222,-100,4,2,0,32,0,0
5409,-100,4,2,0,32,0,0
11409,-76.9230769230769,4,2,0,32,0,0
11599,-100,4,2,0,32,0,0
11972,375,4,2,0,32,1,0
12159,-133.333333333333,4,2,0,32,0,0
12347,-100,4,2,0,32,0,0
14925,-100,4,2,0,32,0,0
15347,-133.333333333333,4,2,0,32,0,0
15534,-100,4,2,0,32,0,0
16284,-83.3333333333333,4,2,0,32,0,0
16472,-100,4,2,0,32,0,0
17034,-83.3333333333333,4,2,0,32,0,0
17222,-100,4,2,0,32,0,0
17597,-83.3333333333333,4,2,0,32,0,0
17972,-153.846153846153,4,2,0,32,0,0
18393,-66.6666666666667,4,2,0,32,0,0
18675,-100,4,2,0,32,0,0
19237,-153.846153846153,4,2,0,32,0,0
19612,-181.818181818181,4,2,0,32,0,0
19893,-66.6666666666667,4,2,0,32,0,0
20597,-100,4,2,0,32,0,0
20737,-83.3333333333333,4,2,0,32,0,0
20972,-71.4285714285714,4,2,0,32,0,0
21393,-66.6666666666667,4,2,0,32,0,0
21722,-100,4,2,0,32,0,0
23972,-50,4,2,0,32,0,0
24347,-66.6666666666667,4,2,0,32,0,0
24722,-50,4,2,0,32,0,0
25284,-66.6666666666667,4,2,0,32,0,0
26362,-133.333333333333,4,2,0,32,0,0
26597,-66.6666666666667,4,2,0,32,0,0
26972,-66.6666666666667,4,2,0,32,0,0
27347,-66.6666666666667,4,2,0,32,0,0
27722,-50,4,2,0,32,0,0
28284,-66.6666666666667,4,2,0,32,0,0
28987,-133.333333333333,4,2,0,32,0,0
29222,-66.6666666666667,4,2,0,32,0,0
30675,-50,4,2,0,32,0,0
31237,-66.6666666666667,4,2,0,32,0,0
31612,-58.8235294117647,4,2,0,32,0,0
31800,-66.6666666666667,4,2,0,32,0,0
32362,-66.6666666666667,4,2,0,32,0,0
32550,-50,4,2,0,32,0,0
33206,-100,4,2,0,32,0,0
35175,-66.6666666666667,4,2,0,32,0,0
35972,-50,4,2,0,32,0,0
36347,-100,4,2,0,32,0,0
36440,-66.6666666666667,4,2,0,32,0,0
36722,-50,4,2,0,32,0,0
37284,-66.6666666666667,4,2,0,32,0,0
38409,-125,4,2,0,32,0,0
38597,-66.6666666666667,4,2,0,32,0,0
38972,-50,4,2,0,32,0,0
39534,-66.6666666666667,4,2,0,32,0,0
39722,-50,4,2,0,32,0,0
40284,-66.6666666666667,4,2,0,32,0,0
41030,-125,4,2,0,32,0,0
41222,-66.6666666666667,4,2,0,32,0,0
42300,-50,4,2,0,32,0,0
43612,-66.6666666666667,4,2,0,32,0,0
44597,-50,4,2,0,32,0,0
45440,-66.6666666666667,4,2,0,32,0,0
46284,-83.3333333333333,4,2,0,32,0,0
46847,-66.6666666666667,4,2,0,32,0,0
47597,-50,4,2,0,32,0,0
48347,-80,4,2,0,32,0,0
48675,-50,4,2,0,32,0,0
50597,-80,4,2,0,32,0,0
50972,-50,4,2,0,32,0,0
51534,-80,4,2,0,32,0,0
51722,-50,4,2,0,32,0,0
53597,-80,4,2,0,32,0,0
53972,-57.1428571428571,4,2,0,32,0,0
54534,-66.6666666666667,4,2,0,32,0,0
54722,-57.1428571428571,4,2,0,32,0,0
56034,-50,4,2,0,32,0,0
56597,-83.3333333333333,4,2,0,32,0,0
56784,-66.6666666666667,4,2,0,32,0,0
56972,-57.1428571428571,4,2,0,32,0,0
57534,-66.6666666666667,4,2,0,32,0,0
59034,-50,4,2,0,32,0,0
59597,-83.3333333333333,4,2,0,32,0,0
59784,-66.6666666666667,4,2,0,32,0,0
60722,-50,4,2,0,32,0,0
61284,-80,4,2,0,32,0,0
63722,-50,4,2,0,32,0,0
66722,-66.6666666666667,4,2,0,32,0,0
67284,-83.3333333333333,4,2,0,32,0,0
72722,-133.333333333333,4,2,0,32,0,0
83972,-100,4,2,0,32,0,0
95128,-66.6666666666667,4,2,0,32,0,0
95972,-100,4,2,0,32,0,0
108722,-133.333333333333,4,2,0,32,0,0
113972,-100,4,2,0,32,0,0
116972,-83.3333333333333,4,2,0,32,0,0
119597,-66.6666666666667,4,2,0,32,0,0
143972,-200,4,2,0,32,0,0
144440,-100,4,2,0,32,0,0
145284,-200,4,2,0,32,0,0
145659,-83.3333333333333,4,2,0,32,0,0
146972,-142.857142857143,4,2,0,32,0,0
147440,-71.4285714285714,4,2,0,32,0,0
148284,-200,4,2,0,32,0,0
148659,-62.5,4,2,0,32,0,0
148847,-200,4,2,0,32,0,0
149222,-62.5,4,2,0,32,0,0
149972,-200,4,2,0,32,0,0
150440,-100,4,2,0,32,0,0
152597,-62.5,4,2,0,32,0,0
155972,-58.8235294117647,4,2,0,32,0,0
156159,-55.5555555555556,4,2,0,32,0,0
156347,-52.6315789473684,4,2,0,32,0,0
156534,-50,4,2,0,32,0,0
157284,-58.8235294117647,4,2,0,32,0,0
159159,-50,4,2,0,32,0,0
159347,-47.6190476190476,4,2,0,32,0,0
159534,-45.4545454545455,4,2,0,32,0,0
160284,-58.8235294117647,4,2,0,32,0,0
162534,-100,4,2,0,32,0,0
163847,-50,4,2,0,32,0,0
164597,-100,4,2,0,32,0,0
164972,-50,4,2,0,32,0,0
165534,-100,4,2,0,32,0,0
167972,-62.5,4,2,0,32,0,0
169190,-62.5,4,2,0,5,0,0
169284,-100,4,2,0,32,0,0
169659,-62.5,4,2,0,32,0,0
170409,-83.3333333333333,4,2,0,32,0,0
170972,-62.5,4,2,0,32,0,0
172190,-62.5,4,2,0,5,0,0
172284,-62.5,4,2,0,32,0,0
173972,-66.6666666666667,4,2,0,32,0,0
174722,-50,4,2,0,32,0,0
175284,-66.6666666666667,4,2,0,32,0,0
175384,-66.6666666666667,4,2,0,32,0,0
176409,-133.333333333333,4,2,0,32,0,0
176597,-66.6666666666667,4,2,0,32,0,0
177722,-50,4,2,0,32,0,0
178278,-83.3333333333333,4,2,0,32,0,0
179972,-181.818181818181,4,2,0,32,0,0
180534,-83.3333333333333,4,2,0,32,0,0
181284,-181.818181818181,4,2,0,32,0,0
181659,-83.3333333333333,4,2,0,32,0,0
182597,-71.4285714285714,4,2,0,32,0,0
182972,-181.818181818181,4,2,0,32,0,0
183534,-71.4285714285714,4,2,0,32,0,0
184284,-181.818181818181,4,2,0,32,0,0
184659,-71.4285714285714,4,2,0,32,0,0
185550,-62.5,4,2,0,32,0,0
185972,-181.818181818181,4,2,0,32,0,0
186534,-83.3333333333333,4,2,0,32,0,0
187284,-181.818181818181,4,2,0,32,0,0
187384,-181.818181818181,4,2,0,32,0,0
188597,-83.3333333333333,4,2,0,32,0,0
188784,-100,4,2,0,32,0,0
188972,-181.818181818181,4,2,0,32,0,0
189534,-83.3333333333333,4,2,0,32,0,0
190284,-105.263157894737,4,2,0,32,0,0
192722,-47.6190476190476,4,2,0,32,0,0
193097,-34.4827586206897,4,2,0,32,0,0
193284,-83.3333333333333,4,2,0,32,0,0
200784,-100,4,2,0,32,0,0
200972,-83.3333333333333,4,2,0,32,0,0
203597,-83.3333333333333,4,2,0,32,0,0
203784,-100,4,2,0,32,0,0

[Colours]
Combo1 : 198,173,0
Combo2 : 181,32,181
Combo3 : 34,0,225
Combo4 : 44,171,239
Combo5 : 255,32,32
Combo6 : 213,138,0

[HitObjects]
96,0,0,22,0,L|144:32,1,49.9999952316285
52,132,724,5,0,0:0:0:0:
39,168,909,1,0,0:0:0:0:
73,180,1099,1,0,0:0:0:0:
87,147,1286,2,0,L|130:118,1,49.9999976158143
179,92,1661,1,0,0:0:0:0:
214,146,1849,1,0,0:0:0:0:
248,198,2036,2,0,L|299:170,1,49.9999976158143
344,140,2411,1,0,0:0:0:0:
363,141,2599,1,0,0:0:0:0:
461,232,2974,54,0,L|418:206,1,49.9999976158143
455,57,3724,5,0,0:0:0:0:
423,36,3911,1,0,0:0:0:0:
400,62,4099,1,0,0:0:0:0:
430,86,4286,2,0,L|391:126,1,49.9999976158143
442,162,4661,1,0,0:0:0:0:
401,205,4849,1,0,0:0:0:0:
361,253,5036,2,0,L|413:301,1,49.9999952316285
438,324,5411,1,0,0:0:0:0:
467,322,5599,1,0,0:0:0:0:
296,323,5974,6,0,L|253:296,1,49.9999952316285
85,259,6724,53,0,0:0:0:0:
69,294,6911,1,0,0:0:0:0:
104,304,7099,1,0,0:0:0:0:
117,265,7286,2,0,L|163:230,1,49.9999976158143
120,184,7661,1,0,0:0:0:0:
172,151,7849,1,0,0:0:0:0:
229,115,8036,2,0,L|184:61,1,49.9999976158143
157,29,8411,1,0,0:0:0:0:
140,29,8597,1,0,0:0:0:0:
383,67,8974,6,0,L|425:105,1,49.9999952316285
446,199,9724,5,0,0:0:0:0:
476,214,9911,1,0,0:0:0:0:
460,245,10099,1,0,0:0:0:0:
429,232,10286,2,0,L|366:202,1,49.9999976158143
326,181,10661,1,0,0:0:0:0:
271,149,10849,1,0,0:0:0:0:
216,114,11036,1,0,0:0:0:0:
156,60,11411,2,0,P|106:46|47:118,1,129.99998785019
41,228,11786,6,0,L|61:224,1,24.9999988079071
41,228,11880,6,0,L|3:230,1,24.9999988079071
133,129,11974,38,0,P|135:161|121:195,1,49.9999976158143
130,323,12161,2,0,L|109:243,1,74.9999992847443
272,286,12442,2,0,P|271:273|277:262,1,24.9999988079071
290,296,12536,2,0,P|296:285|307:277,1,24.9999988079071
451,362,12724,5,0,0:0:0:0:
454,268,12911,1,0,0:0:0:0:
457,175,13099,1,0,0:0:0:0:
459,56,13286,2,0,P|468:79|470:103,1,49.9999976158143
393,367,13661,70,0,P|402:343|404:319,1,49.9999976158143
321,216,13848,1,0,0:0:0:0:
347,201,13942,2,0,P|337:191|325:188,1,24.9999988079071
362,186,14036,2,0,P|348:133|309:96,1,99.9999952316285
168,94,14411,5,0,0:0:0:0:
142,196,14599,2,0,P|159:220|182:230,1,49.9999976158143
116,217,14786,2,0,P|123:245|142:263,1,49.9999976158143
86,0,14974,54,2,P|75:55|74:115,1,99.9999952316285,2|2,0:2|0:2,0:2:0:0:
233,142,15349,1,0,0:0:0:0:
251,122,15442,2,0,P|245:111|235:104,1,24.9999988079071
262,118,15536,2,0,P|263:106|257:95,1,24.9999988079071
380,26,15724,5,0,0:0:0:0:
344,120,15911,1,0,0:0:0:0:
304,220,16099,1,0,0:0:0:0:
265,310,16286,2,0,B|225:261|318:279|319:197,1,119.999990615845
193,143,16661,6,0,P|199:132|209:125,1,24.9999988079071
181,144,16755,2,0,P|174:154|175:167,1,24.9999988079071
164,140,16849,2,0,P|159:128|162:116,1,24.9999988079071
51,291,17036,2,0,B|9:318|106:307|91:395,1,119.999990615845
165,290,17411,2,0,P|164:277|169:266,1,24.9999988079071
220,165,17599,2,0,P|281:155|235:235,1,179.999985923768
202,242,17974,54,0,L|164:182,1,64.9999939250949
260,93,18442,2,0,L|281:134,1,37.4999996423721
294,106,18536,2,0,L|271:66,1,24.9999997615814
366,61,18724,1,0,0:0:0:0:
466,126,18911,1,0,0:0:0:0:
404,229,19099,1,0,0:0:0:0:
506,287,19286,2,0,L|471:346,1,64.9999939250949
321,307,19661,2,0,L|296:346,1,45.833332546552
203,274,19942,2,0,L|172:229,1,37.4999996423721
163,269,20036,2,0,L|192:311,1,37.4999996423721
138,30,20597,6,0,P|187:46|213:68,1,83.3333293596904
235,93,20784,2,0,P|202:123|149:142,1,99.9999921798709
118,158,20972,2,0,P|136:233|184:270,1,139.999989051819
349,187,21395,2,0,L|397:164,1,37.4999996423721
382,206,21489,2,0,L|346:223,1,37.4999996423721
267,245,21724,2,0,L|291:230,3,24.9999988079071
259,217,21911,2,0,L|284:201,3,24.9999988079071
250,189,22099,2,0,L|267:157,3,24.9999988079071
235,177,22286,2,0,L|217:141,3,24.9999988079071
197,179,22474,5,0,0:0:0:0:
201,228,22567,1,0,0:0:0:0:
180,272,22661,1,0,0:0:0:0:
139,300,22755,1,0,0:0:0:0:
90,304,22849,1,0,0:0:0:0:
46,282,22942,1,0,0:0:0:0:
19,241,23036,1,0,0:0:0:0:
16,192,23130,1,0,0:0:0:0:
66,58,23599,2,0,L|45:118,1,49.9999976158143
398,92,23974,6,0,B|374:102|424:199|410:249,1,149.999992847443
134,194,24442,5,0,0:0:0:0:
122,262,24536,2,0,P|141:230|134:193,1,74.9999992847443
161,87,24724,2,0,B|141:24|252:-16|328:91|137:194|137:194|206:216|220:273,1,399.999980926514
391,243,25286,6,0,B|473:265|416:348|501:352,1,149.999998569489
347,188,25661,2,0,P|377:208|391:242,1,74.9999992847443
357,305,25849,1,0,0:0:0:0:
275,339,25940,1,0,0:0:0:0:
255,340,26036,2,0,B|290:308|234:290|265:266,1,74.9999992847443
324,116,26224,1,0,0:0:0:0:
338,81,26411,2,0,L|320:123,1,37.4999996423721
220,134,26599,6,0,P|176:151|145:186,1,74.9999992847443
92,207,26786,2,0,P|135:189|166:154,1,74.9999992847443
291,45,26974,2,0,B|216:72|221:136|221:136|175:138|148:178,1,187.499998211861
363,201,27442,1,0,0:0:0:0:
427,166,27536,2,0,P|383:183|352:218,1,74.9999992847443
243,304,27724,2,0,B|343:294|367:202|367:202|303:170|303:39|129:33|97:146,1,499.999976158143
164,243,28286,6,0,P|136:311|148:384,1,149.999998569489
39,325,28661,2,0,P|70:302|72:284,1,37.4999996423721
39,325,28755,2,0,P|4:344|2:362,1,37.4999996423721
131,217,28849,1,0,0:0:0:0:
220,326,29036,2,0,L|267:345,1,37.4999996423721
351,291,29224,54,0,P|379:265|390:206,1,74.9999992847443
431,171,29411,2,0,P|403:197|392:256,1,74.9999992847443
297,383,29599,2,0,B|303:311|359:306|419:245|384:181,1,224.999997854233
334,117,29974,6,0,B|381:84|407:144|430:43,1,112.499998927116
153,64,30442,2,0,L|220:56,1,37.4999996423721
235,53,30536,2,0,L|280:47,1,37.4999996423721
91,29,30677,2,0,B|126:102|126:102|223:34|223:34|285:132|454:39,1,449.999978542328
478,174,31286,6,0,B|433:122|311:154|303:77,1,187.499998211861
168,41,31661,2,0,P|107:81|83:57,1,84.9999975681305
138,167,31849,1,0,0:0:0:0:
222,139,31942,2,0,L|255:82,1,37.4999996423721
214,228,32036,2,0,P|193:298|88:252,1,187.499998211861
232,331,32411,2,0,L|177:331,1,37.4999996423721
242,310,32505,2,0,L|194:272,1,37.4999996423721
262,251,32599,54,0,P|341:252|425:311,1,149.999992847443
424,229,32786,2,0,P|454:302|435:403,1,149.999992847443
397,339,32974,2,0,P|366:265|396:146,1,199.999990463257
417,96,33255,2,0,L|335:108,1,74.9999964237214
284,90,33442,2,0,L|250:65,1,24.9999988079071
234,85,33536,2,0,L|200:58,1,24.9999988079071
267,39,33724,2,0,B|215:124|121:42|121:42|68:101,1,249.999988079071
91,168,34286,5,0,0:0:0:0:
117,125,34379,1,0,0:0:0:0:
155,93,34473,1,0,0:0:0:0:
201,74,34567,1,0,0:0:0:0:
251,69,34661,1,0,0:0:0:0:
300,79,34754,1,0,0:0:0:0:
379,49,34849,5,0,0:0:0:0:
427,53,34942,1,0,0:0:0:0:
459,90,35036,1,0,0:0:0:0:
188,202,35224,5,0,0:0:0:0:
313,248,35364,2,0,L|338:323,1,74.9999992847443
438,226,35599,2,0,L|372:27,1,187.499998211861
100,55,35974,54,0,B|177:81|172:120|206:172|302:186,1,199.999990463257
361,162,36442,1,0,0:0:0:0:
307,211,36536,2,0,P|347:184|367:143,1,74.9999992847443
469,155,36724,2,0,B|462:130|445:110|417:68|387:95|367:114|362:167|362:167|343:132|332:66|273:95|256:178|256:178|196:68|172:154,1,499.999976158143
67,236,37286,6,0,P|77:315|138:395,1,149.999998569489,0|0,0:0|0:0,2:0:0:0:
26,175,37661,2,0,P|64:223|67:264,1,74.9999992847443
131,276,37849,1,0,0:0:0:0:
227,312,37942,5,0,0:0:0:0:
251,303,38036,2,0,P|280:266|256:226,1,74.9999992847443
232,94,38224,1,0,0:0:0:0:
238,0,38411,2,0,L|225:51,1,39.9999980926514
150,204,38599,54,0,P|153:240|183:260,1,74.9999992847443
218,316,38786,2,0,P|214:279|184:259,1,74.9999992847443
96,132,38974,2,0,B|132:161|171:151|171:151|103:256|197:268|197:268,1,199.999990463257
322,300,39442,1,0,0:0:0:0:
323,361,39536,2,0,P|338:318|308:295,1,74.9999992847443
287,171,39724,6,0,B|221:245|315:296|315:296|443:305|475:197|400:118|384:55|252:101,1,499.999976158143
158,69,40286,2,0,P|98:58|24:-5,1,149.999998569489,0|0,3:0|3:0,3:0:0:0:
20,117,40661,2,0,B|2:105|23:134|43:135,1,37.4999996423721
20,117,40755,2,0,B|33:124|12:95|-7:94,1,37.4999996423721
123,221,40849,1,0,0:0:0:0:
172,80,41036,2,0,L|199:34,1,39.9999980926514
328,6,41224,6,0,P|368:-6|397:7,1,74.9999992847443
463,8,41411,2,0,P|422:20|393:6,1,74.9999992847443
294,41,41599,2,0,B|318:-21|388:15|388:15|379:76|470:87,1,224.999997854233
456,84,41974,6,0,B|479:128|479:128|453:175|453:175|398:164,1,149.999998569489
273,286,42302,2,0,B|244:341|244:341|185:342,1,99.9999952316285
124,302,42466,1,0,0:0:0:0:
86,220,42536,2,0,L|164:237,1,74.9999964237214
286,154,42724,2,0,B|342:100|253:17|253:17|141:118|141:118|54:36|124:-15,1,449.999978542328,0|0,3:0|0:0,0:0:0:0:
291,157,43239,6,0,B|353:208|353:208|432:138|397:50,1,249.999988079071
261,32,43614,2,0,B|202:63,1,37.4999996423721
113,103,43847,2,0,L|63:138,1,37.4999996423721
64,144,43942,2,0,L|59:189,1,37.4999996423721
59,209,44036,2,0,L|86:251,1,37.4999996423721
161,325,44224,1,0,0:0:0:0:
274,247,44409,1,0,0:0:0:0:
284,186,44503,1,0,0:0:0:0:
328,141,44599,6,0,B|376:128,1,49.9999976158143
354,176,44739,2,0,B|428:155|428:155|455:224,1,149.999992847443
382,210,44974,2,0,B|438:254|438:254|390:322,1,149.999992847443
374,248,45208,2,0,B|370:351|276:318,1,149.999992847443
175,316,45442,2,0,P|164:286|147:279,1,37.4999996423721
117,266,45536,2,0,P|128:236|145:229,1,37.4999996423721
74,178,45724,2,0,B|82:120|142:114|142:114|167:184|167:184|230:122|224:274|320:265,1,374.999996423721
486,316,46286,1,0,0:0:0:0:
512,264,46379,1,0,0:0:0:0:
511,205,46473,1,0,0:0:0:0:
478,156,46567,1,0,0:0:0:0:
424,131,46661,1,0,0:0:0:0:
366,138,46754,1,0,0:0:0:0:
266,204,46849,5,0,0:0:0:0:
329,241,46942,1,0,0:0:0:0:
354,310,47036,1,0,0:0:0:0:
66,220,47224,53,0,0:0:0:0:
378,339,47411,1,0,0:0:0:0:
68,196,47599,2,0,B|124:184|124:184|82:124|82:124|128:106|128:106|90:42,1,249.999988079071
250,55,47974,54,0,P|187:188|325:228,1,299.999985694885
454,227,48349,2,0,L|401:229,3,31.2499985098839
458,241,48534,2,0,L|433:287,2,31.2499985098839
392,353,48724,5,0,0:0:0:0:
310,239,48911,1,0,0:0:0:0:
188,168,49099,1,0,0:0:0:0:
128,41,49286,2,0,B|63:-25|63:-25|55:85|141:95|141:95|116:157,1,299.999985694885,0|0,2:0|0:0,2:0:0:0:
86,210,49661,5,0,0:0:0:0:
225,192,49849,1,0,0:0:0:0:
361,164,50036,2,0,P|410:133|372:90,1,99.9999952316285
274,97,50224,1,0,0:0:0:0:
137,128,50411,1,0,0:0:0:0:
44,221,50597,2,0,L|94:204,3,31.2499985098839
45,235,50782,2,0,L|84:270,2,31.2499985098839
152,286,50974,6,2,B|212:281|230:259|230:259|346:149|190:108|166:161|155:237|230:253|284:228|284:228|331:187|372:217|361:258,1,499.999976158143
380,363,51534,2,0,L|401:327,2,31.2499985098839
432,252,51724,1,0,0:0:0:0:
457,114,51911,1,0,0:0:0:0:
362,10,52099,1,0,0:0:0:0:
308,139,52286,22,0,B|242:243|378:247|380:176|380:176|336:178|294:258,1,299.999985694885
275,310,52661,1,0,0:0:0:0:
148,249,52849,1,0,0:0:0:0:
67,129,53036,2,0,P|63:116|48:26,1,99.9999952316285
159,56,53224,1,0,0:0:0:0:
202,188,53411,1,0,0:0:0:0:
311,73,53599,6,0,L|286:119,3,31.2499985098839,0|0|0|0,2:0|2:0|2:0|2:0,2:0:0:0:
320,84,53784,2,0,L|344:124,2,31.2499985098839,0|0|0,2:0|2:0|2:0,2:0:0:0:
410,239,53974,6,0,P|474:373|356:325,1,349.99998664856
91,178,54536,2,0,L|121:204,1,37.4999996423721
99,166,54630,2,0,L|61:137,1,37.4999996423721
117,138,54724,1,0,0:0:0:0:
226,45,54911,1,0,0:0:0:0:
292,174,55099,1,0,0:0:0:0:
427,83,55286,6,0,P|338:23|340:130,1,262.49998998642
472,244,55661,1,0,0:0:0:0:
350,342,55849,1,0,0:0:0:0:
271,195,56036,2,0,P|214:206|219:243,1,99.9999952316285
77,363,56224,1,0,0:0:0:0:
176,240,56411,1,0,0:0:0:0:
89,80,56599,2,0,L|102:106,1,29.9999976539613
102,77,56692,2,0,L|113:44,1,29.9999976539613
116,75,56786,2,0,L|147:110,1,37.4999996423721
130,73,56880,2,0,L|152:37,1,37.4999996423721
271,31,56974,6,0,P|219:162|356:125,1,349.99998664856
449,61,57536,2,0,L|427:93,1,37.4999996423721
444,51,57630,2,0,L|474:25,1,37.4999996423721
477,88,57724,1,0,0:0:0:0:
408,203,57911,1,0,0:0:0:0:
479,333,58099,1,0,0:0:0:0:
272,324,58286,6,0,P|363:341|331:254,1,224.999997854233
211,275,58661,1,0,0:0:0:0:
72,372,58849,1,0,0:0:0:0:
144,188,59036,2,0,P|133:143|88:149,1,99.9999952316285
192,36,59224,1,0,0:0:0:0:
441,95,59411,1,0,0:0:0:0:
217,153,59599,2,0,L|215:192,1,29.9999976539613
231,156,59692,2,0,L|268:138,1,29.9999976539613
253,159,59786,2,0,L|275:202,1,37.4999996423721
272,165,59880,2,0,L|303:135,1,37.4999996423721
369,42,59974,69,0,0:0:0:0:
446,108,60161,1,0,0:0:0:0:
315,147,60349,1,0,0:0:0:0:
450,233,60536,1,0,0:0:0:0:
335,175,60724,6,0,L|305:270,1,99.9999952316285
241,367,60909,2,0,L|275:273,1,99.9999952316285
391,74,61099,2,0,L|361:169,1,99.9999952316285
339,301,61286,5,0,0:0:0:0:
356,341,61379,1,0,0:0:0:0:
397,361,61473,1,0,0:0:0:0:
444,350,61567,1,0,0:0:0:0:
482,318,61661,2,0,P|503:279|497:256,1,62.4999970197678
465,111,61849,2,0,P|448:47|378:23,1,124.999994039536
292,162,62224,1,0,0:0:0:0:
227,277,62411,1,0,0:0:0:0:
206,310,62505,1,0,0:0:0:0:
169,325,62599,1,0,0:0:0:0:
50,236,62786,6,0,L|60:187,3,31.2499985098839,0|0|0|0,2:0|2:0|2:0|2:0,2:0:0:0:
119,45,62974,5,0,0:0:0:0:
211,126,63161,1,0,0:0:0:0:
221,178,63255,1,0,0:0:0:0:
201,224,63349,1,0,0:0:0:0:
296,173,63536,1,0,0:0:0:0:
285,136,63630,1,0,0:0:0:0:
297,98,63724,6,0,P|355:41|471:41,1,199.999990463257
405,139,64099,1,0,0:0:0:0:
512,173,64286,2,0,P|483:214|414:227,1,99.9999952316285
336,210,64474,1,0,0:0:0:0:
309,238,64568,1,0,0:0:0:0:
299,273,64662,1,0,0:0:0:0:
414,337,64849,6,0,P|466:297|418:223,1,149.999992847443
263,159,65224,1,0,0:0:0:0:
199,67,65411,1,0,0:0:0:0:
170,45,65505,1,0,0:0:0:0:
162,4,65599,1,0,0:0:0:0:
107,99,65786,1,0,0:0:0:0:
136,124,65880,1,0,0:0:0:0:
144,162,65974,37,0,0:0:0:0:
132,234,66161,1,0,0:0:0:0:
165,252,66255,1,0,0:0:0:0:
203,247,66349,1,0,0:0:0:0:
206,327,66536,1,0,0:0:0:0:
168,322,66630,1,0,0:0:0:0:
135,340,66724,2,0,P|223:364|276:334,1,149.999998569489
339,258,67099,1,0,0:0:0:0:
339,258,67286,6,0,L|414:269,1,59.9999953079226
423,301,67474,1,0,0:0:0:0:
447,334,67567,1,0,0:0:0:0:
488,341,67661,2,0,L|499:265,1,59.9999953079226
476,242,67849,2,0,L|471:178,1,59.9999953079226
488,141,68036,2,0,L|496:69,1,59.9999953079226
494,81,68224,1,0,0:0:0:0:
365,75,68411,5,0,0:0:0:0:
328,95,68505,1,0,0:0:0:0:
286,86,68599,2,0,L|243:44,1,59.9999953079226
243,44,68786,1,0,0:0:0:0:
126,41,68974,2,0,L|49:47,1,59.9999953079226
56,86,69161,1,0,0:0:0:0:
86,115,69255,1,0,0:0:0:0:
127,118,69349,1,0,0:0:0:0:
207,139,69536,1,0,0:0:0:0:
240,113,69630,1,0,0:0:0:0:
282,113,69724,6,0,P|358:157|364:184,1,119.999990615845
366,266,70099,1,0,0:0:0:0:
340,345,70286,2,0,L|264:370,1,59.9999953079226
240,362,70474,1,0,0:0:0:0:
206,336,70567,1,0,0:0:0:0:
194,295,70661,5,0,0:0:0:0:
220,215,70849,1,0,0:0:0:0:
110,148,71036,1,0,0:0:0:0:
99,64,71224,1,0,0:0:0:0:
175,30,71411,1,0,0:0:0:0:
214,43,71505,1,0,0:0:0:0:
226,83,71599,1,0,0:0:0:0:
285,142,71786,1,0,0:0:0:0:
110,148,71974,1,0,0:0:0:0:
350,107,72724,38,0,L|420:160,2,74.9999992847443
336,154,73286,2,0,L|353:193,1,37.4999996423721
317,198,73661,2,0,L|320:282,1,74.9999992847443
276,239,74036,2,0,L|250:273,1,37.4999996423721
220,252,74411,2,0,L|150:291,1,74.9999992847443
130,59,74974,70,0,L|157:102,1,37.4999996423721
113,117,75724,2,0,L|183:151,2,74.9999992847443
132,191,76286,2,0,L|182:189,1,37.4999996423721
170,247,76661,2,0,L|254:213,1,74.9999992847443
267,273,77036,2,0,L|291:225,1,37.4999996423721
332,263,77411,2,0,L|338:209,1,37.4999996423721
344,160,77599,1,0,0:0:0:0:
256,56,77974,6,0,L|283:22,1,37.4999996423721
250,103,78724,2,0,L|323:64,2,74.9999992847443
238,150,79286,2,0,L|283:147,1,37.4999996423721
213,190,79661,2,0,L|296:226,1,74.9999992847443
181,233,80036,2,0,L|207:274,1,37.4999996423721
128,243,80411,2,0,L|133:321,1,74.9999992847443
256,56,80974,54,0,L|229:22,1,37.4999996423721
262,103,81724,2,0,L|189:64,2,74.9999992847443
274,150,82286,2,0,L|229:147,1,37.4999996423721
299,190,82661,2,0,L|216:226,1,74.9999992847443
331,233,83036,2,0,L|305:274,1,37.4999996423721
384,243,83411,2,0,L|379:321,1,74.9999992847443
242,349,83974,37,0,0:0:0:0:
262,202,84349,1,0,0:0:0:0:
398,277,84724,1,0,0:0:0:0:
422,134,85005,1,0,0:0:0:0:
374,50,85286,5,0,0:0:0:0:
382,60,85474,1,0,0:0:0:0:
382,60,85661,2,0,L|366:118,1,49.9999976158143
334,118,85849,2,0,L|316:178,1,49.9999976158143
215,184,86224,6,0,L|234:251,1,49.9999976158143
246,300,86505,1,0,0:0:0:0:
305,213,86786,2,0,L|325:274,1,49.9999976158143
355,262,86974,2,0,L|427:336,1,99.9999952316285
469,279,87349,1,0,0:0:0:0:
452,139,87724,54,0,L|407:85,1,49.9999976158143
269,120,88005,2,0,L|304:174,1,49.9999976158143
452,139,88286,2,0,L|422:89,1,49.9999976158143
426,96,88474,1,0,0:0:0:0:
269,120,88661,2,0,L|292:167,1,49.9999976158143
290,164,88849,1,0,0:0:0:0:
195,267,89224,1,0,0:0:0:0:
123,190,89505,1,0,0:0:0:0:
82,286,89786,2,0,L|136:307,1,49.9999976158143
157,283,89974,6,0,L|208:238,1,49.9999976158143
306,304,90349,2,0,L|284:349,1,49.9999976158143
157,283,90724,2,0,L|197:247,1,49.9999976158143
304,303,91005,2,0,L|278:356,1,49.9999976158143
157,283,91286,2,0,L|202:241,1,49.9999976158143
193,248,91473,1,0,0:0:0:0:
304,303,91661,2,0,L|281:354,1,49.9999976158143
283,348,91848,1,0,0:0:0:0:
269,208,92224,1,0,0:0:0:0:
373,211,92505,2,0,L|419:247,1,49.9999976158143
441,305,92786,2,0,L|489:335,1,49.9999976158143
510,308,92974,70,0,L|469:275,1,49.9999976158143
338,148,93349,2,0,L|381:193,1,49.9999976158143
510,308,93724,2,0,L|473:271,1,49.9999976158143
392,193,94005,2,0,L|434:237,1,49.9999976158143
374,329,94286,1,0,0:0:0:0:
352,309,94380,1,0,0:0:0:0:
242,283,94661,1,0,0:0:0:0:
259,306,94755,1,0,0:0:0:0:
147,285,95036,5,0,0:0:0:0:
126,257,95130,2,0,B|126:237|126:237|119:222|119:222|93:209|93:209|99:200|99:200|84:190,1,74.9999992847443
8,272,95317,1,0,0:0:0:0:
28,303,95411,1,0,0:0:0:0:
48,333,95505,1,0,0:0:0:0:
67,362,95599,1,0,0:0:0:0:
307,276,95974,38,0,P|317:253|314:214,1,49.9999976158143,0|0,2:0|0:0,0:0:0:0:
246,154,96349,2,0,P|270:160|297:188,1,49.9999976158143,0|0,2:0|0:0,0:0:0:0:
289,63,96724,2,0,P|200:92|160:80,1,99.9999952316285
77,142,97005,1,0,0:0:0:0:
51,143,97099,1,0,0:0:0:0:
174,217,97286,2,0,P|187:230|225:240,1,49.9999976158143,0|0,2:0|0:0,0:0:0:0:
174,217,97474,6,0,P|246:274|288:277,1,99.9999952316285
374,255,97849,2,2,P|301:197|259:194,1,99.9999952316285
275,57,98224,2,0,P|328:122|360:127,1,99.9999952316285
481,170,98505,1,0,0:0:0:0:
506,180,98599,1,0,0:0:0:0:
381,263,98786,1,0,0:0:0:0:
381,263,98974,6,0,P|288:276|251:258,1,99.9999952316285
212,174,99349,2,0,P|209:198|226:234,1,49.9999976158143,0|0,2:0|0:0,0:0:0:0:
264,363,99724,2,0,P|194:301|184:260,1,99.9999952316285
147,181,100005,1,0,0:0:0:0:
151,154,100099,1,0,0:0:0:0:
68,278,100286,2,0,P|70:298|98:325,1,49.9999976158143,0|0,2:0|0:0,0:0:0:0:
68,278,100474,6,0,P|102:364|136:387,1,99.9999952316285
192,296,100849,2,0,P|241:303|287:284,1,99.9999952316285,0|0,3:0|0:0,0:0:0:0:
212,174,101224,2,0,P|242:135|248:86,1,99.9999952316285,0|0,3:0|0:0,0:0:0:0:
141,14,101505,1,0,0:0:0:0:
117,0,101599,1,0,0:0:0:0:
136,142,101786,2,0,P|121:160|124:199,1,49.9999976158143,0|0,2:0|0:0,0:0:0:0:
136,142,101974,22,0,P|115:155|98:191,1,49.9999976158143,0|0,2:0|0:0,0:0:0:0:
149,279,102349,2,0,P|128:265|111:229,1,49.9999976158143,0|0,2:0|0:0,0:0:0:0:
233,227,102724,2,0,P|234:276|261:317,1,99.9999952316285,0|0,3:0|0:0,0:0:0:0:
385,334,103005,1,0,0:0:0:0:
420,341,103099,1,0,0:0:0:0:
337,218,103286,2,0,P|331:189|308:156,1,49.9999976158143,0|0,2:0|0:0,0:0:0:0:
337,218,103474,70,0,P|318:126|288:98,1,99.9999952316285
306,35,103849,2,0,P|351:52|386:87,1,99.9999952316285
462,238,104224,2,0,P|483:147|468:108,1,99.9999952316285
431,29,104505,1,0,2:0:0:0:
418,0,104599,1,0,2:0:0:0:
357,129,104786,1,0,0:0:0:0:
330,140,104880,1,0,0:0:0:0:
298,150,104974,22,0,P|272:149|238:128,1,49.9999976158143,0|0,2:0|0:0,0:0:0:0:
177,52,105349,2,0,P|183:75|199:95,1,49.9999976158143,0|0,2:3|0:0,0:0:0:0:
83,27,105724,2,0,P|110:116|142:142,1,99.9999952316285
224,174,106005,1,0,0:0:0:0:
257,189,106099,1,0,0:0:0:0:
120,243,106286,2,0,P|95:253|57:256,1,49.9999976158143,0|0,2:0|0:0,0:0:0:0:
120,243,106474,6,0,P|38:287|-2:282,1,99.9999952316285
83,149,106849,2,0,P|4:100|-12:63,1,99.9999952316285
176,112,107224,2,0,P|178:19|202:-13,1,99.9999952316285
305,24,107505,1,0,0:0:0:0:
336,27,107599,1,0,0:0:0:0:
234,127,107786,1,0,0:0:0:0:
363,142,107974,5,0,0:0:0:0:
275,247,108349,1,0,0:0:0:0:
414,245,108724,2,0,B|450:242|420:276|458:282|458:282|462:307,1,74.9999992847443
475,327,109005,1,0,0:0:0:0:
345,345,109099,2,0,B|344:335|344:335|306:326|338:294|302:294,1,74.9999992847443
222,239,109474,2,0,B|204:217|182:263|186:220|164:225|164:225|147:231,1,74.9999992847443
75,325,109849,2,0,B|85:321|85:321|107:316|103:359|125:313|143:335,1,74.9999992847443
258,297,110224,2,0,B|262:268|213:282|248:257|230:244|230:244|214:235,1,74.9999992847443
213,210,110505,2,0,B|190:215|200:237|171:234,1,37.4999996423721
104,322,110786,1,0,0:0:0:0:
79,207,110974,6,0,B|104:194|65:162|106:176|106:154|106:154|104:136,1,74.9999992847443
201,84,111349,2,0,B|205:93|205:93|211:115|168:114|216:133|195:152,1,74.9999992847443
84,102,111724,2,0,B|86:73|38:90|71:63|52:51|52:51|36:43,1,74.9999992847443
61,23,112005,1,0,0:0:0:0:
169,17,112099,2,0,B|179:18|179:18|201:25|177:60|218:31|223:59,1,74.9999992847443
339,96,112474,2,0,B|345:68|295:78|332:55|315:41|315:41|306:35,1,74.9999992847443
427,40,112849,2,0,B|437:41|437:41|459:48|435:83|476:54|481:82,1,74.9999992847443
390,154,113224,2,0,B|414:139|372:110|414:121|412:98|412:98|410:88,1,74.9999992847443,0|0,0:3|0:0,0:0:0:0:
429,65,113505,2,0,B|422:87|447:89|429:113,1,37.4999996423721
482,222,113786,1,0,0:0:0:0:
369,130,113974,6,0,B|353:80|353:80|313:107,1,99.9999952316285
231,177,114349,2,0,B|215:127|215:127|175:154,1,99.9999952316285
93,233,114724,2,0,B|77:183|77:183|37:210,1,99.9999952316285
163,149,115005,5,0,0:0:0:0:
188,134,115099,2,0,B|228:107|228:107|244:157,1,99.9999952316285
321,69,115474,2,0,B|361:42|361:42|377:92,1,99.9999952316285
277,169,115849,2,0,B|297:212|297:212|245:220,1,99.9999952316285
377,277,116224,2,0,B|397:320|397:320|345:328,1,99.9999952316285
321,317,116505,2,0,B|307:293|307:293|267:310,1,49.9999976158143
169,230,116786,5,0,0:0:0:0:
295,168,116974,2,0,B|293:115|293:115|228:140,1,119.999990615845
116,60,117349,2,0,B|117:112|117:112|188:87,1,119.999990615845
115,192,117724,2,0,B|116:244|116:244|187:219,1,119.999990615845
204,224,118005,2,0,B|233:238|233:238|219:272,1,59.9999953079226
320,155,118286,5,0,0:0:0:0:
219,63,118474,2,0,B|263:12|263:12|290:57,1,119.999990615845
296,192,118849,2,0,B|340:141|340:141|367:186,1,119.999990615845
378,318,119224,2,0,B|422:267|422:267|449:312,1,119.999990615845
295,267,119505,5,0,0:0:0:0:
201,157,119599,2,0,B|163:177|190:193|147:216|147:216|167:241|149:280,1,149.999998569489
163,347,119974,5,0,0:0:0:0:
197,170,131974,5,0,0:0:0:0:
323,158,132724,1,0,0:0:0:0:
197,170,133286,1,0,0:0:0:0:
161,171,133849,1,0,0:0:0:0:
323,158,134224,1,0,0:0:0:0:
234,248,134974,5,0,0:0:0:0:
323,158,135724,1,0,0:0:0:0:
234,248,136286,1,0,0:0:0:0:
208,272,136849,1,0,0:0:0:0:
323,158,137224,1,0,0:0:0:0:
312,284,137974,5,0,0:0:0:0:
323,158,138724,1,0,0:0:0:0:
312,284,139286,1,0,0:0:0:0:
308,319,139849,1,0,0:0:0:0:
323,158,140224,1,0,0:0:0:0:
396,262,140974,5,0,0:0:0:0:
323,158,141724,1,0,0:0:0:0:
396,262,142286,1,0,0:0:0:0:
415,291,142849,1,0,0:0:0:0:
384,249,143036,2,0,B|374:216|374:216|362:225|362:225|341:187,1,74.9999992847443
323,158,143224,1,0,0:0:0:0:
101,353,143974,6,0,L|130:306,1,49.9999976158143
100,144,144442,6,0,L|137:152,1,24.9999988079071
181,148,144536,2,0,L|217:143,1,24.9999988079071
68,243,144724,2,0,L|124:249,1,49.9999976158143
164,301,144911,2,0,L|225:294,1,49.9999976158143
242,236,145099,2,0,L|297:256,1,49.9999976158143
290,321,145286,2,0,L|348:301,1,49.9999976158143
467,132,145661,2,0,L|487:212,1,59.9999953079226
488,304,145942,2,0,L|437:316,1,29.9999976539613
403,286,146036,2,0,L|357:266,1,29.9999976539613
485,48,146409,6,0,B|486:50|482:45|457:29|457:29|412:40,1,59.9999953079226
405,89,146597,2,0,B|386:106|386:106|356:104|350:101|352:103,1,59.9999953079226
311,56,146784,2,0,B|312:58|308:53|283:37|283:37|238:48,1,59.9999953079226
237,98,146972,2,0,B|202:117|202:117|169:90,1,69.9999945259097
86,330,147442,6,0,P|124:342|136:333,1,34.9999972629548
159,307,147536,2,0,P|196:321|199:336,1,34.9999972629548
72,216,147724,2,0,P|124:199|154:228,1,69.9999945259097,0|0,2:0|2:0,2:0:0:0:
147,250,147911,2,0,P|186:254|213:233,1,69.9999945259097
216,191,148099,2,0,P|268:173|297:195,1,69.9999945259097
301,232,148286,2,0,L|357:245,1,49.9999976158143
406,80,148661,2,0,P|401:116|377:135,1,39.9999980926514
462,110,148755,2,0,P|476:96|483:78,1,39.9999980926514
473,31,148849,2,0,P|448:34|424:25,1,49.9999976158143
242,56,149224,2,0,P|287:47|336:76,1,79.9999961853028
141,115,149411,2,0,P|186:106|235:135,1,79.9999961853028
22,197,149599,2,0,B|94:77|152:347|265:97|249:188,1,239.999988555908
377,188,149974,6,0,L|388:139,2,49.9999976158143
395,305,150442,2,0,P|379:293|377:282,1,24.9999988079071
389,323,150536,2,0,P|369:320|361:312,1,24.9999988079071
293,384,150724,1,0,0:0:0:0:
235,303,150911,1,0,0:0:0:0:
225,203,151099,1,0,0:0:0:0:
166,115,151286,2,0,P|195:120|212:151,1,49.9999976158143
284,122,151474,5,0,0:0:0:0:
330,103,151567,1,0,0:0:0:0:
376,84,151661,2,0,P|411:94|437:116,1,49.9999976158143
451,120,151849,1,0,0:0:0:0:
451,169,151942,2,0,B|446:178|423:183|423:183|420:179,1,24.9999988079071
447,215,152036,2,0,B|449:225|412:247|412:247|430:242,1,49.9999976158143
360,285,152224,5,0,0:0:0:0:
309,251,152317,1,0,0:0:0:0:
258,221,152411,2,0,L|203:182,1,49.9999976158143
66,167,152599,2,0,P|64:127|116:91,1,79.9999961853028
113,29,152786,2,0,P|114:68|62:104,1,79.9999961853028
0,99,152974,5,0,0:0:0:0:
0,99,154474,1,0,0:0:0:0:
220,211,155597,2,0,P|245:244|243:160,1,239.999988555908
20,30,155972,6,0,L|33:77,1,42.4999987840653
126,40,156159,2,0,L|144:141,1,89.9999929618838
206,47,156347,2,0,L|230:184,1,94.9999929332736
287,55,156534,2,0,L|307:167,1,99.9999952316285
373,67,156722,1,0,0:0:0:0:
281,241,156909,1,0,0:0:0:0:
496,275,157097,1,0,0:0:0:0:
300,131,157284,6,0,L|351:145,1,42.4999987840653
84,86,157472,1,0,0:0:0:0:
155,100,157565,1,0,0:0:0:0:
225,114,157659,1,0,0:0:0:0:
77,358,157847,2,0,L|142:311,1,42.4999987840653
343,169,158034,1,0,0:0:0:0:
238,375,158222,1,0,0:0:0:0:
165,139,158409,1,0,0:0:0:0:
356,314,158597,2,0,L|324:287,6,42.4999987840653
471,353,158972,6,0,L|526:307,1,42.4999987840653,8|0,0:0|0:0,0:0:0:0:
411,281,159159,2,0,P|456:229|438:192,1,99.9999952316285
352,227,159347,2,0,P|365:156|325:132,1,104.999991788864
274,209,159534,2,0,P|245:150|191:146,1,109.999998111725
33,246,159722,1,0,0:0:0:0:
131,81,159909,1,0,0:0:0:0:
243,317,160097,1,0,0:0:0:0:
319,111,160284,6,0,L|390:93,1,42.4999987840653
117,183,160472,1,0,0:0:0:0:
184,163,160565,1,0,0:0:0:0:
249,139,160659,1,0,0:0:0:0:
314,116,160753,1,0,0:0:0:0:
382,92,160847,2,0,L|455:66,1,42.4999987840653
204,156,161034,1,0,0:0:0:0:
441,72,161222,1,0,0:0:0:0:
150,175,161409,1,0,0:0:0:0:
483,55,161597,1,0,0:0:0:0:
512,129,161690,1,0,0:0:0:0:
490,202,161784,1,0,0:0:0:0:
507,279,161878,1,0,0:0:0:0:
473,349,161972,6,0,P|440:383|392:363,1,84.9999975681305
378,229,162159,2,0,P|423:239|431:291,1,84.9999975681305,0|0,3:0|3:0,3:0:0:0:
324,373,162347,2,0,P|310:328|351:295,1,84.9999975681305,0|0,3:0|3:0,3:0:0:0:
421,166,162534,2,0,L|434:136,3,24.9999988079071
447,115,162722,1,0,0:0:0:0:
222,56,162909,1,0,0:0:0:0:
348,196,163097,1,0,0:0:0:0:
123,168,163284,2,0,P|99:192|103:199,1,49.9999976158143
64,51,163472,5,0,0:0:0:0:
71,116,163565,1,0,0:0:0:0:
38,171,163659,2,0,P|-8:178|-18:188,1,49.9999976158143
18,269,163847,2,0,P|107:265|140:230,1,99.9999952316285
188,145,164034,1,0,0:0:0:0:
12,89,164222,1,0,0:0:0:0:
168,212,164409,1,0,0:0:0:0:
198,15,164597,2,0,L|239:31,3,24.9999988079071
259,41,164784,2,0,L|278:78,3,24.9999988079071
281,118,164972,6,0,P|338:147|374:107,1,99.9999952316285
394,0,165159,2,0,P|339:35|356:86,1,99.9999952316285
436,159,165347,2,0,P|433:94|379:83,1,99.9999952316285
201,91,165534,2,0,L|184:120,3,24.9999988079071
188,145,165722,1,0,0:0:0:0:
220,290,165909,1,0,0:0:0:0:
366,257,166097,1,0,0:0:0:0:
334,112,166284,5,0,0:0:0:0:
306,70,166377,1,0,0:0:0:0:
265,41,166471,1,0,0:0:0:0:
218,27,166565,1,0,0:0:0:0:
168,30,166659,1,0,0:0:0:0:
122,50,166752,1,0,0:0:0:0:
86,84,166847,2,0,L|91:139,1,49.9999976158143
109,274,167034,5,0,0:0:0:0:
147,306,167128,1,0,0:0:0:0:
191,315,167222,1,0,0:0:0:0:
373,182,167409,1,0,0:0:0:0:
185,241,167597,1,0,0:0:0:0:
471,365,167972,6,0,P|522:311|505:239,1,119.999994277954
459,33,168440,2,0,L|419:40,1,39.9999980926514
396,69,168534,2,0,L|359:84,1,39.9999980926514
335,119,168675,2,0,B|367:40|257:-71|54:93|333:179|209:313,1,439.999979019165,0|0,0:0|0:0,3:0:0:0:
164,202,169284,6,0,L|155:242,1,24.9999988079071
2,373,169659,2,0,P|46:348|74:307,1,79.9999961853028,0|0,3:0|0:0,0:0:0:0:
203,67,169940,2,0,L|163:71,1,39.9999980926514
146,107,170034,2,0,L|108:121,1,39.9999980926514
106,256,170409,2,0,L|131:310,1,59.9999953079226
205,311,170597,2,0,L|176:242,1,59.9999953079226
236,212,170784,2,0,L|262:273,1,59.9999953079226
292,324,170972,2,0,P|366:314|403:242,1,159.999992370606
190,43,171440,6,0,L|229:47,1,39.9999980926514
247,83,171534,2,0,L|284:97,1,39.9999980926514
357,137,171722,2,0,B|422:86|542:188|381:342|292:145|200:315,1,399.999980926514
122,276,172284,2,0,L|131:228,1,39.9999980926514,0|0,0:3|0:3,0:0:0:0:
308,352,172659,2,0,L|319:393,1,39.9999980926514
347,332,172753,2,0,L|391:360,1,39.9999980926514
368,291,172847,2,0,P|438:317|505:293,1,119.999994277954
106,267,173222,2,0,L|186:275,1,79.9999961853028
127,197,173409,2,0,L|210:206,1,79.9999961853028
149,130,173597,2,0,L|397:156,1,239.999988555908
402,321,173972,6,0,P|351:321|376:245,1,149.999998569489
392,87,174440,1,0,0:0:0:0:
320,93,174534,2,0,P|412:101|428:127,1,74.9999992847443
352,205,174722,2,0,P|397:113|243:193,1,399.999980926514
74,236,175284,6,0,B|73:301|102:329|102:329|74:315|30:347,1,149.999998569489
112,177,175659,2,0,P|85:196|75:245,1,74.9999992847443
151,261,175847,1,0,0:0:0:0:
270,311,175940,1,0,0:0:0:0:
316,306,176034,2,0,P|344:283|354:247,1,74.9999992847443
421,159,176222,1,0,0:0:0:0:
430,122,176409,2,0,L|417:170,1,37.4999996423721
443,338,176597,6,0,P|495:281|491:270,1,74.9999992847443
493,229,176784,2,0,P|482:305|471:309,1,74.9999992847443
376,380,176972,2,0,B|391:337|391:337|407:330|434:345|481:351|495:297|495:297|510:294,1,149.999998569489
512,143,177440,5,0,0:0:0:0:
485,79,177534,2,0,P|507:101|503:162,1,74.9999992847443
480,256,177722,2,0,B|469:177|511:137|511:137|470:134|460:110|460:110|443:148|393:159|393:159|334:133|343:62|343:62|402:78|457:17,1,499.999976158143
476,5,178284,5,0,0:0:0:0:
416,5,178377,1,0,0:0:0:0:
356,13,178471,1,0,0:0:0:0:
298,26,178565,1,0,0:0:0:0:
243,52,178659,2,0,L|190:104,1,59.9999953079226
130,193,178847,1,0,0:0:0:0:
91,265,178940,1,0,0:0:0:0:
123,338,179034,1,0,0:0:0:0:
292,271,179222,1,0,0:0:0:0:
165,263,179409,1,0,0:0:0:0:
362,280,179597,1,0,0:0:0:0:
18,46,179972,6,0,P|97:39|129:58,1,109.999998111725
112,134,180534,2,0,L|141:103,1,29.9999976539613
133,129,180628,2,0,L|166:157,1,29.9999976539613
154,122,180722,1,0,0:0:0:0:
242,295,180909,1,0,0:0:0:0:
187,191,181097,1,0,0:0:0:0:
284,365,181284,6,0,P|340:367|363:350,1,82.4999985837937
426,311,181659,1,0,0:0:0:0:
383,169,181847,1,0,0:0:0:0:
234,114,182034,1,0,0:0:0:0:
512,243,182222,1,0,0:0:0:0:
279,291,182409,1,0,0:0:0:0:
333,77,182597,2,0,L|357:24,1,34.9999972629548
353,92,182690,2,0,L|365:139,1,34.9999972629548
376,80,182784,2,0,L|417:35,1,34.9999972629548
395,98,182878,2,0,L|447:139,1,34.9999972629548
421,93,182972,6,0,P|481:115|509:158,1,109.999998111725
454,236,183534,2,0,L|430:269,1,34.9999972629548
429,228,183628,2,0,L|398:184,1,34.9999972629548
407,241,183722,1,0,0:0:0:0:
196,324,183909,1,0,0:0:0:0:
324,277,184097,1,0,0:0:0:0:
64,370,184284,6,0,P|32:318|27:286,1,82.4999985837937
53,226,184659,1,0,0:0:0:0:
199,92,184847,1,0,0:0:0:0:
341,230,185034,1,0,0:0:0:0:
202,366,185222,1,0,0:0:0:0:
92,142,185409,1,0,0:0:0:0:
249,251,185597,2,0,L|291:250,1,39.9999980926514
288,224,185690,2,0,L|345:226,1,39.9999980926514
371,224,185784,2,0,L|429:224,1,39.9999980926514
402,202,185878,2,0,L|454:201,1,39.9999980926514
494,162,185972,6,0,P|475:104|459:117,1,109.999998111725
232,124,186534,2,0,L|202:151,3,29.9999976539613
204,176,186722,1,0,0:0:0:0:
266,332,186909,1,0,0:0:0:0:
316,213,187097,1,0,0:0:0:0:
65,287,187284,2,0,B|29:250|28:238,1,54.9999990558624
81,75,187659,5,0,0:0:0:0:
204,176,187847,1,0,0:0:0:0:
151,311,188034,1,0,0:0:0:0:
228,120,188222,1,0,0:0:0:0:
354,279,188409,2,0,P|336:286|321:286,1,27.4999995279312
151,311,188597,2,0,L|123:298,3,29.9999976539613
166,272,188784,2,0,L|138:259,3,24.9999988079071
182,226,188972,6,0,P|138:208|86:159,1,109.999998111725
256,68,189534,2,0,L|285:81,3,29.9999976539613
324,96,189722,1,0,0:0:0:0:
431,240,189909,1,0,0:0:0:0:
502,75,190097,1,0,0:0:0:0:
356,158,190284,2,0,B|313:176|325:197|325:197|302:192|320:219|320:219|286:227|311:254,1,142.49998939991
308,384,190659,5,0,0:0:0:0:
137,295,190847,2,0,L|242:309,1,94.9999929332736
431,317,191222,1,0,0:0:0:0:
252,246,191409,1,0,0:0:0:0:
431,257,191597,1,0,0:0:0:0:
170,245,191972,5,0,0:0:0:0:
225,41,192159,1,0,0:0:0:0:
446,92,192347,1,0,0:0:0:0:
392,296,192534,1,0,0:0:0:0:
204,167,192722,2,0,B|262:140|262:140|251:214|251:214|332:141|332:141|351:253,1,314.999975366593
382,271,193097,2,0,P|422:294|370:286,1,144.99999751091,0|0,3:0|3:0,3:0:0:0:
300,272,193284,6,0,P|227:241|169:328,1,179.999985923768
220,346,193659,2,0,L|253:351,1,29.9999976539613
282,144,193847,2,0,L|317:152,1,29.9999976539613
348,339,194034,2,0,L|384:349,1,29.9999976539613
403,114,194222,2,0,L|443:129,1,29.9999976539613
470,323,194409,1,0,0:0:0:0:
488,245,194503,1,0,0:0:0:0:
507,167,194597,1,0,0:0:0:0:
456,39,194784,1,0,0:0:0:0:
301,67,194972,6,0,L|236:88,1,59.9999953079226
182,115,195159,1,0,0:0:0:0:
142,173,195253,1,0,0:0:0:0:
141,243,195347,1,0,0:0:0:0:
275,284,195534,1,0,3:0:0:0:
316,229,195628,1,0,3:0:0:0:
328,163,195722,2,0,L|289:133,1,29.9999976539613,0|0,3:0|3:0,3:0:0:0:
101,31,195909,2,0,L|122:75,1,29.9999976539613
218,285,196097,2,0,L|175:248,1,29.9999976539613
0,93,196284,6,0,P|-5:194|69:257,1,179.999985923768
232,313,196659,2,0,L|220:275,1,29.9999976539613
182,107,196847,2,0,L|193:151,1,29.9999976539613
159,349,197034,2,0,L|147:307,1,29.9999976539613
92,85,197222,2,0,L|92:138,1,29.9999976539613
86,284,197409,1,0,0:0:0:0:
152,264,197503,1,0,0:0:0:0:
209,222,197597,2,0,L|222:170,1,29.9999976539613
261,82,197784,1,0,0:0:0:0:
96,26,197972,5,0,0:0:0:0:
269,25,198159,1,0,0:0:0:0:
326,65,198253,1,0,0:0:0:0:
351,131,198347,1,0,0:0:0:0:
482,82,198534,1,0,0:0:0:0:
425,122,198628,1,0,0:0:0:0:
400,188,198722,5,0,0:0:0:0:
278,112,198909,1,0,0:0:0:0:
258,264,199097,1,0,0:0:0:0:
351,131,199284,5,0,0:0:0:0:
198,120,199472,1,0,0:0:0:0:
130,132,199565,1,0,0:0:0:0:
61,147,199659,1,0,0:0:0:0:
17,299,199847,2,0,L|150:277,1,119.999990615845
257,176,200222,1,0,0:0:0:0:
376,282,200409,1,0,0:0:0:0:
443,295,200503,1,0,0:0:0:0:
509,304,200597,2,0,L|504:271,3,29.9999976539613
490,252,200784,2,0,L|487:223,3,24.9999988079071
467,192,200972,5,0,0:0:0:0:
376,282,201159,1,0,0:0:0:0:
312,311,201253,1,0,0:0:0:0:
243,300,201347,1,0,0:0:0:0:
76,299,201534,1,0,0:0:0:0:
128,347,201628,1,0,0:0:0:0:
196,357,201722,5,0,0:0:0:0:
308,189,201909,1,0,0:0:0:0:
97,171,202097,1,0,0:0:0:0:
260,285,202284,2,0,P|247:245|234:215,1,59.9999953079226
186,88,202472,1,0,0:0:0:0:
134,40,202566,1,0,0:0:0:0:
72,32,202659,2,0,P|25:43|12:64,1,59.9999953079226
14,142,202847,6,0,L|-6:152,3,14.9999988269806
144,142,203034,2,0,L|157:135,3,14.9999988269806
79,310,203222,1,0,0:0:0:0:
214,201,203409,1,0,0:0:0:0:
265,153,203503,1,0,0:0:0:0:
314,105,203597,2,0,L|350:119,1,29.9999976539613
337,86,203690,2,0,L|342:124,1,29.9999976539613
371,98,203784,2,0,L|340:122,1,29.9999976539613
375,127,203877,2,0,L|339:113,1,29.9999976539613
352,150,203972,1,0,0:0:0:0:
256,192,204065,12,0,205472,0:0:0:0:
281,125,205565,5,0,0:0:0:0:
256,192,205659,12,0,207253,0:0:0:0:
198,142,207347,5,0,0:0:0:0:
256,192,207440,12,0,208565,0:0:0:0:
209,202,208659,6,0,L|218:136,1,49.9999976158143
256,192,208847,12,0,210815,0:0:0:0:
265,238,210909,5,0,0:0:0:0:
256,192,211003,12,0,212503,0:0:0:0:
320,194,212597,5,0,0:0:0:0:
256,192,212690,12,0,214565,0:0:0:0:
306,145,214659,5,0,0:0:0:0:
256,192,214753,12,0,216628,0:0:0:0:
271,165,216722,5,0,0:0:0:0:
256,192,216815,12,0,222065,0:0:0:0:
256,192,222159,5,0,0:0:0:0:
