osu file format v14

[General]
AudioFilename: audio.mp3
AudioLeadIn: 0
PreviewTime: 142297
Countdown: 0
SampleSet: Soft
StackLeniency: 0.7
Mode: 2
LetterboxInBreaks: 0
WidescreenStoryboard: 1

[Editor]
Bookmarks: 98754,142640,165954,188412
DistanceSpacing: 0.8
BeatDivisor: 4
GridSize: 16
TimelineZoom: 1.7

[Metadata]
Title:Aurora
TitleUnicode:Aurora
Artist:Synthion
ArtistUnicode:Synthion
Creator:wonjae
Version:Overdose
Source:
Tags:future bass drum and n dnb paranoid grapes electronic english instrumental sadegg syamu fairy tale
BeatmapID:2707756
BeatmapSetID:1290796

[Difficulty]
HPDrainRate:6
CircleSize:4.3
OverallDifficulty:9.2
ApproachRate:9.2
SliderMultiplier:1.92
SliderTickRate:2

[Events]
//Background and Video events
0,0,"color me just like an aurora.jpg",0,0
//Break Periods
2,71526,75727
2,120897,125613
2,166154,176356
//Storyboard Layer 0 (Background)
//Storyboard Layer 1 (Fail)
//Storyboard Layer 2 (Pass)
//Storyboard Layer 3 (Foreground)
//Storyboard Layer 4 (Overlay)
//Storyboard Sound Samples

[TimingPoints]
12,342.857142857143,4,2,1,70,1,0
10983,-100,4,2,1,50,0,0
32926,-100,4,2,1,60,0,0
38412,-100,4,2,1,70,0,0
43554,-66.6666666666667,4,2,1,70,0,0
43897,-100,4,2,1,70,0,0
46640,-100,4,2,1,80,0,0
66183,-100,4,2,1,60,0,0
67212,-100,4,2,1,50,0,0
68583,-100,4,2,1,40,0,0
69954,-100,4,2,1,30,0,0
71326,-100,4,2,1,20,0,0
76812,-100,4,2,1,50,0,0
96012,-100,4,2,1,60,0,0
98754,-100,4,2,1,75,0,0
121040,-100,4,2,1,50,0,0
122069,-100,4,2,1,40,0,0
123440,-100,4,2,1,30,0,0
124812,-100,4,2,1,25,0,0
126183,-100,4,2,1,20,0,0
131326,-100,4,2,1,50,0,0
131669,-100,4,2,1,60,0,0
141269,-66.6666666666667,4,2,1,70,0,0
142640,-90.9090909090909,4,2,1,80,0,1
165954,-90.9090909090909,4,2,1,45,0,0
176926,-100,4,2,1,45,0,0

[Colours]
Combo1 : 197,85,234
Combo2 : 176,98,255
Combo3 : 89,255,255
Combo4 : 51,153,255
Combo5 : 111,111,255
Combo6 : 0,83,236

[HitObjects]
395,102,10983,6,0,L|163:102,1,192,2|0,3:2|3:1,0:0:0:0:
376,180,11669,1,8,3:2:0:0:
207,265,12012,2,0,L|99:279,2,96,0|0|2,3:1|0:0|3:2,0:0:0:0:
312,143,12697,5,0,3:1:0:0:
270,58,12869,1,0,3:1:0:0:
188,31,13040,2,0,L|179:147,1,96,8|0,3:2|0:0,0:0:0:0:
270,154,13383,1,0,3:1:0:0:
111,267,13726,6,0,L|316:233,1,192,2|0,3:2|3:1,0:0:0:0:
154,158,14412,1,8,3:2:0:0:
321,133,14754,2,0,L|420:146,2,96,0|0|2,3:1|0:0|3:2,0:0:0:0:
204,226,15440,5,0,3:1:0:0:
237,321,15612,1,0,0:0:0:0:
345,333,15783,2,0,L|353:222,1,96,8|0,3:2|3:1,0:0:0:0:
247,176,16126,1,0,3:1:0:0:
89,105,16469,6,0,L|305:95,1,192,2|0,3:2|3:1,0:0:0:0:
96,44,17154,1,8,3:2:0:0:
263,50,17497,2,0,L|285:276,1,192,0|2,3:1|3:2,0:0:0:0:
197,270,18012,5,0,3:1:0:0:
124,276,18183,2,0,L|215:231,1,96,0|0,3:1|0:0,0:0:0:0:
293,181,18526,2,0,L|326:70,2,96,8|0|0,3:2|3:1|3:1,0:0:0:0:
89,268,19212,6,0,L|286:250,1,192,2|0,3:2|3:1,0:0:0:0:
274,207,19726,1,0,3:1:0:0:
179,204,19897,2,0,L|172:86,1,96,10|2,3:2|3:2,0:0:0:0:
253,81,20154,1,0,0:0:0:0:
260,34,20240,1,2,3:2:0:0:
383,166,20754,6,0,L|483:169,2,96,2|2|2,0:0|0:0|0:0,0:0:0:0:
190,299,21269,1,2,0:0:0:0:
177,252,21354,1,0,0:0:0:0:
179,204,21440,1,0,0:0:0:0:
194,159,21526,1,0,0:0:0:0:
222,120,21611,1,2,0:0:0:0:
259,90,21697,1,0,0:0:0:0:
304,73,21783,1,0,0:0:0:0:
351,69,21869,1,0,0:0:0:0:
131,58,21954,5,12,3:1:0:0:
346,141,23326,1,0,0:0:0:0:
130,220,24697,5,0,0:0:0:0:
374,261,26069,1,0,0:0:0:0:
246,290,26754,1,0,0:0:0:0:
107,315,27440,5,0,0:0:0:0:
337,318,28812,1,0,0:0:0:0:
121,256,30183,5,0,0:0:0:0:
259,203,30869,1,0,0:0:0:0:
432,147,31554,5,0,0:0:0:0:
207,82,32240,1,0,0:0:0:0:
413,150,32583,2,0,L|431:227,2,48,2|2|2,0:0|0:0|0:0,0:0:0:0:
349,142,32840,1,2,0:0:0:0:
153,163,32926,6,0,P|84:232|148:285,1,192,12|8,3:1|3:2,0:0:0:0:
224,297,33440,1,2,3:0:0:0:
387,294,33612,2,0,L|381:166,1,96,2|2,0:0|3:0,0:0:0:0:
227,166,33954,2,0,L|386:160,1,144,8|0,3:2|0:0,0:0:0:0:
256,159,34297,6,0,L|54:159,1,192,2|8,0:0|3:2,0:0:0:0:
69,89,34812,1,2,3:0:0:0:
223,85,34983,2,0,L|220:205,1,96,2|2,0:0|3:0,0:0:0:0:
58,234,35326,2,0,L|228:245,1,144,8|0,3:2|0:0,0:0:0:0:
327,283,35669,6,0,L|328:75,1,192,2|8,0:0|3:2,0:0:0:0:
223,85,36183,1,2,3:0:0:0:
387,60,36354,2,0,P|384:148|280:181,1,192,2|8,0:0|3:2,0:0:0:0:
280,186,37040,6,0,L|489:181,1,192,2|8,0:0|3:2,0:0:0:0:
471,181,37554,1,2,3:0:0:0:
313,175,37726,2,0,L|310:63,1,96,2|2,0:0|3:0,0:0:0:0:
474,28,38069,2,0,L|324:33,1,144,8|0,3:2|0:0,0:0:0:0:
147,105,38412,6,0,L|134:210,1,96,8|0,3:1|0:0,0:0:0:0:
296,210,38754,2,0,L|314:305,1,96,8|2,3:2|3:0,0:0:0:0:
475,194,39097,2,0,L|458:68,1,96,8|2,3:1|3:0,0:0:0:0:
301,128,39440,2,0,L|311:-4,1,96,8|0,3:2|0:0,0:0:0:0:
148,33,39783,6,0,L|126:230,1,192,8|8,3:1|3:2,0:0:0:0:
27,245,40297,1,2,3:0:0:0:
194,290,40469,2,0,L|306:315,1,96,8|2,3:1|3:0,0:0:0:0:
126,318,40812,2,0,L|23:343,1,96,8|0,3:2|0:0,0:0:0:0:
298,229,41154,6,0,L|424:217,3,96,8|0|8|2,3:1|0:0|3:2|3:0,0:0:0:0:
229,182,41840,1,8,3:1:0:0:
154,188,41926,1,0,0:0:0:0:
106,221,42012,1,2,3:0:0:0:
81,267,42097,1,0,0:0:0:0:
82,325,42183,1,8,3:2:0:0:
111,362,42269,1,0,0:0:0:0:
165,369,42354,1,0,0:0:0:0:
227,367,42440,1,0,0:0:0:0:
442,167,42526,5,8,3:1:0:0:
463,199,42611,1,0,0:0:0:0:
448,247,42697,1,0,0:0:0:0:
409,257,42783,1,0,0:0:0:0:
335,262,42869,1,2,3:2:0:0:
290,270,42954,1,0,0:0:0:0:
290,270,43040,1,0,0:0:0:0:
335,262,43126,1,0,0:0:0:0:
427,133,43212,5,2,3:2:0:0:
486,117,43297,1,0,0:0:0:0:
468,58,43383,1,0,0:0:0:0:
385,50,43469,1,0,0:0:0:0:
182,82,43554,2,0,P|116:123|197:208,1,216.000008239746,12|0,0:0|0:0,0:0:0:0:
426,225,43897,6,0,L|432:106,1,96,8|0,3:1|0:0,0:0:0:0:
267,169,44240,1,8,0:0:0:0:
220,174,44326,1,2,0:0:0:0:
319,228,44412,1,2,3:2:0:0:
362,235,44497,1,0,0:0:0:0:
266,241,44583,2,0,L|127:240,1,96,2|2,3:2|0:0,0:0:0:0:
220,236,44840,2,0,L|334:238,1,96,2|0,0:0|0:0,0:0:0:0:
260,195,45097,2,0,L|203:192,1,48,2|0,3:2|0:0,0:0:0:0:
437,169,45269,6,0,L|446:37,1,96,8|0,3:1|0:0,0:0:0:0:
281,46,45612,1,8,0:0:0:0:
304,43,45654,1,0,0:0:0:0:
328,48,45697,1,2,0:0:0:0:
348,60,45740,1,0,0:0:0:0:
364,78,45783,1,2,3:2:0:0:
374,100,45826,1,0,0:0:0:0:
376,124,45869,1,0,0:0:0:0:
140,170,45954,6,0,L|24:189,1,96,8|0,3:1|0:0,0:0:0:0:
144,234,46212,2,0,L|265:278,1,96,8|0,3:1|0:0,0:0:0:0:
135,304,46469,2,0,L|85:315,1,48,8|0,3:1|0:0,0:0:0:0:
273,343,46640,6,0,L|411:347,1,96,8|2,3:1|3:2,0:0:0:0:
142,254,46983,2,0,L|136:130,1,96,8|2,0:2|3:2,0:0:0:0:
382,69,47326,2,0,L|441:60,2,48,8|0|0,3:1|0:0|0:0,0:0:0:0:
291,134,47583,2,0,L|226:132,2,48,8|8|0,3:1|0:0|0:0,0:0:0:0:
471,83,47840,1,8,3:1:0:0:
475,38,47926,1,0,0:0:0:0:
305,26,48012,6,0,L|82:31,1,192,8|8,3:1|0:0,0:0:0:0:
255,72,48526,2,0,L|302:72,1,48,8|0,3:1|0:0,0:0:0:0:
109,246,48697,2,0,L|0:245,1,96,8|0,3:1|0:0,0:0:0:0:
176,302,48954,2,0,L|305:284,1,96,8|0,3:1|0:0,0:0:0:0:
182,261,49212,2,0,L|108:264,1,48,8|0,3:1|0:0,0:0:0:0:
367,185,49383,6,0,L|381:72,1,96,8|0,3:1|0:0,0:0:0:0:
135,64,49726,2,0,L|69:71,2,48,8|2|2,0:0|3:2|3:2,0:0:0:0:
379,90,50069,2,0,L|486:108,1,96,8|0,3:1|0:0,0:0:0:0:
284,158,50326,2,0,L|266:256,1,96,2|0,3:2|0:0,0:0:0:0:
354,276,50583,2,0,L|421:296,1,48,2|0,3:2|0:0,0:0:0:0:
188,307,50754,6,0,P|125:275|144:218,1,96,8|0,3:1|0:0,0:0:0:0:
271,209,51097,1,8,0:0:0:0:
293,201,51139,1,0,0:0:0:0:
314,188,51182,1,2,3:2:0:0:
331,172,51225,1,0,0:0:0:0:
343,151,51268,1,2,3:2:0:0:
351,129,51311,1,0,0:0:0:0:
353,105,51354,1,2,3:2:0:0:
165,82,51440,2,0,L|34:82,1,96,8|0,3:1|0:0,0:0:0:0:
234,160,51697,2,0,P|276:224|247:258,1,96,8|0,3:1|0:0,0:0:0:0:
186,247,51954,2,0,L|114:251,1,48,8|0,3:1|0:0,0:0:0:0:
308,336,52126,6,0,L|445:337,1,96,8|2,3:1|3:2,0:0:0:0:
148,225,52469,2,0,L|142:95,1,96,8|2,0:2|3:2,0:0:0:0:
385,72,52812,2,0,L|460:61,2,48,8|0|0,3:1|0:0|0:0,0:0:0:0:
284,119,53069,2,0,L|209:108,2,48,8|8|0,3:1|0:0|0:0,0:0:0:0:
447,228,53326,2,0,L|458:296,1,48,8|0,3:1|0:0,0:0:0:0:
261,330,53497,6,0,L|152:326,1,96,8|2,3:1|3:2,0:0:0:0:
87,137,53840,2,0,L|190:135,1,96,8|2,0:0|3:2,0:0:0:0:
437,153,54183,2,0,L|455:86,2,48,8|2|2,3:1|3:2|3:2,0:0:0:0:
379,157,54440,1,2,3:2:0:0:
201,141,54526,1,8,0:0:0:0:
137,155,54612,1,2,0:2:0:0:
137,155,54697,1,2,0:2:0:0:
201,141,54783,1,0,0:0:0:0:
408,205,54869,6,0,L|523:200,1,96,12|0,3:1|0:0,0:0:0:0:
222,265,55212,1,8,0:0:0:0:
175,291,55297,1,2,0:0:0:0:
124,310,55383,1,2,3:2:0:0:
363,319,55554,2,0,L|467:312,1,96,8|0,3:1|0:0,0:0:0:0:
301,257,55812,2,0,L|303:141,1,96,2|0,0:0|0:0,0:0:0:0:
391,142,56069,2,0,L|457:138,1,48,2|0,3:2|0:0,0:0:0:0:
236,92,56240,6,0,L|102:92,1,96,8|0,3:1|0:0,0:0:0:0:
298,151,56583,1,8,0:0:0:0:
300,174,56625,1,0,0:0:0:0:
293,197,56668,1,2,0:0:0:0:
279,217,56711,1,0,0:0:0:0:
259,230,56754,1,2,3:2:0:0:
236,235,56797,1,0,0:0:0:0:
209,234,56840,1,0,0:0:0:0:
388,306,56926,2,0,L|504:313,1,96,8|0,3:1|0:0,0:0:0:0:
302,299,57183,2,0,L|272:196,1,96,8|0,3:1|0:0,0:0:0:0:
356,190,57440,2,0,L|367:121,1,48,8|0,3:1|0:0,0:0:0:0:
213,51,57612,6,0,L|88:57,1,96,8|2,3:1|3:2,0:0:0:0:
373,70,57954,2,0,L|376:191,1,96,8|2,0:2|3:2,0:0:0:0:
127,247,58297,2,0,L|62:275,2,48,8|0|0,3:1|0:0|0:0,0:0:0:0:
234,282,58554,2,0,L|309:270,2,48,8|8|0,3:1|0:0|0:0,0:0:0:0:
75,280,58812,2,0,L|70:327,1,48,8|0,3:1|0:0,0:0:0:0:
300,334,58983,6,0,L|380:331,1,48,8|0,3:1|0:0,0:0:0:0:
405,313,59154,2,0,L|403:194,1,96,0|8,0:0|0:0,0:0:0:0:
170,153,59497,1,8,3:1:0:0:
425,110,59669,2,0,P|430:63|414:12,1,96,8|2,3:1|3:2,0:0:0:0:
209,133,59926,2,0,L|106:156,1,96,8|0,3:1|0:0,0:0:0:0:
203,186,60183,2,0,L|277:207,1,48,8|0,3:1|0:0,0:0:0:0:
447,343,60354,6,0,L|452:217,1,96,8|0,3:1|0:0,0:0:0:0:
172,181,60697,2,0,L|104:173,1,48,8|2,0:0|3:2,0:0:0:0:
172,181,60869,1,2,3:2:0:0:
423,199,61040,2,0,L|441:85,1,96,8|0,3:1|0:0,0:0:0:0:
257,61,61297,2,0,L|153:55,1,96,2|0,3:2|0:0,0:0:0:0:
251,44,61554,2,0,L|309:45,1,48,2|0,3:2|0:0,0:0:0:0:
129,70,61726,6,0,L|118:192,1,96,8|0,3:1|0:0,0:0:0:0:
280,219,62069,1,8,0:0:0:0:
277,242,62111,1,0,0:0:0:0:
266,264,62154,1,2,3:2:0:0:
250,281,62197,1,0,0:0:0:0:
228,292,62240,1,2,3:2:0:0:
205,295,62283,1,0,0:0:0:0:
181,291,62326,1,2,3:2:0:0:
380,316,62412,2,0,L|491:319,1,96,8|0,3:1|0:0,0:0:0:0:
274,200,62669,2,0,L|173:197,1,96,8|0,3:1|0:0,0:0:0:0:
258,173,62926,2,0,L|318:172,1,48,8|0,3:1|0:0,0:0:0:0:
109,69,63097,6,0,L|106:198,1,96,8|2,3:1|3:2,0:0:0:0:
392,248,63440,2,0,L|284:247,1,96,8|2,0:2|3:2,0:0:0:0:
52,320,63783,2,0,L|177:323,1,96,8|0,3:1|0:0,0:0:0:0:
435,231,64126,2,0,L|437:128,1,96,8|8,0:0|3:1,0:0:0:0:
199,51,64469,5,8,3:1:0:0:
140,60,64554,1,2,0:0:0:0:
99,118,64640,1,2,3:2:0:0:
99,180,64726,1,2,0:0:0:0:
131,240,64812,1,8,0:0:0:0:
189,262,64897,1,2,0:0:0:0:
375,302,64983,1,2,3:2:0:0:
379,282,65069,1,2,0:0:0:0:
209,169,65154,1,8,3:1:0:0:
178,114,65240,1,2,3:2:0:0:
360,101,65326,1,2,3:2:0:0:
402,78,65412,1,2,3:2:0:0:
177,42,65497,5,10,0:0:0:0:
420,58,65840,1,6,0:0:0:0:
256,192,66183,12,0,71326,0:0:0:0:
382,317,76297,6,0,L|384:105,1,192,0|0,0:0|0:0,0:0:0:0:
128,112,76812,6,0,P|62:166|127:223,1,192,2|0,3:2|3:1,0:0:0:0:
253,222,77497,1,8,3:2:0:0:
490,254,77840,2,0,L|270:262,1,192,0|0,3:1|0:0,0:0:0:0:
401,201,78526,1,0,3:1:0:0:
142,73,78869,1,8,3:2:0:0:
68,92,79040,1,0,0:0:0:0:
38,164,79212,1,0,3:1:0:0:
62,226,79383,1,0,0:0:0:0:
132,253,79554,6,0,L|351:257,1,192,2|0,3:2|3:1,0:0:0:0:
257,292,80069,1,0,0:0:0:0:
185,328,80240,1,8,3:2:0:0:
452,262,80583,2,0,L|455:64,1,192,0|2,3:1|3:2,0:0:0:0:
308,49,81269,1,0,3:1:0:0:
51,70,81612,2,0,P|53:163|159:184,1,192,8|0,3:2|3:1,0:0:0:0:
419,295,82297,6,0,L|210:295,1,192,2|0,3:2|3:1,0:0:0:0:
345,241,82983,1,8,3:2:0:0:
96,226,83326,2,0,P|35:155|124:119,1,192,0|0,3:1|0:0,0:0:0:0:
239,104,84012,1,0,3:1:0:0:
473,85,84354,1,8,3:2:0:0:
477,133,84526,1,0,3:1:0:0:
445,193,84697,1,0,3:1:0:0:
378,219,84869,1,0,3:1:0:0:
302,144,85040,6,0,L|300:343,1,192,2|0,3:2|3:1,0:0:0:0:
147,337,85726,1,10,3:2:0:0:
255,291,85897,2,0,L|327:283,2,48,2|0|2,3:2|0:0|3:2,0:0:0:0:
71,241,86240,2,0,L|64:136,1,96,0|0,0:0|0:0,0:0:0:0:
227,91,86754,5,2,0:0:0:0:
309,95,86926,1,2,0:0:0:0:
218,130,87097,1,10,0:0:0:0:
181,195,87269,1,2,0:0:0:0:
201,274,87440,1,2,0:0:0:0:
302,312,87612,1,0,0:0:0:0:
39,286,87783,6,0,L|35:70,1,192,2|0,3:2|3:1,0:0:0:0:
169,76,88469,1,8,3:2:0:0:
436,220,88812,2,0,L|201:227,1,192,0|0,3:1|0:0,0:0:0:0:
164,225,89326,1,0,0:0:0:0:
244,225,89497,1,0,3:1:0:0:
399,193,89840,1,8,3:2:0:0:
412,123,90012,1,0,3:1:0:0:
395,55,90183,1,0,3:1:0:0:
319,30,90354,1,0,0:0:0:0:
236,29,90526,6,0,P|184:132|254:188,1,192,2|0,3:2|3:1,0:0:0:0:
377,213,91212,1,8,3:2:0:0:
106,285,91554,2,0,L|100:149,1,96,0|0,3:1|3:1,0:0:0:0:
271,176,91897,2,0,L|275:41,1,96,2|0,3:2|3:1,0:0:0:0:
367,144,92240,2,0,L|379:26,1,96,0|0,3:1|0:0,0:0:0:0:
450,129,92583,2,0,L|492:15,1,96,8|0,3:2|3:1,0:0:0:0:
415,35,92926,2,0,L|293:43,1,96,0|0,3:1|3:1,0:0:0:0:
144,58,93269,6,0,P|22:163|175:266,1,384,2|0,3:2|0:0,0:0:0:0:
441,299,94297,2,0,P|256:305|469:42,1,768,0|0,3:1|0:0,0:0:0:0:
21,44,96012,5,10,3:2:0:0:
256,192,96183,12,0,97040,0:0:0:0:
277,246,97383,5,10,3:2:0:0:
220,215,97469,1,0,0:0:0:0:
220,176,97554,1,2,3:2:0:0:
278,143,97640,1,0,0:0:0:0:
378,134,97726,1,8,0:0:0:0:
440,111,97812,1,0,0:0:0:0:
423,53,97897,1,2,3:2:0:0:
348,39,97983,1,0,0:0:0:0:
187,56,98069,1,10,3:2:0:0:
132,81,98154,1,2,3:2:0:0:
311,176,98240,1,2,3:2:0:0:
364,215,98326,1,2,3:2:0:0:
131,256,98412,2,0,P|85:304|141:352,1,144,10|0,3:2|0:0,0:0:0:0:
341,347,98754,6,0,L|130:362,1,192,12|8,0:1|3:2,0:0:0:0:
150,304,99269,1,0,0:0:0:0:
403,241,99440,2,0,L|436:246,1,24,8|0,0:1|0:0,0:0:0:0:
62,222,99783,2,0,L|186:222,1,96,8|0,3:2|0:0,0:0:0:0:
435,211,100126,6,0,L|438:60,1,144,8|0,0:1|0:0,0:0:0:0:
214,23,100469,2,0,L|111:30,1,96,8|0,3:2|3:0,0:0:0:0:
385,130,100812,1,8,0:1:0:0:
112,146,100983,2,0,L|51:170,1,48,2|0,3:2|0:0,0:0:0:0:
165,203,101154,2,0,L|219:229,1,48,10|0,3:2|0:0,0:0:0:0:
100,240,101326,2,0,L|94:305,1,48,2|0,3:2|0:0,0:0:0:0:
289,324,101497,6,0,L|501:321,1,192,8|8,0:1|3:2,0:0:0:0:
63,251,102183,2,0,L|57:217,1,24,8|0,0:1|0:0,0:0:0:0:
188,143,102354,1,2,3:0:0:0:
52,116,102526,2,0,L|37:272,1,144,8|0,3:2|0:0,0:0:0:0:
258,313,102869,6,0,L|460:323,1,192,8|8,0:1|3:2,0:0:0:0:
459,257,103383,1,0,0:0:0:0:
188,215,103554,2,0,L|59:219,1,96,8|0,0:1|0:0,0:0:0:0:
354,131,103897,2,0,L|477:129,1,96,8|0,0:2|3:0,0:0:0:0:
190,87,104240,6,0,P|100:115|69:200,1,192,8|8,0:1|3:2,0:0:0:0:
480,276,104926,2,0,L|482:312,1,24,8|0,0:1|0:0,0:0:0:0:
118,313,105269,2,0,L|11:319,1,96,8|0,3:2|0:0,0:0:0:0:
276,259,105612,6,0,P|338:244|363:158,1,144,8|0,0:1|0:0,0:0:0:0:
188,156,105954,2,0,L|179:45,1,96,8|0,3:2|0:0,0:0:0:0:
442,42,106297,1,8,0:1:0:0:
167,54,106469,2,0,L|109:74,1,48,0|0,0:0|0:0,0:0:0:0:
228,99,106640,2,0,L|281:128,1,48,10|0,3:2|0:0,0:0:0:0:
159,146,106812,2,0,L|158:202,1,48,2|0,3:2|0:0,0:0:0:0:
406,224,106983,6,0,L|203:224,1,192,8|8,0:1|3:2,0:0:0:0:
376,168,107497,1,0,0:0:0:0:
92,142,107669,2,0,L|85:101,1,24,8|0,0:1|0:0,0:0:0:0:
209,82,107840,1,2,3:0:0:0:
79,61,108012,2,0,L|78:158,1,96,8|0,3:2|0:0,0:0:0:0:
329,170,108354,6,0,L|327:274,1,96,8|0,0:1|0:0,0:0:0:0:
167,295,108697,2,0,L|70:303,1,96,8|0,3:2|0:0,0:0:0:0:
327,252,109040,1,8,0:1:0:0:
400,214,109126,1,2,0:0:0:0:
400,214,109212,1,2,3:2:0:0:
325,127,109297,1,0,0:0:0:0:
159,108,109383,1,2,0:0:0:0:
95,139,109469,1,2,0:0:0:0:
77,198,109554,1,2,0:0:0:0:
103,264,109640,1,0,0:0:0:0:
280,312,109726,6,0,L|482:310,1,192,12|8,0:1|3:2,0:0:0:0:
39,217,110412,2,0,L|33:194,1,24,8|0,0:1|0:0,0:0:0:0:
395,111,110754,2,0,L|397:12,1,96,8|0,3:2|0:0,0:0:0:0:
143,82,111097,6,0,L|289:107,1,144,8|0,0:1|0:0,0:0:0:0:
464,205,111440,2,0,L|469:319,1,96,8|0,3:2|0:0,0:0:0:0:
166,328,111783,1,8,0:1:0:0:
436,234,111954,2,0,L|475:206,1,48,2|0,3:2|0:0,0:0:0:0:
366,168,112126,2,0,L|304:165,1,48,10|0,3:2|0:0,0:0:0:0:
422,135,112297,2,0,L|429:71,1,48,2|0,3:2|0:0,0:0:0:0:
224,54,112469,6,0,L|32:59,1,192,8|8,0:1|3:2,0:0:0:0:
470,187,113154,2,0,L|496:193,1,24,8|0,0:1|0:0,0:0:0:0:
372,262,113326,1,2,3:0:0:0:
497,194,113497,2,0,L|493:94,1,96,8|0,3:2|0:0,0:0:0:0:
221,63,113840,6,0,L|376:63,1,144,8|0,0:1|0:0,0:0:0:0:
181,100,114183,2,0,P|128:113|101:152,1,96,8|0,3:2|0:0,0:0:0:0:
374,249,114526,2,0,L|394:357,1,96,8|0,0:1|0:0,0:0:0:0:
165,278,114869,2,0,L|65:287,1,96,8|0,0:2|3:0,0:0:0:0:
360,161,115212,6,0,P|450:155|481:62,1,192,8|8,0:1|3:2,0:0:0:0:
57,45,115897,2,0,L|13:51,1,24,8|0,0:1|0:0,0:0:0:0:
416,134,116240,2,0,L|428:244,1,96,8|0,3:2|0:0,0:0:0:0:
179,273,116583,6,0,L|345:285,1,144,8|0,0:1|0:0,0:0:0:0:
154,314,116926,2,0,L|55:323,1,96,8|0,3:2|0:0,0:0:0:0:
329,142,117269,1,8,0:1:0:0:
47,150,117440,2,0,L|37:97,1,48,0|0,0:0|0:0,0:0:0:0:
145,79,117612,2,0,L|206:82,1,48,10|0,3:2|0:0,0:0:0:0:
84,33,117783,2,0,L|31:34,1,48,2|0,3:2|0:0,0:0:0:0:
260,43,117954,6,0,P|383:122|239:270,1,384,8|8,0:1|0:1,0:0:0:0:
99,319,118812,2,0,L|97:247,1,48,0|0,0:0|0:0,0:0:0:0:
276,319,118983,6,0,P|354:298|261:84,1,384,8|8,3:2|3:2,0:0:0:0:
110,65,119840,1,0,0:0:0:0:
270,59,120012,1,8,0:1:0:0:
266,106,120097,1,2,0:0:0:0:
248,151,120183,1,2,3:2:0:0:
218,188,120269,1,0,0:0:0:0:
179,215,120354,1,2,0:0:0:0:
134,230,120440,1,2,0:0:0:0:
86,231,120526,1,2,0:0:0:0:
399,266,120697,5,6,0:0:0:0:
401,341,126183,6,0,L|414:145,1,192,0|0,0:0|0:0,0:0:0:0:
252,272,126869,2,0,L|240:60,1,192,0|0,0:0|0:0,0:0:0:0:
83,266,127554,2,0,L|108:61,1,192,0|0,0:0|0:0,0:0:0:0:
187,56,128069,1,0,0:0:0:0:
275,37,128240,2,0,L|73:39,1,192,0|0,0:0|0:0,0:0:0:0:
347,46,128926,6,0,L|360:278,1,192,0|0,0:0|0:0,0:0:0:0:
231,268,129612,2,0,L|448:289,1,192,0|0,0:0|0:0,0:0:0:0:
293,228,130297,2,0,L|93:251,1,192,0|0,0:0|0:0,0:0:0:0:
177,301,130812,1,0,0:0:0:0:
260,339,130983,1,0,0:0:0:0:
378,303,131326,1,2,0:0:0:0:
426,241,131412,1,2,0:0:0:0:
410,166,131497,1,2,0:0:0:0:
331,154,131583,1,2,0:0:0:0:
137,204,131669,6,0,P|81:185|149:115,1,192,14|0,0:0|3:0,0:0:0:0:
283,63,132354,2,0,L|86:56,1,192,0|0,3:0|3:0,0:0:0:0:
372,77,133040,6,0,P|442:126|375:187,1,192,8|0,3:2|3:0,0:0:0:0:
258,231,133726,2,0,L|462:250,1,192,0|0,3:0|3:0,0:0:0:0:
161,302,134412,6,0,P|74:258|47:132,3,192,8|0|0|0,3:2|3:0|3:0|3:0,0:0:0:0:
336,82,135783,6,0,L|103:119,3,192,8|0|0|0,3:2|3:0|3:0|3:0,0:0:0:0:
434,145,137154,6,0,L|449:253,1,96,8|2,3:2|0:0,0:0:0:0:
288,307,137497,2,0,L|419:307,1,96,8|2,3:2|0:0,0:0:0:0:
111,252,137840,2,0,P|93:190|111:132,1,96,8|2,3:2|0:0,0:0:0:0:
241,78,138183,2,0,L|108:80,1,96,8|8,3:2|0:0,0:0:0:0:
195,108,138440,1,8,0:0:0:0:
399,172,138526,6,0,L|401:291,1,96,8|2,3:2|0:0,0:0:0:0:
137,316,138869,2,0,L|135:182,1,96,8|2,3:2|0:0,0:0:0:0:
401,131,139212,2,0,L|497:134,1,96,8|2,3:2|0:0,0:0:0:0:
193,66,139554,2,0,L|79:67,1,96,8|10,3:2|3:2,0:0:0:0:
154,71,139812,1,8,0:2:0:0:
352,106,139897,5,8,3:2:0:0:
421,109,139983,1,2,0:0:0:0:
470,154,140069,1,8,3:2:0:0:
488,214,140154,1,2,0:0:0:0:
484,264,140240,1,8,3:2:0:0:
460,302,140326,1,2,0:0:0:0:
407,325,140412,1,8,3:2:0:0:
339,322,140497,1,2,0:0:0:0:
88,319,140583,1,8,3:2:0:0:
88,250,140669,1,2,0:0:0:0:
297,205,140754,1,8,3:2:0:0:
356,200,140840,1,2,0:0:0:0:
166,120,140926,1,8,3:2:0:0:
101,120,141012,1,2,0:0:0:0:
349,104,141097,1,8,3:2:0:0:
357,49,141183,1,2,0:0:0:0:
63,244,141269,6,0,L|57:14,1,216.000008239746,4|0,0:0|0:0,0:0:0:0:
254,32,141612,2,0,B|396:30|396:30|400:110,1,216.000008239746,4|0,0:0|0:0,0:0:0:0:
218,99,141954,2,0,B|77:99|77:99|74:183,1,216.000008239746,4|0,0:0|0:0,0:0:0:0:
301,204,142297,1,14,0:2:0:0:
353,201,142340,1,0,0:0:0:0:
392,207,142383,1,2,0:0:0:0:
422,224,142426,1,0,0:0:0:0:
439,257,142469,1,2,0:0:0:0:
445,331,142554,1,2,0:0:0:0:
248,343,142640,6,0,L|53:344,1,158.400004833985,8|2,3:1|0:0,0:0:0:0:
277,293,142983,1,8,3:1:0:0:
330,245,143069,1,0,0:0:0:0:
313,181,143154,1,2,3:2:0:0:
244,171,143240,1,2,0:0:0:0:
44,110,143326,2,0,L|41:257,1,105.600003222656,8|2,3:1|3:2,0:0:0:0:
250,247,143583,2,0,L|319:260,1,52.8000016113282,8|0,3:1|0:0,0:0:0:0:
155,300,143840,2,0,L|61:305,1,52.8000016113282,8|0,3:1|0:0,0:0:0:0:
311,255,144012,6,0,L|318:110,1,105.600003222656,8|0,3:1|0:0,0:0:0:0:
170,109,144354,1,8,3:1:0:0:
196,109,144396,1,0,0:0:0:0:
222,109,144439,1,2,0:0:0:0:
249,109,144482,1,0,0:0:0:0:
275,109,144525,1,2,3:2:0:0:
328,109,144611,1,2,0:0:0:0:
107,160,144697,2,0,L|108:304,1,105.600003222656,8|2,3:1|3:2,0:0:0:0:
321,301,144954,2,0,L|404:303,1,52.8000016113282,8|0,3:1|0:0,0:0:0:0:
196,286,145212,2,0,L|195:220,1,52.8000016113282,8|0,3:1|0:0,0:0:0:0:
409,247,145383,6,0,L|403:109,1,105.600003222656,8|0,3:1|0:0,0:0:0:0:
102,96,145726,2,0,L|238:94,1,105.600003222656,8|2,3:1|3:2,0:0:0:0:
477,203,146069,2,0,L|480:319,1,105.600003222656,8|2,3:1|3:2,0:0:0:0:
280,305,146326,2,0,L|200:322,1,52.8000016113282,8|0,3:1|0:0,0:0:0:0:
387,319,146583,2,0,L|448:336,1,52.8000016113282,8|0,3:1|0:0,0:0:0:0:
218,258,146754,6,0,P|127:257|89:139,1,211.200006445313,8|8,3:1|3:1,0:0:0:0:
355,100,147269,1,2,3:2:0:0:
79,160,147440,2,0,L|72:37,1,105.600003222656,8|2,3:1|3:2,0:0:0:0:
265,86,147697,2,0,L|390:86,1,105.600003222656,8|0,3:1|0:0,0:0:0:0:
172,51,147954,2,0,L|83:51,1,52.8000016113282,8|0,3:1|0:0,0:0:0:0:
366,89,148126,6,0,P|417:177|370:215,1,158.400004833985,8|2,3:1|0:0,0:0:0:0:
210,250,148469,2,0,L|117:270,1,52.8000016113282,8|0,3:1|0:0,0:0:0:0:
264,295,148640,2,0,L|322:305,1,52.8000016113282,2|2,3:2|0:0,0:0:0:0:
113,257,148812,2,0,L|110:141,1,105.600003222656,8|2,3:1|3:2,0:0:0:0:
323,108,149069,2,0,L|391:102,1,52.8000016113282,8|0,3:1|0:0,0:0:0:0:
214,76,149326,2,0,L|217:9,1,52.8000016113282,8|2,3:1|0:0,0:0:0:0:
409,30,149497,6,0,P|454:62|430:128,1,105.600003222656,8|0,3:1|0:0,0:0:0:0:
284,147,149840,1,8,3:1:0:0:
307,158,149882,1,0,0:0:0:0:
331,170,149925,1,2,0:0:0:0:
355,181,149968,1,0,0:0:0:0:
378,193,150011,1,2,3:2:0:0:
426,216,150097,1,2,0:0:0:0:
216,277,150183,2,0,L|83:305,1,105.600003222656,8|2,3:1|3:2,0:0:0:0:
303,251,150440,2,0,L|318:141,1,105.600003222656,8|0,3:1|0:0,0:0:0:0:
99,133,150697,2,0,L|42:141,1,52.8000016113282,8|0,3:1|0:0,0:0:0:0:
291,231,150869,6,0,L|433:234,1,105.600003222656,8|2,3:1|3:2,0:0:0:0:
119,204,151212,2,0,L|120:85,1,105.600003222656,8|2,3:1|3:2,0:0:0:0:
395,66,151554,2,0,L|455:68,2,52.8000016113282,8|0|2,3:1|0:0|3:2,0:0:0:0:
200,168,151812,2,0,L|132:175,2,52.8000016113282,8|0|0,3:1|0:0|0:0,0:0:0:0:
405,192,152069,2,0,L|471:202,1,52.8000016113282,8|0,3:1|0:0,0:0:0:0:
185,308,152240,6,0,L|34:294,1,105.600003222656,8|2,3:1|3:2,0:0:0:0:
360,159,152583,2,0,L|475:138,1,105.600003222656,8|2,3:1|3:2,0:0:0:0:
201,61,152926,1,8,3:1:0:0:
122,71,153012,1,2,0:0:0:0:
88,114,153097,1,2,0:0:0:0:
77,174,153183,1,2,0:0:0:0:
283,197,153269,1,2,0:0:0:0:
356,203,153354,1,2,0:0:0:0:
398,245,153440,1,2,0:0:0:0:
404,308,153526,1,2,0:0:0:0:
181,320,153612,6,0,L|22:329,1,158.400004833985,8|2,3:1|0:0,0:0:0:0:
251,257,153954,2,0,L|251:181,1,52.8000016113282,8|0,3:1|0:0,0:0:0:0:
165,129,154126,2,0,L|249:128,1,52.8000016113282,2|2,3:2|0:0,0:0:0:0:
415,154,154297,2,0,P|479:211|473:251,1,105.600003222656,8|2,3:1|3:2,0:0:0:0:
271,278,154554,2,0,L|139:299,1,105.600003222656,8|0,3:1|0:0,0:0:0:0:
368,302,154812,2,0,L|440:311,1,52.8000016113282,8|0,3:1|0:0,0:0:0:0:
189,241,154983,6,0,P|174:188|201:135,1,105.600003222656,8|0,3:1|0:0,0:0:0:0:
331,116,155326,1,8,3:1:0:0:
345,98,155368,1,0,0:0:0:0:
351,72,155411,1,2,0:0:0:0:
248,62,155497,1,2,3:2:0:0:
232,39,155539,1,0,0:0:0:0:
237,10,155582,1,0,0:0:0:0:
451,41,155669,2,0,L|468:171,1,105.600003222656,8|2,3:1|3:2,0:0:0:0:
264,216,155926,2,0,L|188:226,1,52.8000016113282,8|0,3:1|0:0,0:0:0:0:
362,288,156183,2,0,L|443:315,1,52.8000016113282,8|0,3:1|0:0,0:0:0:0:
194,321,156354,6,0,L|50:333,1,105.600003222656,8|0,3:1|0:0,0:0:0:0:
355,226,156697,2,0,L|484:240,1,105.600003222656,8|0,3:1|0:0,0:0:0:0:
183,192,157040,2,0,P|163:138|218:79,1,105.600003222656,8|2,3:1|3:2,0:0:0:0:
367,91,157297,2,0,L|454:86,1,52.8000016113282,8|0,3:1|0:0,0:0:0:0:
252,43,157554,2,0,L|176:35,1,52.8000016113282,8|0,3:1|0:0,0:0:0:0:
406,65,157726,6,0,L|414:211,1,105.600003222656,8|0,3:1|0:0,0:0:0:0:
150,264,158069,2,0,L|273:264,1,105.600003222656,8|2,3:1|3:2,0:0:0:0:
491,153,158412,2,0,L|357:154,1,105.600003222656,8|2,3:1|3:2,0:0:0:0:
163,156,158669,2,0,P|133:107|188:75,1,105.600003222656,8|0,3:1|0:0,0:0:0:0:
380,62,158926,2,0,L|470:63,1,52.8000016113282,8|0,3:1|0:0,0:0:0:0:
220,212,159097,6,0,L|85:216,1,105.600003222656,8|2,3:1|3:2,0:0:0:0:
374,257,159440,1,8,3:1:0:0:
409,295,159526,1,0,0:0:0:0:
377,347,159612,1,2,3:2:0:0:
323,338,159697,1,2,0:0:0:0:
138,352,159783,2,0,L|22:359,1,105.600003222656,8|2,3:1|3:2,0:0:0:0:
241,270,160040,2,0,L|240:188,1,52.8000016113282,8|0,3:1|0:0,0:0:0:0:
85,147,160297,2,0,L|139:149,1,52.8000016113282,8|2,3:1|0:0,0:0:0:0:
368,198,160469,6,0,L|378:318,1,105.600003222656,8|0,3:1|0:0,0:0:0:0:
212,292,160812,1,8,3:1:0:0:
178,298,160854,1,0,0:0:0:0:
168,321,160897,1,2,0:0:0:0:
262,244,160983,1,2,3:2:0:0:
292,228,161025,1,0,0:0:0:0:
303,191,161068,1,2,0:0:0:0:
100,191,161154,2,0,L|88:59,1,105.600003222656,8|2,3:1|3:2,0:0:0:0:
288,61,161412,2,0,L|354:48,1,52.8000016113282,8|0,3:1|0:0,0:0:0:0:
174,43,161669,2,0,L|171:100,1,52.8000016113282,8|0,3:1|0:0,0:0:0:0:
429,153,161840,6,0,L|436:289,1,105.600003222656,8|0,3:1|0:0,0:0:0:0:
188,318,162183,2,0,L|342:317,1,105.600003222656,8|0,3:1|0:0,0:0:0:0:
42,221,162526,2,0,L|37:107,1,105.600003222656,8|0,3:1|0:0,0:0:0:0:
91,92,162783,1,8,3:1:0:0:
281,150,162869,2,0,L|402:152,1,105.600003222656,8|8,3:2|3:1,0:0:0:0:
112,196,163212,6,0,P|62:262|112:298,1,158.400004833985,8|2,3:1|0:0,0:0:0:0:
403,295,163554,2,0,L|401:183,1,105.600003222656,8|2,3:1|3:2,0:0:0:0:
125,47,163897,2,0,P|252:187|362:23,1,422.400012890625,8|0,3:1|0:0,0:0:0:0:
256,192,164926,12,0,165954,0:0:0:0:
232,130,176926,6,0,P|157:160|128:279,2,192,2|0|0,0:0|0:0|0:0,0:0:0:0:
369,128,177954,1,0,0:0:0:0:
229,120,178297,2,0,L|216:337,1,192,2|0,0:0|0:0,0:0:0:0:
298,323,178812,1,0,0:0:0:0:
310,289,178983,1,0,0:0:0:0:
187,260,179326,1,0,0:0:0:0:
356,241,179669,6,0,P|453:193|449:98,2,192,2|0|0,0:0|0:0|0:0,0:0:0:0:
207,279,180697,1,0,0:0:0:0:
328,238,181040,2,0,P|354:161|274:103,1,192,2|0,0:0|0:0,0:0:0:0:
189,81,181554,1,0,0:0:0:0:
283,47,181726,2,0,L|294:268,1,192,0|0,0:0|0:0,0:0:0:0:
165,274,182412,6,0,L|356:359,2,192,2|0|0,0:0|0:0|0:0,0:0:0:0:
276,223,183440,1,0,0:0:0:0:
396,201,183783,2,0,L|400:7,1,192,2|0,0:0|0:0,0:0:0:0:
314,38,184297,1,0,0:0:0:0:
292,39,184469,1,0,0:0:0:0:
191,111,184812,1,0,0:0:0:0:
320,135,185154,6,0,P|347:222|305:336,1,192,2|0,0:0|0:0,0:0:0:0:
172,324,185840,2,0,L|383:342,1,192,0|0,0:0|0:0,0:0:0:0:
68,348,186526,1,2,0:0:0:0:
227,192,186926,5,0,0:0:0:0:
316,170,187126,1,0,0:0:0:0:
343,88,187326,1,0,0:0:0:0:
302,18,187554,1,0,0:0:0:0:
197,20,187783,1,0,0:0:0:0:
350,143,188040,1,0,0:0:0:0:
41,267,188383,5,0,0:0:0:0:
256,192,188583,12,0,191197,0:0:0:0:
