osu file format v14

[General]
AudioFilename: audio.mp3
AudioLeadIn: 0
PreviewTime: 142297
Countdown: 0
SampleSet: Soft
StackLeniency: 0.7
Mode: 2
LetterboxInBreaks: 0
WidescreenStoryboard: 1

[Editor]
Bookmarks: 98754
DistanceSpacing: 0.8
BeatDivisor: 4
GridSize: 4
TimelineZoom: 1.5

[Metadata]
Title:Aurora
TitleUnicode:Aurora
Artist:Synthion
ArtistUnicode:Synthion
Creator:wonjae
Version:Collab Salad
Source:
Tags:future bass drum and n dnb paranoid grapes electronic english instrumental sadegg syamu fairy tale
BeatmapID:2680317
BeatmapSetID:1290796

[Difficulty]
HPDrainRate:4
CircleSize:3.3
OverallDifficulty:7
ApproachRate:7
SliderMultiplier:1.55
SliderTickRate:1

[Events]
//Background and Video events
0,0,"color me just like an aurora.jpg",0,0
//Break Periods
2,66040,75906
2,120897,130426
2,165954,176026
//Storyboard Layer 0 (Background)
//Storyboard Layer 1 (Fail)
//Storyboard Layer 2 (Pass)
//Storyboard Layer 3 (Foreground)
//Storyboard Layer 4 (Overlay)
//Storyboard Sound Samples

[TimingPoints]
12,342.857142857143,4,2,1,70,1,0
10983,-100,4,2,1,50,0,0
32926,-100,4,2,1,60,0,0
38412,-100,4,2,1,70,0,0
43554,-66.6666666666667,4,2,1,70,0,0
43897,-100,4,2,1,70,0,0
46640,-100,4,2,1,80,0,0
66183,-100,4,2,1,60,0,0
67212,-100,4,2,1,50,0,0
68583,-100,4,2,1,40,0,0
69954,-100,4,2,1,30,0,0
71326,-100,4,2,1,20,0,0
76812,-100,4,2,1,50,0,0
96012,-100,4,2,1,60,0,0
98754,-100,4,2,1,75,0,0
121040,-100,4,2,1,50,0,0
122069,-100,4,2,1,40,0,0
123440,-100,4,2,1,30,0,0
124812,-100,4,2,1,25,0,0
126183,-100,4,2,1,20,0,0
131326,-100,4,2,1,50,0,0
131669,-100,4,2,1,60,0,0
141269,-66.6666666666667,4,2,1,70,0,0
142212,-50,4,2,1,70,0,0
142640,-90.9090909090909,4,2,1,80,0,1
165954,-90.9090909090909,4,2,1,45,0,0
176926,-100,4,2,1,45,0,0

[Colours]
Combo1 : 197,85,234
Combo2 : 176,98,255
Combo3 : 89,255,255
Combo4 : 51,153,255
Combo5 : 111,111,255
Combo6 : 0,83,236

[HitObjects]
227,233,10983,6,0,L|411:231,1,155,2|0,3:2|3:1,0:0:0:0:
258,233,11669,1,8,3:2:0:0:
142,227,12012,2,0,P|97:186|167:134,1,155,0|2,3:1|3:2,0:0:0:0:
268,100,12697,1,0,3:1:0:0:
153,126,13040,2,0,L|155:303,1,155,8|0,3:2|3:1,0:0:0:0:
241,280,13554,1,0,0:0:0:0:
324,286,13726,6,0,L|136:301,1,155,2|0,3:2|3:1,0:0:0:0:
276,216,14412,1,8,3:2:0:0:
392,183,14754,2,0,P|427:118|380:56,1,155,0|2,3:1|3:2,0:0:0:0:
246,60,15440,1,0,3:1:0:0:
376,68,15783,2,0,L|202:80,1,155,8|0,3:2|3:1,0:0:0:0:
163,100,16297,1,0,3:1:0:0:
112,141,16469,6,0,L|112:298,1,155,2|0,3:2|3:1,0:0:0:0:
224,295,17154,1,8,3:2:0:0:
338,317,17497,2,0,L|171:334,1,155,0|2,3:1|3:2,0:0:0:0:
325,320,18183,1,0,3:1:0:0:
182,281,18526,2,0,L|169:107,1,155,8|0,3:2|3:1,0:0:0:0:
245,102,19040,1,0,3:1:0:0:
323,83,19212,6,0,L|479:52,1,155,2|0,3:2|3:1,0:0:0:0:
335,37,19897,1,10,3:2:0:0:
195,28,20240,1,2,3:2:0:0:
111,107,21269,5,2,0:0:0:0:
111,147,21354,1,0,0:0:0:0:
111,187,21440,1,0,0:0:0:0:
207,227,21612,1,2,0:0:0:0:
206,281,21697,1,0,0:0:0:0:
206,321,21783,1,0,0:0:0:0:
388,337,21954,5,12,3:1:0:0:
173,344,23326,1,0,0:0:0:0:
350,279,24697,5,0,0:0:0:0:
145,185,26069,1,0,0:0:0:0:
279,124,26754,1,0,0:0:0:0:
408,66,27440,5,0,0:0:0:0:
177,125,28812,1,0,0:0:0:0:
365,179,30183,5,0,0:0:0:0:
234,223,30869,1,0,0:0:0:0:
108,266,31554,1,0,0:0:0:0:
290,282,32583,1,2,0:0:0:0:
327,223,32669,1,2,0:0:0:0:
288,171,32754,1,2,0:0:0:0:
111,159,32926,6,0,L|104:347,1,155,12|8,3:1|3:2,0:0:0:0:
173,331,33440,1,2,3:0:0:0:
236,339,33612,1,2,0:0:0:0:
363,324,33954,1,8,3:2:0:0:
241,272,34297,6,0,L|66:295,2,155,2|8|2,0:0|3:2|0:0,0:0:0:0:
303,222,35154,1,2,3:0:0:0:
243,177,35326,1,8,3:2:0:0:
133,165,35669,6,0,L|130:3,1,155,2|8,0:0|3:2,0:0:0:0:
246,81,36354,2,0,L|406:83,1,155,2|8,0:0|3:2,0:0:0:0:
278,138,37040,6,0,P|168:209|295:278,1,310,2|2,0:0|0:0,0:0:0:0:
347,284,37897,1,2,3:0:0:0:
416,282,38069,1,8,3:2:0:0:
120,264,38412,6,0,L|105:93,1,155,8|8,3:1|3:2,0:0:0:0:
235,71,39097,1,8,3:1:0:0:
99,64,39440,1,8,3:2:0:0:
253,56,39783,6,0,L|431:54,1,155,8|8,3:1|3:2,0:0:0:0:
343,76,40297,1,2,3:0:0:0:
283,102,40469,1,8,3:1:0:0:
414,156,40812,1,8,3:2:0:0:
126,286,41154,6,0,L|124:184,1,77.5,8|0,3:1|0:0,0:0:0:0:
205,184,41497,2,0,L|209:89,1,77.5,8|2,3:2|3:0,0:0:0:0:
294,126,41840,1,8,3:1:0:0:
295,87,41925,1,0,0:0:0:0:
297,48,42011,1,2,3:0:0:0:
378,36,42183,1,8,3:2:0:0:
376,98,42354,1,0,0:0:0:0:
194,179,42526,6,0,P|135:264|169:310,1,155,8|2,3:1|3:2,0:0:0:0:
314,311,43212,2,0,L|135:312,1,155,2|12,3:2|0:0,0:0:0:0:
438,242,43897,6,0,L|432:57,1,155,8|8,3:1|0:0,0:0:0:0:
300,103,44583,2,0,L|465:77,1,155,2|8,3:2|0:0,0:0:0:0:
144,35,45269,5,8,3:1:0:0:
320,98,45954,2,0,L|448:124,2,116.25,8|8|8,3:1|3:1|3:1,0:0:0:0:
135,138,46640,6,0,P|89:211|151:242,1,155,8|8,3:1|0:2,0:0:0:0:
253,302,47326,2,0,L|368:253,2,116.25,8|8|8,3:1|3:1|3:1,0:0:0:0:
67,295,48012,6,0,L|58:125,1,155,8|8,3:1|0:0,0:0:0:0:
120,117,48526,1,8,3:1:0:0:
185,99,48697,2,0,L|46:107,2,116.25,8|8|8,3:1|3:1|3:1,0:0:0:0:
364,143,49383,6,0,P|424:170|436:267,1,155,8|8,3:1|0:0,0:0:0:0:
294,285,50069,2,0,L|158:293,2,116.25,8|2|2,3:1|3:2|3:2,0:0:0:0:
477,268,50754,6,0,P|479:227|374:175,1,155,8|8,3:1|0:0,0:0:0:0:
128,101,51440,2,0,L|1:106,2,116.25,8|8|8,3:1|3:1|3:1,0:0:0:0:
312,146,52126,6,0,L|313:244,1,77.5,8|2,3:1|3:2,0:0:0:0:
237,232,52469,1,8,0:2:0:0:
365,228,52812,2,0,L|490:274,2,116.25,8|8|8,3:1|3:1|3:1,0:0:0:0:
183,259,53497,6,0,P|110:189|140:151,1,155,8|8,3:1|0:0,0:0:0:0:
257,132,54183,2,0,L|103:120,1,155,8|8,3:1|0:0,0:0:0:0:
375,93,54869,5,12,3:1:0:0:
464,115,55212,2,0,L|464:207,1,77.5,8|2,0:0|3:2,0:0:0:0:
386,199,55554,2,0,L|508:210,2,116.25,8|2|2,3:1|0:0|3:2,0:0:0:0:
204,263,56240,6,0,L|45:267,1,155,8|8,3:1|0:0,0:0:0:0:
114,205,56754,1,2,3:2:0:0:
49,172,56926,2,0,L|31:49,1,116.25,8|8,3:1|3:1,0:0:0:0:
138,43,57440,1,8,3:1:0:0:
322,86,57612,6,0,L|488:101,1,155,8|8,3:1|0:2,0:0:0:0:
372,161,58297,2,0,L|508:192,2,116.25,8|8|8,3:1|3:1|3:1,0:0:0:0:
192,157,58983,6,0,P|131:198|122:274,1,155,8|8,3:1|0:0,0:0:0:0:
245,297,59669,2,0,L|236:155,1,116.25,8|8,3:1|3:1,0:0:0:0:
131,153,60183,1,8,3:1:0:0:
313,211,60354,6,0,L|335:30,1,155,8|8,3:1|0:0,0:0:0:0:
210,42,61040,2,0,L|74:69,2,116.25,8|2|2,3:1|3:2|3:2,0:0:0:0:
392,75,61726,6,0,P|479:117|483:168,1,155,8|8,3:1|0:0,0:0:0:0:
367,191,62412,2,0,L|352:315,1,116.25,8|8,3:1|3:1,0:0:0:0:
441,327,62926,1,8,3:1:0:0:
259,329,63097,6,0,L|77:347,1,155,8|8,3:1|0:2,0:0:0:0:
187,248,63783,2,0,L|46:264,2,116.25,8|8|8,3:1|3:1|3:1,0:0:0:0:
365,228,64469,6,0,P|417:172|358:123,1,155,8|8,3:1|0:0,0:0:0:0:
225,90,65154,2,0,L|394:95,1,155,8|10,3:1|0:0,0:0:0:0:
95,242,65840,5,6,0:0:0:0:
325,162,76812,6,0,L|480:162,2,155,2|0|8,3:2|3:1|3:2,0:0:0:0:
202,153,77840,2,0,P|85:219|204:280,1,310,0|0,3:1|3:1,0:0:0:0:
326,298,78869,1,8,3:2:0:0:
161,280,79554,6,0,L|5:281,2,155,2|0|8,3:2|3:1|3:2,0:0:0:0:
313,162,80583,2,0,P|311:250|109:312,1,310,0|0,3:1|3:1,0:0:0:0:
281,321,81612,1,8,3:2:0:0:
429,215,82297,6,0,L|261:212,2,155,2|0|8,3:2|3:1|3:2,0:0:0:0:
300,148,83326,2,0,P|189:214|306:286,1,310,0|0,3:1|3:1,0:0:0:0:
431,298,84354,1,8,3:2:0:0:
229,293,85040,6,0,L|52:301,2,155,2|0|10,3:2|3:1|3:2,0:0:0:0:
296,243,85897,2,0,L|298:186,1,38.75,2|0,3:2|0:0,0:0:0:0:
299,167,86069,2,0,L|144:166,1,155,2|0,3:2|0:0,0:0:0:0:
265,101,86754,2,0,L|355:102,2,77.5,2|2|10,0:0|0:0|0:0,0:0:0:0:
178,112,87269,1,2,0:0:0:0:
95,125,87440,5,2,0:0:0:0:
259,186,87783,2,0,L|275:351,1,155,2|0,3:2|3:1,0:0:0:0:
141,350,88469,1,8,3:2:0:0:
271,342,88812,2,0,P|371:327|447:132,1,310,0|0,3:1|3:1,0:0:0:0:
331,144,89840,1,8,3:2:0:0:
170,153,90526,6,0,L|354:153,2,155,2|0|8,3:2|3:1|3:2,0:0:0:0:
47,233,91554,2,0,L|356:233,1,310,0|0,3:1|3:1,0:0:0:0:
453,204,92583,2,0,L|448:45,1,155,8|0,3:2|3:1,0:0:0:0:
341,55,93269,1,2,3:2:0:0:
256,192,93612,12,0,95669,0:0:0:0:
184,129,96012,6,4,P|337:278|472:114,1,465,10|0,3:2|0:0,0:0:0:0:
191,175,97383,6,0,L|90:190,2,77.5,10|2|8,3:2|3:2|0:0,0:0:0:0:
316,168,98069,1,10,3:2:0:0:
315,206,98154,1,2,3:2:0:0:
315,245,98240,1,2,3:2:0:0:
406,251,98412,1,10,3:2:0:0:
126,257,98754,6,0,B|62:232|62:232|176:221,1,155,12|8,0:1|3:2,0:0:0:0:
282,241,99440,2,0,P|342:218|286:175,1,155,8|8,0:1|3:2,0:0:0:0:
155,241,100126,2,0,P|81:237|47:146,1,155,8|8,0:1|3:2,0:0:0:0:
77,244,100640,1,0,3:0:0:0:
155,241,100812,1,8,0:1:0:0:
310,236,101154,1,10,3:2:0:0:
50,163,101497,6,0,L|196:103,2,155,8|8|8,0:1|3:2|0:1,0:0:0:0:
132,188,102354,1,2,3:0:0:0:
210,208,102526,1,8,3:2:0:0:
352,230,102869,1,8,0:1:0:0:
84,248,103212,1,8,3:2:0:0:
24,186,103383,2,0,L|29:90,1,77.5,0|8,0:0|0:1,0:0:0:0:
112,89,103726,2,0,L|210:95,1,77.5,0|8,0:0|0:2,0:0:0:0:
461,193,104240,6,0,P|416:169|333:222,1,155,8|8,0:1|3:2,0:0:0:0:
230,176,104926,2,0,P|224:109|293:114,1,155,8|8,0:1|3:2,0:0:0:0:
139,190,105612,2,0,L|29:65,1,155,8|8,0:1|3:2,0:0:0:0:
65,204,106126,2,0,L|146:204,1,77.5,0|8,0:0|0:1,0:0:0:0:
320,193,106640,1,10,3:2:0:0:
48,123,106983,6,0,P|138:123|236:123,2,155,8|8|8,0:1|3:2|0:1,0:0:0:0:
134,193,107840,2,0,P|134:90|134:90,1,77.5,2|8,3:0|3:2,0:0:0:0:
56,114,108354,1,8,0:1:0:0:
336,193,108697,2,0,P|390:162|335:164,1,155,8|8,3:2|0:1,0:0:0:0:
160,226,109726,6,0,P|113:237|163:203,1,155,12|8,0:1|3:2,0:0:0:0:
288,218,110412,2,0,P|355:186|353:114,1,155,8|8,0:1|3:2,0:0:0:0:
76,315,111097,2,0,L|62:160,1,155,8|8,0:1|3:2,0:0:0:0:
153,213,111612,1,0,0:0:0:0:
63,160,111783,2,0,L|222:138,1,155,8|10,0:1|3:2,0:0:0:0:
466,225,112469,6,0,P|420:150|331:155,2,155,8|8|8,0:1|3:2|0:1,0:0:0:0:
395,228,113326,1,2,3:0:0:0:
321,225,113497,1,8,3:2:0:0:
441,200,113840,1,8,0:1:0:0:
170,193,114183,1,8,3:2:0:0:
94,198,114354,2,0,L|96:99,1,77.5,0|8,0:0|0:1,0:0:0:0:
173,122,114697,2,0,L|173:211,1,77.5,0|8,0:0|0:2,0:0:0:0:
437,274,115212,6,0,L|452:103,1,155,8|8,0:1|3:2,0:0:0:0:
309,73,115897,1,8,0:1:0:0:
451,71,116240,1,8,3:2:0:0:
184,141,116583,2,0,L|6:139,1,155,8|8,0:1|3:2,0:0:0:0:
94,161,117097,1,0,0:0:0:0:
163,182,117269,1,8,0:1:0:0:
317,203,117612,1,10,3:2:0:0:
58,169,117954,6,0,P|211:179|326:68,1,310,8|8,0:1|0:1,0:0:0:0:
164,270,118983,2,0,B|82:235|54:193|51:105|99:43|170:40,1,310,8|8,3:2|3:2,0:0:0:0:
230,34,119840,1,0,0:0:0:0:
306,33,120012,2,0,P|384:128|307:149,1,232.5,8|2,0:1|0:0,0:0:0:0:
157,162,120697,1,6,0:0:0:0:
200,194,131326,5,2,0:0:0:0:
495,194,131669,2,0,L|495:24,1,155,14|0,0:0|3:0,0:0:0:0:
363,200,132354,2,0,L|363:30,1,155,0|0,3:0|3:0,0:0:0:0:
231,188,133040,6,0,L|231:13,1,155,8|0,3:2|3:0,0:0:0:0:
99,189,133726,2,0,L|99:20,1,155,0|0,3:0|3:0,0:0:0:0:
363,188,134411,6,0,P|414:116|401:32,1,155,8|0,3:2|3:0,0:0:0:0:
255,174,135097,2,0,P|208:91|231:21,1,155,0|0,3:0|3:0,0:0:0:0:
368,107,135783,6,0,L|219:67,1,155,8|0,3:2|3:0,0:0:0:0:
374,156,136469,2,0,P|396:223|329:239,1,155,0|0,3:0|3:0,0:0:0:0:
35,205,137154,6,0,L|35:108,1,77.5,8|2,3:2|0:0,0:0:0:0:
113,150,137497,2,0,L|113:65,1,77.5,8|2,3:2|0:0,0:0:0:0:
196,66,137840,2,0,L|281:68,1,77.5,8|2,3:2|0:0,0:0:0:0:
196,66,138183,1,8,3:2:0:0:
428,145,138526,6,0,L|428:60,1,77.5,8|2,3:2|0:0,0:0:0:0:
354,140,138869,2,0,L|354:55,1,77.5,8|2,3:2|0:0,0:0:0:0:
279,130,139212,2,0,L|191:134,1,77.5,8|2,3:2|0:0,0:0:0:0:
279,130,139554,1,8,3:2:0:0:
21,213,139897,5,8,3:2:0:0:
45,176,140069,1,8,3:2:0:0:
117,173,140240,1,8,3:2:0:0:
195,169,140412,1,8,3:2:0:0:
271,185,140583,1,8,3:2:0:0:
213,219,140754,1,8,3:2:0:0:
135,216,140926,1,8,3:2:0:0:
428,192,141269,5,4,0:0:0:0:
262,175,141612,1,4,0:0:0:0:
389,183,141954,1,4,0:0:0:0:
205,163,142297,1,14,0:2:0:0:
473,205,142640,1,8,3:1:0:0:
374,305,142983,6,0,P|357:250|453:188,1,170.500005203247,8|8,3:1|3:1,0:0:0:0:
346,179,143583,2,0,L|229:102,1,127.875003902435,8|8,3:1|3:1,0:0:0:0:
67,118,144012,5,8,3:1:0:0:
207,247,144354,2,0,P|258:199|188:135,1,170.500005203247,8|8,3:1|3:1,0:0:0:0:
109,181,144954,2,0,L|94:44,1,127.875003902435,8|8,3:1|3:1,0:0:0:0:
266,53,145383,5,8,3:1:0:0:
369,156,145726,2,0,L|186:156,1,170.500005203247,8|8,3:1|3:1,0:0:0:0:
72,235,146326,2,0,L|230:235,1,127.875003902435,8|8,3:1|3:1,0:0:0:0:
365,235,146754,5,8,3:1:0:0:
420,161,147098,1,8,3:1:0:0:
335,159,147269,1,2,3:2:0:0:
163,146,147440,2,0,P|104:182|86:283,1,170.500005203247,8|0,3:1|0:0,0:0:0:0:
178,295,147954,1,8,3:1:0:0:
353,196,148126,6,0,L|518:133,2,170.500005203247,8|8|8,3:1|3:1|3:1,0:0:0:0:
250,200,149069,2,0,L|230:67,1,127.875003902435,8|8,3:1|3:1,0:0:0:0:
409,76,149497,1,8,3:1:0:0:
283,141,149840,2,0,L|209:96,2,85.2500026016236,8|2|8,3:1|3:2|3:1,0:0:0:0:
373,166,150440,2,0,L|376:301,1,127.875003902435,8|8,3:1|3:1,0:0:0:0:
195,297,150869,5,8,3:1:0:0:
324,267,151212,2,0,P|386:251|417:157,1,170.500005203247,8|8,3:1|3:1,0:0:0:0:
396,92,151812,1,8,3:1:0:0:
290,91,152069,1,8,3:1:0:0:
103,152,152240,1,8,3:1:0:0:
58,178,152412,1,2,3:2:0:0:
104,193,152583,1,8,3:1:0:0:
274,250,152754,2,0,L|379:252,1,85.2500026016236,2|8,3:2|3:1,0:0:0:0:
128,194,153612,6,0,L|287:116,2,170.500005203247,8|8|8,3:1|3:1|3:1,0:0:0:0:
230,114,154554,2,0,L|383:114,1,127.875003902435,8|8,3:1|3:1,0:0:0:0:
192,115,154983,1,8,3:1:0:0:
58,176,155326,2,0,P|24:136|32:87,2,85.2500026016236,8|2|8,3:1|3:2|3:1,0:0:0:0:
172,224,155926,2,0,L|307:210,1,127.875003902435,8|8,3:1|3:1,0:0:0:0:
128,115,156354,5,8,3:1:0:0:
256,247,156697,2,0,P|369:212|386:153,1,170.500005203247,8|8,3:1|3:1,0:0:0:0:
312,160,157297,1,8,3:1:0:0:
231,138,157554,1,8,3:1:0:0:
405,80,157726,6,0,P|452:124|385:206,1,170.500005203247,8|8,3:1|3:1,0:0:0:0:
244,186,158412,2,0,L|128:118,2,127.875003902435,8|8|8,3:1|3:1|3:1,0:0:0:0:
427,323,159097,5,8,3:1:0:0:
424,246,159439,1,8,3:1:0:0:
331,201,159782,1,8,3:1:0:0:
250,159,160039,2,0,L|400:103,1,127.875003902435,8|8,3:1|3:1,0:0:0:0:
206,109,160469,5,8,3:1:0:0:
118,174,160811,2,0,L|23:161,2,85.2500026016236,8|2|8,3:1|3:2|3:1,0:0:0:0:
253,227,161411,2,0,P|312:204|298:137,1,127.875003902435,8|8,3:1|3:1,0:0:0:0:
132,130,161839,5,8,3:1:0:0:
53,241,162183,2,0,L|241:241,1,170.500005203247,8|8,3:1|3:1,0:0:0:0:
399,249,162869,1,8,3:2:0:0:
105,182,163212,1,8,3:1:0:0:
124,83,163554,2,0,L|228:78,1,85.2500026016236,8|2,3:1|3:2,0:0:0:0:
383,131,163897,6,0,P|501:221|388:318,1,341.000010406494,8|0,3:1|0:0,0:0:0:0:
262,272,176926,6,0,L|143:153,1,155,2|0,0:0|0:0,0:0:0:0:
340,212,177612,2,0,L|480:120,1,155,0|0,0:0|0:0,0:0:0:0:
206,191,178297,5,2,0:0:0:0:
69,188,178640,2,0,L|0:111,2,77.5,0|0|0,0:0|0:0|0:0,0:0:0:0:
224,202,179326,1,0,0:0:0:0:
379,195,179669,6,0,P|424:117|362:101,1,155,2|0,0:0|0:0,0:0:0:0:
218,195,180354,2,0,P|173:117|235:101,1,155,0|0,0:0|0:0,0:0:0:0:
379,185,181040,1,2,0:0:0:0:
131,188,181383,1,0,0:0:0:0:
209,188,181554,6,0,L|122:188,1,77.5,0|0,0:0|0:0,0:0:0:0:
248,182,182069,1,0,0:0:0:0:
380,187,182412,5,2,0:0:0:0:
233,182,182754,1,0,0:0:0:0:
78,190,183097,1,0,0:0:0:0:
218,181,183440,1,0,0:0:0:0:
480,185,183783,5,2,0:0:0:0:
311,172,184126,1,0,0:0:0:0:
241,178,184297,1,0,0:0:0:0:
171,181,184469,2,0,P|116:157|177:99,1,155,0|0,0:0|0:0,0:0:0:0:
311,172,185154,6,0,L|311:14,1,155,2|0,0:0|0:0,0:0:0:0:
147,173,185840,2,0,L|311:171,1,155,0|0,0:0|0:0,0:0:0:0:
53,288,186526,5,2,0:0:0:0:
252,245,186926,1,0,0:0:0:0:
304,179,187126,1,0,0:0:0:0:
287,103,187326,1,0,0:0:0:0:
223,61,187554,1,0,0:0:0:0:
142,38,187783,1,0,0:0:0:0:
41,38,188040,1,0,0:0:0:0:
202,223,188383,5,0,0:0:0:0:
256,192,188926,12,0,191197,0:0:0:0:
