osu file format v14

[General]
AudioFilename: audio.mp3
AudioLeadIn: 0
PreviewTime: 91998
Countdown: 0
SampleSet: None
StackLeniency: 0.9
Mode: 0
LetterboxInBreaks: 1
EpilepsyWarning: 1
WidescreenStoryboard: 1

[Editor]
Bookmarks: 13292,13469,13822,13998,14528,14616,14881,15057,15410,15587,15675,15763,16116,16292,16645,16822,17263,17351,17704,17881,18234,18322,18410,18498,18587,18851,18939,19028,19116,19381,19469,19557,19645,19910,19998,20087,20175,20528,20616,20704,20969,21057,21145,21234,21322,21410,21675,21939,22204,22469,22557,22645,22822,22910,22998,23087,23175,23263,23351,23439,23528,23616,23704,23792,23881,23969,24057,24145,24234,25645,27057,28469,29881,31292,32704,34116,35528,36939,37292,38351,39587,39675,39763,42234,42410,42587,42763,42939,43116,43204,43292,43645,43998,44704,44881,45057,45939,46116,46292,46469,46822,47351,48234,49645,50704,51057,52292,52469,53704,53881,54234,54410,54939,55998,56351,56528,56704,57057,57234,57587,57763,58116,58645,59528,59881,60057,60234,60763,60939,61116,61292,61469,61645,61822,61998,62175,62351,62881,63057,63234,63410,63587,63939,64116,64292,64469,64645,64822,64998,65175,66763,67116,67292,67998,93410
DistanceSpacing: 1.5
BeatDivisor: 4
GridSize: 4
TimelineZoom: 1.6

[Metadata]
Title:Point Zero One
TitleUnicode:Point Zero One
Artist:SynthWulf
ArtistUnicode:SynthWulf
Creator:Living Flower
Version:.01
Source:
Tags:
BeatmapID:1295400
BeatmapSetID:614035

[Difficulty]
HPDrainRate:3
CircleSize:3
OverallDifficulty:2
ApproachRate:2
SliderMultiplier:0.9
SliderTickRate:1

[Events]
//Background and Video events
0,0,"bg.png",0,0
//Break Periods
2,71022,86203
2,110551,113027
//Storyboard Layer 0 (Background)
//Storyboard Layer 1 (Fail)
//Storyboard Layer 2 (Pass)
//Storyboard Layer 3 (Foreground)
//Storyboard Sound Samples

[TimingPoints]
1645,352.941176470588,4,2,0,100,1,0
12940,352.941176470588,4,2,0,100,1,0
70822,-100,4,2,0,5,0,0
73645,-100,4,2,0,25,0,0
76469,-100,4,2,0,33,0,0
79292,-100,4,2,0,50,0,0
82116,-100,4,2,0,66,0,0
84939,-100,4,2,0,75,0,0
87763,-100,4,2,0,95,0,0
93410,-83.3333333333333,4,2,0,100,0,1
106822,-100,4,2,0,100,0,0
107528,-100,4,2,0,100,0,1
109645,-100,4,2,0,100,0,0
110351,-100,4,2,0,100,0,1
114587,-100,4,2,0,100,0,0
115998,-133.333333333333,4,2,0,30,0,1
118469,-133.333333333333,4,2,0,5,0,0

[HitObjects]
256,192,24234,12,0,25292,0:0:0:0:
160,224,25645,6,0,P|240:240|304:224,2,135
88,96,27057,5,0,0:0:0:0:
234,94,27587,1,0,0:0:0:0:
380,96,28116,1,0,0:0:0:0:
305,221,28469,6,0,P|238:231|173:215,1,135
101,343,29528,1,0,0:0:0:0:
247,345,29881,5,0,0:0:0:0:
250,139,30410,1,0,0:0:0:0:
104,137,30939,1,0,0:0:0:0:
305,221,31292,6,0,P|238:231|173:215,1,135
208,73,32351,1,0,0:0:0:0:
347,112,32704,6,0,B|416:96|416:96|480:96,2,135
219,40,34116,5,0,0:0:0:0:
258,179,34645,2,0,B|242:248|242:248|242:312,1,135
73,81,37292,2,0,B|56:128|56:128|56:176,2,90
126,295,38351,5,0,0:0:0:0:
230,193,38704,1,0,0:0:0:0:
331,297,39057,2,0,B|368:264|368:264|368:212,1,90
360,152,39587,1,0,0:0:0:0:
328,88,39763,6,0,B|295:51|295:51|243:51,1,90
150,153,40469,1,0,0:0:0:0:
49,50,40822,1,0,0:0:0:0:
56,200,41175,6,0,B|73:245|73:245|121:245,1,90
215,348,41881,1,0,0:0:0:0:
339,275,42234,2,0,B|288:240,1,45
228,272,42587,6,0,B|182:284|182:284|143:323,2,90
353,345,43645,1,0,0:0:0:0:
355,199,43998,6,0,B|326:158|326:158|278:158,1,90
126,86,44704,2,0,B|100:124|100:124|100:172,1,90
174,291,45410,6,0,B|237:260|237:260|300:288,2,135
398,182,46822,5,0,0:0:0:0:
273,108,47351,2,0,B|206:85|206:85|158:128,1,135
37,63,48234,5,0,0:0:0:0:
36,208,48587,1,0,0:0:0:0:
137,311,48939,2,0,L|175:287,1,45
149,206,49292,1,0,0:0:0:0:
169,98,49645,6,0,B|241:118|241:118|309:158,2,135
310,63,51057,6,0,B|377:113|377:113|449:113,2,135
240,60,52292,1,0,0:0:0:0:
165,61,52469,5,0,0:0:0:0:
266,164,52822,1,0,0:0:0:0:
162,265,53175,2,0,B|108:240|108:240|76:216,1,90
128,160,53704,1,0,0:0:0:0:
97,91,53881,5,0,0:0:0:0:
238,56,54234,2,0,B|249:98|249:98|317:98,1,90
366,224,54939,1,0,0:0:0:0:
262,325,55292,6,0,B|169:302|169:302|185:210,1,180
38,218,56351,2,0,B|49:166|49:166,1,45
8,111,56704,5,0,0:0:0:0:
147,72,57057,2,0,B|185:102|185:102|245:102,2,90
364,63,58116,6,0,B|393:102|393:102|409:142,1,90
336,141,58645,1,0,0:0:0:0:
280,338,59175,1,0,0:0:0:0:
140,299,59528,5,0,0:0:0:0:
243,197,59881,2,0,B|289:214|289:214|349:214,1,90
225,111,60939,6,0,B|185:86|185:86|141:82,2,90
84,147,61998,1,0,0:0:0:0:
224,186,62351,5,0,0:0:0:0:
328,85,63057,2,0,B|365:110|365:110|393:162,1,90
358,217,63587,1,0,0:0:0:0:
312,274,63763,6,0,B|265:274|265:274|217:254,1,90
175,311,64292,1,0,0:0:0:0:
109,338,64469,2,0,B|93:294|93:294|89:250,1,90
69,178,64998,1,0,0:0:0:0:
128,132,65175,6,0,B|165:78|165:78|237:78,1,135
270,139,65881,2,0,B|317:182|317:182|345:246,2,112.5
124,137,67116,5,0,0:0:0:0:
225,241,67292,1,0,0:0:0:0:
79,239,67998,2,0,B|53:178|53:178|53:106,1,135
128,117,68704,2,0,B|160:121|160:121|188:121,1,45
245,138,69057,1,0,0:0:0:0:
256,192,69410,12,0,70822,0:0:0:0:
256,192,87763,12,0,91998,0:0:0:0:
256,192,93410,6,0,B|308:164|308:164|308:112,1,107.999996704102
236,112,93940,1,0,0:0:0:0:
163,114,94116,2,0,B|112:108|112:108|72:48,1,107.999996704102
76,176,94645,1,0,0:0:0:0:
100,252,94822,6,0,B|136:300|136:300|184:300,1,107.999996704102
287,198,95528,1,0,0:0:0:0:
236,148,95704,1,0,0:0:0:0:
221,76,95881,2,0,B|249:60|249:60|293:60,1,53.9999983520508
332,102,96234,6,0,B|380:144|380:144|368:196,1,107.999996704102
441,209,96763,1,0,0:0:0:0:
442,281,96939,2,0,B|396:308|396:308|336:280,1,107.999996704102
288,332,97469,1,0,0:0:0:0:
212,320,97645,6,0,B|152:312|152:312|96:328,1,107.999996704102
56,274,98175,1,0,0:0:0:0:
57,202,98351,2,0,B|76:144|76:144|124:152,1,107.999996704102
226,253,99057,6,0,B|260:204|260:204|232:160,1,107.999996704102
188,104,99587,1,0,0:0:0:0:
256,192,103292,12,0,104704,0:0:0:0:
256,188,106822,5,0,0:0:0:0:
256,188,107528,1,0,0:0:0:0:
256,188,109645,1,0,0:0:0:0:
256,188,110351,1,0,0:0:0:0:
256,192,114587,6,0,B|312:148|312:148|392:164,1,135
312,280,115469,2,0,B|280:320|280:320|232:324,1,90
256,192,115998,12,0,118469,0:0:0:0:
