osu file format v14

[General]
AudioFilename: audio.mp3
AudioLeadIn: 0
PreviewTime: 77443
Countdown: 0
SampleSet: Soft
StackLeniency: 0.5
Mode: 0
LetterboxInBreaks: 0
EpilepsyWarning: 1
WidescreenStoryboard: 1

[Editor]
Bookmarks: 10971,21942,43885,54857,65828
DistanceSpacing: 1
BeatDivisor: 4
GridSize: 16
TimelineZoom: 1.7

[Metadata]
Title:Passacaglia
TitleUnicode:파사칼리아
Artist:SynthWulf
ArtistUnicode:SynthWulf
Creator:Down
Version:Easy
Source:PUMP IT UP - 2013 FIESTA 2 -
Tags:andamiro piu dailycare morinaga helloscv
BeatmapID:1594987
BeatmapSetID:758227

[Difficulty]
HPDrainRate:2
CircleSize:3
OverallDifficulty:2
ApproachRate:3
SliderMultiplier:0.9
SliderTickRate:1

[Events]
//Background and Video events
0,0,"bg.jpg",0,0
//Break Periods
2,44563,54064
//Storyboard Layer 0 (Background)
//Storyboard Layer 1 (Fail)
//Storyboard Layer 2 (Pass)
//Storyboard Layer 3 (Foreground)
//Storyboard Sound Samples

[TimingPoints]
657,342.798377421014,4,2,1,40,1,0
11626,-100,4,2,1,40,0,0
66474,-100,4,2,1,65,0,1
87042,-100,4,2,1,65,0,0
88413,-100,4,2,1,65,0,1
110352,-100,4,2,1,40,0,0

[Colours]
Combo1 : 230,230,230
Combo2 : 0,128,255
Combo3 : 142,193,255
Combo4 : 123,255,123
Combo5 : 166,255,210
SliderBorder : 49,101,208
SliderTrackOverride : 40,40,40

[HitObjects]
135,60,11626,38,0,L|161:154,1,90,4|2,0:0|0:0,0:0:0:0:
261,235,12483,2,0,L|278:288,1,45,4|2,0:0|0:0,0:0:0:0:
342,337,12997,2,0,P|364:295|357:248,1,90,4|2,0:0|0:0,0:0:0:0:
280,144,13854,2,0,L|290:82,1,45,4|2,0:0|0:0,0:0:0:0:
206,59,14368,6,0,L|186:168,1,90,4|2,0:0|0:0,0:0:0:0:
84,232,15225,2,0,L|96:287,1,45,4|2,0:0|0:0,0:0:0:0:
170,323,15740,1,4,0:0:0:0:
252,286,16082,2,0,P|259:338|240:382,2,90,2|0|2,0:0|0:0|0:0,0:0:0:0:
181,229,17111,54,0,P|227:198|268:196,1,90,4|2,0:0|0:0,0:0:0:0:
319,73,17968,2,0,L|379:67,1,45,4|2,0:0|0:0,0:0:0:0:
419,139,18482,1,4,0:0:0:0:
361,208,18825,2,0,P|352:258|372:302,2,90,2|0|2,0:0|0:0|0:0,0:0:0:0:
441,248,19853,6,0,P|455:290|445:333,1,90,4|2,0:0|0:0,0:0:0:0:
314,367,20710,2,0,L|250:357,1,45,4|2,0:0|0:0,0:0:0:0:
181,340,21224,2,0,B|121:273|121:273|166:86,1,270,4|4,0:0|0:0,0:0:0:0:
223,30,22596,22,0,B|258:81|258:81|233:202,1,180,4|0,0:0|0:0,0:0:0:0:
263,282,23624,1,2,0:0:0:0:
179,314,23967,2,0,P|100:286|61:196,1,180,4|0,0:0|0:0,0:0:0:0:
73,113,24995,1,2,0:0:0:0:
146,166,25338,6,0,P|192:204|211:246,1,90,4|2,0:0|0:0,0:0:0:0:
296,232,26024,2,0,P|319:194|356:167,1,90,0|2,0:0|0:0,0:0:0:0:
367,78,26709,2,0,B|307:83|251:138|251:138|201:85|131:72,1,270,4|2,0:0|0:0,0:0:0:0:
62,128,28080,53,4,0:0:0:0:
130,187,28423,2,0,P|136:234|116:276,2,90,2|0|2,0:0|0:0|0:0,0:0:0:0:
46,220,29452,2,0,P|38:308|108:360,1,180,4|0,0:0|0:0,0:0:0:0:
189,329,30480,1,2,0:0:0:0:
268,371,30823,6,0,P|280:320|264:282,1,90,4|2,0:0|0:0,0:0:0:0:
345,241,31508,2,0,P|306:205|265:199,1,90,0|2,0:0|0:0,0:0:0:0:
188,235,32194,2,0,P|138:178|175:73,1,180,4|0,0:0|0:0,0:0:0:0:
246,115,33222,1,2,0:0:0:0:
308,50,33565,54,0,L|405:37,2,90,0|4|2,0:0|0:0|0:0,0:0:0:0:
282,228,34936,2,0,L|476:200,1,180,4|2,0:0|0:0,0:0:0:0:
416,377,36308,6,0,L|311:364,1,90,4|2,0:0|0:0,0:0:0:0:
253,312,36993,2,0,L|148:299,1,90,0|2,0:0|0:0,0:0:0:0:
105,370,37679,2,0,B|69:317|69:317|96:197,1,180,4|0,0:0|0:0,0:0:0:0:
169,153,38707,1,2,0:0:0:0:
87,113,39050,54,0,L|61:6,2,90,4|0|2,0:0|0:0|0:0,0:0:0:0:
262,153,40421,2,0,L|309:344,1,180,4|2,0:0|0:0,0:0:0:0:
132,275,41792,6,0,L|29:261,1,90,4|2,0:0|0:0,0:0:0:0:
87,180,42478,2,0,L|190:194,1,90,0|2,0:0|0:0,0:0:0:0:
262,153,43163,1,4,0:0:0:0:
254,242,43506,1,2,0:0:0:0:
336,206,43849,2,0,P|342:223|335:277,2,67.5,4|4|4,0:0|0:0|0:0,0:0:0:0:
336,206,55504,6,0,L|351:103,2,90,4|4|4,0:0|0:0|0:0,0:0:0:0:
276,273,56533,1,4,0:0:0:0:
247,187,56875,2,0,L|262:84,2,90,4|4|4,0:0|0:0|0:0,0:0:0:0:
187,254,57904,1,4,0:0:0:0:
100,229,58247,6,0,P|96:273|120:317,2,90,4|4|4,0:0|0:0|0:0,0:0:0:0:
120,141,59275,1,4,0:0:0:0:
206,166,59618,2,0,P|209:125|182:77,2,90,4|4|4,0:0|0:0|0:0,0:0:0:0:
187,254,60646,1,4,0:0:0:0:
260,305,60989,54,0,L|360:285,1,90,4|4,0:0|0:0,0:0:0:0:
382,203,61675,2,0,L|470:185,1,90,4|4,0:0|0:0,0:0:0:0:
497,99,62360,2,0,P|420:87|322:135,1,180,4|4,0:0|0:0,0:0:0:0:
289,208,63389,1,4,0:0:0:0:
211,254,63731,6,0,B|198:213|198:213|211:151,2,90,4|4|4,0:0|0:0|0:0,0:0:0:0:
289,208,64760,1,4,0:0:0:0:
286,117,65103,2,0,P|256:50|128:132,1,270
74,199,66474,22,0,L|84:301,1,90,4|12,0:0|0:0,0:0:0:0:
173,290,67159,2,0,L|183:188,1,90,4|12,0:0|0:0,0:0:0:0:
126,126,67845,2,0,P|79:110|22:123,2,90,4|12|4,0:0|0:0|0:0,0:0:0:0:
74,199,68873,1,12,0:0:0:0:
141,258,69216,6,0,P|187:258|236:223,1,90,4|12,0:0|0:0,0:0:0:0:
291,297,69902,2,0,P|314:257|308:197,1,90,4|12,0:0|0:0,0:0:0:0:
401,190,70587,2,0,P|377:150|323:125,2,90,4|12|4,0:0|0:0|0:0,0:0:0:0:
469,248,71616,1,12,0:0:0:0:
489,160,71959,54,0,L|509:58,1,90,4|12,0:0|0:0,0:0:0:0:
419,46,72644,2,0,L|401:134,1,90,4|12,0:0|0:0,0:0:0:0:
314,112,73330,2,0,L|334:10,2,90,4|12|4,0:0|0:0|0:0,0:0:0:0:
337,199,74358,1,12,0:0:0:0:
249,176,74701,6,0,P|260:249|363:289,1,180,4|4,0:0|0:0,0:0:0:0:
422,237,75729,1,12,0:0:0:0:
404,148,76072,2,0,B|351:164|337:203|337:203|343:159|328:95|267:79|213:95,1,270,4|4,0:0|0:0,0:0:0:0:
161,146,77443,54,0,L|58:131,1,90,4|12,0:0|0:0,0:0:0:0:
60,222,78129,2,0,L|149:234,1,90,4|12,0:0|0:0,0:0:0:0:
233,201,78815,2,0,L|322:213,2,90,4|12|4,0:0|0:0|0:0,0:0:0:0:
161,146,79843,1,12,0:0:0:0:
149,234,80186,6,0,L|127:326,1,90,4|12,0:0|0:0,0:0:0:0:
40,301,80871,2,0,L|60:213,1,90,4|12,0:0|0:0,0:0:0:0:
25,130,81557,2,0,P|17:85|45:38,2,90,4|12|4,0:0|0:0|0:0,0:0:0:0:
108,97,82585,1,12,0:0:0:0:
151,175,82928,54,0,L|252:155,1,90,4|12,0:0|0:0,0:0:0:0:
243,247,83614,2,0,L|331:229,1,90,4|12,0:0|0:0,0:0:0:0:
328,319,84299,2,0,L|416:301,2,90,4|12|4,0:0|0:0|0:0,0:0:0:0:
239,336,85328,1,12,0:0:0:0:
267,250,85670,6,0,P|277:178|204:98,1,180,4|4,0:0|0:0,0:0:0:0:
126,77,86699,2,0,P|122:120|149:164,1,90,4|0,0:0|0:0,0:0:0:0:
145,160,88413,6,0,L|330:133,2,180,4|2|0,0:0|0:0|0:0,0:0:0:0:
85,227,90127,1,4,0:0:0:0:
172,248,90470,2,0,L|272:231,1,90,2|0,0:0|0:0,0:0:0:0:
350,220,91155,6,0,P|411:154|379:65,2,180,4|2|0,0:0|0:0|0:0,0:0:0:0:
323,134,92869,1,4,0:0:0:0:
262,200,93212,2,0,P|267:260|299:292,1,90,2|0,0:0|0:0,0:0:0:0:
364,324,93898,54,0,P|280:315|199:380,2,180,4|2|0,0:0|0:0|0:0,0:0:0:0:
441,369,95612,1,4,0:0:0:0:
447,279,95954,2,0,L|469:171,1,90,2|0,0:0|0:0,0:0:0:0:
478,101,96640,6,0,P|379:40|394:135,1,270,4|0,0:0|0:0,0:0:0:0:
464,190,98011,2,0,B|410:245|338:207|338:207|381:278|345:336,1,270
273,280,99382,54,0,B|279:262|224:222|243:156|285:132|314:128,2,180,4|2|0,0:0|0:0|0:0,0:0:0:0:
218,351,101096,1,4,0:0:0:0:
135,315,101439,2,0,P|94:272|92:232,1,90,2|0,0:0|0:0,0:0:0:0:
94,155,102125,6,0,B|173:171|175:239|175:239|183:218|213:193,2,180,4|2|0,0:0|0:0|0:0,0:0:0:0:
31,90,103839,1,0,0:0:0:0:
120,73,104182,2,0,P|163:87|211:122,1,90,2|0,0:0|0:0,0:0:0:0:
281,151,104867,54,0,B|297:117|297:117|281:57,2,90,4|4|2,0:0|0:0|0:0,0:0:0:0:
219,217,105896,1,4,0:0:0:0:
165,289,106238,2,0,B|149:323|149:323|165:383,2,90,4|4|2,0:0|0:0|0:0,0:0:0:0:
219,217,107267,1,4,0:0:0:0:
306,237,107610,6,0,L|327:327,1,90,4|2,0:0|0:0,0:0:0:0:
414,305,108295,2,0,L|393:215,1,90,4|2,0:0|0:0,0:0:0:0:
331,152,108981,2,0,P|317:80|243:173,1,270,2|2,0:0|0:0,0:0:0:0:
306,237,110352,5,4,0:0:0:0:
