osu file format v14

[General]
AudioFilename: audio.mp3
AudioLeadIn: 0
PreviewTime: 43616
Countdown: 0
SampleSet: Soft
StackLeniency: 0.7
Mode: 3
LetterboxInBreaks: 0
SpecialStyle: 0
WidescreenStoryboard: 0

[Editor]
Bookmarks: 320,32707,43616,65434,87252,109070,130889,141798,184752
DistanceSpacing: 0.8
BeatDivisor: 4
GridSize: 32
TimelineZoom: 0.9999989

[Metadata]
Title:Faraway
TitleUnicode:Faraway
Artist:Synergy Sound
ArtistUnicode:Synergy Sound
Creator:-MysticEyes
Version:intermediate
Source:
Tags:Fanservice Collective electronic
BeatmapID:2060021
BeatmapSetID:983271

[Difficulty]
HPDrainRate:7
CircleSize:4
OverallDifficulty:7
ApproachRate:5
SliderMultiplier:1.4
SliderTickRate:1

[Events]
//Background and Video events
0,0,"far.jpg",0,0
//Break Periods
2,861,4575
//Storyboard Layer 0 (Background)
//Storyboard Layer 1 (Fail)
//Storyboard Layer 2 (Pass)
//Storyboard Layer 3 (Foreground)
//Storyboard Layer 4 (Overlay)
//Storyboard Sound Samples

[TimingPoints]
-20,681.818181818182,4,2,1,40,1,0
10889,-100,4,2,1,95,0,0
32707,-100,4,2,1,65,0,0
38161,-100,4,2,1,70,0,0
38843,-100,4,2,1,75,0,0
39525,-100,4,2,1,80,0,0
40207,-100,4,2,1,85,0,0
40889,-100,4,2,1,90,0,0
41570,-100,4,2,1,95,0,0
43616,-100,4,2,1,95,0,1
65434,-100,4,2,1,95,0,0
130889,-100,4,2,1,65,0,0
136343,-100,4,2,1,75,0,0
137707,-100,4,2,1,85,0,0
139070,-100,4,2,1,90,0,0
139752,-100,4,2,1,95,0,0
141798,-100,4,2,1,95,0,1
173843,-100,4,2,1,95,0,0
174525,-100,4,2,1,95,0,1
184752,-100,4,2,1,95,0,0

[HitObjects]
448,192,320,5,0,0:0:0:0:
64,192,661,1,0,0:0:0:0:
448,192,5775,5,0,0:0:0:0:
64,192,6116,1,0,0:0:0:0:
320,192,8502,1,0,0:0:0:0:
192,192,8843,1,0,0:0:0:0:
320,192,10889,1,2,0:0:0:0:
448,192,10889,1,0,0:0:0:0:
192,192,11059,1,0,0:0:0:0:
320,192,11400,1,0,0:0:0:0:
64,192,11570,1,8,0:0:0:0:
448,192,11570,1,0,0:0:0:0:
192,192,11826,1,0,0:0:0:0:
192,192,12082,1,0,0:0:0:0:
448,192,12252,128,0,12593:0:0:0:0:
192,192,12593,128,2,12934:0:0:0:0:
64,192,12934,1,8,0:0:0:0:
448,192,12934,1,0,0:0:0:0:
320,192,13105,1,0,0:0:0:0:
192,192,13275,1,0,0:0:0:0:
64,192,13445,1,0,0:0:0:0:
320,192,13616,1,2,0:0:0:0:
448,192,13616,1,0,0:0:0:0:
192,192,13786,1,0,0:0:0:0:
320,192,14127,1,0,0:0:0:0:
64,192,14298,1,8,0:0:0:0:
448,192,14298,1,0,0:0:0:0:
320,192,14468,1,0,0:0:0:0:
192,192,14809,1,0,0:0:0:0:
320,192,15320,128,2,15661:0:0:0:0:
448,192,15320,1,0,0:0:0:0:
64,192,15661,1,8,0:0:0:0:
448,192,15661,1,0,0:0:0:0:
192,192,15832,1,0,0:0:0:0:
320,192,16002,1,0,0:0:0:0:
64,192,16173,128,0,16343:0:0:0:0:
320,192,16343,1,2,0:0:0:0:
448,192,16343,1,0,0:0:0:0:
192,192,16514,1,0,0:0:0:0:
320,192,16855,1,0,0:0:0:0:
64,192,17025,1,8,0:0:0:0:
448,192,17025,1,0,0:0:0:0:
192,192,17281,1,0,0:0:0:0:
192,192,17536,1,0,0:0:0:0:
448,192,17707,128,0,18048:0:0:0:0:
192,192,18048,128,2,18389:0:0:0:0:
64,192,18389,1,8,0:0:0:0:
448,192,18389,1,0,0:0:0:0:
320,192,18559,1,0,0:0:0:0:
192,192,18730,1,0,0:0:0:0:
64,192,18900,1,0,0:0:0:0:
320,192,19070,1,2,0:0:0:0:
448,192,19070,1,0,0:0:0:0:
192,192,19241,1,0,0:0:0:0:
320,192,19582,1,0,0:0:0:0:
64,192,19752,1,8,0:0:0:0:
448,192,19752,1,0,0:0:0:0:
192,192,20008,1,0,0:0:0:0:
192,192,20264,1,0,0:0:0:0:
448,192,20605,128,0,20775:0:0:0:0:
64,192,20775,1,2,0:0:0:0:
192,192,20775,1,0,0:0:0:0:
320,192,20945,128,0,21116:0:0:0:0:
64,192,21116,1,8,0:0:0:0:
448,192,21116,1,0,0:0:0:0:
64,192,21286,1,2,0:0:0:0:
192,192,21286,1,0,0:0:0:0:
320,192,21457,1,0,0:0:0:0:
64,192,21627,128,0,21798:0:0:0:0:
320,192,21798,1,2,0:0:0:0:
448,192,21798,1,0,0:0:0:0:
192,192,21968,1,0,0:0:0:0:
320,192,22309,1,0,0:0:0:0:
64,192,22480,1,8,0:0:0:0:
448,192,22480,1,0,0:0:0:0:
192,192,22735,1,0,0:0:0:0:
192,192,22991,1,0,0:0:0:0:
448,192,23161,128,0,23502:0:0:0:0:
192,192,23502,128,2,23843:0:0:0:0:
64,192,23843,1,8,0:0:0:0:
448,192,23843,1,0,0:0:0:0:
320,192,24014,1,0,0:0:0:0:
192,192,24184,1,0,0:0:0:0:
64,192,24355,1,0,0:0:0:0:
320,192,24525,1,2,0:0:0:0:
448,192,24525,1,0,0:0:0:0:
192,192,24695,1,0,0:0:0:0:
320,192,25036,1,0,0:0:0:0:
64,192,25207,1,8,0:0:0:0:
448,192,25207,1,0,0:0:0:0:
320,192,25377,1,0,0:0:0:0:
192,192,25718,1,0,0:0:0:0:
320,192,26230,128,2,26570:0:0:0:0:
448,192,26230,1,0,0:0:0:0:
64,192,26570,1,8,0:0:0:0:
448,192,26570,1,0,0:0:0:0:
192,192,26741,1,0,0:0:0:0:
320,192,26911,1,0,0:0:0:0:
64,192,27082,128,0,27252:0:0:0:0:
320,192,27252,1,2,0:0:0:0:
448,192,27252,1,0,0:0:0:0:
192,192,27423,1,0,0:0:0:0:
320,192,27764,1,0,0:0:0:0:
64,192,27934,1,8,0:0:0:0:
448,192,27934,1,0,0:0:0:0:
192,192,28190,1,0,0:0:0:0:
192,192,28445,1,0,0:0:0:0:
448,192,28616,128,0,28957:0:0:0:0:
192,192,28957,128,2,29298:0:0:0:0:
64,192,29298,1,8,0:0:0:0:
448,192,29298,1,0,0:0:0:0:
320,192,29468,1,0,0:0:0:0:
192,192,29639,1,0,0:0:0:0:
64,192,29809,1,0,0:0:0:0:
320,192,29980,1,2,0:0:0:0:
448,192,29980,1,0,0:0:0:0:
192,192,30150,1,0,0:0:0:0:
320,192,30491,1,0,0:0:0:0:
64,192,30661,1,8,0:0:0:0:
448,192,30661,1,0,0:0:0:0:
192,192,30917,1,0,0:0:0:0:
192,192,31173,1,0,0:0:0:0:
448,192,31514,128,0,31684:0:0:0:0:
64,192,31684,1,2,0:0:0:0:
192,192,31684,1,0,0:0:0:0:
320,192,31855,128,0,32025:0:0:0:0:
64,192,32025,1,8,0:0:0:0:
448,192,32025,1,0,0:0:0:0:
64,192,32195,1,2,0:0:0:0:
192,192,32195,1,0,0:0:0:0:
448,192,32366,1,0,0:0:0:0:
64,192,32536,128,0,32707:0:0:0:0:
320,192,32707,1,0,0:0:0:0:
448,192,32962,1,2,0:0:0:0:
192,192,33218,1,2,0:0:0:0:
320,192,33389,1,2,0:0:0:0:
320,192,33644,1,2,0:0:0:0:
64,192,33900,1,2,0:0:0:0:
192,192,34070,1,2,0:0:0:0:
192,192,34326,1,2,0:0:0:0:
320,192,34582,1,2,0:0:0:0:
448,192,34752,1,2,0:0:0:0:
192,192,35008,1,2,0:0:0:0:
320,192,35264,1,2,0:0:0:0:
64,192,35434,1,2,0:0:0:0:
64,192,35690,1,2,0:0:0:0:
320,192,35945,1,2,0:0:0:0:
192,192,36116,1,2,0:0:0:0:
192,192,36372,1,2,0:0:0:0:
448,192,36627,1,2,0:0:0:0:
320,192,36798,1,2,0:0:0:0:
320,192,37053,1,2,0:0:0:0:
192,192,37309,1,2,0:0:0:0:
64,192,37480,1,2,0:0:0:0:
320,192,37735,1,2,0:0:0:0:
192,192,37991,1,2,0:0:0:0:
448,192,38161,1,2,0:0:0:0:
448,192,38417,1,2,0:0:0:0:
192,192,38673,1,2,0:0:0:0:
320,192,38843,1,2,0:0:0:0:
320,192,39099,1,2,0:0:0:0:
64,192,39355,1,2,0:0:0:0:
192,192,39525,1,2,0:0:0:0:
192,192,39781,1,2,0:0:0:0:
320,192,40036,1,2,0:0:0:0:
64,192,40207,1,2,0:0:0:0:
192,192,40462,1,2,0:0:0:0:
448,192,40718,1,2,0:0:0:0:
64,192,40889,1,2,0:0:0:0:
192,192,40889,1,0,0:0:0:0:
448,192,41059,1,0,0:0:0:0:
320,192,41230,1,0,0:0:0:0:
64,192,41400,1,2,0:0:0:0:
320,192,41570,1,2,0:0:0:0:
448,192,41570,1,0,0:0:0:0:
192,192,41741,1,0,0:0:0:0:
64,192,41911,1,0,0:0:0:0:
448,192,42082,1,2,0:0:0:0:
64,192,42252,1,2,0:0:0:0:
192,192,42252,1,0,0:0:0:0:
448,192,42423,1,0,0:0:0:0:
320,192,42593,1,0,0:0:0:0:
192,192,42764,1,2,0:0:0:0:
64,192,42934,1,0,0:0:0:0:
448,192,42934,1,0,0:0:0:0:
320,192,43275,128,0,43616:0:0:0:0:
448,192,43275,128,0,43616:0:0:0:0:
64,192,43616,1,2,0:0:0:0:
192,192,43616,1,4,0:0:0:0:
320,192,44127,1,2,0:0:0:0:
448,192,44127,1,0,0:0:0:0:
64,192,44298,1,8,0:0:0:0:
448,192,44639,128,0,44809:0:0:0:0:
320,192,44809,128,0,44980:0:0:0:0:
64,192,44980,1,2,0:0:0:0:
192,192,44980,1,0,0:0:0:0:
448,192,45150,1,0,0:0:0:0:
64,192,45320,1,2,0:0:0:0:
192,192,45320,1,0,0:0:0:0:
320,192,45661,128,8,45832:0:0:0:0:
192,192,45832,128,0,46002:0:0:0:0:
64,192,46002,128,0,46173:0:0:0:0:
320,192,46173,1,2,0:0:0:0:
448,192,46173,128,0,46343:0:0:0:0:
64,192,46343,1,2,0:0:0:0:
192,192,46343,1,0,0:0:0:0:
320,192,46514,1,0,0:0:0:0:
192,192,46855,1,0,0:0:0:0:
64,192,47025,1,8,0:0:0:0:
320,192,47195,1,2,0:0:0:0:
448,192,47195,1,0,0:0:0:0:
192,192,47366,1,0,0:0:0:0:
320,192,47536,1,2,0:0:0:0:
448,192,47536,1,0,0:0:0:0:
64,192,47707,1,2,0:0:0:0:
192,192,47707,1,0,0:0:0:0:
448,192,47877,1,0,0:0:0:0:
64,192,48048,1,2,0:0:0:0:
192,192,48048,1,0,0:0:0:0:
320,192,48389,128,8,48559:0:0:0:0:
192,192,48559,1,0,0:0:0:0:
448,192,48730,128,0,48900:0:0:0:0:
64,192,48900,128,0,49070:0:0:0:0:
320,192,49070,1,4,0:0:0:0:
448,192,49070,1,2,0:0:0:0:
64,192,49582,1,2,0:0:0:0:
192,192,49582,1,0,0:0:0:0:
448,192,49752,1,8,0:0:0:0:
64,192,50093,128,0,50264:0:0:0:0:
192,192,50264,128,0,50434:0:0:0:0:
320,192,50434,1,2,0:0:0:0:
448,192,50434,1,0,0:0:0:0:
64,192,50605,1,0,0:0:0:0:
320,192,50775,1,2,0:0:0:0:
448,192,50775,1,0,0:0:0:0:
192,192,51116,128,8,51286:0:0:0:0:
320,192,51286,128,0,51457:0:0:0:0:
448,192,51457,128,0,51627:0:0:0:0:
64,192,51627,128,2,51798:0:0:0:0:
192,192,51627,1,0,0:0:0:0:
320,192,51798,1,2,0:0:0:0:
448,192,51798,1,0,0:0:0:0:
64,192,52053,1,2,0:0:0:0:
192,192,52309,1,2,0:0:0:0:
64,192,52480,1,8,0:0:0:0:
448,192,52480,1,2,0:0:0:0:
320,192,52735,1,2,0:0:0:0:
448,192,52991,1,2,0:0:0:0:
64,192,53161,1,2,0:0:0:0:
192,192,53161,1,0,0:0:0:0:
448,192,53417,1,2,0:0:0:0:
320,192,53673,1,2,0:0:0:0:
64,192,53843,1,8,0:0:0:0:
448,192,53843,1,0,0:0:0:0:
192,192,54099,1,2,0:0:0:0:
192,192,54355,1,0,0:0:0:0:
320,192,54525,1,2,0:0:0:0:
448,192,54525,1,4,0:0:0:0:
64,192,55036,1,2,0:0:0:0:
192,192,55036,1,0,0:0:0:0:
448,192,55207,1,8,0:0:0:0:
64,192,55548,128,0,55718:0:0:0:0:
192,192,55718,128,0,55889:0:0:0:0:
320,192,55889,1,2,0:0:0:0:
448,192,55889,1,0,0:0:0:0:
64,192,56059,1,0,0:0:0:0:
320,192,56230,1,2,0:0:0:0:
448,192,56230,1,0,0:0:0:0:
192,192,56570,128,8,56741:0:0:0:0:
320,192,56741,128,0,56911:0:0:0:0:
448,192,56911,128,0,57082:0:0:0:0:
64,192,57082,128,2,57252:0:0:0:0:
192,192,57082,1,0,0:0:0:0:
320,192,57252,1,2,0:0:0:0:
448,192,57252,1,0,0:0:0:0:
192,192,57423,1,0,0:0:0:0:
320,192,57764,1,0,0:0:0:0:
448,192,57934,1,8,0:0:0:0:
64,192,58105,1,2,0:0:0:0:
192,192,58105,1,0,0:0:0:0:
320,192,58275,1,0,0:0:0:0:
64,192,58445,1,2,0:0:0:0:
192,192,58445,1,0,0:0:0:0:
320,192,58616,1,2,0:0:0:0:
448,192,58616,1,0,0:0:0:0:
64,192,58786,1,0,0:0:0:0:
320,192,58957,1,2,0:0:0:0:
448,192,58957,1,0,0:0:0:0:
192,192,59298,128,8,59468:0:0:0:0:
320,192,59468,1,0,0:0:0:0:
64,192,59639,128,0,59809:0:0:0:0:
448,192,59809,128,0,59980:0:0:0:0:
64,192,59980,1,4,0:0:0:0:
192,192,59980,1,2,0:0:0:0:
320,192,60491,1,2,0:0:0:0:
448,192,60491,1,0,0:0:0:0:
64,192,60661,1,8,0:0:0:0:
448,192,61002,128,0,61173:0:0:0:0:
320,192,61173,128,0,61343:0:0:0:0:
64,192,61343,1,2,0:0:0:0:
192,192,61343,1,0,0:0:0:0:
448,192,61514,1,0,0:0:0:0:
64,192,61684,1,2,0:0:0:0:
192,192,61684,1,0,0:0:0:0:
320,192,62025,128,8,62195:0:0:0:0:
192,192,62195,128,0,62366:0:0:0:0:
64,192,62366,128,0,62536:0:0:0:0:
320,192,62536,1,2,0:0:0:0:
448,192,62536,128,0,62707:0:0:0:0:
64,192,62707,1,2,0:0:0:0:
192,192,62707,1,0,0:0:0:0:
448,192,62962,1,2,0:0:0:0:
320,192,63218,1,2,0:0:0:0:
64,192,63389,1,8,0:0:0:0:
448,192,63389,1,2,0:0:0:0:
192,192,63644,1,2,0:0:0:0:
64,192,63900,1,2,0:0:0:0:
320,192,64070,1,2,0:0:0:0:
448,192,64070,1,0,0:0:0:0:
64,192,64326,1,2,0:0:0:0:
192,192,64582,1,2,0:0:0:0:
64,192,64752,1,8,0:0:0:0:
448,192,64752,1,0,0:0:0:0:
64,192,65434,1,2,0:0:0:0:
192,192,65434,1,0,0:0:0:0:
320,192,65605,1,0,0:0:0:0:
192,192,65945,1,0,0:0:0:0:
64,192,66116,1,8,0:0:0:0:
448,192,66116,1,0,0:0:0:0:
320,192,66372,1,0,0:0:0:0:
320,192,66627,1,0,0:0:0:0:
192,192,66798,128,0,67139:0:0:0:0:
320,192,67139,1,2,0:0:0:0:
448,192,67139,1,0,0:0:0:0:
64,192,67480,1,8,0:0:0:0:
448,192,67480,1,0,0:0:0:0:
320,192,67650,1,0,0:0:0:0:
192,192,67820,1,0,0:0:0:0:
64,192,67991,1,0,0:0:0:0:
320,192,68332,1,2,0:0:0:0:
448,192,68332,1,0,0:0:0:0:
64,192,68502,1,2,0:0:0:0:
192,192,68502,1,0,0:0:0:0:
320,192,68673,1,0,0:0:0:0:
192,192,68843,128,8,69099:0:0:0:0:
320,192,69099,1,0,0:0:0:0:
192,192,69355,1,0,0:0:0:0:
320,192,69525,128,0,69866:0:0:0:0:
64,192,69866,1,2,0:0:0:0:
192,192,69866,1,0,0:0:0:0:
64,192,70207,1,8,0:0:0:0:
448,192,70207,1,0,0:0:0:0:
320,192,70377,1,0,0:0:0:0:
192,192,70548,1,0,0:0:0:0:
320,192,70718,1,0,0:0:0:0:
64,192,70889,1,2,0:0:0:0:
192,192,70889,1,0,0:0:0:0:
320,192,71059,1,0,0:0:0:0:
192,192,71400,1,0,0:0:0:0:
64,192,71570,1,8,0:0:0:0:
448,192,71570,1,0,0:0:0:0:
320,192,71826,1,0,0:0:0:0:
64,192,71911,1,2,0:0:0:0:
192,192,71911,1,0,0:0:0:0:
320,192,72082,1,0,0:0:0:0:
192,192,72252,128,0,72593:0:0:0:0:
320,192,72593,1,2,0:0:0:0:
448,192,72593,1,0,0:0:0:0:
64,192,72934,1,8,0:0:0:0:
448,192,72934,1,0,0:0:0:0:
192,192,73105,1,0,0:0:0:0:
320,192,73275,1,0,0:0:0:0:
448,192,73445,1,0,0:0:0:0:
64,192,73616,1,2,0:0:0:0:
192,192,73616,1,0,0:0:0:0:
320,192,73786,1,0,0:0:0:0:
64,192,73957,1,2,0:0:0:0:
192,192,73957,1,0,0:0:0:0:
320,192,74127,1,0,0:0:0:0:
64,192,74298,1,8,0:0:0:0:
448,192,74298,1,0,0:0:0:0:
192,192,74553,1,0,0:0:0:0:
320,192,74639,1,0,0:0:0:0:
192,192,74809,1,0,0:0:0:0:
320,192,74980,128,0,75320:0:0:0:0:
64,192,75320,1,2,0:0:0:0:
192,192,75320,1,0,0:0:0:0:
448,192,75661,1,0,0:0:0:0:
64,192,75661,1,8,0:0:0:0:
320,192,75832,1,0,0:0:0:0:
192,192,76002,1,0,0:0:0:0:
64,192,76173,1,0,0:0:0:0:
64,192,77025,1,2,0:0:0:0:
448,192,77025,1,8,0:0:0:0:
320,192,77281,1,0,0:0:0:0:
64,192,77366,1,2,0:0:0:0:
192,192,77366,1,0,0:0:0:0:
320,192,77536,1,0,0:0:0:0:
192,192,77707,128,0,78048:0:0:0:0:
320,192,78048,1,2,0:0:0:0:
448,192,78048,1,0,0:0:0:0:
64,192,78389,1,8,0:0:0:0:
448,192,78389,1,0,0:0:0:0:
320,192,78559,1,0,0:0:0:0:
192,192,78730,1,0,0:0:0:0:
64,192,78900,1,0,0:0:0:0:
320,192,79241,1,2,0:0:0:0:
448,192,79241,1,0,0:0:0:0:
64,192,79411,1,2,0:0:0:0:
192,192,79411,1,0,0:0:0:0:
320,192,79582,1,0,0:0:0:0:
192,192,79752,128,8,80008:0:0:0:0:
320,192,80008,1,0,0:0:0:0:
192,192,80264,1,0,0:0:0:0:
320,192,80434,128,0,80775:0:0:0:0:
64,192,80775,1,2,0:0:0:0:
192,192,80775,1,0,0:0:0:0:
64,192,81116,1,8,0:0:0:0:
448,192,81116,1,0,0:0:0:0:
320,192,81286,1,0,0:0:0:0:
192,192,81457,1,0,0:0:0:0:
320,192,81627,1,0,0:0:0:0:
64,192,81798,1,2,0:0:0:0:
192,192,81798,1,0,0:0:0:0:
320,192,81968,1,0,0:0:0:0:
192,192,82309,1,0,0:0:0:0:
64,192,82480,1,8,0:0:0:0:
448,192,82480,1,0,0:0:0:0:
320,192,82735,1,0,0:0:0:0:
64,192,82820,1,2,0:0:0:0:
192,192,82820,1,0,0:0:0:0:
320,192,82991,1,0,0:0:0:0:
192,192,83161,128,0,83502:0:0:0:0:
320,192,83502,1,2,0:0:0:0:
448,192,83502,1,0,0:0:0:0:
448,192,83843,1,0,0:0:0:0:
64,192,83843,1,8,0:0:0:0:
192,192,84014,1,0,0:0:0:0:
320,192,84184,1,0,0:0:0:0:
448,192,84355,1,0,0:0:0:0:
64,192,84525,1,2,0:0:0:0:
192,192,84525,1,0,0:0:0:0:
320,192,84695,1,0,0:0:0:0:
64,192,84866,1,2,0:0:0:0:
192,192,84866,1,0,0:0:0:0:
320,192,85036,1,0,0:0:0:0:
64,192,85207,1,8,0:0:0:0:
448,192,85207,1,0,0:0:0:0:
192,192,85462,1,0,0:0:0:0:
320,192,85548,1,0,0:0:0:0:
192,192,85718,1,0,0:0:0:0:
320,192,85889,128,0,86230:0:0:0:0:
64,192,86230,1,2,0:0:0:0:
192,192,86230,1,0,0:0:0:0:
448,192,86570,1,0,0:0:0:0:
64,192,86570,1,8,0:0:0:0:
320,192,86741,1,0,0:0:0:0:
192,192,86911,1,0,0:0:0:0:
64,192,87082,1,0,0:0:0:0:
448,192,87252,1,0,0:0:0:0:
448,192,89980,1,0,0:0:0:0:
320,192,91343,1,0,0:0:0:0:
192,192,92707,1,0,0:0:0:0:
320,192,94752,1,0,0:0:0:0:
192,192,95434,1,0,0:0:0:0:
64,192,96798,1,0,0:0:0:0:
192,192,98161,1,0,0:0:0:0:
448,192,98843,1,0,0:0:0:0:
192,192,99866,1,0,0:0:0:0:
448,192,100207,1,0,0:0:0:0:
320,192,100889,1,0,0:0:0:0:
64,192,101570,1,0,0:0:0:0:
320,192,102593,1,0,0:0:0:0:
64,192,102934,1,0,0:0:0:0:
192,192,103616,1,0,0:0:0:0:
448,192,104298,1,0,0:0:0:0:
192,192,105320,1,0,0:0:0:0:
448,192,105661,1,0,0:0:0:0:
320,192,106343,1,0,0:0:0:0:
64,192,107025,1,0,0:0:0:0:
320,192,108048,1,0,0:0:0:0:
64,192,108389,1,0,0:0:0:0:
320,192,108559,1,0,0:0:0:0:
64,192,109070,1,2,0:0:0:0:
192,192,109070,1,0,0:0:0:0:
320,192,109241,1,0,0:0:0:0:
192,192,109582,1,0,0:0:0:0:
64,192,109752,1,8,0:0:0:0:
448,192,109752,1,0,0:0:0:0:
320,192,110008,1,0,0:0:0:0:
320,192,110264,1,0,0:0:0:0:
64,192,110434,128,0,110775:0:0:0:0:
320,192,110775,128,2,111116:0:0:0:0:
64,192,111116,1,8,0:0:0:0:
448,192,111116,1,0,0:0:0:0:
192,192,111286,1,0,0:0:0:0:
320,192,111457,1,0,0:0:0:0:
448,192,111627,1,0,0:0:0:0:
64,192,111798,1,2,0:0:0:0:
192,192,111798,1,0,0:0:0:0:
320,192,111968,1,0,0:0:0:0:
192,192,112309,1,0,0:0:0:0:
64,192,112480,1,8,0:0:0:0:
448,192,112480,1,0,0:0:0:0:
192,192,112650,1,0,0:0:0:0:
320,192,112991,1,0,0:0:0:0:
64,192,113502,1,2,0:0:0:0:
192,192,113502,128,0,113843:0:0:0:0:
64,192,113843,1,8,0:0:0:0:
448,192,113843,1,0,0:0:0:0:
320,192,114014,1,0,0:0:0:0:
192,192,114184,1,0,0:0:0:0:
448,192,114355,128,0,114525:0:0:0:0:
64,192,114525,1,2,0:0:0:0:
192,192,114525,1,0,0:0:0:0:
320,192,114695,1,0,0:0:0:0:
192,192,115036,1,0,0:0:0:0:
64,192,115207,1,8,0:0:0:0:
448,192,115207,1,0,0:0:0:0:
320,192,115462,1,0,0:0:0:0:
320,192,115718,1,0,0:0:0:0:
64,192,115889,128,0,116230:0:0:0:0:
320,192,116230,128,2,116570:0:0:0:0:
64,192,116570,1,8,0:0:0:0:
448,192,116570,1,0,0:0:0:0:
192,192,116741,1,0,0:0:0:0:
320,192,116911,1,0,0:0:0:0:
448,192,117082,1,0,0:0:0:0:
64,192,117252,1,2,0:0:0:0:
192,192,117252,1,0,0:0:0:0:
320,192,117423,1,0,0:0:0:0:
192,192,117764,1,0,0:0:0:0:
64,192,117934,1,8,0:0:0:0:
448,192,117934,1,0,0:0:0:0:
320,192,118190,1,0,0:0:0:0:
320,192,118445,1,0,0:0:0:0:
64,192,118786,128,0,118957:0:0:0:0:
320,192,118957,1,2,0:0:0:0:
448,192,118957,1,0,0:0:0:0:
192,192,119127,128,0,119298:0:0:0:0:
64,192,119298,1,8,0:0:0:0:
448,192,119298,1,0,0:0:0:0:
320,192,119468,1,2,0:0:0:0:
448,192,119468,1,0,0:0:0:0:
192,192,119639,1,0,0:0:0:0:
448,192,119809,128,0,119980:0:0:0:0:
64,192,119980,1,2,0:0:0:0:
192,192,119980,1,0,0:0:0:0:
320,192,120150,1,0,0:0:0:0:
192,192,120491,1,0,0:0:0:0:
64,192,120661,1,8,0:0:0:0:
448,192,120661,1,0,0:0:0:0:
320,192,120917,1,0,0:0:0:0:
320,192,121173,1,0,0:0:0:0:
64,192,121343,128,0,121684:0:0:0:0:
320,192,121684,128,2,122025:0:0:0:0:
64,192,122025,1,8,0:0:0:0:
448,192,122025,1,0,0:0:0:0:
192,192,122195,1,0,0:0:0:0:
320,192,122366,1,0,0:0:0:0:
448,192,122536,1,0,0:0:0:0:
64,192,122707,1,2,0:0:0:0:
192,192,122707,1,0,0:0:0:0:
320,192,122877,1,0,0:0:0:0:
192,192,123218,1,0,0:0:0:0:
64,192,123389,1,8,0:0:0:0:
448,192,123389,1,0,0:0:0:0:
192,192,123559,1,0,0:0:0:0:
320,192,123900,1,0,0:0:0:0:
64,192,124411,1,2,0:0:0:0:
192,192,124411,128,0,124752:0:0:0:0:
64,192,124752,1,8,0:0:0:0:
448,192,124752,1,0,0:0:0:0:
320,192,124923,1,0,0:0:0:0:
192,192,125093,1,0,0:0:0:0:
448,192,125264,128,0,125434:0:0:0:0:
64,192,125434,1,2,0:0:0:0:
192,192,125434,1,0,0:0:0:0:
320,192,125605,1,0,0:0:0:0:
192,192,125945,1,0,0:0:0:0:
64,192,126116,1,8,0:0:0:0:
448,192,126116,1,0,0:0:0:0:
320,192,126372,1,0,0:0:0:0:
320,192,126627,1,0,0:0:0:0:
64,192,126798,128,0,127139:0:0:0:0:
320,192,127139,128,2,127480:0:0:0:0:
64,192,127480,1,8,0:0:0:0:
448,192,127480,1,0,0:0:0:0:
192,192,127650,1,0,0:0:0:0:
320,192,127820,1,0,0:0:0:0:
448,192,127991,1,0,0:0:0:0:
64,192,128161,1,2,0:0:0:0:
192,192,128161,1,0,0:0:0:0:
320,192,128332,1,0,0:0:0:0:
192,192,128673,1,0,0:0:0:0:
64,192,128843,1,8,0:0:0:0:
448,192,128843,1,0,0:0:0:0:
320,192,129099,1,0,0:0:0:0:
320,192,129355,1,0,0:0:0:0:
64,192,129695,128,0,129866:0:0:0:0:
320,192,129866,1,2,0:0:0:0:
448,192,129866,1,0,0:0:0:0:
192,192,130036,128,0,130207:0:0:0:0:
64,192,130207,1,8,0:0:0:0:
448,192,130207,1,0,0:0:0:0:
320,192,130377,1,2,0:0:0:0:
448,192,130377,1,0,0:0:0:0:
64,192,130548,1,0,0:0:0:0:
448,192,130718,128,0,130889:0:0:0:0:
192,192,130889,1,0,0:0:0:0:
64,192,131144,1,2,0:0:0:0:
320,192,131400,1,2,0:0:0:0:
192,192,131570,1,2,0:0:0:0:
192,192,131826,1,2,0:0:0:0:
448,192,132082,1,2,0:0:0:0:
320,192,132252,1,2,0:0:0:0:
320,192,132508,1,2,0:0:0:0:
192,192,132764,1,2,0:0:0:0:
64,192,132934,1,2,0:0:0:0:
320,192,133190,1,2,0:0:0:0:
192,192,133445,1,2,0:0:0:0:
448,192,133616,1,2,0:0:0:0:
64,192,133872,1,2,0:0:0:0:
448,192,134298,1,2,0:0:0:0:
64,192,134553,1,2,0:0:0:0:
64,192,134980,1,2,0:0:0:0:
192,192,135278,1,2,0:0:0:0:
320,192,135491,1,2,0:0:0:0:
448,192,135661,1,2,0:0:0:0:
64,192,135917,1,2,0:0:0:0:
192,192,136173,1,2,0:0:0:0:
448,192,136343,1,2,0:0:0:0:
448,192,136599,1,2,0:0:0:0:
192,192,136855,1,2,0:0:0:0:
320,192,137025,1,2,0:0:0:0:
320,192,137281,1,2,0:0:0:0:
64,192,137536,1,2,0:0:0:0:
192,192,137707,1,2,0:0:0:0:
192,192,137962,1,2,0:0:0:0:
320,192,138218,1,2,0:0:0:0:
448,192,138389,1,2,0:0:0:0:
192,192,138644,1,2,0:0:0:0:
64,192,138900,1,2,0:0:0:0:
320,192,139070,1,2,0:0:0:0:
448,192,139070,1,0,0:0:0:0:
64,192,139241,1,0,0:0:0:0:
192,192,139411,1,0,0:0:0:0:
448,192,139582,1,2,0:0:0:0:
64,192,139752,1,2,0:0:0:0:
192,192,139752,1,0,0:0:0:0:
320,192,139923,1,0,0:0:0:0:
448,192,140093,1,0,0:0:0:0:
64,192,140264,1,2,0:0:0:0:
320,192,140434,1,2,0:0:0:0:
448,192,140434,1,0,0:0:0:0:
64,192,140605,1,0,0:0:0:0:
192,192,140775,1,0,0:0:0:0:
320,192,140945,1,2,0:0:0:0:
64,192,141116,1,0,0:0:0:0:
448,192,141116,1,0,0:0:0:0:
64,192,141457,128,0,141798:0:0:0:0:
192,192,141457,128,0,141798:0:0:0:0:
320,192,141798,1,2,0:0:0:0:
448,192,141798,1,4,0:0:0:0:
64,192,142309,1,2,0:0:0:0:
192,192,142309,1,0,0:0:0:0:
448,192,142480,1,8,0:0:0:0:
64,192,142820,128,0,142991:0:0:0:0:
192,192,142991,128,0,143161:0:0:0:0:
320,192,143161,1,2,0:0:0:0:
448,192,143161,1,0,0:0:0:0:
64,192,143332,1,0,0:0:0:98:drumdrum.wav
448,192,143502,1,0,0:0:0:98:drumdrum.wav
192,192,143673,1,0,0:0:0:0:
320,192,143843,1,8,0:0:0:0:
64,192,144014,1,0,0:0:0:98:drumdrum.wav
448,192,144184,1,0,0:0:0:98:drumdrum.wav
64,192,144355,1,2,0:0:0:0:
192,192,144355,1,0,0:0:0:0:
320,192,144525,1,2,0:0:0:0:
448,192,144525,1,4,0:0:0:0:
192,192,144695,1,0,0:0:0:0:
320,192,145036,1,0,0:0:0:0:
448,192,145207,1,8,0:0:0:0:
64,192,145377,1,2,0:0:0:0:
192,192,145377,1,0,0:0:0:0:
320,192,145548,1,0,0:0:0:0:
64,192,145718,1,2,0:0:0:0:
192,192,145718,1,0,0:0:0:0:
320,192,145889,1,2,0:0:0:0:
448,192,145889,1,0,0:0:0:0:
64,192,146059,1,0,0:0:0:0:
320,192,146230,1,2,0:0:0:0:
448,192,146230,1,0,0:0:0:0:
192,192,146570,128,8,146741:0:0:0:0:
320,192,146741,1,0,0:0:0:0:
64,192,146911,128,0,147082:0:0:0:0:
448,192,147082,128,0,147252:0:0:0:0:
64,192,147252,1,4,0:0:0:0:
192,192,147252,1,2,0:0:0:0:
320,192,147764,1,2,0:0:0:0:
448,192,147764,1,0,0:0:0:0:
64,192,147934,1,8,0:0:0:0:
448,192,148275,128,0,148445:0:0:0:0:
320,192,148445,128,0,148616:0:0:0:0:
64,192,148616,1,2,0:0:0:0:
192,192,148616,1,0,0:0:0:0:
448,192,148786,1,0,0:0:0:0:
64,192,148957,1,2,0:0:0:0:
192,192,148957,1,0,0:0:0:0:
320,192,149298,128,8,149468:0:0:0:0:
192,192,149468,128,0,149639:0:0:0:0:
64,192,149639,128,0,149809:0:0:0:0:
320,192,149809,1,2,0:0:0:0:
448,192,149809,128,0,149980:0:0:0:0:
64,192,149980,1,2,0:0:0:0:
192,192,149980,1,0,0:0:0:0:
448,192,150235,1,2,0:0:0:0:
320,192,150491,1,2,0:0:0:0:
64,192,150661,1,8,0:0:0:0:
448,192,150661,1,2,0:0:0:0:
192,192,150917,1,2,0:0:0:0:
64,192,151173,1,2,0:0:0:0:
320,192,151343,1,2,0:0:0:0:
448,192,151343,1,0,0:0:0:0:
64,192,151599,1,2,0:0:0:0:
192,192,151855,1,2,0:0:0:0:
448,192,152025,1,0,0:0:0:0:
64,192,152025,1,8,0:0:0:0:
320,192,152281,1,2,0:0:0:0:
320,192,152536,1,0,0:0:0:0:
64,192,152707,1,2,0:0:0:0:
192,192,152707,1,4,0:0:0:0:
320,192,153218,1,2,0:0:0:0:
448,192,153218,1,0,0:0:0:0:
64,192,153389,1,8,0:0:0:0:
448,192,153730,128,0,153900:0:0:0:0:
320,192,153900,128,0,154070:0:0:0:0:
64,192,154070,1,2,0:0:0:0:
192,192,154070,1,0,0:0:0:0:
448,192,154241,1,0,0:0:0:0:
64,192,154411,1,2,0:0:0:0:
192,192,154411,1,0,0:0:0:0:
320,192,154752,128,8,154923:0:0:0:0:
192,192,154923,128,0,155093:0:0:0:0:
64,192,155093,128,0,155264:0:0:0:0:
320,192,155264,1,2,0:0:0:0:
448,192,155264,128,0,155434:0:0:0:0:
64,192,155434,1,2,0:0:0:0:
192,192,155434,1,0,0:0:0:0:
320,192,155605,1,0,0:0:0:0:
192,192,155945,1,0,0:0:0:0:
64,192,156116,1,8,0:0:0:0:
320,192,156286,1,2,0:0:0:0:
448,192,156286,1,0,0:0:0:0:
192,192,156457,1,0,0:0:0:0:
320,192,156627,1,2,0:0:0:0:
448,192,156627,1,0,0:0:0:0:
64,192,156798,1,2,0:0:0:0:
192,192,156798,1,0,0:0:0:0:
448,192,156968,1,0,0:0:0:0:
64,192,157139,1,2,0:0:0:0:
192,192,157139,1,0,0:0:0:0:
320,192,157480,128,8,157650:0:0:0:0:
192,192,157650,1,0,0:0:0:0:
448,192,157820,128,0,157991:0:0:0:0:
64,192,157991,128,0,158161:0:0:0:0:
320,192,158161,1,4,0:0:0:0:
448,192,158161,1,2,0:0:0:0:
64,192,158673,1,2,0:0:0:0:
192,192,158673,1,0,0:0:0:0:
448,192,158843,1,8,0:0:0:0:
64,192,159184,128,0,159355:0:0:0:0:
192,192,159355,128,0,159525:0:0:0:0:
320,192,159525,1,2,0:0:0:0:
448,192,159525,1,0,0:0:0:0:
64,192,159695,1,0,0:0:0:0:
320,192,159866,1,2,0:0:0:0:
448,192,159866,1,0,0:0:0:0:
192,192,160207,128,8,160377:0:0:0:0:
320,192,160377,128,0,160548:0:0:0:0:
448,192,160548,128,0,160718:0:0:0:0:
64,192,160718,128,2,160889:0:0:0:0:
192,192,160718,1,0,0:0:0:0:
320,192,160889,1,2,0:0:0:0:
448,192,160889,1,0,0:0:0:0:
64,192,161144,1,2,0:0:0:0:
192,192,161400,1,2,0:0:0:0:
64,192,161570,1,8,0:0:0:0:
448,192,161570,1,2,0:0:0:0:
320,192,161826,1,2,0:0:0:0:
448,192,162082,1,2,0:0:0:0:
64,192,162252,1,2,0:0:0:0:
192,192,162252,1,0,0:0:0:0:
448,192,162508,1,2,0:0:0:0:
320,192,162764,1,2,0:0:0:0:
64,192,162934,1,8,0:0:0:0:
448,192,162934,1,0,0:0:0:0:
192,192,163190,1,2,0:0:0:0:
64,192,163445,1,2,0:0:0:0:
320,192,163616,1,2,0:0:0:0:
448,192,163616,1,4,0:0:0:0:
64,192,164127,1,2,0:0:0:0:
192,192,164127,1,0,0:0:0:0:
448,192,164298,1,8,0:0:0:0:
64,192,164639,128,0,164809:0:0:0:0:
192,192,164809,128,0,164980:0:0:0:0:
320,192,164980,1,2,0:0:0:0:
448,192,164980,1,0,0:0:0:0:
64,192,165150,1,0,0:0:0:98:drumdrum.wav
448,192,165320,1,0,0:0:0:98:drumdrum.wav
192,192,165491,1,0,0:0:0:0:
320,192,165661,1,8,0:0:0:0:
64,192,165832,1,0,0:0:0:98:drumdrum.wav
448,192,166002,1,0,0:0:0:98:drumdrum.wav
64,192,166173,1,2,0:0:0:0:
192,192,166173,1,0,0:0:0:0:
320,192,166343,1,2,0:0:0:0:
448,192,166343,1,4,0:0:0:0:
192,192,166514,1,0,0:0:0:0:
320,192,166855,1,0,0:0:0:0:
448,192,167025,1,8,0:0:0:0:
64,192,167195,1,2,0:0:0:0:
192,192,167195,1,0,0:0:0:0:
320,192,167366,1,0,0:0:0:0:
64,192,167536,1,2,0:0:0:0:
192,192,167536,1,0,0:0:0:0:
320,192,167707,1,2,0:0:0:0:
448,192,167707,1,0,0:0:0:0:
64,192,167877,1,0,0:0:0:0:
320,192,168048,1,2,0:0:0:0:
448,192,168048,1,0,0:0:0:0:
192,192,168133,1,0,0:0:0:0:
64,192,168389,1,8,0:0:0:0:
448,192,168389,1,0,0:0:0:0:
192,192,168644,1,0,0:0:0:0:
64,192,168900,1,0,0:0:0:0:
320,192,169070,1,4,0:0:0:0:
448,192,169070,1,2,0:0:0:0:
64,192,169582,1,2,0:0:0:0:
192,192,169582,1,0,0:0:0:0:
448,192,169752,1,8,0:0:0:0:
64,192,170093,128,0,170264:0:0:0:0:
192,192,170264,128,0,170434:0:0:0:0:
320,192,170434,1,2,0:0:0:0:
448,192,170434,1,0,0:0:0:0:
64,192,170605,1,0,0:0:0:98:drumdrum.wav
448,192,170775,1,0,0:0:0:98:drumdrum.wav
192,192,170945,1,0,0:0:0:0:
320,192,171116,1,8,0:0:0:0:
64,192,171286,1,0,0:0:0:98:drumdrum.wav
448,192,171457,1,0,0:0:0:98:drumdrum.wav
64,192,171627,1,2,0:0:0:0:
192,192,171627,1,0,0:0:0:0:
320,192,171798,1,2,0:0:0:0:
448,192,171798,1,0,0:0:0:0:
64,192,171968,1,0,0:0:0:0:
192,192,172139,1,0,0:0:0:0:
448,192,172309,1,2,0:0:0:0:
64,192,172480,1,2,0:0:0:0:
192,192,172480,1,0,0:0:0:0:
448,192,172650,1,0,0:0:0:0:
320,192,172820,1,0,0:0:0:0:
64,192,172991,1,2,0:0:0:0:
320,192,173161,1,2,0:0:0:0:
448,192,173161,1,0,0:0:0:0:
64,192,173417,1,2,0:0:0:0:
192,192,173417,1,0,0:0:0:0:
320,192,173673,1,2,0:0:0:0:
448,192,173673,1,0,0:0:0:0:
64,192,173843,1,8,0:0:0:0:
448,192,173843,1,0,0:0:0:0:
320,192,174525,1,4,0:0:0:0:
448,192,174525,1,2,0:0:0:0:
64,192,175036,1,2,0:0:0:0:
192,192,175036,1,0,0:0:0:0:
448,192,175207,1,8,0:0:0:0:
64,192,175548,128,0,175718:0:0:0:0:
192,192,175718,128,0,175889:0:0:0:0:
320,192,175889,1,2,0:0:0:0:
448,192,175889,1,0,0:0:0:0:
64,192,176059,1,0,0:0:0:98:drumdrum.wav
448,192,176230,1,0,0:0:0:98:drumdrum.wav
192,192,176400,1,0,0:0:0:0:
320,192,176570,1,8,0:0:0:0:
64,192,176741,1,0,0:0:0:98:drumdrum.wav
448,192,176911,1,0,0:0:0:98:drumdrum.wav
64,192,177082,1,2,0:0:0:0:
192,192,177082,1,0,0:0:0:0:
320,192,177252,1,2,0:0:0:0:
448,192,177252,1,4,0:0:0:0:
192,192,177423,1,0,0:0:0:0:
320,192,177764,1,0,0:0:0:0:
448,192,177934,1,8,0:0:0:0:
64,192,178105,1,2,0:0:0:0:
192,192,178105,1,0,0:0:0:0:
320,192,178275,1,0,0:0:0:0:
64,192,178445,1,2,0:0:0:0:
192,192,178445,1,0,0:0:0:0:
320,192,178616,1,2,0:0:0:0:
448,192,178616,1,0,0:0:0:0:
64,192,178786,1,0,0:0:0:0:
320,192,178957,1,2,0:0:0:0:
448,192,178957,1,0,0:0:0:0:
192,192,179042,1,0,0:0:0:0:
448,192,179298,1,0,0:0:0:0:
64,192,179298,1,8,0:0:0:0:
192,192,179553,1,0,0:0:0:0:
64,192,179809,1,0,0:0:0:0:
320,192,179980,1,2,0:0:0:0:
448,192,179980,1,4,0:0:0:0:
64,192,180491,1,2,0:0:0:0:
192,192,180491,1,0,0:0:0:0:
448,192,180661,1,8,0:0:0:0:
64,192,181002,128,0,181173:0:0:0:0:
192,192,181173,128,0,181343:0:0:0:0:
320,192,181343,1,2,0:0:0:0:
448,192,181343,1,0,0:0:0:0:
64,192,181514,1,0,0:0:0:98:drumdrum.wav
448,192,181684,1,0,0:0:0:98:drumdrum.wav
192,192,181855,1,0,0:0:0:0:
320,192,182025,1,8,0:0:0:0:
64,192,182195,1,0,0:0:0:98:drumdrum.wav
448,192,182366,1,0,0:0:0:98:drumdrum.wav
64,192,182536,1,2,0:0:0:0:
192,192,182536,1,0,0:0:0:0:
320,192,182707,1,2,0:0:0:0:
448,192,182707,1,0,0:0:0:0:
64,192,182877,1,0,0:0:0:0:
192,192,183048,1,0,0:0:0:0:
448,192,183218,1,2,0:0:0:0:
64,192,183389,1,2,0:0:0:0:
192,192,183389,1,0,0:0:0:0:
448,192,183559,1,0,0:0:0:0:
320,192,183730,1,0,0:0:0:0:
64,192,183900,1,2,0:0:0:0:
320,192,184070,1,2,0:0:0:0:
448,192,184070,1,0,0:0:0:0:
64,192,184326,1,2,0:0:0:0:
192,192,184326,1,0,0:0:0:0:
320,192,184582,1,2,0:0:0:0:
448,192,184582,1,0,0:0:0:0:
64,192,184752,1,8,0:0:0:0:
448,192,184752,1,0,0:0:0:0:
