osu file format v14

[General]
AudioFilename: audio.mp3
AudioLeadIn: 0
PreviewTime: 167985
Countdown: 1
SampleSet: None
StackLeniency: 0.7
Mode: 0
LetterboxInBreaks: 0
WidescreenStoryboard: 0

[Editor]
Bookmarks: 34894,106894,141803,213803,248712
DistanceSpacing: 1
BeatDivisor: 4
GridSize: 16
TimelineZoom: 2

[Metadata]
Title:Cafecore
TitleUnicode:Cafecore
Artist:SyndraSound
ArtistUnicode:SyndraSound
Creator:Critality
Version:Cappuccino
Source:
Tags:
BeatmapID:2033816
BeatmapSetID:971355

[Difficulty]
HPDrainRate:5
CircleSize:4
OverallDifficulty:8.8
ApproachRate:9.8
SliderMultiplier:2
SliderTickRate:1

[Events]
//Background and Video events
0,0,"VQIHAqy.jpg",0,0
//Break Periods
//Storyboard Layer 0 (Background)
//Storyboard Layer 1 (Fail)
//Storyboard Layer 2 (Pass)
//Storyboard Layer 3 (Foreground)
//Storyboard Sound Samples

[TimingPoints]
-15,545.454545454546,4,1,0,50,1,0
20439,-100,4,1,0,5,0,0
20985,-100,4,1,0,50,0,0
22621,-100,4,1,0,5,0,0
23166,-100,4,1,0,50,0,0
24803,-100,4,1,0,5,0,0
24871,-100,4,1,0,50,0,0
27257,-100,4,1,0,5,0,0
27530,-100,4,1,0,50,0,0
29166,-100,4,1,0,5,0,0
29303,-100,4,1,0,50,0,0
31348,-100,4,1,0,5,0,0
31416,-100,4,1,0,50,0,0
33462,-100,4,1,0,5,0,0
33530,-100,4,1,0,50,0,0
34894,272.727272727273,4,1,0,50,1,0
37689,-66.6666666666667,4,1,0,50,0,0
37894,-100,4,1,0,50,0,0
38235,-100,4,1,0,5,0,0
38303,-100,4,1,0,50,0,0
38508,-100,4,1,0,5,0,0
38576,-100,4,1,0,50,0,0
38644,-100,4,1,0,5,0,0
38712,-100,4,1,0,50,0,0
38917,-100,4,1,0,5,0,0
38985,-100,4,1,0,50,0,0
42599,-100,4,1,0,5,0,0
42667,-100,4,1,0,50,0,0
42871,-100,4,1,0,5,0,0
42939,-100,4,1,0,50,0,0
43008,-100,4,1,0,5,0,0
43076,-100,4,1,0,50,0,0
44780,-100,4,1,0,5,0,0
44849,-100,4,1,0,50,0,0
45053,-100,4,1,0,5,0,0
45121,-100,4,1,0,50,0,0
45189,-100,4,1,0,5,0,0
45258,-100,4,1,0,50,0,0
49417,-100,4,1,0,5,0,0
49485,-100,4,1,0,50,0,0
49553,-100,4,1,0,5,0,0
49621,-100,4,1,0,50,0,0
51599,-100,4,1,0,5,0,0
51667,-100,4,1,0,50,0,0
51735,-100,4,1,0,5,0,0
51803,-100,4,1,0,50,0,0
55689,-100,4,1,0,5,0,0
55758,-100,4,1,0,50,0,0
55962,-100,4,1,0,5,0,0
56030,-100,4,1,0,50,0,0
56099,-100,4,1,0,5,0,0
56167,-100,4,1,0,50,0,0
57871,-100,4,1,0,5,0,0
57939,-100,4,1,0,50,0,0
58144,-100,4,1,0,5,0,0
58212,-100,4,1,0,50,0,0
58280,-100,4,1,0,5,0,0
58349,-100,4,1,0,50,0,0
62099,-100,4,1,0,5,0,0
62167,-100,4,1,0,50,0,0
62235,-100,4,1,0,5,0,0
62303,-100,4,1,0,50,0,0
62508,-100,4,1,0,5,0,0
62576,-100,4,1,0,50,0,0
62644,-100,4,1,0,5,0,0
62712,-100,4,1,0,50,0,0
64689,-100,4,1,0,5,0,0
64758,-100,4,1,0,50,0,0
64826,-100,4,1,0,5,0,0
64894,-100,4,1,0,50,0,0
106894,-100,4,1,0,50,0,1
107916,-100,4,1,0,5,0,1
107984,-100,4,1,0,50,0,1
109553,-100,4,1,0,5,0,1
109621,-100,4,1,0,50,0,1
112553,-100,4,1,0,5,0,1
112621,-100,4,1,0,50,0,1
112825,-100,4,1,0,5,0,1
112894,-100,4,1,0,50,0,1
120598,-100,4,1,0,5,0,1
120666,-100,4,1,0,50,0,1
121007,-100,4,1,0,5,0,1
121075,-100,4,1,0,50,0,1
121280,-100,4,1,0,5,0,1
121348,-100,4,1,0,50,0,1
121962,-100,4,1,0,5,0,1
122030,-100,4,1,0,50,0,1
130007,-100,4,1,0,5,0,1
130075,-100,4,1,0,50,0,1
130280,-100,4,1,0,5,0,1
130348,-100,4,1,0,50,0,1
141803,545.454545454546,4,1,0,50,1,0
141803,-200,4,1,0,30,0,0
173439,-200,4,1,0,40,0,0
176166,-200,4,1,0,50,0,0
176712,-129.87012987013,4,1,0,50,0,0
210530,-66.6666666666667,4,1,0,50,0,0
211621,1090.90909090909,4,1,0,21,1,0
211621,-1000,4,1,0,21,0,0
213803,272.727272727273,4,1,0,50,1,1
227507,-100,4,1,0,5,0,1
227575,-100,4,1,0,50,0,1
227916,-100,4,1,0,5,0,1
227984,-100,4,1,0,50,0,1
228189,-100,4,1,0,5,0,1
228257,-100,4,1,0,50,0,1
228462,-100,4,1,0,5,0,1
228530,-100,4,1,0,50,0,1
230098,-100,4,1,0,5,0,1
230166,-100,4,1,0,50,0,1
230507,-100,4,1,0,5,0,1
230575,-100,4,1,0,50,0,1
236234,-100,4,1,0,5,0,1
236303,-100,4,1,0,50,0,1
236643,-100,4,1,0,5,0,1
236712,-100,4,1,0,50,0,1
236916,-100,4,1,0,5,0,1
236984,-100,4,1,0,50,0,1
237189,-100,4,1,0,5,0,1
237257,-100,4,1,0,50,0,1
237325,-100,4,1,0,5,0,1
237393,-100,4,1,0,50,0,1
244962,-100,4,1,0,5,0,1
245030,-100,4,1,0,50,0,1
245371,-100,4,1,0,5,0,1
245439,-100,4,1,0,50,0,1
245643,-100,4,1,0,5,0,1
245712,-100,4,1,0,50,0,1
245916,-100,4,1,0,5,0,1
245984,-100,4,1,0,50,0,1
248712,1090.90909090909,4,1,0,21,1,0
250348,1153.84615384615,4,1,0,21,1,0
250924,1160.5415860735,4,1,0,21,1,0
252084,1176.47058823529,4,1,0,21,1,0
253260,1250,4,1,0,21,1,0
254510,1276.59574468085,4,1,0,21,1,0
255148,1304.34782608696,4,1,0,21,1,0
255474,810.810810810811,4,1,0,21,1,0
255879,705.882352941176,4,1,0,21,1,0
256584,550.45871559633,4,1,0,21,1,0
257960,659.340659340659,4,1,0,21,1,0
258289,1363.63636363636,4,1,0,21,1,0
258970,1176.47058823529,4,1,0,21,1,0
259558,1200,4,1,0,21,1,0
261358,1224.48979591837,4,1,0,21,1,0
261664,1333.33333333333,4,1,0,21,1,0
261830,1428.57142857143,4,1,0,21,1,0
262008,1463.41463414634,4,1,0,21,1,0
263471,1363.63636363636,4,1,0,21,1,0
265516,1287.55364806867,4,1,0,21,1,0
265837,1304.34782608696,4,1,0,21,1,0
266163,1263.15789473684,4,1,0,21,1,0
266952,1052.63157894737,4,1,0,21,1,0
268004,1000,4,1,0,21,1,0
268504,909.090909090909,4,1,0,21,1,0
268731,750,4,1,0,21,1,0

[HitObjects]
91,82,17439,6,0,B|91:99|91:99|110:71|137:57|178:59,1,100,0|0,2:0|2:0,2:0:0:0:
256,87,17985,1,0,2:0:0:0:
415,71,18803,1,0,2:0:0:0:
488,202,19212,1,0,2:0:0:0:
395,319,19621,6,0,B|298:360|386:121|137:147|161:324|274:293|242:245,1,300,0|0,2:0|2:0,2:0:0:0:
295,51,20985,1,0,2:0:0:0:
163,124,21394,1,0,2:0:0:0:
115,266,21803,6,0,B|275:280|80:361|160:269|156:140|276:281|342:144,1,300,0|0,2:0|2:0,2:0:0:0:
349,64,23166,1,0,2:0:0:0:
318,190,23575,1,0,2:0:0:0:
365,307,23985,6,0,B|279:252|121:335|155:372|260:310|229:222,1,300,0|0,2:0|2:0,2:0:0:0:
216,206,24871,1,0,2:0:0:0:
201,194,24939,2,0,P|214:142|173:89,1,100
224,146,25348,2,0,P|240:93|224:45,1,100
249,108,25757,2,0,P|273:62|262:6,1,100
322,136,26166,6,0,P|364:282|404:131,1,400,0|0,2:0|2:0,2:0:0:0:
239,42,27530,1,0,2:0:0:0:
257,190,27939,1,0,2:0:0:0:
155,301,28348,2,0,P|86:309|86:135,1,300,0|0,2:0|2:0,2:0:0:0:
157,151,29303,5,0,2:0:0:0:
229,318,29712,5,0,2:0:0:0:
197,171,30121,1,0,2:0:0:0:
282,47,30530,2,0,P|271:105|422:65,1,300,0|0,2:0|2:0,2:0:0:0:
402,48,31416,5,0,2:0:0:0:
394,43,31485,1,0,2:0:0:0:
327,301,31894,5,0,2:0:0:0:
374,158,32303,1,0,2:0:0:0:
304,25,32712,2,0,P|262:118|354:61,1,275,0|0,2:0|2:0,2:0:0:0:
364,53,33530,6,0,L|376:24,2,25,0|0|0,2:0|2:0|2:0,2:0:0:0:
446,98,33939,5,0,2:0:0:0:
432,130,34075,1,0,2:0:0:0:
423,261,34621,5,0,2:0:0:0:
306,360,34894,5,0,0:0:0:0:
345,268,35030,1,0,0:0:0:0:
383,175,35167,1,0,0:0:0:0:
446,334,35303,5,0,0:0:0:0:
453,234,35439,1,0,0:0:0:0:
465,134,35576,1,0,0:0:0:0:
263,281,35712,5,0,0:0:0:0:
220,85,35849,1,0,0:0:0:0:
119,237,35985,5,0,0:0:0:0:
135,225,36053,1,0,0:0:0:0:
151,213,36121,2,0,L|192:182,1,50
282,178,36258,5,0,0:0:0:0:
339,259,36394,1,0,0:0:0:0:
404,334,36530,2,0,L|350:345,1,50
280,358,36667,5,0,0:0:0:0:
215,119,36803,1,0,0:0:0:0:
149,254,36939,1,0,0:0:0:0:
63,80,37075,5,0,0:0:0:0:
7,266,37212,1,0,0:0:0:0:
138,113,37349,1,0,0:0:0:0:
269,186,37485,1,0,0:0:0:0:
260,209,37553,1,0,0:0:0:0:
210,384,37689,6,0,L|204:336,5,37.5000014305115
202,322,37894,1,0,0:0:0:0:
186,198,38030,1,0,0:0:0:0:
189,170,38099,1,0,0:0:0:0:
192,142,38167,6,0,L|262:126,1,50,0|0,0:0|2:0,0:0:0:0:
447,107,38303,1,0,0:0:0:0:
441,93,38371,1,0,0:0:0:0:
433,80,38439,2,0,L|363:64,1,50,0|0,0:0|2:0,0:0:0:0:
197,50,38576,2,0,L|267:66,1,50,0|0,0:0|2:0,0:0:0:0:
401,166,38712,1,0,0:0:0:0:
395,152,38780,1,0,0:0:0:0:
387,139,38848,2,0,L|317:123,1,50,0|0,0:0|2:0,0:0:0:0:
153,135,38985,5,0,0:0:0:0:
340,204,39121,1,0,0:0:0:0:
297,7,39258,5,0,0:0:0:0:
210,186,39394,1,0,0:0:0:0:
393,107,39530,5,0,0:0:0:0:
480,286,39667,1,0,0:0:0:0:
281,272,39803,1,0,0:0:0:0:
412,110,39939,5,0,0:0:0:0:
467,301,40076,1,0,0:0:0:0:
273,253,40212,1,0,0:0:0:0:
335,62,40349,5,0,0:0:0:0:
372,181,40485,6,0,L|360:235,1,50
235,286,40621,2,0,L|251:238,1,50
247,129,40758,5,0,0:0:0:0:
217,110,40826,1,0,0:0:0:0:
186,92,40894,1,0,0:0:0:0:
15,97,41030,1,0,0:0:0:0:
43,116,41098,1,0,0:0:0:0:
71,135,41166,1,0,0:0:0:0:
100,154,41235,1,0,0:0:0:0:
128,174,41303,6,0,L|187:210,1,50
280,259,41439,5,0,0:0:0:0:
247,112,41576,1,0,0:0:0:0:
392,249,41712,1,0,0:0:0:0:
415,141,41849,1,0,0:0:0:0:
438,134,41917,1,0,0:0:0:0:
461,126,41985,6,0,L|496:115,2,33.3333333333333
506,192,42121,1,0,0:0:0:0:
509,216,42189,1,0,0:0:0:0:
512,241,42258,5,0,0:0:0:0:
314,321,42394,1,0,0:0:0:0:
257,155,42530,2,0,B|228:201,1,50
119,290,42667,1,0,0:0:0:0:
101,273,42735,1,0,0:0:0:0:
84,256,42803,6,0,B|112:209,1,50
181,102,42939,2,0,B|152:148,1,50
5,229,43076,5,0,0:0:0:0:
13,195,43144,1,0,0:0:0:0:
21,161,43212,1,0,0:0:0:0:
28,126,43280,6,0,B|39:78|39:78|92:53,1,100
109,184,43485,2,0,B|114:160|114:160|140:147,1,50
195,238,43621,5,0,0:0:0:0:
255,157,43758,1,0,0:0:0:0:
315,77,43894,1,0,0:0:0:0:
293,362,44030,5,0,0:0:0:0:
321,265,44167,1,0,0:0:0:0:
350,170,44303,1,0,0:0:0:0:
177,270,44439,5,0,0:0:0:0:
42,120,44576,1,0,0:0:0:0:
231,105,44712,6,0,L|161:89,1,50
85,207,44848,1,0,0:0:0:0:
91,221,44916,1,0,0:0:0:0:
99,234,44984,2,0,L|169:250,1,50
325,209,45121,2,0,L|255:193,1,50
133,145,45257,1,0,0:0:0:0:
139,159,45325,1,0,0:0:0:0:
146,173,45394,5,0,0:0:0:0:
197,307,45530,1,0,0:0:0:0:
23,206,45667,5,0,0:0:0:0:
194,105,45803,1,0,0:0:0:0:
86,309,45939,1,0,0:0:0:0:
264,197,46076,1,0,0:0:0:0:
352,375,46212,1,0,0:0:0:0:
335,327,46280,1,0,0:0:0:0:
315,280,46349,6,0,L|354:267,2,25
236,218,46485,1,0,0:0:0:0:
188,202,46553,1,0,0:0:0:0:
141,183,46621,5,0,0:0:0:0:
319,141,46758,1,0,0:0:0:0:
342,101,46826,1,0,0:0:0:0:
369,59,46894,6,0,L|396:16,2,50
118,153,47167,6,0,L|91:196,2,50
197,28,47439,2,0,L|250:51,1,50
387,57,47576,5,0,0:0:0:0:
359,152,47712,1,0,0:0:0:0:
325,246,47849,1,0,0:0:0:0:
285,337,47985,5,0,0:0:0:0:
285,137,48121,1,0,0:0:0:0:
458,237,48258,1,0,0:0:0:0:
312,348,48394,5,0,0:0:0:0:
261,155,48530,1,0,0:0:0:0:
454,207,48667,1,0,0:0:0:0:
135,289,48803,5,0,0:0:0:0:
160,153,48939,1,0,0:0:0:0:
167,118,49008,1,0,0:0:0:0:
174,83,49076,1,0,0:0:0:0:
211,0,49212,1,0,0:0:0:0:
226,4,49280,1,0,0:0:0:0:
241,8,49349,6,0,L|332:39,1,50
451,82,49485,2,0,L|383:57,1,50
220,105,49621,2,0,L|206:140,1,25
250,115,49689,2,0,L|236:150,1,25
278,124,49758,2,0,L|343:149,1,50
429,185,49894,2,0,L|458:195,3,25
349,259,50167,5,0,0:0:0:0:
153,293,50303,1,0,0:0:0:0:
220,105,50439,1,0,0:0:0:0:
349,259,50576,5,0,0:0:0:0:
299,266,50644,1,0,0:0:0:0:
249,274,50712,2,0,L|223:280,2,25
153,293,50849,1,0,0:0:0:0:
169,245,50917,1,0,0:0:0:0:
184,197,50985,5,0,0:0:0:0:
313,351,51121,1,0,0:0:0:0:
379,163,51257,1,0,0:0:0:0:
511,314,51394,1,0,0:0:0:0:
507,289,51462,1,0,0:0:0:0:
502,264,51530,6,0,L|495:204,1,50
483,56,51667,2,0,L|488:113,1,50
437,273,51803,2,0,L|370:282,1,50
231,303,51939,2,0,L|300:294,1,50
373,210,52076,1,0,0:0:0:0:
369,185,52144,1,0,0:0:0:0:
364,160,52212,1,0,0:0:0:0:
346,51,52349,6,0,B|328:100|328:100|261:105,1,100
104,20,52621,1,0,0:0:0:0:
3,193,52758,1,0,0:0:0:0:
199,161,52894,2,0,L|165:219,1,50
124,290,53030,1,0,0:0:0:0:
313,223,53167,5,0,0:0:0:0:
408,364,53303,1,0,0:0:0:0:
509,191,53439,1,0,0:0:0:0:
309,215,53576,2,0,L|275:273,1,50
234,344,53712,5,0,0:0:0:0:
334,169,53849,1,0,0:0:0:0:
134,303,53985,2,0,L|168:245,1,50
209,174,54121,5,0,0:0:0:0:
108,348,54258,1,0,0:0:0:0:
280,247,54394,1,0,0:0:0:0:
99,161,54530,1,0,0:0:0:0:
278,66,54667,1,0,0:0:0:0:
174,236,54803,1,0,0:0:0:0:
352,146,54939,1,0,0:0:0:0:
363,123,55008,1,0,0:0:0:0:
373,99,55076,2,0,L|385:67,8,25
311,245,55485,1,0,0:0:0:0:
386,333,55621,6,0,L|309:305,1,50
112,321,55758,1,0,0:0:0:0:
133,307,55826,1,0,0:0:0:0:
154,294,55894,2,0,L|238:250,1,50
366,240,56030,2,0,L|287:210,1,50
140,203,56167,1,0,0:0:0:0:
168,186,56235,1,0,0:0:0:0:
198,171,56303,1,0,0:0:0:0:
373,148,56439,5,0,0:0:0:0:
197,50,56576,1,0,0:0:0:0:
396,49,56712,5,0,0:0:0:0:
227,158,56849,1,0,0:0:0:0:
82,20,56985,1,0,0:0:0:0:
78,44,57053,1,0,0:0:0:0:
72,68,57121,1,0,0:0:0:0:
67,92,57189,1,0,0:0:0:0:
61,116,57258,5,0,0:0:0:0:
245,40,57394,1,0,0:0:0:0:
385,181,57530,1,0,0:0:0:0:
226,304,57667,1,0,0:0:0:0:
212,283,57735,1,0,0:0:0:0:
195,264,57803,6,0,L|149:206,1,50
82,75,57939,1,0,0:0:0:0:
96,95,58008,1,0,0:0:0:0:
108,116,58076,2,0,L|139:161,1,50
252,223,58212,2,0,L|225:178,1,50
199,18,58349,1,0,0:0:0:0:
213,38,58416,5,0,0:0:0:0:
224,59,58484,5,0,0:0:0:0:
336,223,58621,1,0,0:0:0:0:
304,24,58758,1,0,0:0:0:0:
107,56,58894,5,0,0:0:0:0:
147,251,59030,1,0,0:0:0:0:
291,111,59167,1,0,0:0:0:0:
314,104,59235,1,0,0:0:0:0:
338,98,59303,1,0,0:0:0:0:
327,224,59439,6,0,L|339:259,1,25
278,237,59508,2,0,L|289:268,1,25
230,251,59575,1,0,0:0:0:0:
206,258,59643,1,0,0:0:0:0:
182,265,59711,1,0,0:0:0:0:
83,240,59849,1,0,0:0:0:0:
265,159,59985,5,0,0:0:0:0:
97,50,60121,5,0,0:0:0:0:
146,58,60189,1,0,0:0:0:0:
195,66,60258,1,0,0:0:0:0:
244,73,60326,1,0,0:0:0:0:
293,81,60394,1,0,0:0:0:0:
488,124,60530,6,0,L|438:137,1,50
342,163,60667,5,0,0:0:0:0:
144,137,60803,1,0,0:0:0:0:
109,333,60939,1,0,0:0:0:0:
307,364,61076,5,0,0:0:0:0:
330,266,61212,1,0,0:0:0:0:
352,168,61349,5,0,0:0:0:0:
154,198,61485,1,0,0:0:0:0:
236,16,61621,1,0,0:0:0:0:
257,215,61758,1,0,0:0:0:0:
381,60,61894,1,0,0:0:0:0:
360,74,61962,2,0,L|263:143,1,100
132,245,62167,6,0,L|179:209,1,50
250,59,62303,1,0,0:0:0:0:
229,72,62371,1,0,0:0:0:0:
208,86,62439,2,0,L|162:119,1,50
23,218,62576,2,0,L|69:185,1,50
137,34,62712,1,0,0:0:0:0:
115,46,62780,1,0,0:0:0:0:
93,59,62849,1,0,0:0:0:0:
119,256,62985,1,0,0:0:0:0:
140,243,63053,1,0,0:0:0:0:
161,231,63121,1,0,0:0:0:0:
257,54,63258,5,0,0:0:0:0:
230,256,63394,1,0,0:0:0:0:
250,242,63462,1,0,0:0:0:0:
291,213,63530,1,0,0:0:0:0:
331,183,63599,1,0,0:0:0:0:
373,156,63667,1,0,0:0:0:0:
430,347,63803,5,0,0:0:0:0:
441,298,63871,1,0,0:0:0:0:
453,249,63939,1,0,0:0:0:0:
465,200,64008,1,0,0:0:0:0:
479,152,64076,5,0,0:0:0:0:
290,88,64212,1,0,0:0:0:0:
488,59,64349,5,0,0:0:0:0:
391,233,64485,1,0,0:0:0:0:
391,208,64553,1,0,0:0:0:0:
393,183,64621,2,0,L|394:124,1,50
350,0,64758,2,0,L|347:56,1,50
322,170,64894,5,0,0:0:0:0:
322,174,64962,1,0,0:0:0:0:
322,178,65030,1,0,0:0:0:0:
322,183,65099,1,0,0:0:0:0:
322,187,65167,1,0,0:0:0:0:
321,191,65235,1,0,0:0:0:0:
320,195,65303,1,0,0:0:0:0:
320,199,65371,1,0,0:0:0:0:
320,203,65439,5,0,0:0:0:0:
151,311,65576,1,0,0:0:0:0:
140,111,65712,1,0,0:0:0:0:
317,233,65849,5,0,0:0:0:0:
126,293,65984,1,0,0:0:0:0:
167,97,66121,1,0,0:0:0:0:
304,268,66257,5,0,0:0:0:0:
104,277,66394,1,0,0:0:0:0:
126,232,66462,1,0,0:0:0:0:
149,188,66530,1,0,0:0:0:0:
172,143,66598,1,0,0:0:0:0:
195,99,66666,1,0,0:0:0:0:
302,268,66803,1,0,0:0:0:0:
104,277,66939,1,0,0:0:0:0:
86,376,67076,5,0,0:0:0:0:
52,338,67144,1,0,0:0:0:0:
16,303,67212,1,0,0:0:0:0:
25,254,67280,1,0,0:0:0:0:
43,207,67349,1,0,0:0:0:0:
186,68,67485,1,0,0:0:0:0:
137,261,67621,5,0,0:0:0:0:
83,67,67758,1,0,0:0:0:0:
255,167,67894,1,0,0:0:0:0:
406,36,68030,1,0,0:0:0:0:
421,84,68099,1,0,0:0:0:0:
432,132,68167,2,0,L|436:156,2,25
334,154,68303,1,0,0:0:0:0:
294,184,68371,1,0,0:0:0:0:
255,215,68439,1,0,0:0:0:0:
126,371,68576,1,0,0:0:0:0:
41,202,68712,5,0,0:0:0:0:
107,200,68803,5,0,0:0:0:0:
167,172,68894,5,0,0:0:0:0:
209,120,68985,5,0,0:0:0:0:
80,60,69121,5,0,0:0:0:0:
164,242,69258,5,0,0:0:0:0:
186,251,69326,1,0,0:0:0:0:
208,260,69394,1,0,0:0:0:0:
228,246,69462,1,0,0:0:0:0:
233,270,69530,1,0,0:0:0:0:
257,276,69599,1,0,0:0:0:0:
281,282,69667,1,0,0:0:0:0:
256,192,69803,12,0,71985,2:0:0:0:
263,221,73075,5,0,2:0:0:0:
342,163,73348,1,0,2:0:0:0:
345,68,73621,1,0,2:0:0:0:
264,130,73894,1,0,2:0:0:0:
263,221,74166,1,0,2:0:0:0:
316,302,75257,5,0,2:0:0:0:
424,116,76075,1,0,2:0:0:0:
226,191,76348,5,0,2:0:0:0:
279,266,76621,1,0,2:0:0:0:
374,286,76894,1,0,2:0:0:0:
321,200,77166,1,0,2:0:0:0:
226,191,77439,1,0,2:0:0:0:
281,125,77712,5,0,2:0:0:0:
245,307,77848,1,0,2:0:0:0:
321,200,77984,1,0,2:0:0:0:
176,262,78257,1,0,2:0:0:0:
160,147,78530,5,0,2:0:0:0:
126,212,78666,1,0,2:0:0:0:
55,246,78803,1,0,2:0:0:0:
157,140,78939,1,0,2:0:0:0:
292,124,79075,1,0,2:0:0:0:
70,160,79348,1,0,2:0:0:0:
216,81,79484,1,0,2:0:0:0:
286,41,79893,5,0,2:0:0:0:
193,242,80030,1,0,2:0:0:0:
340,111,80166,1,0,2:0:0:0:
148,188,80303,1,0,2:0:0:0:
353,193,80439,1,0,2:0:0:0:
141,121,80575,1,0,2:0:0:0:
246,157,80712,1,0,2:0:0:0:
291,267,81394,5,0,2:0:0:0:
395,163,81666,1,0,2:0:0:0:
395,163,81734,1,0,2:0:0:0:
395,163,81803,1,0,2:0:0:0:
374,35,82212,1,0,2:0:0:0:
256,68,82621,5,0,2:0:0:0:
182,154,82757,5,0,2:0:0:0:
182,154,82825,1,0,2:0:0:0:
182,154,82894,1,0,2:0:0:0:
159,270,83439,5,0,2:0:0:0:
173,64,83984,5,0,2:0:0:0:
234,221,84257,1,0,2:0:0:0:
246,109,84394,1,0,2:0:0:0:
118,207,84530,1,0,2:0:0:0:
239,298,84803,1,0,2:0:0:0:
375,109,85075,5,0,2:0:0:0:
222,230,85348,1,0,2:0:0:0:
181,238,85621,1,0,2:0:0:0:
151,211,85894,1,0,2:0:0:0:
270,116,86166,1,0,2:0:0:0:
297,154,86712,1,0,2:0:0:0:
477,65,87257,5,0,2:0:0:0:
73,162,88894,5,0,2:0:0:0:
90,152,89030,1,0,2:0:0:0:
106,140,89167,1,0,2:0:0:0:
120,126,89303,1,0,2:0:0:0:
144,72,89439,5,0,2:0:0:0:
189,215,89849,1,0,2:0:0:0:
243,75,90258,1,0,2:0:0:0:
300,213,90667,1,0,2:0:0:0:
366,78,91076,5,0,2:0:0:0:
426,157,91349,1,0,2:0:0:0:
404,254,91621,5,0,2:0:0:0:
332,122,92030,1,0,2:0:0:0:
274,260,92439,1,0,2:0:0:0:
211,123,92849,1,0,2:0:0:0:
174,268,93258,5,0,2:0:0:0:
227,319,93462,5,0,2:0:0:0:
297,344,93667,5,0,2:0:0:0:
346,345,93803,5,0,2:0:0:0:
359,195,94212,1,0,2:0:0:0:
419,332,94621,1,0,2:0:0:0:
447,184,95030,1,0,2:0:0:0:
315,255,95439,5,0,2:0:0:0:
296,156,95712,1,0,2:0:0:0:
161,190,95985,5,0,2:0:0:0:
274,50,96394,1,0,2:0:0:0:
245,227,96803,1,0,2:0:0:0:
392,124,97212,1,0,2:0:0:0:
408,303,97621,5,0,2:0:0:0:
319,222,97894,1,0,2:0:0:0:
286,106,98167,5,0,2:0:0:0:
252,282,98576,1,0,2:0:0:0:
171,120,98985,1,0,2:0:0:0:
165,299,99394,1,0,2:0:0:0:
93,133,99803,5,0,2:0:0:0:
139,243,100076,1,0,2:0:0:0:
239,309,100349,5,0,2:0:0:0:
181,138,100758,1,0,2:0:0:0:
338,225,101167,1,0,2:0:0:0:
249,68,101576,1,0,2:0:0:0:
428,71,101985,5,0,2:0:0:0:
309,53,102258,1,0,2:0:0:0:
191,77,102530,1,0,2:0:0:0:
217,36,102939,5,0,2:0:0:0:
285,109,103076,1,0,2:0:0:0:
382,86,103212,2,0,L|297:106,2,50,0|0|0,2:0|2:0|2:0,2:0:0:0:
231,218,103485,1,0,2:0:0:0:
329,199,103621,6,0,L|279:208,2,50,0|0|0,2:0|2:0|2:0,2:0:0:0:
116,182,103894,2,0,L|165:172,2,50,0|0|0,2:0|2:0|2:0,2:0:0:0:
202,97,104166,5,0,2:0:0:0:
226,92,104234,1,0,2:0:0:0:
251,87,104302,1,0,2:0:0:0:
275,82,104370,1,0,2:0:0:0:
300,77,104438,1,0,2:0:0:0:
384,132,104575,1,0,2:0:0:0:
360,137,104643,1,0,2:0:0:0:
335,142,104711,5,0,2:0:0:0:
247,90,104849,1,0,2:0:0:0:
249,189,104985,1,0,2:0:0:0:
386,133,105121,1,0,2:0:0:0:
212,50,105258,1,0,2:0:0:0:
232,236,105394,1,0,2:0:0:0:
396,122,105530,6,0,L|341:101,1,50,0|0,2:0|2:0,2:0:0:0:
197,47,105666,2,0,L|209:101,1,50,0|0,2:0|2:0,2:0:0:0:
237,250,105803,2,0,L|281:215,1,50,0|0,2:0|2:0,2:0:0:0:
394,112,105939,6,0,L|344:99,1,50,0|0,2:0|2:0,2:0:0:0:
189,55,106075,2,0,L|207:108,1,50,0|0,2:0|2:0,2:0:0:0:
246,253,106212,1,0,2:0:0:0:
461,35,106621,5,0,0:0:0:0:
512,23,106894,5,0,0:0:0:0:
430,205,107030,1,0,0:0:0:0:
364,15,107167,1,0,0:0:0:0:
339,11,107235,1,0,0:0:0:0:
314,8,107303,1,0,0:0:0:0:
289,5,107371,1,0,0:0:0:0:
264,0,107439,1,0,0:0:0:0:
71,56,107576,5,0,0:0:0:0:
95,60,107644,1,0,0:0:0:0:
119,65,107712,1,0,0:0:0:0:
143,70,107780,1,0,0:0:0:0:
167,75,107849,2,0,L|230:91,1,50
359,129,107985,5,0,0:0:0:0:
174,204,108121,2,0,L|138:216,3,25
125,222,108258,1,0,0:0:0:0:
0,106,108394,5,0,0:0:0:0:
48,118,108462,1,0,0:0:0:0:
95,131,108530,2,0,L|173:150,1,50
313,88,108667,1,0,0:0:0:0:
218,263,108803,2,0,L|141:288,1,50
3,239,108940,1,0,0:0:0:0:
184,155,109076,5,0,0:0:0:0:
207,163,109144,1,0,0:0:0:0:
230,171,109212,1,0,0:0:0:0:
253,180,109280,1,0,0:0:0:0:
276,189,109349,1,0,0:0:0:0:
299,198,109417,1,0,0:0:0:0:
322,207,109485,2,0,L|377:232,1,50
461,344,109621,5,0,0:0:0:0:
438,336,109689,1,0,0:0:0:0:
415,328,109757,1,0,0:0:0:0:
392,319,109825,1,0,0:0:0:0:
369,310,109894,1,0,0:0:0:0:
346,301,109962,1,0,0:0:0:0:
323,292,110030,2,0,L|268:267,1,50
141,205,110167,5,0,0:0:0:0:
265,49,110303,1,0,0:0:0:0:
340,233,110439,1,0,0:0:0:0:
133,175,110576,6,0,L|162:113,1,50
293,57,110712,1,0,0:0:0:0:
318,254,110848,1,0,0:0:0:0:
134,145,110985,5,0,0:0:0:0:
319,72,111121,1,0,0:0:0:0:
292,269,111257,5,0,0:0:0:0:
445,139,111394,1,0,0:0:0:0:
248,172,111530,1,0,0:0:0:0:
386,317,111667,1,0,0:0:0:0:
420,120,111803,6,0,L|355:107,1,50
225,71,111939,1,0,0:0:0:0:
200,66,112008,1,0,0:0:0:0:
175,61,112076,1,0,0:0:0:0:
94,119,112212,6,0,L|159:106,1,50
289,70,112348,1,0,0:0:0:0:
314,65,112417,1,0,0:0:0:0:
339,60,112485,2,0,L|390:49,1,50
503,90,112621,1,0,0:0:0:0:
478,96,112689,1,0,0:0:0:0:
454,104,112758,2,0,L|379:124,1,50
324,205,112894,1,0,0:0:0:0:
349,200,112963,1,0,0:0:0:0:
374,195,113030,5,0,0:0:0:0:
510,342,113167,1,0,0:0:0:0:
320,278,113303,5,0,0:0:0:0:
270,270,113371,1,0,0:0:0:0:
220,262,113439,1,0,0:0:0:0:
169,255,113508,1,0,0:0:0:0:
119,247,113576,1,0,0:0:0:0:
40,64,113712,1,0,0:0:0:0:
88,52,113780,1,0,0:0:0:0:
137,39,113849,1,0,0:0:0:0:
228,216,113985,5,0,0:0:0:0:
317,37,114121,1,0,0:0:0:0:
374,181,114257,5,0,0:0:0:0:
350,171,114326,1,0,0:0:0:0:
304,151,114394,1,0,0:0:0:0:
257,132,114462,1,0,0:0:0:0:
57,141,114598,5,0,0:0:0:0:
104,160,114666,1,0,0:0:0:0:
150,180,114734,1,0,0:0:0:0:
174,190,114803,1,0,0:0:0:0:
354,275,114939,1,0,0:0:0:0:
310,80,115075,6,0,L|370:95,1,50
391,195,115212,1,0,0:0:0:0:
367,188,115280,1,0,0:0:0:0:
319,173,115348,1,0,0:0:0:0:
416,0,115484,1,0,0:0:0:0:
464,15,115552,1,0,0:0:0:0:
512,31,115621,6,0,L|367:69,1,150
270,100,115894,5,0,0:0:0:0:
460,159,116030,1,0,0:0:0:0:
303,282,116166,5,0,0:0:0:0:
255,267,116234,1,0,0:0:0:0:
207,251,116303,1,0,0:0:0:0:
115,210,116439,6,0,L|89:196,3,25
178,106,116712,1,0,0:0:0:0:
370,156,116848,6,0,L|396:142,3,25
414,133,116984,1,0,0:0:0:0:
381,262,117121,5,0,0:0:0:0:
356,271,117189,1,0,0:0:0:0:
332,280,117257,1,0,0:0:0:0:
284,265,117325,1,0,0:0:0:0:
235,250,117394,1,0,0:0:0:0:
143,212,117530,2,0,L|198:174,1,50
326,83,117666,1,0,0:0:0:0:
135,18,117803,5,0,0:0:0:0:
113,29,117871,1,0,0:0:0:0:
91,40,117939,1,0,0:0:0:0:
69,52,118007,1,0,0:0:0:0:
47,64,118075,1,0,0:0:0:0:
69,75,118144,1,0,0:0:0:0:
91,85,118212,1,0,0:0:0:0:
113,96,118280,1,0,0:0:0:0:
135,107,118348,5,0,0:0:0:0:
158,98,118416,1,0,0:0:0:0:
181,89,118484,1,0,0:0:0:0:
204,80,118553,1,0,0:0:0:0:
227,71,118621,5,0,0:0:0:0:
273,87,118689,1,0,0:0:0:0:
319,103,118757,1,0,0:0:0:0:
367,91,118825,1,0,0:0:0:0:
416,79,118894,5,0,0:0:0:0:
330,28,119030,1,0,0:0:0:0:
426,202,119166,1,0,0:0:0:0:
501,15,119303,1,0,0:0:0:0:
511,219,119439,5,0,0:0:0:0:
505,243,119507,1,0,0:0:0:0:
498,267,119575,1,0,0:0:0:0:
306,327,119712,1,0,0:0:0:0:
342,234,119848,1,0,0:0:0:0:
168,331,119984,5,0,0:0:0:0:
47,185,120121,1,0,0:0:0:0:
239,235,120257,1,0,0:0:0:0:
82,360,120394,1,0,0:0:0:0:
148,171,120530,6,0,L|208:147,1,50
358,114,120666,1,0,0:0:0:0:
335,125,120734,1,0,0:0:0:0:
312,136,120803,1,0,0:0:0:0:
115,107,120939,6,0,L|175:83,1,50
325,50,121075,1,0,0:0:0:0:
302,61,121143,1,0,0:0:0:0:
279,74,121212,2,0,L|226:96,1,50
62,48,121348,5,0,0:0:0:0:
85,39,121416,1,0,0:0:0:0:
108,30,121484,1,0,0:0:0:0:
131,21,121553,1,0,0:0:0:0:
154,11,121621,1,0,0:0:0:0:
177,20,121689,1,0,0:0:0:0:
200,29,121758,1,0,0:0:0:0:
223,38,121826,1,0,0:0:0:0:
247,48,121894,2,0,L|297:70,1,50
455,137,122030,1,0,0:0:0:0:
278,230,122166,5,0,0:0:0:0:
365,49,122303,1,0,0:0:0:0:
477,213,122439,1,0,0:0:0:0:
264,203,122575,5,0,0:0:0:0:
395,50,122712,1,0,0:0:0:0:
460,238,122848,1,0,0:0:0:0:
257,173,122984,2,0,L|313:138,1,50
423,59,123121,2,0,L|428:116,1,50
416,270,123325,1,0,0:0:0:0:
394,283,123394,1,0,0:0:0:0:
372,296,123462,1,0,0:0:0:0:
350,309,123530,1,0,0:0:0:0:
326,301,123598,1,0,0:0:0:0:
302,293,123666,1,0,0:0:0:0:
278,285,123734,1,0,0:0:0:0:
253,276,123803,6,0,L|199:255,1,50
76,141,123939,1,0,0:0:0:0:
100,149,124007,1,0,0:0:0:0:
125,158,124076,2,0,L|179:179,1,50
346,180,124212,2,0,L|299:161,1,50
138,90,124348,5,0,0:0:0:0:
13,247,124485,1,0,0:0:0:0:
209,276,124621,1,0,0:0:0:0:
107,89,124757,5,0,0:0:0:0:
27,274,124894,1,0,0:0:0:0:
224,250,125030,1,0,0:0:0:0:
38,37,125234,5,0,0:0:0:0:
86,51,125303,1,0,0:0:0:0:
134,64,125371,1,0,0:0:0:0:
181,77,125439,5,0,0:0:0:0:
380,79,125575,1,0,0:0:0:0:
357,90,125644,1,0,0:0:0:0:
334,101,125712,1,0,0:0:0:0:
138,140,125848,5,0,0:0:0:0:
161,147,125916,1,0,0:0:0:0:
184,154,125984,2,0,L|239:172,1,50
400,223,126121,1,0,0:0:0:0:
198,248,126257,2,0,L|253:266,1,50
414,317,126394,1,0,0:0:0:0:
473,126,126530,6,0,L|409:138,1,50
272,219,126666,2,0,L|336:207,1,50
505,189,126803,2,0,L|441:201,1,50
304,282,126939,2,0,L|368:270,1,50
512,315,127075,5,0,0:0:0:0:
459,325,127144,1,0,0:0:0:0:
406,336,127212,1,0,0:0:0:0:
354,346,127280,1,0,0:0:0:0:
310,355,127348,1,0,0:0:0:0:
285,350,127416,1,0,0:0:0:0:
259,347,127485,1,0,0:0:0:0:
234,342,127553,1,0,0:0:0:0:
209,337,127621,5,0,0:0:0:0:
225,138,127757,1,0,0:0:0:0:
366,281,127894,1,0,0:0:0:0:
167,266,128030,2,0,L|142:216,1,50
73,73,128166,5,0,0:0:0:0:
96,82,128234,1,0,0:0:0:0:
119,91,128303,1,0,0:0:0:0:
142,100,128371,1,0,0:0:0:0:
165,109,128439,1,0,0:0:0:0:
349,183,128575,5,0,0:0:0:0:
326,192,128643,1,0,0:0:0:0:
303,201,128712,1,0,0:0:0:0:
280,210,128780,1,0,0:0:0:0:
250,203,128848,1,0,0:0:0:0:
229,231,128916,1,0,0:0:0:0:
201,243,128984,5,0,0:0:0:0:
4,203,129121,1,0,0:0:0:0:
135,53,129257,1,0,0:0:0:0:
201,243,129394,1,0,0:0:0:0:
176,238,129462,1,0,0:0:0:0:
151,232,129530,1,0,0:0:0:0:
282,82,129666,1,0,0:0:0:0:
383,256,129803,5,0,0:0:0:0:
359,248,129871,1,0,0:0:0:0:
335,241,129939,2,0,L|270:221,1,50
129,128,130075,5,0,0:0:0:0:
153,136,130143,1,0,0:0:0:0:
177,143,130211,2,0,L|242:163,1,50
400,174,130348,5,0,0:0:0:0:
376,166,130416,1,0,0:0:0:0:
352,159,130484,5,0,0:0:0:0:
509,34,130621,1,0,0:0:0:0:
485,135,130757,2,0,L|426:122,1,50
335,0,130894,5,0,0:0:0:0:
241,176,131030,2,0,L|299:191,1,50
425,122,131167,1,0,0:0:0:0:
364,312,131303,5,0,0:0:0:0:
328,218,131439,1,0,0:0:0:0:
512,293,131575,1,0,0:0:0:0:
315,334,131712,5,0,0:0:0:0:
291,343,131780,1,0,0:0:0:0:
242,329,131848,1,0,0:0:0:0:
194,315,131916,1,0,0:0:0:0:
23,207,132053,5,0,0:0:0:0:
72,192,132121,1,0,0:0:0:0:
120,178,132189,1,0,0:0:0:0:
144,188,132257,1,0,0:0:0:0:
318,287,132394,1,0,0:0:0:0:
319,87,132530,5,0,0:0:0:0:
436,248,132666,2,0,L|387:228,1,50
250,170,132803,1,0,0:0:0:0:
409,50,132939,1,0,0:0:0:0:
318,287,133075,5,0,0:0:0:0:
194,131,133211,1,0,0:0:0:0:
119,315,133347,1,0,0:0:0:0:
326,257,133484,5,0,0:0:0:0:
166,139,133620,1,0,0:0:0:0:
141,336,133756,1,0,0:0:0:0:
325,227,133893,5,0,0:0:0:0:
140,154,134029,1,0,0:0:0:0:
299,32,134166,5,0,0:0:0:0:
471,88,134303,2,0,L|419:114,1,50
293,175,134439,1,0,0:0:0:0:
269,165,134507,1,0,0:0:0:0:
245,157,134575,1,0,0:0:0:0:
53,97,134712,1,0,0:0:0:0:
63,121,134780,1,0,0:0:0:0:
71,145,134848,1,0,0:0:0:0:
136,334,134984,2,0,L|118:276,1,50
122,134,135121,2,0,L|139:192,1,50
218,318,135257,6,0,L|299:288,1,50
393,178,135394,1,0,0:0:0:0:
353,191,135462,1,0,0:0:0:0:
306,208,135530,6,0,L|245:229,1,50
88,191,135666,2,0,L|150:166,1,50
273,111,135803,1,0,0:0:0:0:
319,92,135871,1,0,0:0:0:0:
367,78,135939,6,0,L|431:110,1,50
512,211,136075,5,0,0:0:0:0:
488,200,136144,1,0,0:0:0:0:
464,190,136212,1,0,0:0:0:0:
440,198,136280,1,0,0:0:0:0:
416,207,136348,1,0,0:0:0:0:
220,251,136484,5,0,0:0:0:0:
242,240,136553,1,0,0:0:0:0:
264,229,136621,1,0,0:0:0:0:
444,142,136757,2,0,L|389:126,1,50
237,78,136894,1,0,0:0:0:0:
431,33,137030,1,0,0:0:0:0:
233,0,137166,1,0,0:0:0:0:
189,24,137234,1,0,0:0:0:0:
145,49,137303,1,0,0:0:0:0:
24,137,137439,6,0,L|60:117,2,33.3333333333333
179,212,137711,5,0,0:0:0:0:
324,350,137847,1,0,0:0:0:0:
512,242,137984,1,0,0:0:0:0:
293,288,138121,1,0,0:0:0:0:
270,293,138189,1,0,0:0:0:0:
244,299,138257,1,0,0:0:0:0:
87,174,138394,1,0,0:0:0:0:
286,172,138530,6,0,L|230:190,1,50
100,240,138666,1,0,0:0:0:0:
301,235,138803,2,0,L|245:253,1,50
115,303,138939,1,0,0:0:0:0:
314,297,139075,2,0,L|258:315,1,50
129,365,139211,1,0,0:0:0:0:
39,283,139348,1,0,0:0:0:0:
206,174,139484,1,0,0:0:0:0:
230,178,139553,1,0,0:0:0:0:
254,184,139621,5,0,0:0:0:0:
298,162,139689,1,0,0:0:0:0:
343,140,139757,1,0,0:0:0:0:
186,13,139894,5,0,0:0:0:0:
5,91,140030,1,0,0:0:0:0:
204,78,140166,1,0,0:0:0:0:
19,157,140303,1,0,0:0:0:0:
108,284,140439,5,0,0:0:0:0:
154,301,140507,1,0,0:0:0:0:
201,317,140575,1,0,0:0:0:0:
249,301,140644,1,0,0:0:0:0:
296,285,140712,1,0,0:0:0:0:
482,213,140848,5,0,0:0:0:0:
460,201,140916,1,0,0:0:0:0:
438,189,140984,1,0,0:0:0:0:
263,90,141121,1,0,0:0:0:0:
90,189,141257,1,0,0:0:0:0:
291,172,141394,5,0,0:0:0:0:
269,185,141462,1,0,0:0:0:0:
248,200,141530,1,0,0:0:0:0:
144,53,141666,1,0,0:0:0:0:
164,73,141803,6,0,B|158:76|158:76|164:66|164:66|166:78|166:78|212:110|264:34|327:63,1,200,0|0,2:0|2:0,2:0:0:0:
357,84,143303,1,0,2:0:0:0:
394,143,143712,1,0,2:0:0:0:
360,242,143984,1,0,2:0:0:0:
270,341,145007,5,0,2:0:0:0:
277,331,145075,2,0,B|274:285|228:278|214:287|214:287|219:270|219:270|186:287|151:264|149:230,1,200,0|0,2:0|2:0,2:0:0:0:
157,160,146439,1,0,2:0:0:0:
231,197,146712,1,0,2:0:0:0:
221,72,146984,1,0,2:0:0:0:
351,233,147257,5,0,2:0:0:0:
396,91,147530,1,0,2:0:0:0:
460,232,147803,1,0,2:0:0:0:
302,151,148075,1,0,2:0:0:0:
461,34,148348,5,0,2:0:0:0:
167,187,148893,1,0,2:0:0:0:
167,212,149030,2,0,P|148:245|138:255,1,50,0|0,2:0|2:0,2:0:0:0:
111,156,149439,2,0,P|113:134|145:85,1,75,0|0,2:0|2:0,2:0:0:0:
206,49,149984,1,0,2:0:0:0:
234,191,150257,1,0,2:0:0:0:
289,58,150530,2,0,L|309:54,2,12.5,0|0|0,2:0|2:0|2:0,2:0:0:0:
418,213,151075,6,0,P|417:233|414:244,1,25,0|0,2:0|2:0,2:0:0:0:
390,334,151348,2,0,P|399:313|407:305,1,25,0|0,2:0|2:0,2:0:0:0:
475,282,151621,1,0,2:0:0:0:
107,264,152712,5,0,2:0:0:0:
308,95,153257,6,0,P|301:101|278:106,1,25,0|0,2:0|2:0,2:0:0:0:
214,160,153530,2,0,P|230:159|239:160,1,25,0|0,2:0|2:0,2:0:0:0:
272,222,153803,1,0,2:0:0:0:
408,170,154621,1,0,2:0:0:0:
324,33,154893,2,0,P|308:52|303:82,1,50,0|0,2:0|2:0,2:0:0:0:
347,204,155575,1,0,2:0:0:0:
283,267,155984,5,0,2:0:0:0:
153,145,156257,2,0,P|174:172|180:177,1,25,0|0,2:0|2:0,2:0:0:0:
246,135,156530,1,0,2:0:0:0:
128,84,156803,1,0,2:0:0:0:
411,257,157075,5,0,2:0:0:0:
411,257,157757,1,0,2:0:0:0:
228,189,158166,1,0,2:0:0:0:
228,189,158848,1,0,2:0:0:0:
421,142,159257,2,0,L|434:97,2,12.5,0|0|0,2:0|2:0|2:0,2:0:0:0:
491,142,160757,5,0,2:0:0:0:
182,96,161439,1,0,2:0:0:0:
336,24,162803,2,0,B|299:31|291:66|279:75,1,75,0|0,2:0|2:0,2:0:0:0:
145,231,163621,2,0,B|209:244|200:166|279:172,1,150,0|0,2:0|2:0,2:0:0:0:
362,278,164712,2,0,P|318:282|274:244,1,100,0|0,2:0|2:0,2:0:0:0:
344,203,165803,6,0,P|366:172|425:149,1,100,0|0,2:0|2:0,2:0:0:0:
444,238,166621,1,0,2:0:0:0:
456,236,166757,1,0,2:0:0:0:
467,230,166893,2,0,P|469:204|466:174,1,50,0|0,2:0|2:0,2:0:0:0:
323,159,167303,1,0,2:0:0:0:
323,159,167439,2,0,P|323:137|329:116,1,33.3333333333333,0|0,2:0|2:0,2:0:0:0:
338,94,167712,1,0,2:0:0:0:
490,25,167984,6,0,B|495:37|495:37|442:20|392:39,1,100,0|0,2:0|2:0,2:0:0:0:
296,65,168712,1,0,2:0:0:0:
296,65,168803,1,0,2:0:0:0:
128,154,169075,6,0,P|156:137|185:131,1,50,0|0,2:0|2:0,2:0:0:0:
95,291,169484,2,0,P|129:288|171:258,1,75,0|0,2:0|2:0,2:0:0:0:
335,91,170166,6,0,P|301:98|282:119,1,50,0|0,2:0|2:0,2:0:0:0:
186,248,170621,1,0,2:0:0:0:
186,248,170712,1,0,2:0:0:0:
293,214,170893,1,0,2:0:0:0:
293,214,170984,1,0,2:0:0:0:
158,140,171257,6,0,P|179:157|196:161,1,33.3333333333333,0|0,2:0|2:0,2:0:0:0:
187,334,171530,2,0,P|204:326|214:309,1,33.3333333333333,0|0,2:0|2:0,2:0:0:0:
258,158,171803,2,0,P|276:163|287:168,1,16.6666666666667,0|0,2:0|2:0,2:0:0:0:
286,242,171984,1,0,2:0:0:0:
427,221,172166,1,0,2:0:0:0:
407,219,172257,1,0,2:0:0:0:
390,232,172348,6,0,P|344:255|314:254,1,75,0|0,2:0|2:0,2:0:0:0:
246,227,172893,1,0,2:0:0:0:
340,157,173075,1,0,2:0:0:0:
340,157,173166,1,0,2:0:0:0:
239,142,173439,6,0,P|239:118|252:83,1,50,0|0,2:0|2:0,2:0:0:0:
409,54,173984,2,0,P|419:80|417:112,1,50,0|0,2:0|2:0,2:0:0:0:
156,171,174439,1,0,2:0:0:0:
156,171,174530,2,0,P|163:143|179:110,1,50,0|0,2:0|2:0,2:0:0:0:
308,83,174984,1,0,2:0:0:0:
309,108,175075,6,0,P|328:132|342:138,1,33.3333333333333,0|0,2:0|2:0,2:0:0:0:
381,200,175348,2,0,P|349:215|338:214,1,25,0|0,2:0|2:0,2:0:0:0:
230,206,175621,2,0,P|213:189|178:176,1,50,0|0,2:0|2:0,2:0:0:0:
111,182,176030,1,0,2:0:0:0:
89,249,176166,5,0,2:0:0:0:
88,268,176234,1,0,2:0:0:0:
94,288,176302,1,0,2:0:0:0:
105,304,176370,1,0,2:0:0:0:
121,316,176438,1,0,2:0:0:0:
139,324,176506,1,0,2:0:0:0:
159,325,176575,1,0,2:0:0:0:
178,320,176643,1,0,2:0:0:0:
197,311,176712,5,0,3:0:0:0:
226,229,177257,5,0,3:0:0:0:
219,212,177666,1,0,3:0:0:0:
207,191,178075,1,0,3:0:0:0:
189,170,178484,1,0,3:0:0:0:
24,156,178893,5,0,3:0:0:0:
115,289,179984,5,0,3:0:0:0:
139,315,180257,1,0,3:0:0:0:
269,144,180530,1,0,3:0:0:0:
257,185,180803,1,0,3:0:0:0:
412,304,181075,1,0,3:0:0:0:
316,365,182166,5,0,3:0:0:0:
333,86,182984,1,0,3:0:0:0:
408,256,183257,5,0,3:0:0:0:
396,303,183530,1,0,3:0:0:0:
194,358,183803,1,0,3:0:0:0:
176,305,184075,1,0,3:0:0:0:
303,108,184348,5,0,3:0:0:0:
344,169,184621,1,0,3:0:0:0:
351,194,184757,1,0,3:0:0:0:
348,222,184893,1,0,3:0:0:0:
162,197,185166,1,0,3:0:0:0:
165,359,185303,1,0,3:0:0:0:
186,221,185439,5,0,3:0:0:0:
217,237,185575,1,0,3:0:0:0:
257,242,185712,1,0,3:0:0:0:
326,216,185848,1,0,3:0:0:0:
383,55,185984,1,0,3:0:0:0:
293,237,186257,5,0,3:0:0:0:
368,50,186393,1,0,3:0:0:0:
352,32,186803,5,0,3:0:0:0:
334,196,186939,1,0,3:0:0:0:
333,62,187075,1,0,3:0:0:0:
365,239,187212,1,0,3:0:0:0:
327,90,187348,1,0,3:0:0:0:
396,278,187484,1,0,3:0:0:0:
307,343,187621,5,0,3:0:0:0:
228,332,187757,1,0,3:0:0:0:
167,289,187893,1,0,3:0:0:0:
109,137,188030,1,0,3:0:0:0:
115,90,188098,1,0,3:0:0:0:
119,39,188166,1,0,3:0:0:0:
300,256,188303,1,0,3:0:0:0:
364,78,188712,5,0,3:0:0:0:
377,47,189121,1,0,3:0:0:0:
379,17,189393,1,0,3:0:0:0:
244,219,189530,1,0,3:0:0:0:
392,173,189666,1,0,3:0:0:0:
420,193,189734,1,0,3:0:0:0:
437,228,189803,5,0,3:0:0:0:
487,173,190348,5,0,3:0:0:0:
511,244,190530,1,0,3:0:0:0:
392,285,190757,1,0,3:0:0:0:
463,100,190893,1,0,3:0:0:0:
392,86,191098,5,0,3:0:0:0:
354,78,191166,1,0,3:0:0:0:
316,70,191234,1,0,3:0:0:0:
280,62,191303,1,0,3:0:0:0:
148,169,191439,1,0,3:0:0:0:
170,39,191621,1,0,3:0:0:0:
170,39,191712,1,0,3:0:0:0:
52,84,191984,6,0,L|76:158,1,76.9999984725952,0|0,3:0|3:0,3:0:0:0:
172,240,192393,1,0,3:0:0:0:
195,112,192530,6,0,L|219:186,1,76.9999984725952,0|0,3:0|3:0,3:0:0:0:
318,271,192939,1,0,3:0:0:0:
316,70,193075,2,0,L|269:127,1,51.3333323150635,0|0,3:0|3:0,3:0:0:0:
245,254,193348,2,0,L|294:200,1,51.3333323150635,0|0,3:0|3:0,3:0:0:0:
341,143,193621,5,0,3:0:0:0:
392,285,193803,1,0,3:0:0:0:
438,228,193893,1,0,3:0:0:0:
270,328,194075,1,0,3:0:0:0:
245,254,194166,6,0,P|219:226|133:230,1,115.499997708893,0|0,3:0|3:0,3:0:0:0:
81,322,194712,2,0,P|114:322|158:312,1,76.9999984725952,0|0,3:0|3:0,3:0:0:0:
292,233,195121,1,0,3:0:0:0:
353,197,195257,1,0,3:0:0:0:
344,245,195530,1,0,3:0:0:0:
414,292,195666,1,0,3:0:0:0:
485,287,195803,2,0,P|453:272|442:258,1,38.4999992362976,0|0,3:0|3:0,3:0:0:0:
342,143,196212,1,0,3:0:0:0:
347,141,196348,2,0,P|333:185|233:231,1,153.99999694519,0|0,3:0|3:0,3:0:0:0:
150,133,197439,5,0,3:0:0:0:
238,99,197712,1,0,3:0:0:0:
141,229,197984,1,0,3:0:0:0:
296,154,198257,1,0,3:0:0:0:
193,29,198530,5,0,3:0:0:0:
129,75,198734,1,0,3:0:0:0:
106,53,198803,2,0,P|83:73|75:74,1,38.4999992362976,0|0,3:0|3:0,3:0:0:0:
27,181,199075,2,0,P|67:163|120:187,1,96.249998090744,0|0,3:0|3:0,3:0:0:0:
197,322,199621,6,0,P|174:305|153:240,1,96.249998090744,0|0,3:0|3:0,3:0:0:0:
226,117,200166,6,0,P|198:156|149:171,1,96.249998090744,0|0,3:0|3:0,3:0:0:0:
110,51,200712,5,0,3:0:0:0:
235,101,200893,1,0,3:0:0:0:
211,234,201075,1,0,3:0:0:0:
178,39,201257,5,0,3:0:0:0:
243,163,201439,1,0,3:0:0:0:
151,268,201621,1,0,3:0:0:0:
98,90,201803,5,0,3:0:0:0:
206,220,201984,1,0,3:0:0:0:
244,225,202075,1,0,3:0:0:0:
282,220,202166,1,0,3:0:0:0:
431,96,202348,5,0,3:0:0:0:
263,74,202530,1,0,3:0:0:0:
249,110,202621,1,0,3:0:0:0:
246,148,202712,1,0,3:0:0:0:
308,316,202893,5,0,3:0:0:0:
310,214,203030,1,0,3:0:0:0:
375,324,203303,5,0,3:0:0:0:
404,198,203439,1,0,3:0:0:0:
439,345,203712,5,0,3:0:0:0:
512,203,203848,1,0,3:0:0:0:
376,153,203984,1,0,3:0:0:0:
374,38,204257,5,0,3:0:0:0:
324,167,204393,1,0,3:0:0:0:
428,53,204530,1,0,3:0:0:0:
287,137,204666,1,0,3:0:0:0:
420,111,204803,1,0,3:0:0:0:
315,93,204939,1,0,3:0:0:0:
377,147,205075,6,0,P|366:191|336:225,1,76.9999984725952,0|0,3:0|3:0,3:0:0:0:
258,266,205484,2,0,P|223:224|191:223,1,76.9999984725952,0|0,3:0|3:0,3:0:0:0:
14,263,206030,1,0,3:0:0:0:
17,264,206098,1,0,3:0:0:0:
20,264,206166,6,0,P|73:240|87:217,1,76.9999984725952,0|0,3:0|3:0,3:0:0:0:
52,128,206575,2,0,P|85:153|103:154,1,38.4999992362976,0|0,3:0|3:0,3:0:0:0:
110,85,206848,1,0,3:0:0:0:
113,84,206916,1,0,3:0:0:0:
116,84,206984,2,0,P|162:85|200:108,1,76.9999984725952,0|0,3:0|3:0,3:0:0:0:
281,192,207666,5,0,3:0:0:0:
281,192,207803,1,0,3:0:0:0:
156,291,208212,1,0,3:0:0:0:
156,291,208348,1,0,3:0:0:0:
247,134,208621,1,0,3:0:0:0:
264,160,208757,1,0,3:0:0:0:
272,189,208893,1,0,3:0:0:0:
292,333,209166,1,0,3:0:0:0:
316,321,209303,1,0,3:0:0:0:
349,295,209439,5,0,3:0:0:0:
415,143,209621,1,0,3:0:0:0:
244,177,209803,1,0,3:0:0:0:
397,233,209984,5,0,3:0:0:0:
375,102,210166,1,0,3:0:0:0:
275,199,210348,1,0,3:0:0:0:
406,139,210530,5,0,3:0:0:0:
510,193,210666,1,0,3:0:0:0:
346,63,210803,1,0,3:0:0:0:
307,58,210871,1,0,3:0:0:0:
268,53,210939,1,0,3:0:0:0:
229,48,211007,1,0,3:0:0:0:
190,43,211075,6,0,L|136:63,1,37.5000014305115,0|0,3:0|3:0,3:0:0:0:
43,183,211212,1,0,3:0:0:0:
76,165,211280,1,0,3:0:0:0:
108,145,211348,2,0,L|192:169,1,75.0000028610231,0|0,3:0|3:0,3:0:0:0:
256,192,211621,12,0,212439,3:0:0:0:
256,192,212507,12,0,213530,3:0:0:0:
117,190,213803,5,0,0:0:0:0:
298,249,213939,1,0,0:0:0:0:
303,60,214075,1,0,0:0:0:0:
104,241,214212,5,0,0:0:0:0:
292,235,214348,1,0,0:0:0:0:
354,70,214484,1,0,0:0:0:0:
112,292,214621,5,0,0:0:0:0:
287,226,214757,1,0,0:0:0:0:
408,67,214893,1,0,0:0:0:0:
448,264,215030,6,0,B|470:314,4,33.3333333333333
351,63,215303,1,0,0:0:0:0:
315,98,215371,1,0,0:0:0:0:
277,130,215439,2,0,L|224:82,1,50
126,0,215575,1,0,0:0:0:0:
21,229,215712,2,0,L|69:176,1,50
148,85,215848,1,0,0:0:0:0:
165,163,215984,5,0,0:0:0:0:
178,211,216053,1,0,0:0:0:0:
191,258,216121,1,0,0:0:0:0:
206,305,216189,1,0,0:0:0:0:
221,352,216257,6,0,L|260:300,1,50
378,157,216393,1,0,0:0:0:0:
388,206,216462,1,0,0:0:0:0:
397,254,216530,5,0,0:0:0:0:
407,302,216598,1,0,0:0:0:0:
416,350,216666,2,0,L|351:340,1,50
161,319,216803,5,0,0:0:0:0:
185,319,216871,1,0,0:0:0:0:
209,319,216939,1,0,0:0:0:0:
233,319,217007,1,0,0:0:0:0:
282,319,217075,5,0,0:0:0:0:
426,183,217211,1,0,0:0:0:0:
342,0,217348,1,0,0:0:0:0:
215,214,217484,2,0,L|262:186,1,50
424,117,217620,5,0,0:0:0:0:
202,0,217757,1,0,0:0:0:0:
471,11,217893,5,0,0:0:0:0:
246,124,218030,1,0,0:0:0:0:
224,339,218166,5,0,0:0:0:0:
436,254,218303,1,0,0:0:0:0:
221,338,218439,1,0,0:0:0:0:
435,251,218575,1,0,0:0:0:0:
53,183,218712,6,0,L|104:205,1,50
267,270,218848,1,0,0:0:0:0:
281,275,218916,1,0,0:0:0:0:
297,281,218984,1,0,0:0:0:0:
258,85,219121,6,0,L|302:116,1,50
450,211,219257,1,0,0:0:0:0:
435,202,219325,1,0,0:0:0:0:
422,195,219393,2,0,L|372:162,1,50
127,116,219530,1,0,0:0:0:0:
142,125,219598,1,0,0:0:0:0:
155,132,219666,2,0,L|205:165,1,50
339,324,219803,2,0,L|270:278,1,50
118,180,219939,1,0,0:0:0:0:
336,109,220075,5,0,0:0:0:0:
123,248,220212,1,0,0:0:0:0:
336,109,220348,1,0,0:0:0:0:
123,248,220485,1,0,0:0:0:0:
160,71,220621,5,0,0:0:0:0:
299,285,220758,1,0,0:0:0:0:
123,248,220893,1,0,0:0:0:0:
336,109,221030,1,0,0:0:0:0:
446,277,221166,5,0,0:0:0:0:
408,310,221234,1,0,0:0:0:0:
367,340,221303,1,0,0:0:0:0:
326,311,221371,1,0,0:0:0:0:
272,118,221507,5,0,0:0:0:0:
302,157,221575,1,0,0:0:0:0:
267,193,221643,1,0,0:0:0:0:
232,229,221712,5,0,0:0:0:0:
46,101,221848,1,0,0:0:0:0:
249,5,221984,1,0,0:0:0:0:
194,230,222121,1,0,0:0:0:0:
178,221,222189,1,0,0:0:0:0:
169,206,222257,1,0,0:0:0:0:
362,88,222393,1,0,0:0:0:0:
209,349,222530,5,0,0:0:0:0:
85,228,222666,1,0,0:0:0:0:
103,60,222802,1,0,0:0:0:0:
256,192,222939,5,0,0:0:0:0:
73,325,223075,1,0,0:0:0:0:
75,104,223211,1,0,0:0:0:0:
148,122,223348,5,0,0:0:0:0:
145,361,223484,1,0,0:0:0:0:
58,154,223620,1,0,0:0:0:0:
220,357,223757,6,0,B|234:359|234:359|233:344,4,25
256,192,224030,1,0,0:0:0:0:
304,208,224098,1,0,0:0:0:0:
350,228,224166,2,0,L|375:172,1,50
439,22,224302,1,0,0:0:0:0:
512,209,224439,2,0,L|456:184,1,50
306,120,224575,1,0,0:0:0:0:
347,140,224711,5,0,0:0:0:0:
304,165,224780,1,0,0:0:0:0:
262,190,224848,1,0,0:0:0:0:
242,203,224916,1,0,0:0:0:0:
178,240,224984,5,0,0:0:0:0:
218,270,225052,1,0,0:0:0:0:
257,301,225120,1,0,0:0:0:0:
277,317,225189,1,0,0:0:0:0:
298,331,225257,5,0,0:0:0:0:
321,319,225325,1,0,0:0:0:0:
360,288,225393,1,0,0:0:0:0:
402,260,225461,1,0,0:0:0:0:
443,229,225530,5,0,0:0:0:0:
419,229,225598,1,0,0:0:0:0:
395,229,225666,1,0,0:0:0:0:
371,229,225734,1,0,0:0:0:0:
322,229,225802,5,0,0:0:0:0:
126,239,225938,1,0,0:0:0:0:
24,67,226075,1,0,0:0:0:0:
348,218,226211,2,0,L|301:190,1,50
176,117,226347,5,0,0:0:0:0:
442,80,226484,1,0,0:0:0:0:
477,200,226620,5,0,0:0:0:0:
295,35,226757,1,0,0:0:0:0:
182,148,226893,5,0,0:0:0:0:
417,70,227030,1,0,0:0:0:0:
181,145,227166,1,0,0:0:0:0:
419,68,227303,1,0,0:0:0:0:
325,238,227439,6,0,L|256:271,1,50
43,350,227575,1,0,0:0:0:0:
58,330,227643,1,0,0:0:0:0:
69,307,227712,1,0,0:0:0:0:
32,112,227848,6,0,L|107:61,1,50
212,142,227984,1,0,0:0:0:0:
224,133,228053,1,0,0:0:0:0:
236,124,228121,2,0,L|298:83,1,50
464,107,228257,1,0,0:0:0:0:
451,115,228325,1,0,0:0:0:0:
439,124,228393,2,0,L|385:160,1,50
440,283,228530,1,0,0:0:0:0:
429,293,228598,1,0,0:0:0:0:
417,303,228666,1,0,0:0:0:0:
175,357,228803,1,0,0:0:0:0:
248,134,228939,1,0,0:0:0:0:
409,314,229075,5,0,0:0:0:0:
232,180,229212,1,0,0:0:0:0:
180,360,229348,1,0,0:0:0:0:
238,162,229484,1,0,0:0:0:0:
29,198,229621,1,0,0:0:0:0:
244,145,229757,1,0,0:0:0:0:
22,33,229893,5,0,0:0:0:0:
67,54,229962,1,0,0:0:0:0:
112,74,230030,2,0,B|139:83|139:83|163:75,1,50
355,13,230166,1,0,0:0:0:0:
266,193,230303,1,0,0:0:0:0:
221,215,230371,1,0,0:0:0:0:
178,240,230439,2,0,B|154:253|154:253|128:247,1,50
0,101,230575,1,0,0:0:0:0:
273,77,230712,6,0,P|322:134|344:181,1,100
349,318,230984,1,0,0:0:0:0:
451,90,231121,1,0,0:0:0:0:
301,334,231257,5,0,0:0:0:0:
194,201,231393,1,0,0:0:0:0:
164,43,231529,1,0,0:0:0:0:
359,306,231666,5,0,0:0:0:0:
189,218,231802,1,0,0:0:0:0:
224,29,231938,1,0,0:0:0:0:
391,252,232075,5,0,0:0:0:0:
187,239,232211,1,0,0:0:0:0:
288,43,232347,1,0,0:0:0:0:
64,264,232484,6,0,B|42:314,4,33.3333333333333
317,3,232757,1,0,0:0:0:0:
308,52,232825,1,0,0:0:0:0:
304,102,232893,2,0,L|373:117,1,50
497,151,233029,1,0,0:0:0:0:
398,359,233166,2,0,L|413:289,1,50
443,172,233302,1,0,0:0:0:0:
341,212,233438,5,0,0:0:0:0:
294,229,233507,1,0,0:0:0:0:
249,245,233575,1,0,0:0:0:0:
201,260,233643,1,0,0:0:0:0:
154,275,233711,6,0,L|174:213,1,50
224,34,233847,1,0,0:0:0:0:
178,54,233916,1,0,0:0:0:0:
134,74,233984,5,0,0:0:0:0:
89,94,234052,1,0,0:0:0:0:
44,114,234120,2,0,L|89:161,1,50
370,241,234257,5,0,0:0:0:0:
346,241,234325,1,0,0:0:0:0:
322,241,234393,1,0,0:0:0:0:
298,241,234461,1,0,0:0:0:0:
249,241,234529,5,0,0:0:0:0:
39,174,234665,1,0,0:0:0:0:
170,0,234802,1,0,0:0:0:0:
297,214,234938,2,0,L|250:186,1,50
93,34,235074,5,0,0:0:0:0:
315,151,235211,1,0,0:0:0:0:
46,140,235347,5,0,0:0:0:0:
271,27,235484,1,0,0:0:0:0:
94,230,235620,5,0,0:0:0:0:
306,315,235757,1,0,0:0:0:0:
91,231,235893,1,0,0:0:0:0:
305,318,236029,1,0,0:0:0:0:
459,183,236166,6,0,L|408:205,1,50
245,270,236302,1,0,0:0:0:0:
231,275,236370,1,0,0:0:0:0:
215,281,236438,1,0,0:0:0:0:
254,85,236575,6,0,L|210:116,1,50
62,211,236711,1,0,0:0:0:0:
77,202,236779,1,0,0:0:0:0:
90,195,236847,2,0,L|140:162,1,50
385,116,236984,1,0,0:0:0:0:
370,125,237052,1,0,0:0:0:0:
357,132,237120,2,0,L|307:165,1,50
173,324,237257,2,0,L|242:278,1,50
394,180,237393,1,0,0:0:0:0:
176,109,237529,5,0,0:0:0:0:
389,248,237666,1,0,0:0:0:0:
176,109,237802,1,0,0:0:0:0:
389,248,237939,1,0,0:0:0:0:
352,71,238075,5,0,0:0:0:0:
213,285,238212,1,0,0:0:0:0:
389,248,238347,1,0,0:0:0:0:
176,109,238484,1,0,0:0:0:0:
66,277,238620,5,0,0:0:0:0:
104,310,238688,1,0,0:0:0:0:
145,340,238757,1,0,0:0:0:0:
186,311,238825,1,0,0:0:0:0:
333,289,238961,5,0,0:0:0:0:
372,319,239029,1,0,0:0:0:0:
408,284,239097,1,0,0:0:0:0:
444,249,239166,5,0,0:0:0:0:
450,74,239302,1,0,0:0:0:0:
263,5,239438,1,0,0:0:0:0:
318,230,239575,1,0,0:0:0:0:
334,221,239643,1,0,0:0:0:0:
343,206,239711,1,0,0:0:0:0:
150,88,239847,1,0,0:0:0:0:
303,349,239984,5,0,0:0:0:0:
427,228,240120,1,0,0:0:0:0:
409,60,240256,1,0,0:0:0:0:
256,192,240393,5,0,0:0:0:0:
439,325,240529,1,0,0:0:0:0:
437,104,240665,1,0,0:0:0:0:
364,122,240802,5,0,0:0:0:0:
367,361,240938,1,0,0:0:0:0:
454,154,241074,1,0,0:0:0:0:
292,357,241211,6,0,B|278:359|278:359|279:344,4,25
256,192,241484,1,0,0:0:0:0:
208,208,241552,1,0,0:0:0:0:
162,228,241620,2,0,L|137:172,1,50
73,22,241756,1,0,0:0:0:0:
0,209,241893,2,0,L|56:184,1,50
206,120,242029,1,0,0:0:0:0:
165,140,242165,5,0,0:0:0:0:
208,165,242234,1,0,0:0:0:0:
250,190,242302,1,0,0:0:0:0:
270,203,242370,1,0,0:0:0:0:
334,240,242438,5,0,0:0:0:0:
294,270,242506,1,0,0:0:0:0:
255,301,242574,1,0,0:0:0:0:
235,317,242643,1,0,0:0:0:0:
214,331,242711,5,0,0:0:0:0:
191,319,242779,1,0,0:0:0:0:
152,288,242847,1,0,0:0:0:0:
110,260,242915,1,0,0:0:0:0:
69,229,242984,5,0,0:0:0:0:
93,229,243052,1,0,0:0:0:0:
117,229,243120,1,0,0:0:0:0:
141,229,243188,1,0,0:0:0:0:
190,229,243256,5,0,0:0:0:0:
386,239,243392,1,0,0:0:0:0:
488,67,243529,1,0,0:0:0:0:
164,218,243665,2,0,L|211:190,1,50
336,117,243801,5,0,0:0:0:0:
70,80,243938,1,0,0:0:0:0:
35,200,244074,5,0,0:0:0:0:
217,35,244211,1,0,0:0:0:0:
330,148,244347,5,0,0:0:0:0:
95,70,244484,1,0,0:0:0:0:
331,145,244620,1,0,0:0:0:0:
93,68,244757,1,0,0:0:0:0:
187,238,244893,6,0,L|256:271,1,50
469,350,245029,1,0,0:0:0:0:
454,330,245097,1,0,0:0:0:0:
443,307,245166,1,0,0:0:0:0:
480,112,245302,6,0,L|405:61,1,50
242,63,245438,1,0,0:0:0:0:
233,75,245507,1,0,0:0:0:0:
224,87,245575,2,0,L|183:149,1,50
43,255,245711,1,0,0:0:0:0:
56,263,245779,1,0,0:0:0:0:
68,272,245847,2,0,L|122:308,1,50
72,283,245984,1,0,0:0:0:0:
83,293,246052,1,0,0:0:0:0:
345,250,246120,1,0,0:0:0:0:
162,374,246257,1,0,0:0:0:0:
264,134,246393,1,0,0:0:0:0:
103,314,246529,5,0,0:0:0:0:
305,206,246666,1,0,0:0:0:0:
154,63,246802,1,0,0:0:0:0:
176,259,246938,1,0,0:0:0:0:
419,160,247075,1,0,0:0:0:0:
233,39,247211,1,0,0:0:0:0:
490,33,247347,5,0,0:0:0:0:
400,74,247484,2,0,B|373:83|373:83|349:75,1,50
157,13,247620,1,0,0:0:0:0:
246,193,247757,1,0,0:0:0:0:
291,215,247825,1,0,0:0:0:0:
334,240,247893,2,0,B|358:253|358:253|384:247,1,50
512,101,248029,1,0,0:0:0:0:
239,77,248166,6,0,P|190:134|168:181,1,100
163,318,248438,1,0,0:0:0:0:
61,90,248575,1,0,0:0:0:0:
403,60,248712,6,0,L|408:45,3,12.5,0|0|0|0,2:0|2:0|2:0|2:0,2:0:0:0:
450,29,249802,5,0,2:0:0:0:
410,112,250212,1,0,2:0:0:0:
477,161,250636,1,0,2:0:0:0:
465,229,250924,1,0,2:0:0:0:
428,309,252084,6,0,P|461:260|466:209,2,100,0|0|0,2:0|2:0|2:0,2:0:0:0:
366,333,253572,1,0,2:0:0:0:
290,315,253885,1,0,2:0:0:0:
230,279,254197,1,0,2:0:0:0:
195,220,254510,5,0,2:0:0:0:
321,154,254669,1,0,2:0:0:0:
145,172,254829,1,0,2:0:0:0:
256,186,254988,1,0,2:0:0:0:
206,137,255148,1,0,2:0:0:0:
268,104,255474,1,0,2:0:0:0:
363,89,255879,5,0,2:0:0:0:
373,76,255923,1,0,2:0:0:0:
439,222,256584,5,0,2:0:0:0:
412,291,256721,1,0,2:0:0:0:
288,187,257134,6,0,P|284:120|357:82,1,150,0|0,2:0|2:0,2:0:0:0:
428,136,257684,1,0,2:0:0:0:
249,59,257960,1,0,2:0:0:0:
87,167,258289,5,0,2:0:0:0:
119,148,258374,1,0,2:0:0:0:
143,117,258459,1,0,2:0:0:0:
304,49,258970,5,0,2:0:0:0:
371,141,259117,1,0,2:0:0:0:
263,106,259264,1,0,2:0:0:0:
371,71,259411,1,0,2:0:0:0:
305,163,259558,1,0,2:0:0:0:
209,237,260758,5,0,2:0:0:0:
152,61,261358,5,0,2:0:0:0:
91,140,261511,1,0,2:0:0:0:
179,149,261664,1,0,2:0:0:0:
123,207,261830,1,0,2:0:0:0:
187,234,262008,1,0,2:0:0:0:
273,71,263105,5,0,2:0:0:0:
398,53,263471,6,0,P|405:79|405:109,1,50,0|0,2:0|2:0,2:0:0:0:
337,261,264323,1,0,2:0:0:0:
243,266,264834,5,0,2:0:0:0:
174,161,265175,2,0,P|171:172|171:192,1,25,0|0,2:0|2:0,2:0:0:0:
290,126,265516,1,0,2:0:0:0:
181,88,265837,1,0,2:0:0:0:
328,48,266163,5,0,2:0:0:0:
374,236,266952,1,0,2:0:0:0:
329,124,267478,5,0,2:0:0:0:
344,131,267566,1,0,2:0:0:0:
360,133,267653,1,0,2:0:0:0:
374,125,267741,1,0,2:0:0:0:
389,130,267829,1,0,2:0:0:0:
400,141,267916,1,0,2:0:0:0:
419,197,268504,5,0,2:0:0:0:
419,197,268731,1,0,2:0:0:0:
215,108,268918,5,0,2:0:0:0:
124,0,269293,6,0,L|119:33,22,25,0|0|0|0|0|0|0|0|0|0|0|0|0|0|0|0|0|0|0|0|0|0|0,2:0|2:0|2:0|2:0|2:0|2:0|2:0|2:0|2:0|2:0|2:0|2:0|2:0|2:0|2:0|2:0|2:0|2:0|2:0|2:0|2:0|2:0|2:0,2:0:0:0:
101,49,271449,6,0,L|101:62,5,12.5,0|0|0|0|0|0,2:0|2:0|2:0|2:0|2:0|2:0,2:0:0:0:
86,89,271731,5,0,2:0:0:0:
