osu file format v14

[General]
AudioFilename: audio.mp3
AudioLeadIn: 0
PreviewTime: 182892
Countdown: 0
SampleSet: Normal
StackLeniency: 0.7
Mode: 1
LetterboxInBreaks: 0
WidescreenStoryboard: 1

[Editor]
Bookmarks: 290,22878,45466,56760,68054,79348,90642,228995
DistanceSpacing: 1.3
BeatDivisor: 16
GridSize: 32
TimelineZoom: 2.799999

[Metadata]
Title:Refrain
TitleUnicode:Refrain
Artist:Synagi
ArtistUnicode:Synagi
Creator:Eriha
Version:Rebirth
Source:新世紀エヴァンゲリオン劇場版 シト新生
Tags:japanese hardcore electronic anime animation eva Neon Genesis EVANGELION bootleg jcore j-core 魂のルフラン tamashii no rufuran ruhuran 高橋洋子 takahashi yoko youko a-remix remix a nation vol 11 disk 2 for you sounds
BeatmapID:4447514
BeatmapSetID:2117702

[Difficulty]
HPDrainRate:4
CircleSize:5
OverallDifficulty:7
ApproachRate:5
SliderMultiplier:1.4
SliderTickRate:1

[Events]
//Background and Video events
0,0,"bg.jpg",0,90
//Break Periods
2,113078,123113
2,212407,216289
//Storyboard Layer 0 (Background)
//Storyboard Layer 1 (Fail)
//Storyboard Layer 2 (Pass)
//Storyboard Layer 3 (Foreground)
//Storyboard Layer 4 (Overlay)
//Storyboard Sound Samples

[TimingPoints]
290,352.941176470588,4,1,0,70,1,0
290,-100,4,1,0,70,0,0
8738,-100,4,1,0,70,0,0
8760,-100,4,1,0,70,0,1
8782,-100,4,1,0,70,0,1
9113,-100,4,1,0,70,0,0
9466,-100,4,1,0,70,0,1
9819,-100,4,1,0,70,0,0
10172,-100,4,1,0,70,0,1
10525,-100,4,1,0,70,0,0
10878,-100,4,1,0,70,0,1
11231,-100,4,1,0,70,0,0
11562,-100,4,1,0,70,0,0
22834,-100,4,1,0,75,0,0
32738,-100,4,1,0,75,0,0
34150,-100,4,1,0,75,0,0
44032,-100,4,1,0,75,0,0
45444,-100,4,1,0,75,0,0
55326,-100,4,1,0,75,0,0
56738,-100,4,1,0,75,0,0
66620,-100,4,1,0,75,0,0
68032,-100,4,1,0,75,0,0
77914,-100,4,1,0,75,0,0
79326,-100,4,1,0,75,0,0
90267,-100,4,1,0,75,0,0
90598,-100,4,1,0,70,0,0
101914,-100,4,1,0,70,0,0
111510,-100,4,1,0,30,0,0
111797,-25,4,1,0,30,0,0
112900,-100,4,1,0,30,0,0
124481,-100,4,1,0,70,0,0
126973,-100,4,1,0,70,0,0
127326,-100,4,1,0,70,0,0
129797,-100,4,1,0,70,0,0
130128,-100,4,1,0,75,0,0
134363,-100,4,1,0,30,0,0
137209,-25,4,1,0,30,0,0
137253,-100,4,1,0,30,0,0
138598,-100,4,1,0,85,0,0
138642,-100,4,1,0,85,0,1
148481,-100,4,1,0,30,0,1
148525,-100,4,1,0,30,0,0
149539,-100,4,1,0,75,0,0
149892,-100,4,1,0,85,0,0
149937,-100,4,1,0,85,0,1
159775,-100,4,1,0,30,0,1
159797,-25,4,1,0,30,0,1
159819,-25,4,1,0,30,0,0
160834,-25,4,1,0,75,0,0
160900,-100,4,1,0,75,0,0
161187,-100,4,1,0,80,0,0
171091,-100,4,1,0,80,0,0
172503,-100,4,1,0,80,0,0
183444,-100,4,1,0,80,0,0
183488,-100,4,1,0,80,0,0
183775,-100,4,1,0,85,0,0
183819,-100,4,1,0,85,0,1
193679,-100,4,1,0,85,0,1
193701,-100,4,1,0,85,0,0
195091,-100,4,1,0,85,0,0
195113,-100,4,1,0,85,0,1
206407,-100,4,1,0,85,0,0
206451,-100,4,1,0,30,0,0
206606,-100,4,1,0,30,0,0
228951,-100,4,1,0,70,0,0
240267,-100,4,1,0,70,0,0
242738,-100,4,1,0,70,0,0
243091,-100,4,1,0,70,0,0
245562,-100,4,1,0,70,0,0
245892,-100,4,1,0,75,0,0
254363,-100,4,1,0,85,0,0
254407,-100,4,1,0,85,0,1
264267,-100,4,1,0,85,0,1
264289,-100,4,1,0,85,0,0
265679,-100,4,1,0,85,0,0
265701,-100,4,1,0,85,0,1
275539,-100,4,1,0,75,0,1
275584,-100,4,1,0,75,0,0
276951,-100,4,1,0,85,0,0
276995,-100,4,1,0,85,0,1
286856,-100,4,1,0,85,0,1
286878,-100,4,1,0,85,0,0
288267,-100,4,1,0,85,0,0
288289,-100,4,1,0,85,0,1
299539,-100,4,1,0,75,0,1
299584,-100,4,1,0,75,0,0
309444,-100,4,1,0,75,0,0
310856,-100,4,1,0,75,0,0
320738,-100,4,1,0,75,0,0
322128,-100,4,1,0,70,0,0
344738,-100,4,1,0,70,0,0
344782,-100,4,1,0,70,0,0

[HitObjects]
256,192,290,5,4,0:0:0:0:
256,192,466,1,0,0:0:0:0:
256,192,554,1,8,0:0:0:0:
256,192,642,1,0,0:0:0:0:
256,192,731,1,8,0:0:0:0:
256,192,819,1,0,0:0:0:0:
256,192,995,1,8,0:0:0:0:
256,192,1084,1,0,0:0:0:0:
256,192,1172,1,0,0:0:0:0:
256,192,1260,1,8,0:0:0:0:
256,192,1348,1,0,0:0:0:0:
256,192,1437,1,8,0:0:0:0:
256,192,1525,1,0,0:0:0:0:
256,192,1701,1,0,0:0:0:0:
256,192,2054,1,0,0:0:0:0:
256,192,2407,1,8,0:0:0:0:
256,192,2760,1,8,0:0:0:0:
256,192,3113,1,0,0:0:0:0:
256,192,3466,1,0,0:0:0:0:
256,192,3819,1,8,0:0:0:0:
256,192,4172,1,8,0:0:0:0:
256,192,4525,1,0,0:0:0:0:
256,192,4878,1,0,0:0:0:0:
256,192,5231,1,8,0:0:0:0:
256,192,5584,1,8,0:0:0:0:
256,192,5760,1,0,0:0:0:0:
256,192,5848,1,8,0:0:0:0:
256,192,5937,1,0,0:0:0:0:
256,192,6113,1,0,0:0:0:0:
256,192,6201,1,8,0:0:0:0:
256,192,6289,1,0,0:0:0:0:
256,192,6378,1,8,0:0:0:0:
256,192,6466,1,0,0:0:0:0:
256,192,6642,1,8,0:0:0:0:
256,192,6731,1,0,0:0:0:0:
256,192,6819,1,0,0:0:0:0:
256,192,6907,1,8,0:0:0:0:
256,192,6995,1,0,0:0:0:0:
256,192,7084,1,8,0:0:0:0:
256,192,7172,1,0,0:0:0:0:
256,192,7348,1,0,0:0:0:0:
256,192,7701,1,0,0:0:0:0:
256,192,8054,1,8,0:0:0:0:
256,192,8407,1,8,0:0:0:0:
256,192,8760,1,4,0:0:0:0:
256,192,11231,1,8,0:0:0:0:
256,192,11319,1,8,0:0:0:0:
256,192,11407,1,8,0:0:0:0:
256,192,11584,1,4,0:0:0:0:
256,192,11760,1,0,0:0:0:0:
256,192,11848,1,0,0:0:0:0:
256,192,11937,1,8,0:0:0:0:
256,192,12025,1,8,0:0:0:0:
256,192,12113,1,0,0:0:0:0:
256,192,12289,1,8,0:0:0:0:
256,192,12378,1,8,0:0:0:0:
256,192,12466,1,0,0:0:0:0:
256,192,12554,1,8,0:0:0:0:
256,192,12642,1,0,0:0:0:0:
256,192,12731,1,0,0:0:0:0:
256,192,12819,1,8,0:0:0:0:
256,192,12907,1,8,0:0:0:0:
256,192,12995,1,0,0:0:0:0:
256,192,13172,1,8,0:0:0:0:
256,192,13260,1,8,0:0:0:0:
256,192,13348,1,0,0:0:0:0:
256,192,13437,1,8,0:0:0:0:
256,192,13613,1,0,0:0:0:0:
256,192,13701,1,0,0:0:0:0:
256,192,13789,1,8,0:0:0:0:
256,192,13878,1,0,0:0:0:0:
256,192,13966,1,8,0:0:0:0:
256,192,14054,1,8,0:0:0:0:
256,192,14142,1,0,0:0:0:0:
256,192,14231,1,8,0:0:0:0:
256,192,14407,1,0,0:0:0:0:
256,192,14584,1,0,0:0:0:0:
256,192,14672,1,8,0:0:0:0:
256,192,14760,1,8,0:0:0:0:
256,192,14848,1,8,0:0:0:0:
256,192,14937,1,0,0:0:0:0:
256,192,15113,1,8,0:0:0:0:
256,192,15201,1,8,0:0:0:0:
256,192,15289,1,0,0:0:0:0:
256,192,15378,1,8,0:0:0:0:
256,192,15466,1,8,0:0:0:0:
256,192,15554,1,8,0:0:0:0:
256,192,15642,1,0,0:0:0:0:
256,192,15819,1,0,0:0:0:0:
256,192,15907,1,0,0:0:0:0:
256,192,15995,1,8,0:0:0:0:
256,192,16084,1,8,0:0:0:0:
256,192,16172,1,0,0:0:0:0:
256,192,16260,1,8,0:0:0:0:
256,192,16348,1,8,0:0:0:0:
256,192,16437,1,8,0:0:0:0:
256,192,16525,1,0,0:0:0:0:
256,192,16613,1,0,0:0:0:0:
256,192,16701,1,8,0:0:0:0:
256,192,16789,1,0,0:0:0:0:
256,192,16878,1,0,0:0:0:0:
256,192,17054,1,8,0:0:0:0:
256,192,17231,1,4,0:0:0:0:
256,192,17407,1,8,0:0:0:0:
256,192,17495,1,8,0:0:0:0:
256,192,17584,1,0,0:0:0:0:
256,192,17672,1,0,0:0:0:0:
256,192,17760,1,8,0:0:0:0:
256,192,17937,1,0,0:0:0:0:
256,192,18025,1,0,0:0:0:0:
256,192,18113,1,8,0:0:0:0:
256,192,18201,1,0,0:0:0:0:
256,192,18289,1,8,0:0:0:0:
256,192,18378,1,8,0:0:0:0:
256,192,18466,1,0,0:0:0:0:
256,192,18554,1,8,0:0:0:0:
256,192,18642,1,0,0:0:0:0:
256,192,18731,1,0,0:0:0:0:
256,192,18819,1,8,0:0:0:0:
256,192,18907,1,0,0:0:0:0:
256,192,18995,1,0,0:0:0:0:
256,192,19084,1,0,0:0:0:0:
256,192,19172,1,8,0:0:0:0:
256,192,19260,1,8,0:0:0:0:
256,192,19348,1,0,0:0:0:0:
256,192,19437,1,0,0:0:0:0:
256,192,19525,1,8,0:0:0:0:
256,192,19613,1,0,0:0:0:0:
256,192,19701,1,8,0:0:0:0:
256,192,19789,1,0,0:0:0:0:
256,192,19878,1,8,0:0:0:0:
256,192,19966,1,8,0:0:0:0:
256,192,20054,1,0,0:0:0:0:
256,192,20142,1,0,0:0:0:0:
256,192,20231,1,8,0:0:0:0:
256,192,20319,1,8,0:0:0:0:
256,192,20407,1,0,0:0:0:0:
256,192,20495,1,8,0:0:0:0:
256,192,20584,1,8,0:0:0:0:
256,192,20672,1,8,0:0:0:0:
256,192,20760,1,0,0:0:0:0:
256,192,20848,1,0,0:0:0:0:
256,192,20937,1,8,0:0:0:0:
256,192,21025,1,8,0:0:0:0:
256,192,21113,1,0,0:0:0:0:
256,192,21201,1,8,0:0:0:0:
256,192,21289,1,8,0:0:0:0:
256,192,21378,1,8,0:0:0:0:
256,192,21466,1,8,0:0:0:0:
256,192,22525,1,8,0:0:0:0:
256,192,22642,1,8,0:0:0:0:
256,192,22701,1,0,0:0:0:0:
256,192,22878,1,4,0:0:0:0:
256,192,23054,1,8,0:0:0:0:
256,192,23142,1,8,0:0:0:0:
256,192,23231,1,0,0:0:0:0:
256,192,23319,1,0,0:0:0:0:
256,192,23407,1,8,0:0:0:0:
256,192,23495,1,0,0:0:0:0:
256,192,23584,1,8,0:0:0:0:
256,192,23760,1,0,0:0:0:0:
256,192,23848,1,8,0:0:0:0:
256,192,23937,1,0,0:0:0:0:
256,192,24025,1,0,0:0:0:0:
256,192,24113,1,8,0:0:0:0:
256,192,24289,1,0,0:0:0:0:
256,192,24466,1,8,0:0:0:0:
256,192,24554,1,8,0:0:0:0:
256,192,24642,1,0,0:0:0:0:
256,192,24819,1,8,0:0:0:0:
256,192,24995,1,0,0:0:0:0:
256,192,25084,1,8,0:0:0:0:
256,192,25172,1,8,0:0:0:0:
256,192,25260,1,0,0:0:0:0:
256,192,25348,1,8,0:0:0:0:
256,192,25525,1,8,0:0:0:0:
256,192,25613,1,8,0:0:0:0:
256,192,25701,1,0,0:0:0:0:
256,192,25789,1,0,0:0:0:0:
256,192,25878,1,8,0:0:0:0:
256,192,25966,1,0,0:0:0:0:
256,192,26054,1,8,0:0:0:0:
256,192,26142,1,8,0:0:0:0:
256,192,26231,1,0,0:0:0:0:
256,192,26319,1,0,0:0:0:0:
256,192,26407,1,8,0:0:0:0:
256,192,26584,1,0,0:0:0:0:
256,192,26672,1,8,0:0:0:0:
256,192,26760,1,0,0:0:0:0:
256,192,26848,1,0,0:0:0:0:
256,192,26937,1,8,0:0:0:0:
256,192,27113,1,0,0:0:0:0:
256,192,27201,1,0,0:0:0:0:
256,192,27289,1,8,0:0:0:0:
256,192,27378,1,8,0:0:0:0:
256,192,27466,1,0,0:0:0:0:
256,192,27642,1,8,0:0:0:0:
256,192,27819,1,0,0:0:0:0:
256,192,27907,1,0,0:0:0:0:
256,192,27995,1,8,0:0:0:0:
256,192,28054,1,8,0:0:0:0:
256,192,28113,1,8,0:0:0:0:
256,192,28172,1,0,0:0:0:0:
256,192,28348,1,8,0:0:0:0:
256,192,28437,1,8,0:0:0:0:
256,192,28525,1,0,0:0:0:0:
256,192,28613,1,0,0:0:0:0:
256,192,28701,1,8,0:0:0:0:
256,192,28789,1,8,0:0:0:0:
256,192,28878,1,0,0:0:0:0:
256,192,28966,1,8,0:0:0:0:
256,192,29054,1,8,0:0:0:0:
256,192,29142,1,0,0:0:0:0:
256,192,29231,1,8,0:0:0:0:
256,192,29407,1,0,0:0:0:0:
256,192,29495,1,8,0:0:0:0:
256,192,29584,1,0,0:0:0:0:
256,192,29672,1,0,0:0:0:0:
256,192,29760,1,8,0:0:0:0:
256,192,29937,1,0,0:0:0:0:
256,192,30113,1,8,0:0:0:0:
256,192,30201,1,8,0:0:0:0:
256,192,30289,1,0,0:0:0:0:
256,192,30466,1,8,0:0:0:0:
256,192,30642,1,0,0:0:0:0:
256,192,30731,1,0,0:0:0:0:
256,192,30819,1,8,0:0:0:0:
256,192,30907,1,0,0:0:0:0:
256,192,30995,1,8,0:0:0:0:
256,192,31172,1,8,0:0:0:0:
256,192,31260,1,8,0:0:0:0:
256,192,31348,1,0,0:0:0:0:
256,192,31437,1,0,0:0:0:0:
256,192,31525,1,8,0:0:0:0:
256,192,31613,1,0,0:0:0:0:
256,192,31701,1,8,0:0:0:0:
256,192,31789,1,8,0:0:0:0:
256,192,31878,1,0,0:0:0:0:
256,192,31966,1,0,0:0:0:0:
256,192,32054,1,8,0:0:0:0:
256,192,32231,1,0,0:0:0:0:
256,192,32319,1,8,0:0:0:0:
256,192,32407,1,0,0:0:0:0:
256,192,32495,1,0,0:0:0:0:
256,192,32584,1,8,0:0:0:0:
256,192,32760,1,0,0:0:0:0:
256,192,33113,1,8,0:0:0:0:
256,192,33819,1,8,0:0:0:0:
256,192,33995,1,8,0:0:0:0:
256,192,34172,1,4,0:0:0:0:
256,192,34348,1,8,0:0:0:0:
256,192,34437,1,8,0:0:0:0:
256,192,34525,1,0,0:0:0:0:
256,192,34613,1,0,0:0:0:0:
256,192,34701,1,8,0:0:0:0:
256,192,34789,1,0,0:0:0:0:
256,192,34878,1,8,0:0:0:0:
256,192,35054,1,0,0:0:0:0:
256,192,35142,1,8,0:0:0:0:
256,192,35231,1,0,0:0:0:0:
256,192,35319,1,0,0:0:0:0:
256,192,35407,1,8,0:0:0:0:
256,192,35584,1,0,0:0:0:0:
256,192,35760,1,8,0:0:0:0:
256,192,35848,1,8,0:0:0:0:
256,192,35937,1,0,0:0:0:0:
256,192,36113,1,8,0:0:0:0:
256,192,36289,1,0,0:0:0:0:
256,192,36378,1,8,0:0:0:0:
256,192,36466,1,8,0:0:0:0:
256,192,36554,1,0,0:0:0:0:
256,192,36642,1,8,0:0:0:0:
256,192,36819,1,8,0:0:0:0:
256,192,36907,1,8,0:0:0:0:
256,192,36995,1,0,0:0:0:0:
256,192,37084,1,0,0:0:0:0:
256,192,37172,1,8,0:0:0:0:
256,192,37260,1,0,0:0:0:0:
256,192,37348,1,8,0:0:0:0:
256,192,37437,1,8,0:0:0:0:
256,192,37525,1,0,0:0:0:0:
256,192,37613,1,0,0:0:0:0:
256,192,37701,1,8,0:0:0:0:
256,192,37878,1,0,0:0:0:0:
256,192,37966,1,8,0:0:0:0:
256,192,38054,1,0,0:0:0:0:
256,192,38142,1,0,0:0:0:0:
256,192,38231,1,8,0:0:0:0:
256,192,38407,1,0,0:0:0:0:
256,192,38495,1,0,0:0:0:0:
256,192,38584,1,8,0:0:0:0:
256,192,38672,1,8,0:0:0:0:
256,192,38760,1,0,0:0:0:0:
256,192,38937,1,8,0:0:0:0:
256,192,39113,1,0,0:0:0:0:
256,192,39201,1,8,0:0:0:0:
256,192,39289,1,8,0:0:0:0:
256,192,39378,1,0,0:0:0:0:
256,192,39466,1,8,0:0:0:0:
256,192,39642,1,8,0:0:0:0:
256,192,39731,1,8,0:0:0:0:
256,192,39819,1,0,0:0:0:0:
256,192,39907,1,0,0:0:0:0:
256,192,39995,1,8,0:0:0:0:
256,192,40084,1,8,0:0:0:0:
256,192,40172,1,0,0:0:0:0:
256,192,40260,1,8,0:0:0:0:
256,192,40348,1,8,0:0:0:0:
256,192,40437,1,0,0:0:0:0:
256,192,40525,1,8,0:0:0:0:
256,192,40701,1,0,0:0:0:0:
256,192,40789,1,8,0:0:0:0:
256,192,40878,1,0,0:0:0:0:
256,192,40966,1,0,0:0:0:0:
256,192,41054,1,8,0:0:0:0:
256,192,41231,1,0,0:0:0:0:
256,192,41407,1,8,0:0:0:0:
256,192,41495,1,8,0:0:0:0:
256,192,41584,1,0,0:0:0:0:
256,192,41672,1,8,0:0:0:0:
256,192,41760,1,0,0:0:0:0:
256,192,41937,1,0,0:0:0:0:
256,192,42025,1,0,0:0:0:0:
256,192,42113,1,8,0:0:0:0:
256,192,42201,1,0,0:0:0:0:
256,192,42289,1,8,0:0:0:0:
256,192,42466,1,8,0:0:0:0:
256,192,42554,1,8,0:0:0:0:
256,192,42642,1,0,0:0:0:0:
256,192,42731,1,0,0:0:0:0:
256,192,42819,1,8,0:0:0:0:
256,192,42907,1,0,0:0:0:0:
256,192,42995,1,8,0:0:0:0:
256,192,43084,1,8,0:0:0:0:
256,192,43172,1,0,0:0:0:0:
256,192,43260,1,0,0:0:0:0:
256,192,43348,1,8,0:0:0:0:
256,192,43437,1,8,0:0:0:0:
256,192,43525,1,0,0:0:0:0:
256,192,43613,1,8,0:0:0:0:
256,192,43701,1,0,0:0:0:0:
256,192,43789,1,0,0:0:0:0:
256,192,43878,1,8,0:0:0:0:
256,192,44054,1,0,0:0:0:0:
256,192,45113,1,8,0:0:0:0:
256,192,45201,1,8,0:0:0:0:
256,192,45289,1,8,0:0:0:0:
256,192,45466,1,4,0:0:0:0:
256,192,45819,1,8,0:0:0:0:
256,192,45995,1,0,0:0:0:0:
256,192,46172,1,8,0:0:0:0:
256,192,46348,1,0,0:0:0:0:
256,192,46437,1,8,0:0:0:0:
256,192,46525,1,0,0:0:0:0:
256,192,46701,1,8,0:0:0:0:
256,192,46878,1,0,0:0:0:0:
256,192,47054,1,0,0:0:0:0:
256,192,47231,1,8,0:0:0:0:
256,192,47407,1,0,0:0:0:0:
256,192,47495,1,0,0:0:0:0:
256,192,47584,1,8,0:0:0:0:
256,192,47760,1,8,0:0:0:0:
256,192,47848,1,8,0:0:0:0:
256,192,47937,1,0,0:0:0:0:
256,192,48025,1,0,0:0:0:0:
256,192,48113,1,8,0:0:0:0:
256,192,48289,1,0,0:0:0:0:
256,192,48378,1,0,0:0:0:0:
256,192,48466,1,8,0:0:0:0:
256,192,48554,1,0,0:0:0:0:
256,192,48642,1,8,0:0:0:0:
256,192,48819,1,0,0:0:0:0:
256,192,48995,1,8,0:0:0:0:
256,192,49172,1,0,0:0:0:0:
256,192,49260,1,8,0:0:0:0:
256,192,49348,1,0,0:0:0:0:
256,192,49437,1,0,0:0:0:0:
256,192,49525,1,8,0:0:0:0:
256,192,49701,1,0,0:0:0:0:
256,192,49789,1,0,0:0:0:0:
256,192,49878,1,8,0:0:0:0:
256,192,49966,1,8,0:0:0:0:
256,192,50054,1,0,0:0:0:0:
256,192,50231,1,8,0:0:0:0:
256,192,50407,1,8,0:0:0:0:
256,192,50495,1,8,0:0:0:0:
256,192,50584,1,0,0:0:0:0:
256,192,50672,1,8,0:0:0:0:
256,192,50760,1,0,0:0:0:0:
256,192,50937,1,8,0:0:0:0:
256,192,51113,1,0,0:0:0:0:
256,192,51289,1,8,0:0:0:0:
256,192,51378,1,0,0:0:0:0:
256,192,51466,1,8,0:0:0:0:
256,192,51642,1,0,0:0:0:0:
256,192,51819,1,8,0:0:0:0:
256,192,51907,1,8,0:0:0:0:
256,192,51995,1,0,0:0:0:0:
256,192,52084,1,8,0:0:0:0:
256,192,52172,1,0,0:0:0:0:
256,192,52348,1,8,0:0:0:0:
256,192,52437,1,0,0:0:0:0:
256,192,52525,1,0,0:0:0:0:
256,192,52701,1,8,0:0:0:0:
256,192,52878,1,0,0:0:0:0:
256,192,53054,1,8,0:0:0:0:
256,192,53142,1,0,0:0:0:0:
256,192,53231,1,0,0:0:0:0:
256,192,53319,1,0,0:0:0:0:
256,192,53407,1,8,0:0:0:0:
256,192,53584,1,0,0:0:0:0:
256,192,53760,1,8,0:0:0:0:
256,192,53848,1,8,0:0:0:0:
256,192,53937,1,0,0:0:0:0:
256,192,54025,1,8,0:0:0:0:
256,192,54113,1,8,0:0:0:0:
256,192,54289,1,8,0:0:0:0:
256,192,54466,1,0,0:0:0:0:
256,192,54642,1,8,0:0:0:0:
256,192,54819,1,0,0:0:0:0:
256,192,54907,1,8,0:0:0:0:
256,192,54995,1,0,0:0:0:0:
256,192,55084,1,0,0:0:0:0:
256,192,55172,1,8,0:0:0:0:
256,192,55348,1,0,0:0:0:0:
256,192,55525,1,8,0:0:0:0:
256,192,55878,1,8,0:0:0:0:
256,192,56231,1,8,0:0:0:0:
256,192,56319,1,8,0:0:0:0:
256,192,56407,1,0,0:0:0:0:
256,192,56584,1,8,0:0:0:0:
256,192,56760,1,4,0:0:0:0:
256,192,57113,1,8,0:0:0:0:
256,192,57289,1,0,0:0:0:0:
256,192,57466,1,8,0:0:0:0:
256,192,57642,1,0,0:0:0:0:
256,192,57731,1,0,0:0:0:0:
256,192,57819,1,8,0:0:0:0:
256,192,57907,1,0,0:0:0:0:
256,192,57995,1,8,0:0:0:0:
256,192,58172,1,0,0:0:0:0:
256,192,58348,1,8,0:0:0:0:
256,192,58437,1,8,0:0:0:0:
256,192,58525,1,0,0:0:0:0:
256,192,58701,1,8,0:0:0:0:
256,192,58878,1,0,0:0:0:0:
256,192,58966,1,8,0:0:0:0:
256,192,59054,1,8,0:0:0:0:
256,192,59142,1,0,0:0:0:0:
256,192,59231,1,8,0:0:0:0:
256,192,59407,1,8,0:0:0:0:
256,192,59584,1,0,0:0:0:0:
256,192,59760,1,8,0:0:0:0:
256,192,59848,1,8,0:0:0:0:
256,192,59937,1,0,0:0:0:0:
256,192,60113,1,0,0:0:0:0:
256,192,60289,1,8,0:0:0:0:
256,192,60466,1,0,0:0:0:0:
256,192,60554,1,8,0:0:0:0:
256,192,60642,1,0,0:0:0:0:
256,192,60731,1,0,0:0:0:0:
256,192,60819,1,8,0:0:0:0:
256,192,60907,1,8,0:0:0:0:
256,192,60995,1,0,0:0:0:0:
256,192,61172,1,8,0:0:0:0:
256,192,61260,1,8,0:0:0:0:
256,192,61348,1,0,0:0:0:0:
256,192,61525,1,8,0:0:0:0:
256,192,61701,1,8,0:0:0:0:
256,192,61789,1,0,0:0:0:0:
256,192,61878,1,0,0:0:0:0:
256,192,61966,1,8,0:0:0:0:
256,192,62054,1,0,0:0:0:0:
256,192,62231,1,8,0:0:0:0:
256,192,62407,1,0,0:0:0:0:
256,192,62584,1,8,0:0:0:0:
256,192,62672,1,0,0:0:0:0:
256,192,62760,1,8,0:0:0:0:
256,192,62937,1,0,0:0:0:0:
256,192,63113,1,8,0:0:0:0:
256,192,63289,1,0,0:0:0:0:
256,192,63378,1,8,0:0:0:0:
256,192,63466,1,0,0:0:0:0:
256,192,63642,1,8,0:0:0:0:
256,192,63731,1,8,0:0:0:0:
256,192,63819,1,0,0:0:0:0:
256,192,63907,1,0,0:0:0:0:
256,192,63995,1,8,0:0:0:0:
256,192,64084,1,0,0:0:0:0:
256,192,64172,1,8,0:0:0:0:
256,192,64348,1,8,0:0:0:0:
256,192,64525,1,0,0:0:0:0:
256,192,64613,1,8,0:0:0:0:
256,192,64701,1,8,0:0:0:0:
256,192,64789,1,0,0:0:0:0:
256,192,64878,1,8,0:0:0:0:
256,192,65054,1,8,0:0:0:0:
256,192,65231,1,0,0:0:0:0:
256,192,65407,1,8,0:0:0:0:
256,192,65495,1,0,0:0:0:0:
256,192,65584,1,8,0:0:0:0:
256,192,65760,1,0,0:0:0:0:
256,192,65937,1,8,0:0:0:0:
256,192,66113,1,0,0:0:0:0:
256,192,66201,1,8,0:0:0:0:
256,192,66289,1,0,0:0:0:0:
256,192,66378,1,0,0:0:0:0:
256,192,66466,1,8,0:0:0:0:
256,192,66642,1,0,0:0:0:0:
256,192,66731,1,8,0:0:0:0:
256,192,66819,1,0,0:0:0:0:
256,192,66907,1,0,0:0:0:0:
256,192,66995,1,8,0:0:0:0:
256,192,67084,1,8,0:0:0:0:
256,192,67172,1,0,0:0:0:0:
256,192,67348,1,8,0:0:0:0:
256,192,67437,1,0,0:0:0:0:
256,192,67525,1,8,0:0:0:0:
256,192,67613,1,0,0:0:0:0:
256,192,67701,1,8,0:0:0:0:
256,192,67789,1,8,0:0:0:0:
256,192,67878,1,0,0:0:0:0:
256,192,68054,1,4,0:0:0:0:
256,192,68407,1,8,0:0:0:0:
256,192,68583,1,0,0:0:0:0:
256,192,68760,1,8,0:0:0:0:
256,192,68936,1,0,0:0:0:0:
256,192,69025,1,8,0:0:0:0:
256,192,69113,1,0,0:0:0:0:
256,192,69289,1,8,0:0:0:0:
256,192,69466,1,0,0:0:0:0:
256,192,69642,1,0,0:0:0:0:
256,192,69819,1,8,0:0:0:0:
256,192,69995,1,0,0:0:0:0:
256,192,70083,1,0,0:0:0:0:
256,192,70172,1,8,0:0:0:0:
256,192,70348,1,8,0:0:0:0:
256,192,70436,1,0,0:0:0:0:
256,192,70525,1,0,0:0:0:0:
256,192,70613,1,0,0:0:0:0:
256,192,70701,1,8,0:0:0:0:
256,192,70877,1,0,0:0:0:0:
256,192,70966,1,0,0:0:0:0:
256,192,71054,1,8,0:0:0:0:
256,192,71142,1,0,0:0:0:0:
256,192,71230,1,8,0:0:0:0:
256,192,71407,1,0,0:0:0:0:
256,192,71583,1,8,0:0:0:0:
256,192,71760,1,0,0:0:0:0:
256,192,71848,1,8,0:0:0:0:
256,192,71936,1,0,0:0:0:0:
256,192,72025,1,0,0:0:0:0:
256,192,72113,1,8,0:0:0:0:
256,192,72289,1,0,0:0:0:0:
256,192,72377,1,0,0:0:0:0:
256,192,72466,1,8,0:0:0:0:
256,192,72554,1,8,0:0:0:0:
256,192,72642,1,0,0:0:0:0:
256,192,72819,1,8,0:0:0:0:
256,192,72995,1,8,0:0:0:0:
256,192,73083,1,8,0:0:0:0:
256,192,73172,1,0,0:0:0:0:
256,192,73260,1,8,0:0:0:0:
256,192,73348,1,0,0:0:0:0:
256,192,73525,1,8,0:0:0:0:
256,192,73701,1,0,0:0:0:0:
256,192,73877,1,8,0:0:0:0:
256,192,73966,1,0,0:0:0:0:
256,192,74054,1,8,0:0:0:0:
256,192,74230,1,0,0:0:0:0:
256,192,74407,1,8,0:0:0:0:
256,192,74495,1,8,0:0:0:0:
256,192,74583,1,0,0:0:0:0:
256,192,74672,1,8,0:0:0:0:
256,192,74760,1,0,0:0:0:0:
256,192,74936,1,8,0:0:0:0:
256,192,75025,1,0,0:0:0:0:
256,192,75113,1,0,0:0:0:0:
256,192,75289,1,8,0:0:0:0:
256,192,75466,1,0,0:0:0:0:
256,192,75642,1,8,0:0:0:0:
256,192,75730,1,0,0:0:0:0:
256,192,75819,1,0,0:0:0:0:
256,192,75907,1,0,0:0:0:0:
256,192,75995,1,8,0:0:0:0:
256,192,76172,1,0,0:0:0:0:
256,192,76348,1,8,0:0:0:0:
256,192,76436,1,8,0:0:0:0:
256,192,76525,1,0,0:0:0:0:
256,192,76613,1,8,0:0:0:0:
256,192,76701,1,8,0:0:0:0:
256,192,76877,1,8,0:0:0:0:
256,192,77054,1,0,0:0:0:0:
256,192,77230,1,8,0:0:0:0:
256,192,77407,1,0,0:0:0:0:
256,192,77495,1,8,0:0:0:0:
256,192,77583,1,0,0:0:0:0:
256,192,77672,1,0,0:0:0:0:
256,192,77760,1,8,0:0:0:0:
256,192,77937,1,0,0:0:0:0:
256,192,78113,1,8,0:0:0:0:
256,192,78466,1,8,0:0:0:0:
256,192,78819,1,8,0:0:0:0:
256,192,78907,1,8,0:0:0:0:
256,192,78995,1,0,0:0:0:0:
256,192,79172,1,8,0:0:0:0:
256,192,79348,1,4,0:0:0:0:
256,192,79701,1,8,0:0:0:0:
256,192,80054,1,8,0:0:0:0:
256,192,80407,1,8,0:0:0:0:
256,192,80760,1,8,0:0:0:0:
256,192,81113,1,8,0:0:0:0:
256,192,81466,1,8,0:0:0:0:
256,192,81819,1,8,0:0:0:0:
256,192,82172,1,0,0:0:0:0:
256,192,82525,1,8,0:0:0:0:
256,192,82878,1,8,0:0:0:0:
256,192,83231,1,8,0:0:0:0:
256,192,83584,1,8,0:0:0:0:
256,192,83937,1,8,0:0:0:0:
256,192,84289,1,8,0:0:0:0:
256,192,84642,1,8,0:0:0:0:
256,192,84995,1,0,0:0:0:0:
256,192,85172,1,0,0:0:0:0:
256,192,85348,1,8,0:0:0:0:
256,192,85525,1,0,0:0:0:0:
256,192,85701,1,8,0:0:0:0:
256,192,85878,1,8,0:0:0:0:
256,192,86054,1,0,0:0:0:0:
256,192,86231,1,8,0:0:0:0:
256,192,86407,1,0,0:0:0:0:
256,192,86584,1,8,0:0:0:0:
256,192,86760,1,8,0:0:0:0:
256,192,86937,1,8,0:0:0:0:
256,192,87113,1,0,0:0:0:0:
256,192,87289,1,0,0:0:0:0:
256,192,87466,1,8,0:0:0:0:
256,192,87642,1,0,0:0:0:0:
256,192,87819,1,8,0:0:0:0:
256,192,87907,1,0,0:0:0:0:
256,192,87995,1,8,0:0:0:0:
256,192,88084,1,8,0:0:0:0:
256,192,88172,1,0,0:0:0:0:
256,192,88260,1,0,0:0:0:0:
256,192,88348,1,8,0:0:0:0:
256,192,88437,1,0,0:0:0:0:
256,192,88525,1,8,0:0:0:0:
256,192,88613,1,8,0:0:0:0:
256,192,88701,1,0,0:0:0:0:
256,192,88789,1,8,0:0:0:0:
256,192,88878,1,0,0:0:0:0:
256,192,88966,1,0,0:0:0:0:
256,192,89054,1,8,0:0:0:0:
256,192,89142,1,8,0:0:0:0:
256,192,89231,1,0,0:0:0:0:
256,192,90289,1,8,0:0:0:0:
256,192,90378,1,8,0:0:0:0:
256,192,90466,1,8,0:0:0:0:
256,192,90642,1,4,0:0:0:0:
256,192,91172,1,8,0:0:0:0:
256,192,92760,1,0,0:0:0:0:
256,192,92937,1,8,0:0:0:0:
256,192,93113,1,0,0:0:0:0:
256,192,93289,1,8,0:0:0:0:
256,192,93466,1,8,0:0:0:0:
256,192,93995,1,8,0:0:0:0:
256,192,95584,1,8,0:0:0:0:
256,192,95760,1,8,0:0:0:0:
256,192,95937,1,8,0:0:0:0:
256,192,96113,1,0,0:0:0:0:
256,192,96289,1,0,0:0:0:0:
256,192,96819,1,0,0:0:0:0:
256,192,97701,1,0,0:0:0:0:
256,192,98231,1,8,0:0:0:0:
256,192,99113,1,8,0:0:0:0:
256,192,99642,1,8,0:0:0:0:
256,192,100525,1,8,0:0:0:0:
256,192,101054,1,0,0:0:0:0:
256,192,101584,1,8,0:0:0:0:
256,192,101937,1,4,0:0:0:0:
256,192,102289,1,8,0:0:0:0:
256,192,102466,1,0,0:0:0:0:
256,192,102995,1,8,0:0:0:0:
256,192,103348,1,0,0:0:0:0:
256,192,103701,1,8,0:0:0:0:
256,192,103878,1,0,0:0:0:0:
256,192,104407,1,8,0:0:0:0:
256,192,104760,1,0,0:0:0:0:
256,192,105113,1,8,0:0:0:0:
256,192,105289,1,0,0:0:0:0:
256,192,105819,1,8,0:0:0:0:
256,192,106172,1,0,0:0:0:0:
256,192,106525,1,8,0:0:0:0:
256,192,106701,1,0,0:0:0:0:
256,192,107231,1,8,0:0:0:0:
256,192,107584,1,4,0:0:0:0:
256,192,107937,1,8,0:0:0:0:
256,192,108113,1,0,0:0:0:0:
256,192,108642,1,8,0:0:0:0:
256,192,108995,1,0,0:0:0:0:
256,192,109348,1,8,0:0:0:0:
256,192,109525,1,0,0:0:0:0:
256,192,110054,1,8,0:0:0:0:
256,192,110407,1,0,0:0:0:0:
256,192,110760,1,8,0:0:0:0:
256,192,110937,1,0,0:0:0:0:
256,192,111466,1,8,0:0:0:0:
256,192,111819,12,0,112878,0:0:0:0:
256,192,124525,5,0,0:0:0:0:
256,192,124701,1,0,0:0:0:0:
256,192,124878,1,8,0:0:0:0:
256,192,125054,1,0,0:0:0:0:
256,192,125231,1,8,0:0:0:0:
256,192,125407,1,8,0:0:0:0:
256,192,125584,1,0,0:0:0:0:
256,192,125760,1,8,0:0:0:0:
256,192,125937,1,0,0:0:0:0:
256,192,126113,1,0,0:0:0:0:
256,192,126289,1,8,0:0:0:0:
256,192,126466,1,8,0:0:0:0:
256,192,126642,1,0,0:0:0:0:
256,192,126819,1,8,0:0:0:0:
256,192,126995,1,0,0:0:0:0:
256,192,127084,1,8,0:0:0:0:
256,192,127172,1,0,0:0:0:0:
256,192,127260,1,8,0:0:0:0:
256,192,127348,1,0,0:0:0:0:
256,192,127525,1,0,0:0:0:0:
256,192,127701,1,8,0:0:0:0:
256,192,127878,1,8,0:0:0:0:
256,192,128054,1,0,0:0:0:0:
256,192,128231,1,8,0:0:0:0:
256,192,128407,1,8,0:0:0:0:
256,192,128584,1,8,0:0:0:0:
256,192,128760,1,0,0:0:0:0:
256,192,128937,1,8,0:0:0:0:
256,192,129113,1,0,0:0:0:0:
256,192,129289,1,8,0:0:0:0:
256,192,129466,1,0,0:0:0:0:
256,192,129642,1,0,0:0:0:0:
256,192,129819,1,0,0:0:0:0:
256,192,130172,1,8,0:0:0:0:
256,192,130260,1,8,0:0:0:0:
256,192,130348,1,8,0:0:0:0:
256,192,130436,1,8,0:0:0:0:
256,192,130524,1,0,0:0:0:0:
256,192,130613,1,8,0:0:0:0:
256,192,130701,1,8,0:0:0:0:
256,192,130789,1,8,0:0:0:0:
256,192,130877,1,0,0:0:0:0:
256,192,130966,1,0,0:0:0:0:
256,192,131054,1,8,0:0:0:0:
256,192,131142,1,0,0:0:0:0:
256,192,131230,1,8,0:0:0:0:
256,192,131319,1,8,0:0:0:0:
256,192,131407,1,8,0:0:0:0:
256,192,131495,1,8,0:0:0:0:
256,192,131583,1,0,0:0:0:0:
256,192,131672,1,0,0:0:0:0:
256,192,131760,1,8,0:0:0:0:
256,192,131848,1,0,0:0:0:0:
256,192,131936,1,8,0:0:0:0:
256,192,132024,1,8,0:0:0:0:
256,192,132113,1,0,0:0:0:0:
256,192,132201,1,8,0:0:0:0:
256,192,132289,1,0,0:0:0:0:
256,192,132377,1,0,0:0:0:0:
256,192,132466,1,8,0:0:0:0:
256,192,132554,1,8,0:0:0:0:
256,192,132642,1,8,0:0:0:0:
256,192,132760,1,8,0:0:0:0:
256,192,132819,1,0,0:0:0:0:
256,192,132907,1,8,0:0:0:0:
256,192,132995,1,0,0:0:0:0:
256,192,133083,1,0,0:0:0:0:
256,192,133172,1,8,0:0:0:0:
256,192,133260,1,0,0:0:0:0:
256,192,133348,1,0,0:0:0:0:
256,192,133436,1,0,0:0:0:0:
256,192,133524,1,8,0:0:0:0:
256,192,133613,1,8,0:0:0:0:
256,192,133701,1,0,0:0:0:0:
256,192,133789,1,8,0:0:0:0:
256,192,133877,1,8,0:0:0:0:
256,192,133966,1,8,0:0:0:0:
256,192,134054,1,0,0:0:0:0:
256,192,134142,1,0,0:0:0:0:
256,192,134230,1,8,0:0:0:0:
256,192,134319,1,8,0:0:0:0:
256,192,138642,1,8,0:0:0:0:
256,192,138731,1,0,0:0:0:0:
256,192,138819,5,8,0:0:0:0:
256,192,138878,1,8,0:0:0:0:
256,192,138937,1,8,0:0:0:0:
256,192,138996,1,0,0:0:0:0:
256,192,139084,1,0,0:0:0:0:
256,192,139172,1,8,0:0:0:0:
256,192,139231,1,0,0:0:0:0:
256,192,139290,1,0,0:0:0:0:
256,192,139349,1,8,0:0:0:0:
256,192,139525,1,8,0:0:0:0:
256,192,139613,1,8,0:0:0:0:
256,192,139701,1,0,0:0:0:0:
256,192,139878,1,8,0:0:0:0:
256,192,139966,1,8,0:0:0:0:
256,192,140054,1,0,0:0:0:0:
256,192,140142,1,8,0:0:0:0:
256,192,140231,1,8,0:0:0:0:
256,192,140319,1,8,0:0:0:0:
256,192,140407,1,0,0:0:0:0:
256,192,140495,1,8,0:0:0:0:
256,192,140584,1,8,0:0:0:0:
256,192,140672,1,8,0:0:0:0:
256,192,140760,1,0,0:0:0:0:
256,192,140848,1,8,0:0:0:0:
256,192,140937,1,8,0:0:0:0:
256,192,141025,1,0,0:0:0:0:
256,192,141113,1,8,0:0:0:0:
256,192,141171,1,8,0:0:0:0:
256,192,141230,1,8,0:0:0:0:
256,192,141289,1,0,0:0:0:0:
256,192,141466,1,8,0:0:0:0:
256,192,141554,1,0,0:0:0:0:
256,192,141642,1,8,0:0:0:0:
256,192,141701,1,8,0:0:0:0:
256,192,141760,1,8,0:0:0:0:
256,192,141818,1,0,0:0:0:0:
256,192,141907,1,0,0:0:0:0:
256,192,141995,1,8,0:0:0:0:
256,192,142054,1,0,0:0:0:0:
256,192,142113,1,0,0:0:0:0:
256,192,142171,1,8,0:0:0:0:
256,192,142348,1,8,0:0:0:0:
256,192,142437,1,8,0:0:0:0:
256,192,142525,1,0,0:0:0:0:
256,192,142701,1,8,0:0:0:0:
256,192,142789,1,8,0:0:0:0:
256,192,142878,1,0,0:0:0:0:
256,192,142966,1,8,0:0:0:0:
256,192,143054,1,8,0:0:0:0:
256,192,143142,1,8,0:0:0:0:
256,192,143231,1,0,0:0:0:0:
256,192,143319,1,8,0:0:0:0:
256,192,143407,1,8,0:0:0:0:
256,192,143495,1,8,0:0:0:0:
256,192,143584,1,8,0:0:0:0:
256,192,143642,1,0,0:0:0:0:
256,192,143701,1,0,0:0:0:0:
256,192,143760,1,8,0:0:0:0:
256,192,143848,1,0,0:0:0:0:
256,192,143937,1,8,0:0:0:0:
256,192,143995,1,8,0:0:0:0:
256,192,144054,1,8,0:0:0:0:
256,192,144113,1,0,0:0:0:0:
256,192,144289,1,8,0:0:0:0:
256,192,144378,1,0,0:0:0:0:
256,192,144466,1,8,0:0:0:0:
256,192,144525,1,8,0:0:0:0:
256,192,144584,1,8,0:0:0:0:
256,192,144642,1,0,0:0:0:0:
256,192,144731,1,0,0:0:0:0:
256,192,144819,1,8,0:0:0:0:
256,192,144878,1,0,0:0:0:0:
256,192,144937,1,0,0:0:0:0:
256,192,144995,1,8,0:0:0:0:
256,192,145084,1,0,0:0:0:0:
256,192,145172,1,8,0:0:0:0:
256,192,145231,1,8,0:0:0:0:
256,192,145289,1,8,0:0:0:0:
256,192,145348,1,0,0:0:0:0:
256,192,145436,1,0,0:0:0:0:
256,192,145525,1,0,0:0:0:0:
256,192,145701,1,0,0:0:0:0:
256,192,145789,1,8,0:0:0:0:
256,192,145878,1,8,0:0:0:0:
256,192,145966,1,0,0:0:0:0:
256,192,146054,1,8,0:0:0:0:
256,192,146142,1,8,0:0:0:0:
256,192,146231,1,8,0:0:0:0:
256,192,146319,1,0,0:0:0:0:
256,192,146407,1,8,0:0:0:0:
256,192,146465,1,0,0:0:0:0:
256,192,146524,1,0,0:0:0:0:
256,192,146583,1,8,0:0:0:0:
256,192,146760,1,8,0:0:0:0:
256,192,146818,1,8,0:0:0:0:
256,192,146877,1,8,0:0:0:0:
256,192,146936,1,0,0:0:0:0:
256,192,147113,1,8,0:0:0:0:
256,192,147202,1,0,0:0:0:0:
256,192,147290,5,8,0:0:0:0:
256,192,147349,1,8,0:0:0:0:
256,192,147408,1,8,0:0:0:0:
256,192,147467,1,0,0:0:0:0:
256,192,147555,1,0,0:0:0:0:
256,192,147643,1,8,0:0:0:0:
256,192,147702,1,0,0:0:0:0:
256,192,147761,1,0,0:0:0:0:
256,192,147820,1,8,0:0:0:0:
256,192,147995,1,0,0:0:0:0:
256,192,148084,1,8,0:0:0:0:
256,192,148172,1,0,0:0:0:0:
256,192,148348,1,8,0:0:0:0:
256,192,148437,1,8,0:0:0:0:
256,192,149584,1,8,0:0:0:0:
256,192,149701,1,8,0:0:0:0:
256,192,149760,1,0,0:0:0:0:
256,192,149937,1,8,0:0:0:0:
256,192,150026,1,0,0:0:0:0:
256,192,150114,5,8,0:0:0:0:
256,192,150173,1,8,0:0:0:0:
256,192,150232,1,8,0:0:0:0:
256,192,150289,1,0,0:0:0:0:
256,192,150379,1,0,0:0:0:0:
256,192,150467,1,8,0:0:0:0:
256,192,150526,1,0,0:0:0:0:
256,192,150585,1,0,0:0:0:0:
256,192,150642,1,8,0:0:0:0:
256,192,150820,1,8,0:0:0:0:
256,192,150908,1,8,0:0:0:0:
256,192,150996,1,0,0:0:0:0:
256,192,151173,1,8,0:0:0:0:
256,192,151261,1,8,0:0:0:0:
256,192,151349,1,0,0:0:0:0:
256,192,151437,1,8,0:0:0:0:
256,192,151526,1,8,0:0:0:0:
256,192,151614,1,8,0:0:0:0:
256,192,151702,1,0,0:0:0:0:
256,192,151790,1,8,0:0:0:0:
256,192,151879,1,8,0:0:0:0:
256,192,151967,1,8,0:0:0:0:
256,192,152055,1,0,0:0:0:0:
256,192,152143,1,8,0:0:0:0:
256,192,152232,1,8,0:0:0:0:
256,192,152320,1,0,0:0:0:0:
256,192,152408,1,8,0:0:0:0:
256,192,152466,1,8,0:0:0:0:
256,192,152525,1,8,0:0:0:0:
256,192,152584,1,0,0:0:0:0:
256,192,152761,1,8,0:0:0:0:
256,192,152849,1,0,0:0:0:0:
256,192,152937,1,8,0:0:0:0:
256,192,152996,1,8,0:0:0:0:
256,192,153055,1,8,0:0:0:0:
256,192,153113,1,0,0:0:0:0:
256,192,153202,1,0,0:0:0:0:
256,192,153290,1,8,0:0:0:0:
256,192,153349,1,0,0:0:0:0:
256,192,153408,1,0,0:0:0:0:
256,192,153466,1,8,0:0:0:0:
256,192,153643,1,8,0:0:0:0:
256,192,153732,1,8,0:0:0:0:
256,192,153820,1,0,0:0:0:0:
256,192,153996,1,8,0:0:0:0:
256,192,154084,1,8,0:0:0:0:
256,192,154173,1,0,0:0:0:0:
256,192,154261,1,8,0:0:0:0:
256,192,154349,1,8,0:0:0:0:
256,192,154437,1,8,0:0:0:0:
256,192,154526,1,0,0:0:0:0:
256,192,154614,1,8,0:0:0:0:
256,192,154702,1,8,0:0:0:0:
256,192,154790,1,8,0:0:0:0:
256,192,154879,1,8,0:0:0:0:
256,192,154937,1,0,0:0:0:0:
256,192,154996,1,0,0:0:0:0:
256,192,155055,1,8,0:0:0:0:
256,192,155143,1,0,0:0:0:0:
256,192,155232,1,8,0:0:0:0:
256,192,155290,1,8,0:0:0:0:
256,192,155349,1,8,0:0:0:0:
256,192,155408,1,0,0:0:0:0:
256,192,155584,1,8,0:0:0:0:
256,192,155673,1,0,0:0:0:0:
256,192,155761,1,8,0:0:0:0:
256,192,155820,1,8,0:0:0:0:
256,192,155879,1,8,0:0:0:0:
256,192,155937,1,0,0:0:0:0:
256,192,156025,1,0,0:0:0:0:
256,192,156114,1,8,0:0:0:0:
256,192,156173,1,0,0:0:0:0:
256,192,156232,1,0,0:0:0:0:
256,192,156290,1,8,0:0:0:0:
256,192,156379,1,0,0:0:0:0:
256,192,156467,1,8,0:0:0:0:
256,192,156526,1,8,0:0:0:0:
256,192,156584,1,8,0:0:0:0:
256,192,156643,1,0,0:0:0:0:
256,192,156731,1,0,0:0:0:0:
256,192,156820,1,0,0:0:0:0:
256,192,156996,1,0,0:0:0:0:
256,192,157084,1,8,0:0:0:0:
256,192,157173,1,8,0:0:0:0:
256,192,157261,1,0,0:0:0:0:
256,192,157349,1,8,0:0:0:0:
256,192,157437,1,8,0:0:0:0:
256,192,157526,1,8,0:0:0:0:
256,192,157614,1,0,0:0:0:0:
256,192,157702,1,8,0:0:0:0:
256,192,157760,1,0,0:0:0:0:
256,192,157819,1,0,0:0:0:0:
256,192,157878,1,8,0:0:0:0:
256,192,157966,1,8,0:0:0:0:
256,192,158055,1,8,0:0:0:0:
256,192,158113,1,8,0:0:0:0:
256,192,158172,1,8,0:0:0:0:
256,192,158231,1,0,0:0:0:0:
256,192,158408,1,8,0:0:0:0:
256,192,158495,1,0,0:0:0:0:
256,192,158585,5,8,0:0:0:0:
256,192,158642,1,8,0:0:0:0:
256,192,158701,1,8,0:0:0:0:
256,192,158760,1,0,0:0:0:0:
256,192,158848,1,0,0:0:0:0:
256,192,158938,1,8,0:0:0:0:
256,192,158995,1,0,0:0:0:0:
256,192,159054,1,0,0:0:0:0:
256,192,159113,1,8,0:0:0:0:
256,192,159290,1,0,0:0:0:0:
256,192,159379,1,8,0:0:0:0:
256,192,159467,1,0,0:0:0:0:
256,192,159643,1,8,0:0:0:0:
256,192,159732,5,8,0:0:0:0:
256,192,159819,8,0,160878,0:0:0:0:
256,192,161231,5,4,0:0:0:0:
256,192,161584,1,8,0:0:0:0:
256,192,161760,1,0,0:0:0:0:
256,192,161937,1,8,0:0:0:0:
256,192,162113,1,0,0:0:0:0:
256,192,162201,1,8,0:0:0:0:
256,192,162289,1,0,0:0:0:0:
256,192,162466,1,8,0:0:0:0:
256,192,162642,1,0,0:0:0:0:
256,192,162819,1,0,0:0:0:0:
256,192,162995,1,8,0:0:0:0:
256,192,163172,1,0,0:0:0:0:
256,192,163260,1,8,0:0:0:0:
256,192,163348,1,8,0:0:0:0:
256,192,163525,1,0,0:0:0:0:
256,192,163613,1,8,0:0:0:0:
256,192,163701,1,0,0:0:0:0:
256,192,163789,1,0,0:0:0:0:
256,192,163878,1,8,0:0:0:0:
256,192,164054,1,0,0:0:0:0:
256,192,164142,1,0,0:0:0:0:
256,192,164231,1,8,0:0:0:0:
256,192,164319,1,0,0:0:0:0:
256,192,164407,1,8,0:0:0:0:
256,192,164584,1,0,0:0:0:0:
256,192,164760,1,8,0:0:0:0:
256,192,164937,1,0,0:0:0:0:
256,192,165025,1,8,0:0:0:0:
256,192,165113,1,0,0:0:0:0:
256,192,165201,1,0,0:0:0:0:
256,192,165289,1,8,0:0:0:0:
256,192,165466,1,0,0:0:0:0:
256,192,165554,1,0,0:0:0:0:
256,192,165642,1,8,0:0:0:0:
256,192,165731,1,8,0:0:0:0:
256,192,165819,1,0,0:0:0:0:
256,192,165995,1,8,0:0:0:0:
256,192,166172,1,8,0:0:0:0:
256,192,166260,1,8,0:0:0:0:
256,192,166348,1,0,0:0:0:0:
256,192,166437,1,8,0:0:0:0:
256,192,166525,1,0,0:0:0:0:
256,192,166701,1,8,0:0:0:0:
256,192,166878,1,0,0:0:0:0:
256,192,167054,1,8,0:0:0:0:
256,192,167142,1,0,0:0:0:0:
256,192,167231,1,8,0:0:0:0:
256,192,167407,1,0,0:0:0:0:
256,192,167584,1,8,0:0:0:0:
256,192,167760,1,0,0:0:0:0:
256,192,167848,1,8,0:0:0:0:
256,192,167937,1,0,0:0:0:0:
256,192,168113,1,8,0:0:0:0:
256,192,168289,1,0,0:0:0:0:
256,192,168466,1,0,0:0:0:0:
256,192,168642,1,8,0:0:0:0:
256,192,168819,1,8,0:0:0:0:
256,192,168907,1,0,0:0:0:0:
256,192,168995,1,0,0:0:0:0:
256,192,169084,1,0,0:0:0:0:
256,192,169172,1,8,0:0:0:0:
256,192,169260,1,0,0:0:0:0:
256,192,169348,1,8,0:0:0:0:
256,192,169525,1,8,0:0:0:0:
256,192,169701,1,0,0:0:0:0:
256,192,169789,1,0,0:0:0:0:
256,192,169878,1,8,0:0:0:0:
256,192,169966,1,0,0:0:0:0:
256,192,170054,1,8,0:0:0:0:
256,192,170231,1,0,0:0:0:0:
256,192,170407,1,8,0:0:0:0:
256,192,170584,1,0,0:0:0:0:
256,192,170672,1,8,0:0:0:0:
256,192,170760,1,0,0:0:0:0:
256,192,170848,1,0,0:0:0:0:
256,192,170937,1,8,0:0:0:0:
256,192,171113,1,0,0:0:0:0:
256,192,171201,1,0,0:0:0:0:
256,192,171289,1,8,0:0:0:0:
256,192,171466,1,8,0:0:0:0:
256,192,171554,1,8,0:0:0:0:
256,192,171642,1,0,0:0:0:0:
256,192,171819,1,0,0:0:0:0:
256,192,171907,1,8,0:0:0:0:
256,192,171995,1,8,0:0:0:0:
256,192,172084,1,8,0:0:0:0:
256,192,172172,1,0,0:0:0:0:
256,192,172348,1,8,0:0:0:0:
256,192,172525,1,4,0:0:0:0:
256,192,172878,1,8,0:0:0:0:
256,192,173054,1,0,0:0:0:0:
256,192,173231,1,8,0:0:0:0:
256,192,173407,1,0,0:0:0:0:
256,192,173495,1,0,0:0:0:0:
256,192,173584,1,8,0:0:0:0:
256,192,173672,1,0,0:0:0:0:
256,192,173760,1,8,0:0:0:0:
256,192,173937,1,0,0:0:0:0:
256,192,174113,1,8,0:0:0:0:
256,192,174201,1,8,0:0:0:0:
256,192,174289,1,0,0:0:0:0:
256,192,174466,1,8,0:0:0:0:
256,192,174642,1,0,0:0:0:0:
256,192,174731,1,8,0:0:0:0:
256,192,174819,1,8,0:0:0:0:
256,192,174907,1,0,0:0:0:0:
256,192,174995,1,8,0:0:0:0:
256,192,175172,1,8,0:0:0:0:
256,192,175348,1,0,0:0:0:0:
256,192,175437,1,0,0:0:0:0:
256,192,175525,1,8,0:0:0:0:
256,192,175613,1,0,0:0:0:0:
256,192,175701,1,8,0:0:0:0:
256,192,175878,1,0,0:0:0:0:
256,192,175966,1,0,0:0:0:0:
256,192,176054,1,8,0:0:0:0:
256,192,176142,1,0,0:0:0:0:
256,192,176231,1,8,0:0:0:0:
256,192,176319,1,8,0:0:0:0:
256,192,176407,1,0,0:0:0:0:
256,192,176584,1,8,0:0:0:0:
256,192,176760,1,0,0:0:0:0:
256,192,176937,1,8,0:0:0:0:
256,192,177025,1,0,0:0:0:0:
256,192,177113,1,0,0:0:0:0:
256,192,177289,1,8,0:0:0:0:
256,192,177466,1,8,0:0:0:0:
256,192,177554,1,0,0:0:0:0:
256,192,177642,1,0,0:0:0:0:
256,192,177731,1,8,0:0:0:0:
256,192,177819,1,0,0:0:0:0:
256,192,177995,1,8,0:0:0:0:
256,192,178172,1,0,0:0:0:0:
256,192,178260,1,8,0:0:0:0:
256,192,178348,1,8,0:0:0:0:
256,192,178437,1,0,0:0:0:0:
256,192,178525,1,8,0:0:0:0:
256,192,178701,1,0,0:0:0:0:
256,192,178878,1,8,0:0:0:0:
256,192,178966,1,0,0:0:0:0:
256,192,179054,1,0,0:0:0:0:
256,192,179142,1,8,0:0:0:0:
256,192,179231,1,0,0:0:0:0:
256,192,179407,1,8,0:0:0:0:
256,192,179584,1,0,0:0:0:0:
256,192,179760,1,8,0:0:0:0:
256,192,179848,1,0,0:0:0:0:
256,192,179937,1,8,0:0:0:0:
256,192,180113,1,8,0:0:0:0:
256,192,180289,1,0,0:0:0:0:
256,192,180378,1,8,0:0:0:0:
256,192,180466,1,8,0:0:0:0:
256,192,180554,1,0,0:0:0:0:
256,192,180642,1,8,0:0:0:0:
256,192,180819,1,8,0:0:0:0:
256,192,180995,1,8,0:0:0:0:
256,192,181084,1,0,0:0:0:0:
256,192,181172,1,8,0:0:0:0:
256,192,181260,1,8,0:0:0:0:
256,192,181348,1,0,0:0:0:0:
256,192,181437,1,0,0:0:0:0:
256,192,181525,1,8,0:0:0:0:
256,192,181613,1,0,0:0:0:0:
256,192,181701,1,8,0:0:0:0:
256,192,181789,1,8,0:0:0:0:
256,192,181878,1,0,0:0:0:0:
256,192,181966,1,8,0:0:0:0:
256,192,182054,1,0,0:0:0:0:
256,192,182142,1,0,0:0:0:0:
256,192,182231,1,8,0:0:0:0:
256,192,182319,1,8,0:0:0:0:
256,192,182407,1,0,0:0:0:0:
256,192,183466,1,8,0:0:0:0:
256,192,183819,1,4,0:0:0:0:
256,192,183995,1,8,0:0:0:0:
256,192,184084,1,8,0:0:0:0:
256,192,184172,1,0,0:0:0:0:
256,192,184260,1,0,0:0:0:0:
256,192,184348,1,8,0:0:0:0:
256,192,184437,1,0,0:0:0:0:
256,192,184525,1,8,0:0:0:0:
256,192,184701,1,0,0:0:0:0:
256,192,184789,1,8,0:0:0:0:
256,192,184878,1,8,0:0:0:0:
256,192,184966,1,0,0:0:0:0:
256,192,185054,1,8,0:0:0:0:
256,192,185231,1,0,0:0:0:0:
256,192,185319,1,0,0:0:0:0:
256,192,185407,1,8,0:0:0:0:
256,192,185495,1,8,0:0:0:0:
256,192,185584,1,0,0:0:0:0:
256,192,185672,1,8,0:0:0:0:
256,192,185760,1,8,0:0:0:0:
256,192,185848,1,0,0:0:0:0:
256,192,185937,1,8,0:0:0:0:
256,192,186113,1,0,0:0:0:0:
256,192,186201,1,0,0:0:0:0:
256,192,186289,1,8,0:0:0:0:
256,192,186378,1,0,0:0:0:0:
256,192,186466,1,8,0:0:0:0:
256,192,186642,1,0,0:0:0:0:
256,192,186819,1,8,0:0:0:0:
256,192,186907,1,0,0:0:0:0:
256,192,186995,1,0,0:0:0:0:
256,192,187084,1,0,0:0:0:0:
256,192,187172,1,8,0:0:0:0:
256,192,187260,1,8,0:0:0:0:
256,192,187348,1,0,0:0:0:0:
256,192,187525,1,8,0:0:0:0:
256,192,187613,1,8,0:0:0:0:
256,192,187701,1,8,0:0:0:0:
256,192,187789,1,0,0:0:0:0:
256,192,187878,1,8,0:0:0:0:
256,192,188054,1,0,0:0:0:0:
256,192,188142,1,0,0:0:0:0:
256,192,188231,1,8,0:0:0:0:
256,192,188319,1,8,0:0:0:0:
256,192,188407,1,0,0:0:0:0:
256,192,188495,1,8,0:0:0:0:
256,192,188584,1,8,0:0:0:0:
256,192,188672,1,0,0:0:0:0:
256,192,188760,1,8,0:0:0:0:
256,192,188937,1,0,0:0:0:0:
256,192,189025,1,8,0:0:0:0:
256,192,189113,1,8,0:0:0:0:
256,192,189201,1,0,0:0:0:0:
256,192,189289,1,8,0:0:0:0:
256,192,189466,1,0,0:0:0:0:
256,192,189642,1,8,0:0:0:0:
256,192,189731,1,8,0:0:0:0:
256,192,189819,1,0,0:0:0:0:
256,192,189907,1,0,0:0:0:0:
256,192,189995,1,8,0:0:0:0:
256,192,190084,1,0,0:0:0:0:
256,192,190172,1,8,0:0:0:0:
256,192,190348,1,8,0:0:0:0:
256,192,190437,1,0,0:0:0:0:
256,192,190525,1,0,0:0:0:0:
256,192,190613,1,8,0:0:0:0:
256,192,190701,1,0,0:0:0:0:
256,192,190878,1,8,0:0:0:0:
256,192,190966,1,8,0:0:0:0:
256,192,191054,1,0,0:0:0:0:
256,192,191142,1,8,0:0:0:0:
256,192,191231,1,0,0:0:0:0:
256,192,191319,1,0,0:0:0:0:
256,192,191407,1,8,0:0:0:0:
256,192,191495,1,8,0:0:0:0:
256,192,191584,1,0,0:0:0:0:
256,192,191760,1,8,0:0:0:0:
256,192,191848,1,0,0:0:0:0:
256,192,191937,1,0,0:0:0:0:
256,192,192025,1,8,0:0:0:0:
256,192,192113,1,0,0:0:0:0:
256,192,192289,1,8,0:0:0:0:
256,192,192378,1,0,0:0:0:0:
256,192,192466,1,8,0:0:0:0:
256,192,192554,1,8,0:0:0:0:
256,192,192642,1,0,0:0:0:0:
256,192,192731,1,0,0:0:0:0:
256,192,192819,1,8,0:0:0:0:
256,192,192907,1,0,0:0:0:0:
256,192,192995,1,0,0:0:0:0:
256,192,193084,1,0,0:0:0:0:
256,192,193172,1,8,0:0:0:0:
256,192,193260,1,0,0:0:0:0:
256,192,193348,1,8,0:0:0:0:
256,192,193437,1,8,0:0:0:0:
256,192,193525,1,8,0:0:0:0:
256,192,193701,1,0,0:0:0:0:
256,192,193789,1,8,0:0:0:0:
256,192,193878,1,0,0:0:0:0:
256,192,194054,1,8,0:0:0:0:
256,192,194231,1,0,0:0:0:0:
256,192,194760,1,8,0:0:0:0:
256,192,194878,1,8,0:0:0:0:
256,192,194995,1,8,0:0:0:0:
256,192,195113,1,4,0:0:0:0:
256,192,195289,1,8,0:0:0:0:
256,192,195378,1,8,0:0:0:0:
256,192,195466,1,0,0:0:0:0:
256,192,195554,1,0,0:0:0:0:
256,192,195642,1,8,0:0:0:0:
256,192,195731,1,0,0:0:0:0:
256,192,195819,1,8,0:0:0:0:
256,192,195995,1,0,0:0:0:0:
256,192,196084,1,8,0:0:0:0:
256,192,196172,1,8,0:0:0:0:
256,192,196260,1,0,0:0:0:0:
256,192,196348,1,8,0:0:0:0:
256,192,196525,1,0,0:0:0:0:
256,192,196613,1,0,0:0:0:0:
256,192,196701,1,8,0:0:0:0:
256,192,196789,1,8,0:0:0:0:
256,192,196878,1,0,0:0:0:0:
256,192,196966,1,8,0:0:0:0:
256,192,197054,1,8,0:0:0:0:
256,192,197142,1,0,0:0:0:0:
256,192,197231,1,8,0:0:0:0:
256,192,197407,1,0,0:0:0:0:
256,192,197495,1,0,0:0:0:0:
256,192,197584,1,8,0:0:0:0:
256,192,197672,1,0,0:0:0:0:
256,192,197760,1,8,0:0:0:0:
256,192,197937,1,0,0:0:0:0:
256,192,198113,1,8,0:0:0:0:
256,192,198201,1,8,0:0:0:0:
256,192,198289,1,0,0:0:0:0:
256,192,198378,1,0,0:0:0:0:
256,192,198466,1,8,0:0:0:0:
256,192,198554,1,8,0:0:0:0:
256,192,198642,1,0,0:0:0:0:
256,192,198819,1,8,0:0:0:0:
256,192,198907,1,0,0:0:0:0:
256,192,198995,1,0,0:0:0:0:
256,192,199084,1,0,0:0:0:0:
256,192,199172,1,8,0:0:0:0:
256,192,199348,1,0,0:0:0:0:
256,192,199437,1,0,0:0:0:0:
256,192,199525,1,8,0:0:0:0:
256,192,199613,1,8,0:0:0:0:
256,192,199701,1,0,0:0:0:0:
256,192,199789,1,8,0:0:0:0:
256,192,199878,1,8,0:0:0:0:
256,192,199966,1,0,0:0:0:0:
256,192,200054,1,8,0:0:0:0:
256,192,200231,1,0,0:0:0:0:
256,192,200319,1,8,0:0:0:0:
256,192,200407,1,8,0:0:0:0:
256,192,200495,1,0,0:0:0:0:
256,192,200584,1,8,0:0:0:0:
256,192,200760,1,0,0:0:0:0:
256,192,200937,1,8,0:0:0:0:
256,192,201025,1,8,0:0:0:0:
256,192,201113,1,0,0:0:0:0:
256,192,201201,1,8,0:0:0:0:
256,192,201289,1,8,0:0:0:0:
256,192,201378,1,0,0:0:0:0:
256,192,201466,1,8,0:0:0:0:
256,192,201642,1,8,0:0:0:0:
256,192,201731,1,0,0:0:0:0:
256,192,201819,1,0,0:0:0:0:
256,192,201907,1,8,0:0:0:0:
256,192,201995,1,0,0:0:0:0:
256,192,202172,1,8,0:0:0:0:
256,192,202260,1,0,0:0:0:0:
256,192,202348,1,8,0:0:0:0:
256,192,202437,1,8,0:0:0:0:
256,192,202525,1,0,0:0:0:0:
256,192,202613,1,0,0:0:0:0:
256,192,202701,1,8,0:0:0:0:
256,192,202789,1,8,0:0:0:0:
256,192,202878,1,0,0:0:0:0:
256,192,203054,1,8,0:0:0:0:
256,192,203142,1,8,0:0:0:0:
256,192,203231,1,0,0:0:0:0:
256,192,203319,1,8,0:0:0:0:
256,192,203407,1,0,0:0:0:0:
256,192,203584,1,8,0:0:0:0:
256,192,203672,1,8,0:0:0:0:
256,192,203760,1,0,0:0:0:0:
256,192,203848,1,8,0:0:0:0:
256,192,203937,1,0,0:0:0:0:
256,192,204025,1,0,0:0:0:0:
256,192,204113,1,8,0:0:0:0:
256,192,204201,1,8,0:0:0:0:
256,192,204289,1,0,0:0:0:0:
256,192,204378,1,0,0:0:0:0:
256,192,204466,1,8,0:0:0:0:
256,192,204554,1,0,0:0:0:0:
256,192,204642,1,8,0:0:0:0:
256,192,204731,1,8,0:0:0:0:
256,192,204819,1,0,0:0:0:0:
256,192,204907,1,8,0:0:0:0:
256,192,204995,1,0,0:0:0:0:
256,192,205348,1,8,0:0:0:0:
256,192,206054,1,8,0:0:0:0:
256,192,206407,1,4,0:0:0:0:
256,192,206584,12,0,212054,0:0:0:0:
256,192,217701,12,0,227584,0:0:0:0:
256,192,228995,5,8,0:0:0:0:
256,192,229348,1,8,0:0:0:0:
256,192,229701,1,8,0:0:0:0:
256,192,230054,1,8,0:0:0:0:
256,192,230407,1,8,0:0:0:0:
256,192,230760,1,8,0:0:0:0:
256,192,231113,1,8,0:0:0:0:
256,192,231466,1,8,0:0:0:0:
256,192,231819,1,8,0:0:0:0:
256,192,232172,1,8,0:0:0:0:
256,192,232525,1,8,0:0:0:0:
256,192,232878,1,8,0:0:0:0:
256,192,233231,1,8,0:0:0:0:
256,192,233584,1,8,0:0:0:0:
256,192,233937,1,8,0:0:0:0:
256,192,234289,1,8,0:0:0:0:
256,192,234642,1,8,0:0:0:0:
256,192,234995,1,8,0:0:0:0:
256,192,235348,1,8,0:0:0:0:
256,192,235701,1,8,0:0:0:0:
256,192,236054,1,8,0:0:0:0:
256,192,236407,1,8,0:0:0:0:
256,192,236760,1,8,0:0:0:0:
256,192,237113,1,8,0:0:0:0:
256,192,237466,1,8,0:0:0:0:
256,192,237819,1,8,0:0:0:0:
256,192,238172,1,8,0:0:0:0:
256,192,238525,1,8,0:0:0:0:
256,192,238878,1,8,0:0:0:0:
256,192,239231,1,8,0:0:0:0:
256,192,239584,1,8,0:0:0:0:
256,192,239937,1,8,0:0:0:0:
256,192,240289,1,0,0:0:0:0:
256,192,240466,1,0,0:0:0:0:
256,192,240642,1,8,0:0:0:0:
256,192,240819,1,0,0:0:0:0:
256,192,240995,1,8,0:0:0:0:
256,192,241172,1,8,0:0:0:0:
256,192,241348,1,0,0:0:0:0:
256,192,241525,1,8,0:0:0:0:
256,192,241701,1,0,0:0:0:0:
256,192,241878,1,0,0:0:0:0:
256,192,242054,1,8,0:0:0:0:
256,192,242231,1,8,0:0:0:0:
256,192,242407,1,0,0:0:0:0:
256,192,242584,1,8,0:0:0:0:
256,192,242760,1,0,0:0:0:0:
256,192,242848,1,8,0:0:0:0:
256,192,242937,1,0,0:0:0:0:
256,192,243025,1,8,0:0:0:0:
256,192,243113,1,0,0:0:0:0:
256,192,243289,1,0,0:0:0:0:
256,192,243466,1,8,0:0:0:0:
256,192,243642,1,8,0:0:0:0:
256,192,243819,1,0,0:0:0:0:
256,192,243995,1,8,0:0:0:0:
256,192,244172,1,8,0:0:0:0:
256,192,244348,1,8,0:0:0:0:
256,192,244525,1,0,0:0:0:0:
256,192,244701,1,8,0:0:0:0:
256,192,244878,1,0,0:0:0:0:
256,192,245054,1,8,0:0:0:0:
256,192,245231,1,0,0:0:0:0:
256,192,245407,1,0,0:0:0:0:
256,192,245584,1,0,0:0:0:0:
256,192,245937,1,8,0:0:0:0:
256,192,246025,1,8,0:0:0:0:
256,192,246113,1,8,0:0:0:0:
256,192,246201,1,8,0:0:0:0:
256,192,246289,1,0,0:0:0:0:
256,192,246378,1,8,0:0:0:0:
256,192,246466,1,8,0:0:0:0:
256,192,246554,1,8,0:0:0:0:
256,192,246642,1,0,0:0:0:0:
256,192,246731,1,0,0:0:0:0:
256,192,246819,1,8,0:0:0:0:
256,192,246907,1,0,0:0:0:0:
256,192,246995,1,8,0:0:0:0:
256,192,247084,1,8,0:0:0:0:
256,192,247172,1,8,0:0:0:0:
256,192,247260,1,8,0:0:0:0:
256,192,247348,1,0,0:0:0:0:
256,192,247437,1,0,0:0:0:0:
256,192,247525,1,8,0:0:0:0:
256,192,247613,1,0,0:0:0:0:
256,192,247701,1,8,0:0:0:0:
256,192,247789,1,8,0:0:0:0:
256,192,247878,1,0,0:0:0:0:
256,192,247966,1,8,0:0:0:0:
256,192,248054,1,0,0:0:0:0:
256,192,248142,1,0,0:0:0:0:
256,192,248231,1,8,0:0:0:0:
256,192,248319,1,8,0:0:0:0:
256,192,248407,1,8,0:0:0:0:
256,192,248525,1,8,0:0:0:0:
256,192,248584,1,0,0:0:0:0:
256,192,248672,1,8,0:0:0:0:
256,192,248760,1,0,0:0:0:0:
256,192,248848,1,0,0:0:0:0:
256,192,248937,1,8,0:0:0:0:
256,192,249025,1,0,0:0:0:0:
256,192,249113,1,0,0:0:0:0:
256,192,249201,1,0,0:0:0:0:
256,192,249289,1,8,0:0:0:0:
256,192,249378,1,8,0:0:0:0:
256,192,249466,1,0,0:0:0:0:
256,192,249554,1,8,0:0:0:0:
256,192,249642,1,8,0:0:0:0:
256,192,249731,1,8,0:0:0:0:
256,192,249819,1,0,0:0:0:0:
256,192,249907,1,0,0:0:0:0:
256,192,249995,1,8,0:0:0:0:
256,192,250084,1,8,0:0:0:0:
256,192,252995,1,8,0:0:0:0:
256,192,253084,1,8,0:0:0:0:
256,192,253172,1,0,0:0:0:0:
256,192,253260,1,0,0:0:0:0:
256,192,253348,1,8,0:0:0:0:
256,192,253437,1,8,0:0:0:0:
256,192,253525,1,0,0:0:0:0:
256,192,253613,1,0,0:0:0:0:
256,192,253701,1,8,0:0:0:0:
256,192,253760,1,8,0:0:0:0:
256,192,253819,1,8,0:0:0:0:
256,192,253878,1,0,0:0:0:0:
256,192,253966,1,0,0:0:0:0:
256,192,254054,1,8,0:0:0:0:
256,192,254113,1,8,0:0:0:0:
256,192,254172,1,8,0:0:0:0:
256,192,254231,1,0,0:0:0:0:
256,192,254407,1,4,0:0:0:0:
256,192,254584,1,8,0:0:0:0:
256,192,254672,1,0,0:0:0:0:
256,192,254760,1,8,0:0:0:0:
256,192,254848,1,8,0:0:0:0:
256,192,254937,1,0,0:0:0:0:
256,192,255113,1,0,0:0:0:0:
256,192,255289,1,8,0:0:0:0:
256,192,255378,1,0,0:0:0:0:
256,192,255466,1,8,0:0:0:0:
256,192,255554,1,8,0:0:0:0:
256,192,255642,1,0,0:0:0:0:
256,192,255730,1,8,0:0:0:0:
256,192,255819,1,0,0:0:0:0:
256,192,255907,1,0,0:0:0:0:
256,192,255995,1,8,0:0:0:0:
256,192,256172,1,0,0:0:0:0:
256,192,256260,1,8,0:0:0:0:
256,192,256348,1,8,0:0:0:0:
256,192,256437,1,0,0:0:0:0:
256,192,256525,1,8,0:0:0:0:
256,192,256613,1,8,0:0:0:0:
256,192,256701,1,0,0:0:0:0:
256,192,256789,1,0,0:0:0:0:
256,192,256878,1,8,0:0:0:0:
256,192,257054,1,8,0:0:0:0:
256,192,257231,1,0,0:0:0:0:
256,192,257407,1,8,0:0:0:0:
256,192,257495,1,0,0:0:0:0:
256,192,257583,1,8,0:0:0:0:
256,192,257671,1,8,0:0:0:0:
256,192,257760,1,0,0:0:0:0:
256,192,257936,1,0,0:0:0:0:
256,192,258112,1,8,0:0:0:0:
256,192,258201,1,0,0:0:0:0:
256,192,258289,1,8,0:0:0:0:
256,192,258377,1,8,0:0:0:0:
256,192,258465,1,0,0:0:0:0:
256,192,258553,1,8,0:0:0:0:
256,192,258642,1,0,0:0:0:0:
256,192,258730,1,0,0:0:0:0:
256,192,258818,1,8,0:0:0:0:
256,192,258907,1,8,0:0:0:0:
256,192,258995,1,0,0:0:0:0:
256,192,259083,1,8,0:0:0:0:
256,192,259171,1,8,0:0:0:0:
256,192,259260,1,0,0:0:0:0:
256,192,259348,1,8,0:0:0:0:
256,192,259436,1,0,0:0:0:0:
256,192,259524,1,0,0:0:0:0:
256,192,259612,1,0,0:0:0:0:
256,192,259701,1,8,0:0:0:0:
256,192,259877,1,8,0:0:0:0:
256,192,259966,1,0,0:0:0:0:
256,192,260054,1,8,0:0:0:0:
256,192,260231,1,0,0:0:0:0:
256,192,260319,1,0,0:0:0:0:
256,192,260407,1,8,0:0:0:0:
256,192,260495,1,8,0:0:0:0:
256,192,260584,1,0,0:0:0:0:
256,192,260672,1,0,0:0:0:0:
256,192,260760,1,8,0:0:0:0:
256,192,260937,1,0,0:0:0:0:
256,192,261025,1,8,0:0:0:0:
256,192,261113,1,0,0:0:0:0:
256,192,261201,1,0,0:0:0:0:
256,192,261289,1,8,0:0:0:0:
256,192,261378,1,0,0:0:0:0:
256,192,261466,1,8,0:0:0:0:
256,192,261642,1,0,0:0:0:0:
256,192,261731,1,0,0:0:0:0:
256,192,261819,1,8,0:0:0:0:
256,192,261907,1,0,0:0:0:0:
256,192,261995,1,0,0:0:0:0:
256,192,262172,1,8,0:0:0:0:
256,192,262260,1,8,0:0:0:0:
256,192,262348,1,0,0:0:0:0:
256,192,262437,1,8,0:0:0:0:
256,192,262525,1,8,0:0:0:0:
256,192,262613,1,0,0:0:0:0:
256,192,262701,1,8,0:0:0:0:
256,192,262789,1,0,0:0:0:0:
256,192,262878,1,8,0:0:0:0:
256,192,263054,1,0,0:0:0:0:
256,192,263142,1,8,0:0:0:0:
256,192,263230,1,0,0:0:0:0:
256,192,263318,1,0,0:0:0:0:
256,192,263407,1,8,0:0:0:0:
256,192,263495,1,8,0:0:0:0:
256,192,263584,1,0,0:0:0:0:
256,192,263760,1,8,0:0:0:0:
256,192,263848,1,0,0:0:0:0:
256,192,263937,1,0,0:0:0:0:
256,192,264025,1,8,0:0:0:0:
256,192,264113,1,0,0:0:0:0:
256,192,264289,1,0,0:0:0:0:
256,192,264378,1,0,0:0:0:0:
256,192,264466,1,8,0:0:0:0:
256,192,264642,1,0,0:0:0:0:
256,192,264819,1,8,0:0:0:0:
256,192,264995,1,8,0:0:0:0:
256,192,265084,1,8,0:0:0:0:
256,192,265172,1,8,0:0:0:0:
256,192,265348,1,8,0:0:0:0:
256,192,265525,1,8,0:0:0:0:
256,192,265701,1,4,0:0:0:0:
256,192,265878,1,8,0:0:0:0:
256,192,265966,1,0,0:0:0:0:
256,192,266054,1,8,0:0:0:0:
256,192,266142,1,8,0:0:0:0:
256,192,266231,1,0,0:0:0:0:
256,192,266407,1,0,0:0:0:0:
256,192,266583,1,8,0:0:0:0:
256,192,266672,1,0,0:0:0:0:
256,192,266760,1,8,0:0:0:0:
256,192,266848,1,8,0:0:0:0:
256,192,266936,1,0,0:0:0:0:
256,192,267024,1,8,0:0:0:0:
256,192,267113,1,0,0:0:0:0:
256,192,267201,1,0,0:0:0:0:
256,192,267289,1,8,0:0:0:0:
256,192,267466,1,0,0:0:0:0:
256,192,267554,1,8,0:0:0:0:
256,192,267642,1,8,0:0:0:0:
256,192,267731,1,0,0:0:0:0:
256,192,267819,1,8,0:0:0:0:
256,192,267907,1,8,0:0:0:0:
256,192,267995,1,0,0:0:0:0:
256,192,268083,1,0,0:0:0:0:
256,192,268172,1,8,0:0:0:0:
256,192,268348,1,8,0:0:0:0:
256,192,268525,1,0,0:0:0:0:
256,192,268701,1,8,0:0:0:0:
256,192,268789,1,0,0:0:0:0:
256,192,268877,1,8,0:0:0:0:
256,192,268965,1,8,0:0:0:0:
256,192,269054,1,0,0:0:0:0:
256,192,269230,1,0,0:0:0:0:
256,192,269406,1,8,0:0:0:0:
256,192,269495,1,0,0:0:0:0:
256,192,269583,1,8,0:0:0:0:
256,192,269671,1,8,0:0:0:0:
256,192,269759,1,0,0:0:0:0:
256,192,269847,1,8,0:0:0:0:
256,192,269936,1,0,0:0:0:0:
256,192,270024,1,0,0:0:0:0:
256,192,270112,1,8,0:0:0:0:
256,192,270201,1,8,0:0:0:0:
256,192,270289,1,0,0:0:0:0:
256,192,270377,1,8,0:0:0:0:
256,192,270465,1,8,0:0:0:0:
256,192,270554,1,0,0:0:0:0:
256,192,270642,1,8,0:0:0:0:
256,192,270730,1,0,0:0:0:0:
256,192,270818,1,0,0:0:0:0:
256,192,270906,1,0,0:0:0:0:
256,192,270995,1,8,0:0:0:0:
256,192,271171,1,8,0:0:0:0:
256,192,271260,1,0,0:0:0:0:
256,192,271348,1,8,0:0:0:0:
256,192,271525,1,0,0:0:0:0:
256,192,271613,1,8,0:0:0:0:
256,192,271701,1,8,0:0:0:0:
256,192,271789,1,0,0:0:0:0:
256,192,271878,1,8,0:0:0:0:
256,192,271966,1,0,0:0:0:0:
256,192,272054,1,8,0:0:0:0:
256,192,272231,1,0,0:0:0:0:
256,192,272319,1,8,0:0:0:0:
256,192,272407,1,8,0:0:0:0:
256,192,272495,1,8,0:0:0:0:
256,192,272583,1,0,0:0:0:0:
256,192,272672,1,8,0:0:0:0:
256,192,272760,1,8,0:0:0:0:
256,192,272936,1,0,0:0:0:0:
256,192,273025,1,8,0:0:0:0:
256,192,273113,1,8,0:0:0:0:
256,192,273201,1,8,0:0:0:0:
256,192,273289,1,0,0:0:0:0:
256,192,273466,1,8,0:0:0:0:
256,192,273554,1,8,0:0:0:0:
256,192,273642,1,0,0:0:0:0:
256,192,273731,1,8,0:0:0:0:
256,192,273819,1,8,0:0:0:0:
256,192,273907,1,0,0:0:0:0:
256,192,273995,1,8,0:0:0:0:
256,192,274083,1,0,0:0:0:0:
256,192,274172,1,8,0:0:0:0:
256,192,274348,1,0,0:0:0:0:
256,192,274436,1,8,0:0:0:0:
256,192,274524,1,0,0:0:0:0:
256,192,274612,1,0,0:0:0:0:
256,192,274701,1,8,0:0:0:0:
256,192,274878,1,0,0:0:0:0:
256,192,274966,1,0,0:0:0:0:
256,192,275054,1,8,0:0:0:0:
256,192,275142,1,0,0:0:0:0:
256,192,275231,1,8,0:0:0:0:
256,192,275319,1,8,0:0:0:0:
256,192,275407,1,0,0:0:0:0:
256,192,275584,1,8,0:0:0:0:
256,192,275672,1,8,0:0:0:0:
256,192,275760,1,8,0:0:0:0:
256,192,275848,1,8,0:0:0:0:
256,192,275937,1,8,0:0:0:0:
256,192,276025,1,8,0:0:0:0:
256,192,276113,1,8,0:0:0:0:
256,192,276201,1,8,0:0:0:0:
256,192,276289,1,0,0:0:0:0:
256,192,276378,1,0,0:0:0:0:
256,192,276466,1,8,0:0:0:0:
256,192,276554,1,8,0:0:0:0:
256,192,276642,1,0,0:0:0:0:
256,192,276731,1,8,0:0:0:0:
256,192,276819,1,0,0:0:0:0:
256,192,276995,1,4,0:0:0:0:
256,192,277172,1,8,0:0:0:0:
256,192,277260,1,8,0:0:0:0:
256,192,277348,1,0,0:0:0:0:
256,192,277437,1,0,0:0:0:0:
256,192,277525,1,8,0:0:0:0:
256,192,277613,1,0,0:0:0:0:
256,192,277701,1,8,0:0:0:0:
256,192,277878,1,0,0:0:0:0:
256,192,277966,1,8,0:0:0:0:
256,192,278054,1,8,0:0:0:0:
256,192,278142,1,0,0:0:0:0:
256,192,278231,1,8,0:0:0:0:
256,192,278407,1,0,0:0:0:0:
256,192,278495,1,0,0:0:0:0:
256,192,278584,1,8,0:0:0:0:
256,192,278672,1,8,0:0:0:0:
256,192,278760,1,0,0:0:0:0:
256,192,278848,1,8,0:0:0:0:
256,192,278937,1,8,0:0:0:0:
256,192,279025,1,0,0:0:0:0:
256,192,279113,1,8,0:0:0:0:
256,192,279289,1,0,0:0:0:0:
256,192,279378,1,0,0:0:0:0:
256,192,279466,1,8,0:0:0:0:
256,192,279554,1,0,0:0:0:0:
256,192,279642,1,8,0:0:0:0:
256,192,279819,1,0,0:0:0:0:
256,192,279995,1,8,0:0:0:0:
256,192,280084,1,0,0:0:0:0:
256,192,280172,1,0,0:0:0:0:
256,192,280260,1,0,0:0:0:0:
256,192,280348,1,8,0:0:0:0:
256,192,280437,1,8,0:0:0:0:
256,192,280525,1,0,0:0:0:0:
256,192,280701,1,8,0:0:0:0:
256,192,280789,1,8,0:0:0:0:
256,192,280878,1,8,0:0:0:0:
256,192,280966,1,0,0:0:0:0:
256,192,281054,1,8,0:0:0:0:
256,192,281231,1,0,0:0:0:0:
256,192,281319,1,0,0:0:0:0:
256,192,281407,1,8,0:0:0:0:
256,192,281495,1,8,0:0:0:0:
256,192,281584,1,0,0:0:0:0:
256,192,281672,1,8,0:0:0:0:
256,192,281760,1,8,0:0:0:0:
256,192,281848,1,0,0:0:0:0:
256,192,281937,1,8,0:0:0:0:
256,192,282113,1,0,0:0:0:0:
256,192,282201,1,8,0:0:0:0:
256,192,282289,1,8,0:0:0:0:
256,192,282378,1,0,0:0:0:0:
256,192,282466,1,8,0:0:0:0:
256,192,282642,1,0,0:0:0:0:
256,192,282819,1,8,0:0:0:0:
256,192,282907,1,8,0:0:0:0:
256,192,282995,1,0,0:0:0:0:
256,192,283084,1,0,0:0:0:0:
256,192,283172,1,8,0:0:0:0:
256,192,283260,1,0,0:0:0:0:
256,192,283348,1,8,0:0:0:0:
256,192,283525,1,8,0:0:0:0:
256,192,283613,1,0,0:0:0:0:
256,192,283701,1,0,0:0:0:0:
256,192,283789,1,8,0:0:0:0:
256,192,283878,1,0,0:0:0:0:
256,192,284054,1,8,0:0:0:0:
256,192,284142,1,8,0:0:0:0:
256,192,284231,1,0,0:0:0:0:
256,192,284319,1,8,0:0:0:0:
256,192,284407,1,0,0:0:0:0:
256,192,284495,1,0,0:0:0:0:
256,192,284584,1,8,0:0:0:0:
256,192,284672,1,8,0:0:0:0:
256,192,284760,1,0,0:0:0:0:
256,192,284937,1,8,0:0:0:0:
256,192,285025,1,0,0:0:0:0:
256,192,285113,1,0,0:0:0:0:
256,192,285201,1,8,0:0:0:0:
256,192,285289,1,0,0:0:0:0:
256,192,285466,1,8,0:0:0:0:
256,192,285554,1,0,0:0:0:0:
256,192,285642,1,8,0:0:0:0:
256,192,285731,1,8,0:0:0:0:
256,192,285819,1,0,0:0:0:0:
256,192,285907,1,0,0:0:0:0:
256,192,285995,1,8,0:0:0:0:
256,192,286084,1,0,0:0:0:0:
256,192,286172,1,0,0:0:0:0:
256,192,286260,1,0,0:0:0:0:
256,192,286348,1,8,0:0:0:0:
256,192,286437,1,0,0:0:0:0:
256,192,286525,1,8,0:0:0:0:
256,192,286613,1,8,0:0:0:0:
256,192,286701,1,8,0:0:0:0:
256,192,286878,1,0,0:0:0:0:
256,192,287231,1,8,0:0:0:0:
256,192,287584,1,0,0:0:0:0:
256,192,287937,1,8,0:0:0:0:
256,192,288113,1,8,0:0:0:0:
256,192,288289,1,4,0:0:0:0:
256,192,288466,1,8,0:0:0:0:
256,192,288554,1,8,0:0:0:0:
256,192,288642,1,0,0:0:0:0:
256,192,288731,1,0,0:0:0:0:
256,192,288819,1,8,0:0:0:0:
256,192,288907,1,0,0:0:0:0:
256,192,288995,1,8,0:0:0:0:
256,192,289172,1,0,0:0:0:0:
256,192,289260,1,8,0:0:0:0:
256,192,289348,1,8,0:0:0:0:
256,192,289437,1,0,0:0:0:0:
256,192,289525,1,8,0:0:0:0:
256,192,289701,1,0,0:0:0:0:
256,192,289789,1,0,0:0:0:0:
256,192,289878,1,8,0:0:0:0:
256,192,289966,1,8,0:0:0:0:
256,192,290054,1,0,0:0:0:0:
256,192,290142,1,8,0:0:0:0:
256,192,290231,1,8,0:0:0:0:
256,192,290319,1,0,0:0:0:0:
256,192,290407,1,8,0:0:0:0:
256,192,290584,1,0,0:0:0:0:
256,192,290672,1,0,0:0:0:0:
256,192,290760,1,8,0:0:0:0:
256,192,290848,1,0,0:0:0:0:
256,192,290937,1,8,0:0:0:0:
256,192,291113,1,0,0:0:0:0:
256,192,291289,1,8,0:0:0:0:
256,192,291378,1,8,0:0:0:0:
256,192,291466,1,0,0:0:0:0:
256,192,291554,1,0,0:0:0:0:
256,192,291642,1,8,0:0:0:0:
256,192,291731,1,8,0:0:0:0:
256,192,291819,1,0,0:0:0:0:
256,192,291995,1,8,0:0:0:0:
256,192,292084,1,0,0:0:0:0:
256,192,292172,1,0,0:0:0:0:
256,192,292260,1,0,0:0:0:0:
256,192,292348,1,8,0:0:0:0:
256,192,292525,1,0,0:0:0:0:
256,192,292613,1,0,0:0:0:0:
256,192,292701,1,8,0:0:0:0:
256,192,292789,1,8,0:0:0:0:
256,192,292878,1,0,0:0:0:0:
256,192,292966,1,8,0:0:0:0:
256,192,293054,1,8,0:0:0:0:
256,192,293142,1,0,0:0:0:0:
256,192,293231,1,8,0:0:0:0:
256,192,293407,1,0,0:0:0:0:
256,192,293495,1,8,0:0:0:0:
256,192,293584,1,8,0:0:0:0:
256,192,293672,1,0,0:0:0:0:
256,192,293760,1,8,0:0:0:0:
256,192,293937,1,0,0:0:0:0:
256,192,294113,1,8,0:0:0:0:
256,192,294201,1,8,0:0:0:0:
256,192,294289,1,0,0:0:0:0:
256,192,294378,1,8,0:0:0:0:
256,192,294466,1,8,0:0:0:0:
256,192,294554,1,0,0:0:0:0:
256,192,294642,1,8,0:0:0:0:
256,192,294819,1,8,0:0:0:0:
256,192,294907,1,0,0:0:0:0:
256,192,294995,1,0,0:0:0:0:
256,192,295084,1,8,0:0:0:0:
256,192,295172,1,0,0:0:0:0:
256,192,295348,1,8,0:0:0:0:
256,192,295437,1,0,0:0:0:0:
256,192,295525,1,8,0:0:0:0:
256,192,295613,1,8,0:0:0:0:
256,192,295701,1,0,0:0:0:0:
256,192,295789,1,0,0:0:0:0:
256,192,295878,1,8,0:0:0:0:
256,192,295966,1,8,0:0:0:0:
256,192,296054,1,0,0:0:0:0:
256,192,296231,1,8,0:0:0:0:
256,192,296319,1,8,0:0:0:0:
256,192,296407,1,0,0:0:0:0:
256,192,296495,1,8,0:0:0:0:
256,192,296584,1,0,0:0:0:0:
256,192,296760,1,8,0:0:0:0:
256,192,296848,1,8,0:0:0:0:
256,192,296937,1,0,0:0:0:0:
256,192,297025,1,8,0:0:0:0:
256,192,297113,1,0,0:0:0:0:
256,192,297201,1,0,0:0:0:0:
256,192,297289,1,8,0:0:0:0:
256,192,297378,1,8,0:0:0:0:
256,192,297466,1,0,0:0:0:0:
256,192,297554,1,0,0:0:0:0:
256,192,297642,1,8,0:0:0:0:
256,192,297731,1,0,0:0:0:0:
256,192,297819,1,8,0:0:0:0:
256,192,297907,1,8,0:0:0:0:
256,192,297995,1,0,0:0:0:0:
256,192,298084,1,8,0:0:0:0:
256,192,298172,1,0,0:0:0:0:
256,192,298525,1,8,0:0:0:0:
256,192,298878,1,0,0:0:0:0:
256,192,299231,1,8,0:0:0:0:
256,192,299348,1,8,0:0:0:0:
256,192,299407,1,0,0:0:0:0:
256,192,299584,1,4,0:0:0:0:
256,192,299760,1,8,0:0:0:0:
256,192,299848,1,8,0:0:0:0:
256,192,299937,1,0,0:0:0:0:
256,192,300025,1,0,0:0:0:0:
256,192,300113,1,8,0:0:0:0:
256,192,300201,1,0,0:0:0:0:
256,192,300289,1,8,0:0:0:0:
256,192,300466,1,0,0:0:0:0:
256,192,300554,1,8,0:0:0:0:
256,192,300642,1,0,0:0:0:0:
256,192,300731,1,0,0:0:0:0:
256,192,300819,1,8,0:0:0:0:
256,192,300995,1,0,0:0:0:0:
256,192,301172,1,8,0:0:0:0:
256,192,301260,1,8,0:0:0:0:
256,192,301348,1,0,0:0:0:0:
256,192,301525,1,8,0:0:0:0:
256,192,301701,1,0,0:0:0:0:
256,192,301789,1,8,0:0:0:0:
256,192,301878,1,8,0:0:0:0:
256,192,301966,1,0,0:0:0:0:
256,192,302054,1,8,0:0:0:0:
256,192,302231,1,8,0:0:0:0:
256,192,302319,1,8,0:0:0:0:
256,192,302407,1,0,0:0:0:0:
256,192,302495,1,0,0:0:0:0:
256,192,302584,1,8,0:0:0:0:
256,192,302672,1,0,0:0:0:0:
256,192,302760,1,8,0:0:0:0:
256,192,302848,1,8,0:0:0:0:
256,192,302937,1,0,0:0:0:0:
256,192,303025,1,0,0:0:0:0:
256,192,303113,1,8,0:0:0:0:
256,192,303289,1,0,0:0:0:0:
256,192,303378,1,8,0:0:0:0:
256,192,303466,1,0,0:0:0:0:
256,192,303554,1,0,0:0:0:0:
256,192,303642,1,8,0:0:0:0:
256,192,303819,1,0,0:0:0:0:
256,192,303907,1,0,0:0:0:0:
256,192,303995,1,8,0:0:0:0:
256,192,304084,1,8,0:0:0:0:
256,192,304172,1,0,0:0:0:0:
256,192,304348,1,8,0:0:0:0:
256,192,304525,1,0,0:0:0:0:
256,192,304613,1,0,0:0:0:0:
256,192,304701,1,8,0:0:0:0:
256,192,304760,1,8,0:0:0:0:
256,192,304819,1,8,0:0:0:0:
256,192,304878,1,0,0:0:0:0:
256,192,305054,1,8,0:0:0:0:
256,192,305142,1,8,0:0:0:0:
256,192,305231,1,0,0:0:0:0:
256,192,305319,1,0,0:0:0:0:
256,192,305407,1,8,0:0:0:0:
256,192,305495,1,8,0:0:0:0:
256,192,305584,1,0,0:0:0:0:
256,192,305672,1,8,0:0:0:0:
256,192,305760,1,8,0:0:0:0:
256,192,305848,1,0,0:0:0:0:
256,192,305937,1,8,0:0:0:0:
256,192,306113,1,0,0:0:0:0:
256,192,306201,1,8,0:0:0:0:
256,192,306289,1,0,0:0:0:0:
256,192,306378,1,0,0:0:0:0:
256,192,306466,1,8,0:0:0:0:
256,192,306642,1,0,0:0:0:0:
256,192,306819,1,8,0:0:0:0:
256,192,306907,1,8,0:0:0:0:
256,192,306995,1,0,0:0:0:0:
256,192,307172,1,8,0:0:0:0:
256,192,307348,1,0,0:0:0:0:
256,192,307437,1,0,0:0:0:0:
256,192,307525,1,8,0:0:0:0:
256,192,307613,1,0,0:0:0:0:
256,192,307701,1,8,0:0:0:0:
256,192,307878,1,8,0:0:0:0:
256,192,307966,1,8,0:0:0:0:
256,192,308054,1,0,0:0:0:0:
256,192,308142,1,0,0:0:0:0:
256,192,308231,1,8,0:0:0:0:
256,192,308319,1,0,0:0:0:0:
256,192,308407,1,8,0:0:0:0:
256,192,308495,1,8,0:0:0:0:
256,192,308584,1,0,0:0:0:0:
256,192,308672,1,0,0:0:0:0:
256,192,308760,1,8,0:0:0:0:
256,192,308937,1,0,0:0:0:0:
256,192,309025,1,8,0:0:0:0:
256,192,309113,1,0,0:0:0:0:
256,192,309201,1,0,0:0:0:0:
256,192,309289,1,8,0:0:0:0:
256,192,309466,1,0,0:0:0:0:
256,192,309819,1,8,0:0:0:0:
256,192,310525,1,8,0:0:0:0:
256,192,310701,1,8,0:0:0:0:
256,192,310878,1,4,0:0:0:0:
256,192,311054,1,8,0:0:0:0:
256,192,311142,1,8,0:0:0:0:
256,192,311231,1,0,0:0:0:0:
256,192,311319,1,0,0:0:0:0:
256,192,311407,1,8,0:0:0:0:
256,192,311495,1,0,0:0:0:0:
256,192,311584,1,8,0:0:0:0:
256,192,311760,1,0,0:0:0:0:
256,192,311848,1,8,0:0:0:0:
256,192,311937,1,0,0:0:0:0:
256,192,312025,1,0,0:0:0:0:
256,192,312113,1,8,0:0:0:0:
256,192,312289,1,0,0:0:0:0:
256,192,312466,1,8,0:0:0:0:
256,192,312554,1,8,0:0:0:0:
256,192,312642,1,0,0:0:0:0:
256,192,312819,1,8,0:0:0:0:
256,192,312995,1,0,0:0:0:0:
256,192,313084,1,8,0:0:0:0:
256,192,313172,1,8,0:0:0:0:
256,192,313260,1,0,0:0:0:0:
256,192,313348,1,8,0:0:0:0:
256,192,313525,1,8,0:0:0:0:
256,192,313613,1,8,0:0:0:0:
256,192,313701,1,0,0:0:0:0:
256,192,313789,1,0,0:0:0:0:
256,192,313878,1,8,0:0:0:0:
256,192,313966,1,0,0:0:0:0:
256,192,314054,1,8,0:0:0:0:
256,192,314142,1,8,0:0:0:0:
256,192,314231,1,0,0:0:0:0:
256,192,314319,1,0,0:0:0:0:
256,192,314407,1,8,0:0:0:0:
256,192,314584,1,0,0:0:0:0:
256,192,314672,1,8,0:0:0:0:
256,192,314760,1,0,0:0:0:0:
256,192,314848,1,0,0:0:0:0:
256,192,314937,1,8,0:0:0:0:
256,192,315113,1,0,0:0:0:0:
256,192,315201,1,0,0:0:0:0:
256,192,315289,1,8,0:0:0:0:
256,192,315378,1,8,0:0:0:0:
256,192,315466,1,0,0:0:0:0:
256,192,315642,1,8,0:0:0:0:
256,192,315819,1,0,0:0:0:0:
256,192,315907,1,8,0:0:0:0:
256,192,315995,1,8,0:0:0:0:
256,192,316084,1,0,0:0:0:0:
256,192,316172,1,8,0:0:0:0:
256,192,316348,1,8,0:0:0:0:
256,192,316437,1,8,0:0:0:0:
256,192,316525,1,0,0:0:0:0:
256,192,316613,1,0,0:0:0:0:
256,192,316701,1,8,0:0:0:0:
256,192,316789,1,8,0:0:0:0:
256,192,316878,1,0,0:0:0:0:
256,192,316966,1,8,0:0:0:0:
256,192,317054,1,8,0:0:0:0:
256,192,317142,1,0,0:0:0:0:
256,192,317231,1,8,0:0:0:0:
256,192,317407,1,0,0:0:0:0:
256,192,317495,1,8,0:0:0:0:
256,192,317584,1,0,0:0:0:0:
256,192,317672,1,0,0:0:0:0:
256,192,317760,1,8,0:0:0:0:
256,192,317937,1,0,0:0:0:0:
256,192,318113,1,8,0:0:0:0:
256,192,318201,1,8,0:0:0:0:
256,192,318289,1,0,0:0:0:0:
256,192,318378,1,8,0:0:0:0:
256,192,318466,1,0,0:0:0:0:
256,192,318642,1,0,0:0:0:0:
256,192,318731,1,0,0:0:0:0:
256,192,318819,1,8,0:0:0:0:
256,192,318907,1,0,0:0:0:0:
256,192,318995,1,8,0:0:0:0:
256,192,319172,1,8,0:0:0:0:
256,192,319260,1,8,0:0:0:0:
256,192,319348,1,0,0:0:0:0:
256,192,319437,1,0,0:0:0:0:
256,192,319525,1,8,0:0:0:0:
256,192,319613,1,0,0:0:0:0:
256,192,319701,1,8,0:0:0:0:
256,192,319789,1,8,0:0:0:0:
256,192,319878,1,0,0:0:0:0:
256,192,319966,1,0,0:0:0:0:
256,192,320054,1,8,0:0:0:0:
256,192,320142,1,8,0:0:0:0:
256,192,320231,1,0,0:0:0:0:
256,192,320319,1,8,0:0:0:0:
256,192,320407,1,0,0:0:0:0:
256,192,320495,1,0,0:0:0:0:
256,192,320584,1,8,0:0:0:0:
256,192,320760,1,0,0:0:0:0:
256,192,320937,12,0,321995,0:0:0:0:
256,192,322172,5,4,0:0:0:0:
256,192,322525,1,8,0:0:0:0:
256,192,322878,1,0,0:0:0:0:
256,192,323231,1,8,0:0:0:0:
256,192,323584,1,0,0:0:0:0:
256,192,323937,1,8,0:0:0:0:
256,192,324289,1,0,0:0:0:0:
256,192,324642,1,8,0:0:0:0:
256,192,324995,1,0,0:0:0:0:
256,192,325348,1,8,0:0:0:0:
256,192,325701,1,0,0:0:0:0:
256,192,326054,1,8,0:0:0:0:
256,192,326407,1,0,0:0:0:0:
256,192,326760,1,8,0:0:0:0:
256,192,327113,1,0,0:0:0:0:
256,192,327466,1,8,0:0:0:0:
256,192,327819,1,0,0:0:0:0:
256,192,328172,1,8,0:0:0:0:
256,192,328525,1,0,0:0:0:0:
256,192,328878,1,8,0:0:0:0:
256,192,329231,1,0,0:0:0:0:
256,192,329584,1,8,0:0:0:0:
256,192,329937,1,0,0:0:0:0:
256,192,330289,1,8,0:0:0:0:
256,192,330642,1,0,0:0:0:0:
256,192,330995,1,8,0:0:0:0:
256,192,331348,1,0,0:0:0:0:
256,192,331701,1,8,0:0:0:0:
256,192,332054,1,0,0:0:0:0:
256,192,332407,1,8,0:0:0:0:
256,192,333113,1,8,0:0:0:0:
256,192,333289,1,8,0:0:0:0:
256,192,333466,1,4,0:0:0:0:
256,192,333819,1,0,0:0:0:0:
256,192,334172,1,0,0:0:0:0:
256,192,334525,1,0,0:0:0:0:
256,192,334878,1,0,0:0:0:0:
256,192,335231,1,0,0:0:0:0:
256,192,335584,1,0,0:0:0:0:
256,192,335937,1,0,0:0:0:0:
256,192,336289,1,0,0:0:0:0:
256,192,336642,1,0,0:0:0:0:
256,192,336995,1,0,0:0:0:0:
256,192,337348,1,0,0:0:0:0:
256,192,337701,1,0,0:0:0:0:
256,192,338054,1,0,0:0:0:0:
256,192,338407,1,0,0:0:0:0:
256,192,338760,1,0,0:0:0:0:
256,192,339113,1,0,0:0:0:0:
256,192,339466,1,0,0:0:0:0:
256,192,339819,1,0,0:0:0:0:
256,192,340172,1,0,0:0:0:0:
256,192,340525,1,0,0:0:0:0:
256,192,340878,1,0,0:0:0:0:
256,192,341231,1,0,0:0:0:0:
256,192,341584,1,0,0:0:0:0:
256,192,341937,1,0,0:0:0:0:
256,192,342289,1,0,0:0:0:0:
256,192,342642,1,0,0:0:0:0:
256,192,342995,1,0,0:0:0:0:
256,192,344760,1,4,0:0:0:0:
