osu file format v14

[General]
AudioFilename: audio.mp3
AudioLeadIn: 0
PreviewTime: 84015
Countdown: 0
SampleSet: Soft
StackLeniency: 0.7
Mode: 0
LetterboxInBreaks: 0
WidescreenStoryboard: 1

[Editor]
Bookmarks: 21195,36555,59595,103755,122955,161355,205515,230475,261195
DistanceSpacing: 1
BeatDivisor: 4
GridSize: 32
TimelineZoom: 1.6

[Metadata]
Title:Maisery
TitleUnicode:Maisery
Artist:Symholic
ArtistUnicode:Symholic
Creator:Lasse
Version:Normal
Source:
Tags:Paspal Lalue 葉月ゆら Hatsuki Yura Japanese Doujin Symphonic Rock Metal Misery featured artist fa mappers' guild mpg
BeatmapID:2739661
BeatmapSetID:1322631

[Difficulty]
HPDrainRate:3.2
CircleSize:3.4
OverallDifficulty:5
ApproachRate:6
SliderMultiplier:0.839999999999999
SliderTickRate:1

[Events]
//Background and Video events
0,0,"thiscouldbeus.jpg",0,0
//Break Periods
2,52114,58545
2,69195,75825
2,153874,160305
2,170955,177585
2,222994,229425
//Storyboard Layer 0 (Background)
//Storyboard Layer 1 (Fail)
//Storyboard Layer 2 (Pass)
//Storyboard Layer 3 (Foreground)
//Storyboard Layer 4 (Overlay)
//Storyboard Sound Samples

[TimingPoints]
-1845,240,4,2,1,50,1,0
1635,-111.111111111111,4,2,1,50,0,0
1995,-100,4,2,1,70,0,0
5055,-100,4,2,1,50,0,0
5115,-100,4,2,1,70,0,0
5355,-100,4,2,2,70,0,0
5835,-100,4,2,1,70,0,0
7515,-100,4,2,1,70,0,0
7695,-100,4,2,1,50,0,0
7755,-100,4,2,1,70,0,0
8895,-100,4,2,1,50,0,0
8955,-100,4,2,2,70,0,0
9435,-100,4,2,3,70,0,0
9675,-100,4,2,1,70,0,0
13035,-100,4,2,2,70,0,0
13515,-100,4,2,1,70,0,0
15435,-100,4,2,1,70,0,0
16575,-100,4,2,1,50,0,0
16635,-100,4,2,1,70,0,0
16755,-100,4,2,2,70,0,0
16995,-100,4,2,1,70,0,0
17115,-100,4,2,2,70,0,0
17355,-100,4,2,2,65,0,0
18315,-111.111111111111,4,2,2,64,0,0
18395,-100,4,2,1,5,0,0
18475,-100,4,2,2,62,0,0
18555,-100,4,2,1,5,0,0
18635,-100,4,2,2,60,0,0
18715,-100,4,2,1,5,0,0
18795,-100,4,2,2,57,0,0
18875,-100,4,2,1,5,0,0
18955,-100,4,2,2,54,0,0
19115,-100,4,2,2,50,0,0
19195,-100,4,2,1,5,0,0
19275,-125,4,2,1,55,0,0
19395,-125,4,2,1,30,0,0
20715,-125,4,2,2,55,0,0
21195,-100,4,2,1,62,0,0
24555,-100,4,2,2,62,0,0
25035,-100,4,2,1,62,0,0
28395,-100,4,2,2,62,0,0
28875,-100,4,2,1,62,0,0
32235,-100,4,2,2,62,0,0
32715,-100,4,2,1,62,0,0
34635,-100,4,2,1,62,0,0
35595,-111.111111111111,4,2,1,62,0,0
36075,-100,4,2,1,50,0,0
36555,-100,4,2,1,64,0,0
39915,-100,4,2,2,64,0,0
40395,-100,4,2,1,64,0,0
42315,-100,4,2,1,64,0,0
43455,-100,4,2,1,46,0,0
43515,-100,4,2,2,64,0,0
43995,-100,4,2,3,64,0,0
44235,-100,4,2,1,64,0,0
47595,-100,4,2,2,64,0,0
48075,-100,4,2,1,62,0,0
49995,-100,4,2,1,67,0,0
50895,-100,4,2,1,40,0,0
50955,-117.647058823529,4,2,1,54,0,0
51075,-125,4,2,1,20,0,0
51915,-100,4,2,3,30,0,0
59595,-111.111111111111,4,2,2,50,0,0
62955,-111.111111111111,4,2,2,52,0,0
63435,-100,4,2,1,55,0,0
65355,-100,4,2,1,60,0,0
66795,-100,4,2,2,60,0,0
69195,-100,4,2,1,35,0,0
69435,-100,4,2,1,25,0,0
69675,-100,4,2,1,35,0,0
70395,-100,4,2,1,25,0,0
70635,-100,4,2,1,35,0,0
71355,-100,4,2,1,25,0,0
71835,-100,4,2,1,35,0,0
73275,-100,4,2,1,25,0,0
73515,-100,4,2,1,35,0,0
75195,-100,4,2,1,25,0,0
75435,-100,4,2,1,35,0,0
75915,-100,4,2,1,40,0,0
76875,-111.111111111111,4,2,2,52,0,0
82635,-111.111111111111,4,2,2,54,0,0
83115,-111.111111111111,4,2,2,58,0,0
83595,-111.111111111111,4,2,1,60,0,0
84075,-111.111111111111,4,2,1,30,0,0
84555,-95.2380952380952,4,2,1,72,0,1
87915,-95.2380952380952,4,2,2,72,0,1
88395,-95.2380952380952,4,2,1,72,0,1
90315,-100,4,2,2,60,0,0
91755,-100,4,2,2,65,0,0
92235,-95.2380952380952,4,2,1,72,0,1
95595,-95.2380952380952,4,2,2,72,0,1
96075,-95.2380952380952,4,2,1,72,0,1
99675,-95.2380952380952,4,2,2,65,0,0
99915,-111.111111111111,4,2,1,65,0,0
100395,-111.111111111111,4,2,1,40,0,0
101835,-111.111111111111,4,2,1,50,0,0
102075,-111.111111111111,4,2,1,20,0,0
102795,-111.111111111111,4,2,3,22,0,0
103395,-111.111111111111,4,2,1,50,0,0
103755,-100,4,2,1,70,0,0
106815,-100,4,2,1,50,0,0
106875,-100,4,2,1,70,0,0
107115,-100,4,2,2,70,0,0
107595,-100,4,2,1,70,0,0
109455,-100,4,2,1,50,0,0
109515,-100,4,2,1,70,0,0
110715,-100,4,2,2,70,0,0
111195,-100,4,2,3,70,0,0
111435,-100,4,2,1,70,0,0
114795,-100,4,2,2,70,0,0
115275,-100,4,2,1,70,0,0
118335,-100,4,2,1,50,0,0
118395,-100,4,2,1,70,0,0
118515,-100,4,2,2,70,0,0
118755,-100,4,2,1,70,0,0
118875,-100,4,2,2,70,0,0
119115,-100,4,2,2,65,0,0
120075,-111.111111111111,4,2,2,64,0,0
120155,-100,4,2,1,5,0,0
120235,-100,4,2,2,62,0,0
120315,-100,4,2,1,5,0,0
120395,-100,4,2,2,60,0,0
120475,-100,4,2,1,5,0,0
120555,-100,4,2,2,57,0,0
120635,-100,4,2,1,5,0,0
120715,-100,4,2,2,54,0,0
120875,-100,4,2,2,50,0,0
120955,-100,4,2,1,5,0,0
121035,-125,4,2,1,55,0,0
121155,-125,4,2,1,30,0,0
122475,-125,4,2,2,55,0,0
122955,-117.647058823529,4,2,1,50,0,0
123195,-117.647058823529,4,2,1,30,0,0
124635,-117.647058823529,4,2,1,40,0,0
124875,-117.647058823529,4,2,1,52,0,0
125115,-117.647058823529,4,2,1,30,0,0
126195,-117.647058823529,4,2,1,40,0,0
126315,-111.111111111111,4,2,1,48,0,0
126375,-111.111111111111,4,2,1,30,0,0
126675,-111.111111111111,4,2,1,42,0,0
126795,-100,4,2,1,62,0,0
130155,-100,4,2,2,62,0,0
130635,-100,4,2,1,62,0,0
133995,-100,4,2,2,62,0,0
134475,-100,4,2,1,62,0,0
137355,-111.111111111111,4,2,1,62,0,0
137835,-100,4,2,1,50,0,0
138315,-100,4,2,1,64,0,0
141675,-100,4,2,2,64,0,0
142155,-100,4,2,1,64,0,0
145215,-100,4,2,1,46,0,0
145275,-100,4,2,2,64,0,0
145755,-100,4,2,3,64,0,0
145995,-100,4,2,1,64,0,0
149355,-100,4,2,2,64,0,0
149835,-100,4,2,1,62,0,0
151755,-100,4,2,1,67,0,0
152655,-100,4,2,1,40,0,0
152715,-117.647058823529,4,2,1,54,0,0
152835,-125,4,2,1,20,0,0
153675,-125,4,2,3,30,0,0
161355,-111.111111111111,4,2,2,50,0,0
164715,-111.111111111111,4,2,2,52,0,0
165195,-100,4,2,1,55,0,0
167115,-100,4,2,1,60,0,0
168555,-100,4,2,2,60,0,0
170955,-100,4,2,1,35,0,0
171195,-100,4,2,1,25,0,0
171435,-100,4,2,1,35,0,0
172155,-100,4,2,1,25,0,0
172395,-100,4,2,1,35,0,0
173115,-100,4,2,1,25,0,0
173595,-100,4,2,1,35,0,0
175035,-100,4,2,1,25,0,0
175275,-100,4,2,1,35,0,0
176955,-100,4,2,1,25,0,0
177195,-100,4,2,1,35,0,0
177675,-100,4,2,1,40,0,0
178635,-111.111111111111,4,2,2,52,0,0
184395,-111.111111111111,4,2,2,54,0,0
184875,-111.111111111111,4,2,2,58,0,0
185355,-111.111111111111,4,2,1,60,0,0
185835,-111.111111111111,4,2,1,30,0,0
186315,-95.2380952380952,4,2,1,72,0,1
189675,-95.2380952380952,4,2,2,72,0,1
190155,-95.2380952380952,4,2,1,72,0,1
192075,-100,4,2,2,60,0,0
193515,-100,4,2,2,65,0,0
193995,-95.2380952380952,4,2,1,72,0,1
197355,-95.2380952380952,4,2,2,72,0,1
197835,-95.2380952380952,4,2,1,72,0,1
201435,-95.2380952380952,4,2,2,65,0,0
201675,-111.111111111111,4,2,1,65,0,0
202155,-111.111111111111,4,2,1,40,0,0
203595,-111.111111111111,4,2,1,50,0,0
203835,-111.111111111111,4,2,1,20,0,0
204555,-111.111111111111,4,2,3,22,0,0
204975,-111.111111111111,4,2,1,50,0,0
205275,-111.111111111111,4,2,1,20,0,0
205395,-111.111111111111,4,2,1,30,0,0
205515,-95.2380952380952,4,2,2,72,0,0
205635,-95.2380952380952,4,2,1,72,0,0
207615,-95.2380952380952,4,2,1,50,0,0
207675,-95.2380952380952,4,2,1,72,0,0
208875,-95.2380952380952,4,2,2,72,0,0
209355,-95.2380952380952,4,2,1,72,0,0
212415,-95.2380952380952,4,2,1,50,0,0
212475,-95.2380952380952,4,2,2,72,0,0
212955,-95.2380952380952,4,2,3,72,0,0
213195,-95.2380952380952,4,2,2,72,0,0
213375,-95.2380952380952,4,2,1,50,0,0
213435,-95.2380952380952,4,2,1,72,0,0
214335,-95.2380952380952,4,2,1,50,0,0
214395,-95.2380952380952,4,2,1,72,0,0
215055,-95.2380952380952,4,2,1,50,0,0
215115,-95.2380952380952,4,2,1,72,0,0
216015,-95.2380952380952,4,2,1,50,0,0
216075,-95.2380952380952,4,2,1,72,0,0
216555,-95.2380952380952,4,2,2,72,0,0
217035,-95.2380952380952,4,2,1,72,0,0
217515,-95.2380952380952,4,2,1,73,0,0
217995,-95.2380952380952,4,2,1,74,0,0
218475,-95.2380952380952,4,2,1,75,0,0
218955,-95.2380952380952,4,2,1,74,0,0
220395,-95.2380952380952,4,2,2,74,0,0
220875,-111.111111111111,4,2,1,60,0,0
220995,-111.111111111111,4,2,1,20,0,0
221595,-111.111111111111,4,2,1,40,0,0
221835,-111.111111111111,4,2,1,50,0,0
221955,-111.111111111111,4,2,1,20,0,0
222795,-111.111111111111,4,2,3,40,0,0
230475,-117.647058823529,4,2,2,40,0,0
230715,-117.647058823529,4,2,2,30,0,0
230955,-117.647058823529,4,2,2,40,0,0
231195,-117.647058823529,4,2,2,30,0,0
231435,-117.647058823529,4,2,2,40,0,0
231675,-117.647058823529,4,2,2,30,0,0
231915,-117.647058823529,4,2,2,40,0,0
232155,-117.647058823529,4,2,2,30,0,0
232395,-117.647058823529,4,2,2,45,0,0
232635,-117.647058823529,4,2,2,30,0,0
232875,-117.647058823529,4,2,2,45,0,0
233115,-117.647058823529,4,2,2,30,0,0
233355,-117.647058823529,4,2,2,45,0,0
233595,-117.647058823529,4,2,2,30,0,0
233835,-111.111111111111,4,2,2,48,0,0
234075,-111.111111111111,4,2,2,52,0,0
234315,-100,4,2,1,58,0,0
236235,-100,4,2,1,62,0,0
237135,-100,4,2,1,30,0,0
237195,-111.111111111111,4,2,1,50,0,0
237315,-111.111111111111,4,2,1,5,0,0
238155,-111.111111111111,4,2,3,14,0,0
241035,-111.111111111111,4,2,1,24,0,0
241275,-111.111111111111,4,2,1,15,0,0
241515,-111.111111111111,4,2,1,30,0,0
241995,-111.111111111111,4,2,3,36,0,0
242475,-95.2380952380952,4,2,1,74,0,1
245355,-95.2380952380952,4,2,2,74,0,1
245835,-95.2380952380952,4,2,1,74,0,1
247755,-100,4,2,2,60,0,0
249195,-100,4,2,2,65,0,0
249675,-95.2380952380952,4,2,1,74,0,1
253035,-95.2380952380952,4,2,2,74,0,1
253515,-95.2380952380952,4,2,1,74,0,1
257115,-95.2380952380952,4,2,2,67,0,0
257355,-111.111111111111,4,2,1,65,0,0
257835,-111.111111111111,4,2,1,40,0,0
259275,-111.111111111111,4,2,1,50,0,0
259515,-111.111111111111,4,2,1,20,0,0
260235,-111.111111111111,4,2,3,22,0,0
261195,-100,4,2,1,67,0,0
264255,-100,4,2,1,50,0,0
264315,-100,4,2,1,67,0,0
264555,-100,4,2,2,67,0,0
265035,-100,4,2,1,67,0,0
268155,-100,4,2,2,67,0,0
268635,-100,4,2,3,67,0,0
268875,-100,4,2,1,68,0,0
272235,-100,4,2,2,68,0,0
272715,-100,4,2,1,68,0,0
274995,265.486725663717,4,2,1,70,1,0
274995,-100,4,2,1,70,0,0
275260,312.5,4,2,1,65,1,0
275416,600,4,2,1,65,1,0
275416,-55.5555555555556,4,2,1,65,0,0
275716,588.235294117647,4,2,1,58,1,0
276304,609.137055837563,4,2,1,46,1,0
276304,-55.5555555555556,4,2,1,46,0,0
276913,600,4,2,3,35,1,0
276913,-166.666666666667,4,2,3,35,0,0
276988,-166.666666666667,4,2,3,25,0,0
281113,-166.666666666667,4,2,3,22,0,0
281413,-166.666666666667,4,2,3,20,0,0
281713,-166.666666666667,4,2,3,23,0,0
282913,-181.818181818182,4,2,3,22,0,0
283213,-181.818181818182,4,2,3,18,0,0
283513,-200,4,2,3,20,0,0
283813,-200,4,2,3,16,0,0
284113,-222.222222222222,4,2,3,18,0,0
284713,-222.222222222222,4,2,3,5,0,0
285013,-222.222222222222,4,2,3,12,0,0
285313,-250,4,2,3,15,0,0
285913,-250,4,2,3,5,0,0
286513,-250,4,2,3,10,0,0

[Colours]
Combo1 : 240,140,140
Combo2 : 200,180,220
Combo3 : 240,200,155
Combo4 : 150,185,220

[HitObjects]
45,64,1995,6,0,B|14:97|14:97|25:184,2,126,12|2|10,1:3|1:2|1:2,0:1:0:0:
121,28,2955,1,2,1:2:0:0:
211,115,3315,1,2,1:2:0:0:
324,60,3675,1,10,1:2:0:0:
396,103,3915,6,0,B|427:136|427:136|416:223,2,126,6|2|10,1:2|1:2|1:2,2:2:0:0:
316,74,4875,2,0,L|221:84,1,83.9999999999999,2|12,1:2|1:2,0:2:0:0:
179,148,5355,2,0,L|189:243,1,83.9999999999999,8|4,1:3|1:3,0:0:0:0:
197,315,5835,5,6,1:2:0:0:
86,375,6195,1,2,1:2:0:0:
4,278,6555,1,10,1:2:0:0:
30,198,6795,2,0,L|15:68,2,126,2|2|10,1:2|1:2|1:2,0:2:0:0:
96,248,7755,1,6,1:2:0:0:
214,291,8115,1,6,1:2:0:0:
330,243,8475,1,14,1:2:0:0:
382,308,8715,2,0,P|410:321|469:306,1,83.9999999999999,6|8,1:2|1:3,0:2:0:0:
506,241,9195,2,0,L|495:152,1,83.9999999999999,4|8,1:3|1:3,0:0:0:0:
440,93,9675,6,0,B|362:73|389:119|306:93,2,126,12|2|10,1:3|1:2|1:2,0:2:0:0:
495,157,10635,1,2,1:2:0:0:
498,282,10995,1,2,1:2:0:0:
397,358,11355,1,8,1:2:0:0:
336,299,11595,2,0,L|328:158,2,126,6|2|10,1:2|1:2|1:2,0:2:0:0:
281,363,12555,2,0,P|239:365|194:334,1,83.9999999999999,0|12,1:2|1:2,0:2:0:0:
153,277,13035,2,0,L|147:182,1,83.9999999999999,8|4,1:3|1:3,0:0:0:0:
208,134,13515,6,0,B|271:151|271:151|337:105,2,126,6|2|10,1:2|1:2|1:2,2:2:0:0:
126,115,14475,2,0,P|76:111|47:136,1,83.9999999999999,2|8,1:2|2:2,0:2:0:0:
10,203,14955,2,0,L|20:293,1,83.9999999999999,2|8,0:2|1:2,0:2:0:0:
59,360,15435,1,6,1:2:0:0:
183,379,15795,1,6,1:2:0:0:
290,313,16155,1,14,1:2:0:0:
362,355,16395,2,0,P|396:370|476:227,1,252,6|8,1:2|0:3,0:2:0:0:
408,180,17355,6,0,P|359:201|202:97,1,252,8|8,2:2|0:2,0:0:0:0:
145,47,18315,2,0,P|111:32|32:161,1,226.799993078613,14|0,3:2|0:2,0:2:0:0:
88,215,19275,2,0,P|276:216|408:373,1,403.199999999999,6|8,1:2|1:2,0:2:0:0:
502,232,21195,6,0,L|509:97,2,126,12|2|10,1:3|2:2|2:2,0:2:0:0:
406,371,22395,1,10,2:2:0:0:
406,371,22635,2,0,P|356:371|317:351,1,83.9999999999999,2|10,1:2|2:2,0:2:0:0:
262,301,23115,2,0,B|238:266|254:228|254:228|277:212|286:179,1,126,6|2,1:2|1:2,0:2:0:0:
250,66,23835,1,10,0:2:0:0:
173,31,24075,2,0,P|112:27|47:115,1,168,0|8,1:2|1:3,0:2:0:0:
55,187,24795,1,4,1:3:0:0:
113,246,25035,6,0,L|254:230,1,126,6|2,1:2|1:2,0:2:0:0:
332,147,25755,1,10,0:2:0:0:
332,147,25995,2,0,P|322:108|335:60,1,83.9999999999999,2|10,1:2|0:2,0:2:0:0:
402,21,26475,2,0,P|440:31|475:67,1,83.9999999999999,2|10,0:2|0:2,0:2:0:0:
489,143,26955,2,0,L|475:278,2,126,6|6|14,1:2|1:2|1:2,0:2:0:0:
446,70,27915,2,0,P|409:50|367:49,1,83.9999999999999,4|8,1:2|1:2,0:2:0:0:
298,96,28395,2,0,P|256:97|219:117,1,83.9999999999999,8|4,1:3|1:3,0:0:0:0:
165,181,28875,6,0,P|104:197|37:157,2,126,12|2|10,1:3|0:2|0:2,0:2:0:0:
318,108,30075,1,10,0:2:0:0:
318,108,30315,2,0,P|349:96|403:96,1,83.9999999999999,2|10,1:2|0:2,0:2:0:0:
464,149,30795,2,0,B|449:215|484:219|462:284,1,126,6|2,1:2|1:2,0:2:0:0:
384,370,31515,1,10,0:2:0:0:
313,328,31755,2,0,P|280:316|146:329,1,168,0|8,1:2|1:3,0:2:0:0:
84,379,32475,1,4,1:3:0:0:
12,334,32715,6,0,P|-3:284|21:210,2,126,6|2|10,1:2|0:2|0:2,0:2:0:0:
84,379,33675,1,2,1:2:0:0:
188,308,34035,1,2,1:2:0:0:
306,350,34395,1,10,0:2:0:0:
371,297,34635,2,0,B|392:259|392:259|371:170,2,126,6|6|14,1:2|1:2|0:2,0:2:0:0:
306,350,35595,2,0,B|254:336|254:336|219:351|219:351|158:336,1,151.199995385742,4|14,1:1|0:2,0:0:0:0:
32,229,36555,6,0,P|23:169|38:96,2,126,12|2|10,1:3|0:2|0:2,0:2:0:0:
146,351,37755,1,10,0:2:0:0:
146,351,37995,2,0,L|237:341,1,83.9999999999999,2|10,0:2|2:2,0:2:0:0:
306,308,38475,2,0,B|351:326|351:326|360:355|360:355|412:380,1,126,6|2,1:2|1:2,0:2:0:0:
493,287,39195,1,10,0:2:0:0:
444,218,39435,2,0,B|422:131|455:139|428:52,1,168,2|8,1:2|1:3,0:2:0:0:
351,18,40155,1,4,1:3:0:0:
289,75,40395,6,0,B|264:103|264:103|158:81,1,126,6|2,1:2|0:2,0:2:0:0:
69,31,41115,1,10,0:2:0:0:
69,31,41355,2,0,P|50:56|54:109,1,83.9999999999999,2|8,1:2|0:2,0:2:0:0:
96,178,41835,2,0,P|92:209|122:253,1,83.9999999999999,2|10,0:2|0:2,0:2:0:0:
192,292,42315,2,0,P|253:276|330:282,2,126,6|6|14,1:2|1:2|0:2,0:2:0:0:
135,354,43275,2,0,P|110:366|54:362,1,83.9999999999999,6|8,1:2|1:3,0:2:0:0:
5,294,43755,2,0,L|22:200,1,83.9999999999999,4|8,1:3|1:3,0:0:0:0:
80,153,44235,6,0,B|69:120|69:120|75:83|75:83|51:16,2,126,12|2|8,0:3|0:2|0:2,0:2:0:0:
182,292,45435,1,10,0:2:0:0:
182,292,45675,2,0,P|217:300|270:278,1,83.9999999999999,2|10,0:2|0:2,0:2:0:0:
297,208,46155,2,0,P|284:156|304:75,1,126,6|2,1:2|1:2,0:2:0:0:
397,9,46875,1,10,0:2:0:0:
469,51,47115,2,0,B|499:79|499:79|510:141|466:209,1,168,2|8,1:2|1:3,0:2:0:0:
399,243,47835,1,4,1:3:0:0:
335,187,48075,6,0,P|295:163|209:172,1,126,6|2,1:2|0:2,0:2:0:0:
122,248,48795,1,10,0:2:0:0:
122,248,49035,2,0,P|117:283|132:335,1,83.9999999999999,2|10,1:2|0:2,0:2:0:0:
196,379,49515,2,0,L|280:365,1,83.9999999999999,2|10,0:2|0:2,0:2:0:0:
360,345,49995,2,0,B|414:372|414:372|495:348,2,126,6|6|14,1:2|1:2|0:2,0:2:0:0:
309,281,50955,6,0,B|361:245|341:173|341:173|265:117|300:25,1,285.600005447387,4|4,1:2|0:2,0:2:0:0:
0,315,59595,6,0,L|156:296,1,151.199995385742,6|10,1:2|0:2,0:2:0:0:
215,341,60315,1,0,0:2:0:0:
267,281,60555,2,0,B|274:215|237:198|263:123,1,151.199995385742,2|10,0:2|0:2,0:0:0:0:
392,44,61515,2,0,P|437:61|466:164,1,151.199995385742,2|10,0:2|0:2,0:2:0:0:
442,226,62235,1,0,0:2:0:0:
387,283,62475,2,0,L|234:263,1,151.199995385742,2|8,0:2|0:2,0:0:0:0:
107,143,63435,6,0,B|61:126|61:126|2:156|12:239,1,168,6|0,1:2|1:2,0:2:0:0:
18,309,64155,1,8,0:2:0:0:
87,355,64395,2,0,L|221:338,1,126,2|2,1:2|1:2,0:2:0:0:
333,371,65115,1,10,0:2:0:0:
395,314,65355,2,0,P|408:271|385:188,2,126,6|0|8,1:2|1:2|0:2,0:2:0:0:
333,371,66315,2,0,P|294:353|245:357,1,83.9999999999999,2|12,1:2|0:2,0:2:0:0:
171,334,66795,2,0,P|133:351|91:350,1,83.9999999999999,8|4,1:3|1:3,0:0:0:0:
12,323,67275,1,4,1:2:0:0:
0,213,76875,6,0,B|82:199|49:170|147:152,1,151.199995385742,6|8,1:2|0:2,0:2:0:0:
239,203,77715,2,0,P|225:231|239:314,1,113.399996539307,0|0,1:2|1:2,0:0:0:0:
283,374,78315,1,8,0:2:0:0:
425,323,78795,2,0,P|456:277|433:178,1,151.199995385742,2|8,1:2|0:2,0:2:0:0:
355,111,79635,2,0,P|292:142|243:120,1,113.399996539307,0|0,1:2|1:2,0:0:0:0:
183,93,80235,2,0,P|157:73|113:74,1,75.5999976928711,8|8,0:2|0:3,0:0:0:0:
51,120,80715,6,0,L|54:273,1,151.199995385742,6|10,1:2|0:2,0:2:0:0:
149,378,81675,1,2,0:2:0:0:
256,282,82155,1,10,0:2:0:0:
363,378,82635,2,0,P|404:381|441:362,1,75.5999976928711,2|0,1:2|1:2,0:0:0:0:
474,298,83115,2,0,P|481:260|455:143,1,151.199995385742,8|2,2:2|1:2,0:0:0:0:
117,48,84555,6,0,P|175:35|266:46,1,132.299995962524,12|2,1:3|1:2,0:2:0:0:
343,130,85275,1,10,2:2:0:0:
268,177,85515,2,0,B|239:214|239:214|237:264|272:295,1,132.299995962524,2|2,1:2|1:2,0:2:0:0:
374,370,86235,1,10,2:2:0:0:
432,304,86475,6,0,P|447:251|431:164,1,132.299995962524,6|2,1:2|1:2,0:2:0:0:
374,112,87075,2,0,B|334:137|334:137|245:112,1,132.299995962524,2|2,1:2|1:2,0:0:0:0:
177,65,87675,1,10,0:2:0:0:
97,103,87915,2,0,P|78:134|74:186,1,88.1999973083496,8|4,1:3|1:3,0:0:0:0:
139,246,88395,6,0,L|286:228,2,132.299995962524,6|0|8,1:2|1:2|0:2,0:2:0:0:
0,130,89595,1,10,0:2:0:0:
78,115,89835,1,2,0:2:0:0:
156,100,90075,1,10,0:2:0:0:
219,43,90315,6,0,P|259:54|304:172,1,168,6|12,0:2|0:2,0:0:0:0:
264,308,91275,1,4,1:2:0:0:
264,308,91515,1,0,1:2:0:0:
320,365,91755,2,0,B|359:375|359:375|414:360,1,83.9999999999999,8|8,1:2|1:2,0:0:0:0:
466,303,92235,6,0,P|485:243|448:136,1,176.399994616699,12|0,1:3|1:0,0:2:0:0:
379,86,92955,2,0,P|334:79|283:98,1,88.1999973083496,10|0,1:2|1:0,0:0:0:0:
251,168,93435,2,0,P|259:201|242:263,1,88.1999973083496,10|2,0:2|0:2,0:2:0:0:
174,303,93915,1,10,0:0:0:0:
106,241,94155,6,0,P|87:181|124:74,1,176.399994616699,6|2,1:2|2:2,0:2:0:0:
193,26,94875,1,10,0:2:0:0:
257,86,95115,2,0,P|297:96|358:75,1,88.1999973083496,2|14,1:2|0:2,0:2:0:0:
412,32,95595,1,8,1:3:0:0:
412,32,95835,1,4,1:3:0:0:
477,91,96075,6,0,B|511:144|512:213|512:213|488:277,1,176.399994616699,6|2,1:2|1:2,0:2:0:0:
471,342,96795,2,0,P|437:357|384:344,1,88.1999973083496,10|0,1:2|1:0,0:0:0:0:
348,268,97275,2,0,P|314:246|252:259,1,88.1999973083496,10|2,0:2|0:2,0:2:0:0:
197,303,97755,1,10,0:0:0:0:
131,362,97995,6,0,P|74:377|-3:345,2,132.299995962524,6|6|14,1:2|1:2|0:2,0:2:0:0:
191,296,98955,2,0,B|202:249|202:249|191:211|191:211|212:119,1,176.399994616699,6|12,1:2|0:2,0:0:0:0:
288,73,99675,5,8,0:3:0:0:
288,73,99915,2,0,B|351:97|402:48|402:48|475:186|380:177|425:292|425:292|360:370|285:311,1,529.199983850098,4|0,1:2|0:0,0:0:0:0:
234,253,101835,2,0,P|239:220|40:143,1,302.399990771484,6|2,1:2|0:3,0:2:0:0:
44,138,103755,6,0,B|32:189|32:189|39:209|39:209|28:262,2,126,12|2|10,1:3|1:2|1:2,0:1:0:0:
105,81,104715,1,2,1:2:0:0:
190,173,105075,1,2,1:2:0:0:
296,105,105435,1,10,1:2:0:0:
370,143,105675,2,0,B|431:159|431:159|491:133,2,126,6|2|10,1:2|1:2|1:2,2:2:0:0:
296,105,106635,2,0,B|255:94|255:94|201:115,1,83.9999999999999,2|12,1:2|1:2,0:2:0:0:
165,176,107115,2,0,B|159:217|159:217|175:271,1,83.9999999999999,8|4,1:3|1:3,0:0:0:0:
203,335,107595,5,6,1:2:0:0:
317,282,107955,1,2,1:2:0:0:
406,370,108315,1,10,1:2:0:0:
477,326,108555,2,0,P|495:282|478:197,2,126,2|2|10,1:2|1:2|1:2,0:2:0:0:
406,370,109515,1,6,1:2:0:0:
317,282,109875,1,6,1:2:0:0:
203,335,110235,1,14,1:2:0:0:
136,283,110475,2,0,B|108:280|108:280|91:289|91:289|42:283,1,83.9999999999999,6|8,1:2|1:3,0:2:0:0:
2,219,110955,2,0,P|6:175|23:134,1,83.9999999999999,4|8,1:3|1:3,0:0:0:0:
92,94,111435,6,0,L|221:80,2,126,12|2|10,1:3|1:2|1:2,0:2:0:0:
20,138,112395,1,2,1:2:0:0:
67,254,112755,1,2,1:2:0:0:
177,194,113115,1,8,1:2:0:0:
243,245,113355,2,0,B|238:294|238:294|246:314|246:314|240:385,2,126,6|2|10,1:2|1:2|1:2,0:2:0:0:
301,184,114315,2,0,P|286:137|289:87,1,83.9999999999999,0|12,1:2|1:2,0:2:0:0:
337,36,114795,2,0,P|370:29|423:38,1,83.9999999999999,8|4,1:3|1:3,0:0:0:0:
474,100,115275,6,0,P|479:143|454:237,2,126,6|2|10,1:2|1:2|1:2,2:2:0:0:
419,36,116235,2,0,P|377:43|336:35,1,83.9999999999999,2|8,1:2|2:2,0:2:0:0:
256,61,116715,2,0,P|214:53|173:60,1,83.9999999999999,2|8,0:2|1:2,0:2:0:0:
93,85,117195,1,6,1:2:0:0:
140,201,117555,1,6,1:2:0:0:
79,311,117915,1,14,1:2:0:0:
140,368,118155,2,0,L|393:347,1,252,6|8,1:2|0:3,0:2:0:0:
470,375,119115,6,0,P|492:286|417:135,1,252,8|8,2:2|0:2,0:0:0:0:
362,99,120075,2,0,P|371:194|258:204,1,226.799993078613,14|0,3:2|0:2,0:2:0:0:
199,161,121035,2,0,P|41:138|113:295,1,403.199999999999,6|8,1:2|1:2,0:2:0:0:
251,270,122955,5,6,1:2:0:0:
453,376,124875,1,6,1:2:0:0:
493,207,126315,2,0,L|486:119,1,75.5999976928711,10|0,0:2|0:0,0:2:0:0:
433,66,126795,6,0,P|383:45|311:56,1,126,12|2,1:3|1:2,0:2:0:0:
218,137,127515,1,10,0:2:0:0:
218,137,127755,2,0,L|227:224,1,83.9999999999999,2|10,1:2|0:2,0:2:0:0:
194,298,128235,2,0,P|148:317|99:307,1,83.9999999999999,2|10,0:2|0:2,0:2:0:0:
44,268,128715,2,0,L|25:144,2,126,6|6|14,1:2|1:2|1:2,0:2:0:0:
100,331,129675,2,0,P|132:348|193:333,1,83.9999999999999,4|8,1:2|1:2,0:2:0:0:
259,365,130155,2,0,P|299:371|337:353,1,83.9999999999999,8|4,1:3|1:3,0:0:0:0:
398,295,130635,6,0,L|419:157,2,126,12|2|10,1:3|0:2|0:2,0:2:0:0:
269,196,131835,1,10,0:2:0:0:
269,196,132075,2,0,L|263:107,1,83.9999999999999,2|10,1:2|0:2,0:2:0:0:
206,50,132555,2,0,P|152:32|83:51,1,126,6|2,1:2|1:2,0:2:0:0:
11,150,133275,1,10,0:2:0:0:
11,150,133515,2,0,L|24:319,1,168,0|8,1:2|1:3,0:2:0:0:
81,379,134235,1,4,1:3:0:0:
155,340,134475,6,0,B|215:320|215:320|291:343,2,126,6|2|10,1:2|0:2|0:2,0:2:0:0:
81,379,135435,1,2,1:2:0:0:
8,275,135795,1,2,1:2:0:0:
88,178,136155,1,10,0:2:0:0:
166,207,136395,2,0,B|227:218|227:218|285:192,2,126,6|6|14,1:2|1:2|0:2,0:2:0:0:
88,178,137355,2,0,B|62:146|58:107|58:107|75:67|105:44,1,151.199995385742,4|14,1:1|0:2,0:0:0:0:
266,22,138315,6,0,L|406:31,2,126,12|2|10,1:3|0:2|0:2,0:2:0:0:
127,114,139515,1,10,0:2:0:0:
127,114,139755,2,0,P|112:163|124:200,1,83.9999999999999,2|10,0:2|2:2,0:2:0:0:
194,231,140235,2,0,P|290:208|333:217,1,126,6|2,1:2|1:2,0:2:0:0:
435,250,140955,1,10,0:2:0:0:
466,327,141195,2,0,B|456:365|420:377|420:377|382:349|318:353,1,168,2|8,1:2|1:3,0:2:0:0:
246,375,141915,1,4,1:3:0:0:
173,332,142155,6,0,P|155:289|184:199,1,126,6|2,1:2|0:2,0:2:0:0:
294,175,142875,1,10,0:2:0:0:
294,175,143115,2,0,P|325:200|381:194,1,83.9999999999999,2|8,1:2|0:2,0:2:0:0:
441,159,143595,2,0,L|430:74,1,83.9999999999999,2|10,0:2|0:2,0:2:0:0:
361,27,144075,2,0,P|292:21|239:60,2,126,6|6|14,1:2|1:2|0:2,0:2:0:0:
430,75,145035,2,0,P|420:100|438:156,1,83.9999999999999,6|8,1:2|1:3,0:2:0:0:
479,224,145515,2,0,P|494:262|484:301,1,83.9999999999999,4|8,1:3|1:3,0:0:0:0:
417,354,145995,6,0,L|279:345,2,126,12|2|8,0:3|0:2|0:2,0:2:0:0:
501,210,147195,1,10,0:2:0:0:
501,210,147435,2,0,L|482:114,1,83.9999999999999,2|10,0:2|0:2,0:2:0:0:
418,75,147915,2,0,P|387:90|284:72,1,126,6|2,1:2|1:2,0:2:0:0:
184,26,148635,1,10,0:2:0:0:
105,54,148875,2,0,P|79:86|89:211,1,168,2|8,1:2|1:3,0:2:0:0:
128,278,149595,1,4,1:3:0:0:
200,235,149835,6,0,P|250:213|322:235,1,126,6|2,1:2|0:2,0:2:0:0:
377,347,150555,1,10,0:2:0:0:
377,347,150795,2,0,P|410:362|462:356,1,83.9999999999999,2|10,1:2|0:2,0:2:0:0:
504,288,151275,2,0,P|500:251|469:209,1,83.9999999999999,2|10,0:2|0:2,0:2:0:0:
390,200,151755,2,0,B|334:229|334:229|262:198,2,126,6|6|14,1:2|1:2|0:2,0:2:0:0:
447,138,152715,2,0,B|467:119|468:78|468:78|410:53|358:88|358:88|287:89|281:29,1,285.600005447387,4|4,1:2|0:2,0:2:0:0:
211,106,161355,6,0,P|293:110|357:83,1,151.199995385742,6|10,1:2|0:2,0:2:0:0:
415,31,162075,1,0,0:2:0:0:
472,85,162315,2,0,P|499:152|490:234,1,151.199995385742,2|10,0:2|0:2,0:0:0:0:
386,337,163275,2,0,L|230:321,1,151.199995385742,2|10,0:2|0:2,0:2:0:0:
168,363,163995,1,0,0:2:0:0:
106,313,164235,2,0,P|96:270|128:164,1,151.199995385742,2|8,0:2|0:2,0:0:0:0:
245,52,165195,6,0,L|414:46,1,168,6|0,1:2|1:2,0:2:0:0:
477,100,165915,1,8,0:2:0:0:
423,165,166155,2,0,L|294:169,1,126,2|2,1:2|1:2,0:2:0:0:
190,237,166875,1,10,0:2:0:0:
122,186,167115,2,0,P|109:143|132:60,2,126,6|0|8,1:2|1:2|0:2,0:2:0:0:
190,237,168075,2,0,P|230:229|275:239,1,83.9999999999999,2|12,1:2|0:2,0:2:0:0:
330,298,168555,2,0,P|370:290|415:300,1,83.9999999999999,8|4,1:3|1:3,0:0:0:0:
462,366,169035,1,4,1:2:0:0:
0,333,178635,6,0,B|89:319|49:290|150:277,1,151.199995385742,6|8,1:2|0:2,0:2:0:0:
239,331,179475,2,0,B|303:341|274:362|347:371,1,113.399996539307,0|0,1:2|1:2,0:0:0:0:
419,347,180075,1,8,0:2:0:0:
485,210,180555,2,0,P|487:138|424:76,1,151.199995385742,2|8,1:2|0:2,0:2:0:0:
329,40,181395,2,0,L|318:160,1,113.399996539307,0|0,1:2|1:2,0:0:0:0:
261,207,181995,2,0,P|224:213|188:201,1,75.5999976928711,8|8,0:2|0:3,0:0:0:0:
120,160,182475,6,0,B|74:148|74:148|21:180|29:240,1,151.199995385742,6|10,1:2|0:2,0:2:0:0:
102,366,183435,1,2,0:2:0:0:
221,273,183915,1,10,0:2:0:0:
350,351,184395,2,0,B|387:360|387:360|428:335,1,75.5999976928711,2|0,1:2|1:2,0:0:0:0:
471,280,184875,2,0,B|456:233|456:233|461:200|461:200|437:128,1,151.199995385742,8|2,2:2|1:2,0:0:0:0:
133,16,186315,6,0,L|122:167,1,132.299995962524,12|2,1:3|1:2,0:2:0:0:
116,280,187035,1,10,2:2:0:0:
169,350,187275,2,0,P|214:366|277:320,1,132.299995962524,2|2,1:2|1:2,0:2:0:0:
251,189,187995,1,10,2:2:0:0:
278,105,188235,6,0,B|297:67|297:67|395:55,1,132.299995962524,6|2,1:2|1:2,0:2:0:0:
461,102,188835,2,0,P|487:165|472:245,1,132.299995962524,2|2,1:2|1:2,0:0:0:0:
431,301,189435,1,10,0:2:0:0:
345,322,189675,2,0,L|256:308,1,88.1999973083496,8|4,1:3|1:3,0:0:0:0:
172,330,190155,6,0,B|132:364|132:364|36:345,2,132.299995962524,6|0|8,1:2|1:2|0:2,0:2:0:0:
267,202,191355,1,10,0:2:0:0:
342,227,191595,1,2,0:2:0:0:
417,252,191835,1,10,0:2:0:0:
482,205,192075,6,0,P|494:175|441:47,1,168,6|12,0:2|0:2,0:0:0:0:
301,16,193035,1,4,1:2:0:0:
301,16,193275,1,0,1:2:0:0:
257,82,193515,2,0,B|250:113|250:113|256:138|256:138|248:165,1,83.9999999999999,8|8,1:2|1:2,0:0:0:0:
281,245,193995,6,0,B|286:328|231:364|231:364|180:350,1,176.399994616699,12|0,1:3|1:0,0:2:0:0:
105,335,194715,2,0,L|5:352,1,88.1999973083496,10|0,1:2|1:0,0:0:0:0:
19,261,195195,2,0,L|38:165,1,88.1999973083496,10|2,0:2|0:2,0:2:0:0:
73,94,195675,1,10,0:0:0:0:
153,57,195915,6,0,P|213:41|326:73,1,176.399994616699,6|2,1:2|0:2,0:2:0:0:
383,132,196635,1,10,0:2:0:0:
335,206,196875,2,0,B|293:217|293:217|251:199,1,88.1999973083496,2|14,1:2|0:2,0:2:0:0:
179,158,197355,1,8,1:3:0:0:
179,158,197595,1,4,1:3:0:0:
99,195,197835,6,0,P|62:247|102:356,1,176.399994616699,6|2,1:2|1:2,0:2:0:0:
174,378,198555,2,0,L|271:369,1,88.1999973083496,10|0,1:2|1:0,0:0:0:0:
332,316,199035,2,0,L|320:219,1,88.1999973083496,10|2,0:2|0:2,0:2:0:0:
306,141,199515,1,10,0:0:0:0:
363,74,199755,6,0,P|418:91|489:73,2,132.299995962524,6|6|14,1:2|1:2|0:2,0:2:0:0:
280,42,200715,2,0,P|240:26|117:76,1,176.399994616699,6|12,1:2|0:2,0:0:0:0:
76,148,201435,5,8,0:3:0:0:
76,148,201675,2,0,B|75:200|50:228|50:228|95:267|93:319|93:319|165:380|280:341|280:341|258:260|321:211,1,529.199983850098,4|0,1:2|0:0,0:0:0:0:
395,175,203595,2,0,P|499:137|382:87,1,302.399990771484,6|2,1:2|0:3,0:2:0:0:
88,158,205515,6,0,L|-14:149,2,88.1999973083496,14|10|2,1:1|0:2|1:1,0:0:0:0:
145,225,206235,1,10,0:2:0:0:
214,171,206475,2,2,L|225:69,1,88.1999973083496,2|8,1:1|0:2,0:1:0:0:
297,34,206955,2,2,L|384:26,1,88.1999973083496,2|10,0:1|0:1,0:1:0:0:
457,77,207435,6,2,P|472:117|461:214,1,132.299995962524,6|2,1:1|1:1,0:1:0:0:
393,315,208155,1,10,0:1:0:0:
393,315,208395,2,2,B|338:308|338:308|301:329|301:329|218:315,1,176.399994616699,2|8,1:1|1:3,0:1:0:0:
152,367,209115,1,4,1:3:0:0:
77,319,209355,6,0,P|68:269|88:221,1,88.1999973083496,6|10,1:1|0:2,0:0:0:0:
138,169,209835,2,0,L|238:163,1,88.1999973083496,2|10,1:1|0:1,0:2:0:0:
311,141,210315,1,2,1:1:0:0:
308,273,210675,1,2,1:1:0:0:
411,355,211035,1,10,0:1:0:0:
475,294,211275,6,0,L|486:159,2,132.299995962524,6|6|14,1:1|1:1|1:1,0:1:0:0:
411,355,212235,2,2,B|370:363|370:363|313:342,1,88.1999973083496,6|8,1:1|1:3,0:1:0:0:
269,279,212715,2,0,L|266:174,1,88.1999973083496,4|8,1:3|1:3,0:0:0:0:
221,115,213195,6,0,P|168:90|93:111,2,132.299995962524,14|2|10,1:1|0:1|0:1,0:1:0:0:
266,190,214155,2,0,P|319:215|394:194,2,132.299995962524,2|2|10,1:1|1:1|0:1,0:2:0:0:
222,114,215115,5,6,1:1:0:0:
98,67,215475,1,2,1:1:0:0:
45,188,215835,1,10,0:1:0:0:
80,268,216075,2,2,B|126:313|183:300|183:300|199:260|239:240,1,176.399994616699,2|8,1:1|1:3,0:1:0:0:
297,205,216795,1,4,1:3:0:0:
349,276,217035,6,0,P|347:321|364:378,1,88.1999973083496,6|10,1:1|0:2,0:0:0:0:
444,377,217515,2,0,P|468:339|482:281,1,88.1999973083496,2|10,1:1|0:2,0:0:0:0:
483,209,217995,2,0,B|471:179|471:179|475:160|475:160|463:116,1,88.1999973083496,2|10,1:1|0:2,0:0:0:0:
408,57,218475,2,0,B|372:47|372:47|355:50|355:50|323:39,1,88.1999973083496,2|10,1:1|0:2,0:0:0:0:
245,80,218955,6,2,B|228:149|263:146|244:219,1,132.299995962524,4|6,1:1|1:1,0:1:0:0:
200,334,219675,1,14,0:1:0:0:
123,377,219915,2,0,L|34:364,1,88.1999973083496,6|2,1:1|1:2,0:0:0:0:
3,281,220395,2,0,L|51:193,1,88.1999973083496,8|4,1:3|1:3,0:0:0:0:
112,150,220875,6,0,P|132:187|288:161,1,226.799993078613,6|0,1:1|0:2,0:2:0:0:
359,131,221835,2,0,P|396:139|389:343,1,302.399990771484,6|4,1:1|0:2,0:2:0:0:
19,297,230475,6,0,L|28:154,1,142.800002723694,4|0,1:2|1:2,0:2:0:0:
123,48,231435,1,0,1:2:0:0:
229,142,231915,1,0,1:2:0:0:
359,83,232395,2,0,P|399:82|463:160,1,142.800002723694,4|0,1:2|1:2,0:2:0:0:
462,296,233355,1,0,1:2:0:0:
330,371,233835,2,0,L|248:363,1,75.5999976928711,8|8,0:2|0:2,0:0:0:0:
172,326,234315,6,0,P|158:275|192:162,1,168,12|2,0:3|1:2,0:2:0:0:
266,135,235035,1,10,0:2:0:0:
323,196,235275,2,0,P|365:213|411:203,1,83.9999999999999,2|10,1:2|0:2,0:2:0:0:
471,159,235755,2,0,P|474:115|462:74,1,83.9999999999999,2|10,0:2|0:2,0:2:0:0:
391,34,236235,6,0,B|305:16|334:55|250:37,1,126,6|2,1:2|1:2,0:2:0:0:
148,16,236955,1,10,0:2:0:0:
75,47,237195,2,0,P|42:86|28:336,1,302.399990771484,6|2,1:2|2:3,0:2:0:0:
512,312,241035,2,0,B|331:312|438:193|252:183,1,302.399990771484,0|2,0:2|2:3,0:2:0:0:
161,332,242475,6,0,B|121:351|121:351|70:333,1,88.1999973083496,12|8,0:3|2:2,0:0:0:0:
12,278,242955,2,0,L|33:148,1,132.299995962524,2|2,1:2|1:2,0:2:0:0:
117,45,243675,1,10,2:2:0:0:
182,104,243915,6,0,P|218:121|312:85,1,132.299995962524,6|2,1:2|1:2,0:2:0:0:
374,45,244515,2,0,B|411:27|411:27|461:51|465:115,1,132.299995962524,2|2,1:2|1:2,0:0:0:0:
458,185,245115,1,10,0:2:0:0:
391,243,245355,2,0,L|298:226,1,88.1999973083496,8|4,1:3|1:3,0:0:0:0:
220,256,245835,6,0,P|160:246|90:292,2,132.299995962524,6|0|8,1:2|1:2|0:2,0:2:0:0:
363,367,247035,1,10,0:2:0:0:
372,288,247275,1,2,0:2:0:0:
381,209,247515,1,10,0:2:0:0:
451,165,247755,6,0,P|467:118|388:36,1,168,6|12,0:2|0:2,0:0:0:0:
242,14,248715,1,4,1:2:0:0:
242,14,248955,1,0,1:2:0:0:
235,93,249195,2,0,L|225:188,1,83.9999999999999,8|8,1:2|1:2,0:0:0:0:
189,257,249675,6,0,B|158:310|158:310|94:335|46:278,1,176.399994616699,12|0,1:3|1:0,0:2:0:0:
5,211,250395,2,0,P|5:161|23:116,1,88.1999973083496,10|0,1:2|1:0,0:0:0:0:
76,54,250875,2,0,P|117:43|172:50,1,88.1999973083496,10|2,0:2|0:2,0:2:0:0:
244,79,251355,1,10,0:0:0:0:
254,169,251595,6,0,B|219:218|224:285|224:285|238:314|262:326,1,176.399994616699,6|2,1:2|0:2,0:2:0:0:
340,361,252315,1,10,0:2:0:0:
424,333,252555,2,0,P|441:283|429:231,1,88.1999973083496,2|14,1:2|0:2,0:2:0:0:
382,185,253035,1,8,1:3:0:0:
382,185,253275,1,4,1:3:0:0:
312,239,253515,6,0,B|272:277|272:277|143:257,1,176.399994616699,6|2,1:2|1:2,0:2:0:0:
65,239,254235,2,0,P|49:191|58:143,1,88.1999973083496,10|0,1:2|1:0,0:0:0:0:
88,73,254715,2,0,P|133:38|179:33,1,88.1999973083496,10|2,0:2|0:2,0:2:0:0:
251,29,255195,1,10,0:0:0:0:
335,55,255435,6,0,B|394:71|394:71|476:41,2,132.299995962524,6|6|14,1:2|1:2|0:2,0:2:0:0:
250,81,256395,2,0,B|204:111|204:111|179:165|232:235,1,176.399994616699,6|12,1:2|0:2,0:0:0:0:
311,247,257115,5,8,0:3:0:0:
311,247,257355,2,0,B|342:216|417:215|392:254|467:255|510:215|510:215|512:316|407:425|265:368,1,548.099983273315,4|0,1:2|0:0,0:0:0:0:
204,317,259275,2,0,B|103:290|40:370|40:370|-24:327|12:255,1,302.399990771484,6|2,1:2|0:3,0:2:0:0:
132,45,261195,6,0,B|156:86|217:79|217:79|235:45|278:28,1,168,12|2,1:3|1:2,0:2:0:0:
351,19,261915,1,10,0:2:0:0:
423,61,262155,2,0,P|444:98|444:148,1,83.9999999999999,2|8,1:2|0:2,0:2:0:0:
473,217,262635,2,0,P|470:258|449:294,1,83.9999999999999,2|8,0:2|0:2,2:2:0:0:
389,353,263115,6,0,L|249:338,1,126,6|2,1:2|1:2,0:2:0:0:
142,373,263835,1,10,0:2:0:0:
78,318,264075,2,0,P|63:252|109:154,1,168,2|8,1:2|1:3,0:2:0:0:
172,118,264795,1,4,1:3:0:0:
223,183,265035,6,0,B|249:243|327:233|327:233|369:196,1,168,4|2,1:2|1:2,0:2:0:0:
421,148,265755,1,10,0:2:0:0:
401,66,265995,2,0,P|365:40|309:35,1,83.9999999999999,2|10,1:2|0:2,0:2:0:0:
243,18,266475,2,0,P|202:26|168:51,1,83.9999999999999,2|10,0:2|0:2,0:2:0:0:
131,126,266955,6,0,L|147:262,1,126,4|4,1:2|1:2,0:2:0:0:
195,366,267675,1,14,0:2:0:0:
195,366,267915,2,0,L|294:352,1,83.9999999999999,6|8,1:2|1:3,0:2:0:0:
359,377,268395,2,0,L|458:363,1,83.9999999999999,4|8,1:3|1:3,0:0:0:0:
488,295,268875,6,0,P|479:203|455:168,2,126,12|2|10,1:3|1:2|0:2,0:2:0:0:
442,365,269835,1,2,1:2:0:0:
286,315,270315,1,2,0:2:0:0:
286,315,270555,1,10,0:2:0:0:
258,235,270795,6,0,L|249:137,1,83.9999999999999,6|8,1:2|0:2,0:2:0:0:
208,77,271275,2,0,L|110:58,1,83.9999999999999,2|8,0:2|0:2,0:2:0:0:
45,87,271755,2,0,P|14:143|24:251,1,168,2|8,1:2|1:3,0:2:0:0:
51,322,272475,1,4,1:3:0:0:
126,358,272715,6,0,L|301:336,1,168,6|2,1:2|1:2,0:2:0:0:
371,365,273435,1,10,0:2:0:0:
442,321,273675,2,0,P|456:268|436:229,1,83.9999999999999,2|10,1:2|0:2,0:2:0:0:
380,190,274155,2,0,L|286:181,1,83.9999999999999,2|10,0:2|0:2,0:2:0:0:
218,214,274635,6,0,P|216:258|141:286,1,126,6|6,1:2|1:2,0:2:0:0:
49,250,275416,2,0,L|38:144,1,75.5999976928711,14|6,0:2|1:2,0:0:0:0:
138,76,276304,6,0,P|236:80|287:40,1,151.199995385742,14|4,0:2|0:2,0:0:0:0:
