osu file format v14

[General]
AudioFilename: audio.mp3
AudioLeadIn: 0
PreviewTime: 84015
Countdown: 0
SampleSet: Soft
StackLeniency: 0.7
Mode: 0
LetterboxInBreaks: 0
WidescreenStoryboard: 1

[Editor]
DistanceSpacing: 1
BeatDivisor: 4
GridSize: 32
TimelineZoom: 1.6

[Metadata]
Title:Maisery
TitleUnicode:Maisery
Artist:Symholic
ArtistUnicode:Symholic
Creator:Lasse
Version:Intermediate
Source:
Tags:Paspal Lalue 葉月ゆら Hatsuki Yura Japanese Doujin Symphonic Rock Metal Misery featured artist fa mappers' guild mpg
BeatmapID:2743062
BeatmapSetID:1322631

[Difficulty]
HPDrainRate:4
CircleSize:3.6
OverallDifficulty:6
ApproachRate:7
SliderMultiplier:0.999999999999999
SliderTickRate:1

[Events]
//Background and Video events
0,0,"thiscouldbeus.jpg",0,0
//Break Periods
2,52115,58695
2,69195,75975
2,153875,160455
2,170955,177735
2,222995,229575
//Storyboard Layer 0 (Background)
//Storyboard Layer 1 (Fail)
//Storyboard Layer 2 (Pass)
//Storyboard Layer 3 (Foreground)
//Storyboard Layer 4 (Overlay)
//Storyboard Sound Samples

[TimingPoints]
-1845,240,4,2,1,50,1,0
1635,-111.111111111111,4,2,1,50,0,0
1995,-100,4,2,1,70,0,0
5055,-100,4,2,1,50,0,0
5115,-100,4,2,1,70,0,0
5355,-100,4,2,2,70,0,0
5835,-100,4,2,1,70,0,0
7515,-100,4,2,1,70,0,0
7695,-100,4,2,1,50,0,0
7755,-100,4,2,1,70,0,0
8895,-100,4,2,1,50,0,0
8955,-100,4,2,2,70,0,0
9435,-100,4,2,3,70,0,0
9675,-100,4,2,1,70,0,0
13035,-100,4,2,2,70,0,0
13515,-100,4,2,1,70,0,0
15435,-100,4,2,1,70,0,0
16575,-100,4,2,1,50,0,0
16635,-100,4,2,1,70,0,0
16755,-100,4,2,2,70,0,0
16995,-100,4,2,1,70,0,0
17115,-100,4,2,2,70,0,0
17355,-100,4,2,2,65,0,0
18315,-100,4,2,2,64,0,0
18395,-100,4,2,1,5,0,0
18475,-100,4,2,2,62,0,0
18635,-100,4,2,2,60,0,0
18715,-100,4,2,1,5,0,0
18795,-100,4,2,2,57,0,0
18875,-100,4,2,1,5,0,0
18955,-100,4,2,2,54,0,0
19115,-100,4,2,2,50,0,0
19195,-100,4,2,1,5,0,0
19275,-125,4,2,1,55,0,0
19395,-125,4,2,1,30,0,0
20715,-125,4,2,2,55,0,0
21195,-100,4,2,1,62,0,0
24555,-100,4,2,2,62,0,0
25035,-100,4,2,1,62,0,0
28395,-100,4,2,2,62,0,0
28875,-100,4,2,1,62,0,0
32235,-100,4,2,2,62,0,0
32715,-100,4,2,1,62,0,0
34635,-100,4,2,1,62,0,0
35595,-111.111111111111,4,2,1,62,0,0
36075,-100,4,2,1,50,0,0
36555,-100,4,2,1,64,0,0
39915,-100,4,2,2,64,0,0
40395,-100,4,2,1,64,0,0
42315,-100,4,2,1,64,0,0
43455,-100,4,2,1,46,0,0
43515,-100,4,2,2,64,0,0
43995,-100,4,2,3,64,0,0
44235,-100,4,2,1,64,0,0
47595,-100,4,2,2,64,0,0
48075,-100,4,2,1,62,0,0
49995,-100,4,2,1,67,0,0
50895,-100,4,2,1,40,0,0
50955,-125,4,2,1,54,0,0
51075,-125,4,2,1,20,0,0
51915,-100,4,2,3,30,0,0
59595,-111.111111111111,4,2,2,50,0,0
62955,-111.111111111111,4,2,2,52,0,0
63435,-100,4,2,1,55,0,0
65355,-100,4,2,1,60,0,0
66795,-100,4,2,2,60,0,0
69195,-100,4,2,1,35,0,0
69435,-100,4,2,1,25,0,0
69675,-100,4,2,1,35,0,0
70395,-100,4,2,1,25,0,0
70635,-100,4,2,1,35,0,0
71355,-100,4,2,1,25,0,0
71835,-100,4,2,1,35,0,0
73275,-100,4,2,1,25,0,0
73515,-100,4,2,1,35,0,0
75195,-100,4,2,1,25,0,0
75435,-100,4,2,1,35,0,0
75915,-100,4,2,1,40,0,0
76875,-111.111111111111,4,2,2,52,0,0
82635,-111.111111111111,4,2,2,54,0,0
83115,-111.111111111111,4,2,2,58,0,0
83595,-111.111111111111,4,2,1,60,0,0
84075,-111.111111111111,4,2,1,30,0,0
84555,-95.2380952380952,4,2,1,72,0,1
87915,-95.2380952380952,4,2,2,72,0,1
88395,-95.2380952380952,4,2,1,72,0,1
90315,-100,4,2,2,60,0,0
91755,-100,4,2,2,65,0,0
92235,-95.2380952380952,4,2,1,72,0,1
95595,-95.2380952380952,4,2,2,72,0,1
96075,-95.2380952380952,4,2,1,72,0,1
99675,-95.2380952380952,4,2,2,65,0,0
99915,-111.111111111111,4,2,1,65,0,0
100395,-111.111111111111,4,2,1,40,0,0
101835,-111.111111111111,4,2,1,50,0,0
102075,-111.111111111111,4,2,1,20,0,0
102795,-111.111111111111,4,2,3,22,0,0
103395,-111.111111111111,4,2,1,50,0,0
103755,-100,4,2,1,70,0,0
106815,-100,4,2,1,50,0,0
106875,-100,4,2,1,70,0,0
107115,-100,4,2,2,70,0,0
107595,-100,4,2,1,70,0,0
109455,-100,4,2,1,50,0,0
109515,-100,4,2,1,70,0,0
110715,-100,4,2,2,70,0,0
111195,-100,4,2,3,70,0,0
111435,-100,4,2,1,70,0,0
114795,-100,4,2,2,70,0,0
115275,-100,4,2,1,70,0,0
118335,-100,4,2,1,50,0,0
118395,-100,4,2,1,70,0,0
118515,-100,4,2,2,70,0,0
118755,-100,4,2,1,70,0,0
118875,-100,4,2,2,70,0,0
119115,-100,4,2,2,65,0,0
120075,-100,4,2,2,64,0,0
120155,-100,4,2,1,5,0,0
120235,-100,4,2,2,62,0,0
120395,-100,4,2,2,60,0,0
120475,-100,4,2,1,5,0,0
120555,-100,4,2,2,57,0,0
120635,-100,4,2,1,5,0,0
120715,-100,4,2,2,54,0,0
120875,-100,4,2,2,50,0,0
120955,-100,4,2,1,5,0,0
121035,-125,4,2,1,55,0,0
121155,-125,4,2,1,30,0,0
122475,-125,4,2,2,55,0,0
122955,-117.647058823529,4,2,1,50,0,0
123195,-117.647058823529,4,2,1,30,0,0
124635,-117.647058823529,4,2,1,40,0,0
124875,-117.647058823529,4,2,1,52,0,0
125115,-117.647058823529,4,2,1,30,0,0
126195,-117.647058823529,4,2,1,40,0,0
126315,-111.111111111111,4,2,1,48,0,0
126375,-111.111111111111,4,2,1,30,0,0
126675,-111.111111111111,4,2,1,42,0,0
126795,-100,4,2,1,62,0,0
130155,-100,4,2,2,62,0,0
130635,-100,4,2,1,62,0,0
133995,-100,4,2,2,62,0,0
134475,-100,4,2,1,62,0,0
137355,-111.111111111111,4,2,1,62,0,0
137835,-100,4,2,1,50,0,0
138315,-100,4,2,1,64,0,0
141675,-100,4,2,2,64,0,0
142155,-100,4,2,1,64,0,0
145215,-100,4,2,1,46,0,0
145275,-100,4,2,2,64,0,0
145755,-100,4,2,3,64,0,0
145995,-100,4,2,1,64,0,0
149355,-100,4,2,2,64,0,0
149835,-100,4,2,1,62,0,0
151755,-100,4,2,1,67,0,0
152655,-100,4,2,1,40,0,0
152715,-125,4,2,1,54,0,0
152835,-125,4,2,1,20,0,0
153675,-125,4,2,3,30,0,0
161355,-111.111111111111,4,2,2,50,0,0
164715,-111.111111111111,4,2,2,52,0,0
165195,-100,4,2,1,55,0,0
167115,-100,4,2,1,60,0,0
168555,-100,4,2,2,60,0,0
170955,-100,4,2,1,35,0,0
171195,-100,4,2,1,25,0,0
171435,-100,4,2,1,35,0,0
172155,-100,4,2,1,25,0,0
172395,-100,4,2,1,35,0,0
173115,-100,4,2,1,25,0,0
173595,-100,4,2,1,35,0,0
175035,-100,4,2,1,25,0,0
175275,-100,4,2,1,35,0,0
176955,-100,4,2,1,25,0,0
177195,-100,4,2,1,35,0,0
177675,-100,4,2,1,40,0,0
178635,-111.111111111111,4,2,2,52,0,0
184395,-111.111111111111,4,2,2,54,0,0
184875,-111.111111111111,4,2,2,58,0,0
185355,-111.111111111111,4,2,1,60,0,0
185835,-111.111111111111,4,2,1,30,0,0
186315,-95.2380952380952,4,2,1,72,0,1
189675,-95.2380952380952,4,2,2,72,0,1
190155,-95.2380952380952,4,2,1,72,0,1
192075,-100,4,2,2,60,0,0
193515,-100,4,2,2,65,0,0
193995,-95.2380952380952,4,2,1,72,0,1
197355,-95.2380952380952,4,2,2,72,0,1
197835,-95.2380952380952,4,2,1,72,0,1
201435,-95.2380952380952,4,2,2,65,0,0
201675,-111.111111111111,4,2,1,65,0,0
202155,-111.111111111111,4,2,1,40,0,0
203595,-111.111111111111,4,2,1,50,0,0
203835,-111.111111111111,4,2,1,20,0,0
204555,-111.111111111111,4,2,3,22,0,0
204975,-111.111111111111,4,2,1,50,0,0
205275,-111.111111111111,4,2,1,20,0,0
205395,-111.111111111111,4,2,1,30,0,0
205515,-95.2380952380952,4,2,2,72,0,0
205635,-95.2380952380952,4,2,1,72,0,0
207615,-95.2380952380952,4,2,1,50,0,0
207675,-95.2380952380952,4,2,1,72,0,0
208875,-95.2380952380952,4,2,2,72,0,0
209355,-95.2380952380952,4,2,1,72,0,0
212415,-95.2380952380952,4,2,1,50,0,0
212475,-95.2380952380952,4,2,2,72,0,0
212955,-95.2380952380952,4,2,3,72,0,0
213195,-95.2380952380952,4,2,2,72,0,0
213375,-95.2380952380952,4,2,1,50,0,0
213435,-95.2380952380952,4,2,1,72,0,0
214335,-95.2380952380952,4,2,1,50,0,0
214395,-95.2380952380952,4,2,1,72,0,0
215055,-95.2380952380952,4,2,1,50,0,0
215115,-95.2380952380952,4,2,1,72,0,0
216015,-95.2380952380952,4,2,1,50,0,0
216075,-95.2380952380952,4,2,1,72,0,0
216555,-95.2380952380952,4,2,2,72,0,0
217035,-95.2380952380952,4,2,1,72,0,0
217515,-95.2380952380952,4,2,1,73,0,0
217995,-95.2380952380952,4,2,1,74,0,0
218475,-95.2380952380952,4,2,1,75,0,0
218955,-95.2380952380952,4,2,1,74,0,0
220395,-95.2380952380952,4,2,2,74,0,0
220875,-111.111111111111,4,2,1,60,0,0
220995,-111.111111111111,4,2,1,20,0,0
221595,-111.111111111111,4,2,1,40,0,0
221835,-111.111111111111,4,2,1,50,0,0
221955,-111.111111111111,4,2,1,20,0,0
222795,-111.111111111111,4,2,3,40,0,0
230475,-117.647058823529,4,2,2,40,0,0
230715,-117.647058823529,4,2,2,30,0,0
230955,-117.647058823529,4,2,2,40,0,0
231195,-117.647058823529,4,2,2,30,0,0
231435,-117.647058823529,4,2,2,40,0,0
231675,-117.647058823529,4,2,2,30,0,0
231915,-117.647058823529,4,2,2,40,0,0
232155,-117.647058823529,4,2,2,30,0,0
232395,-117.647058823529,4,2,2,45,0,0
232635,-117.647058823529,4,2,2,30,0,0
232875,-117.647058823529,4,2,2,45,0,0
233115,-117.647058823529,4,2,2,30,0,0
233355,-117.647058823529,4,2,2,45,0,0
233595,-117.647058823529,4,2,2,30,0,0
233835,-111.111111111111,4,2,2,48,0,0
234075,-111.111111111111,4,2,2,52,0,0
234315,-100,4,2,1,58,0,0
236235,-100,4,2,1,62,0,0
237135,-100,4,2,1,30,0,0
237195,-111.111111111111,4,2,1,50,0,0
237315,-111.111111111111,4,2,1,5,0,0
238155,-111.111111111111,4,2,3,14,0,0
241035,-111.111111111111,4,2,1,24,0,0
241275,-111.111111111111,4,2,1,15,0,0
241515,-111.111111111111,4,2,1,30,0,0
241995,-111.111111111111,4,2,3,36,0,0
242475,-90.9090909090909,4,2,1,74,0,1
245355,-90.9090909090909,4,2,2,74,0,1
245835,-90.9090909090909,4,2,1,74,0,1
247755,-100,4,2,2,60,0,0
249195,-100,4,2,2,65,0,0
249675,-90.9090909090909,4,2,1,74,0,1
253035,-90.9090909090909,4,2,2,74,0,1
253515,-90.9090909090909,4,2,1,74,0,1
257115,-90.9090909090909,4,2,2,67,0,0
257355,-111.111111111111,4,2,1,65,0,0
257835,-111.111111111111,4,2,1,40,0,0
259275,-111.111111111111,4,2,1,50,0,0
259515,-111.111111111111,4,2,1,20,0,0
260235,-111.111111111111,4,2,3,22,0,0
261195,-100,4,2,1,67,0,0
264255,-100,4,2,1,50,0,0
264315,-100,4,2,1,67,0,0
264555,-100,4,2,2,67,0,0
265035,-100,4,2,1,67,0,0
268155,-100,4,2,2,67,0,0
268635,-100,4,2,3,67,0,0
268875,-100,4,2,1,68,0,0
272235,-100,4,2,2,68,0,0
272715,-100,4,2,1,68,0,0
274995,265.486725663717,4,2,1,70,1,0
274995,-100,4,2,1,70,0,0
275260,312.5,4,2,1,65,1,0
275416,600,4,2,1,65,1,0
275416,-55.5555555555556,4,2,1,65,0,0
275716,588.235294117647,4,2,1,58,1,0
276304,609.137055837563,4,2,1,46,1,0
276304,-55.5555555555556,4,2,1,46,0,0
276913,600,4,2,3,35,1,0
276913,-166.666666666667,4,2,3,35,0,0
276988,-166.666666666667,4,2,3,25,0,0
281113,-166.666666666667,4,2,3,22,0,0
281413,-166.666666666667,4,2,3,20,0,0
281713,-166.666666666667,4,2,3,23,0,0
282913,-181.818181818182,4,2,3,22,0,0
283213,-181.818181818182,4,2,3,18,0,0
283513,-200,4,2,3,20,0,0
283813,-200,4,2,3,16,0,0
284113,-222.222222222222,4,2,3,18,0,0
284713,-222.222222222222,4,2,3,5,0,0
285013,-222.222222222222,4,2,3,12,0,0
285313,-250,4,2,3,15,0,0
285913,-250,4,2,3,5,0,0
286513,-250,4,2,3,10,0,0

[Colours]
Combo1 : 240,140,140
Combo2 : 200,180,220
Combo3 : 240,200,155
Combo4 : 150,185,220

[HitObjects]
64,212,1635,6,0,L|121:207,2,44.999998626709
34,239,1995,6,0,P|7:308|18:381,2,150,12|2|10,1:3|1:2|1:2,0:1:0:0:
107,170,2955,1,2,1:2:0:0:
194,291,3315,1,2,1:2:0:0:
330,228,3675,1,10,1:2:0:0:
427,252,3915,2,0,P|438:178|411:109,2,150,6|2|10,1:2|1:2|1:2,2:2:0:0:
374,336,4875,2,0,P|315:319|263:322,1,99.9999999999999,2|12,1:2|1:2,0:2:0:0:
190,370,5355,2,0,P|131:353|79:356,1,99.9999999999999,8|4,1:3|1:3,0:0:0:0:
0,378,5835,5,6,1:2:0:0:
56,238,6195,1,2,1:2:0:0:
25,91,6555,1,10,1:2:0:0:
112,41,6795,2,0,P|173:24|269:40,2,150,2|2|10,1:2|1:2|1:2,0:2:0:0:
25,91,7755,1,6,1:2:0:0:
56,238,8115,1,6,1:2:0:0:
201,201,8475,1,14,1:2:0:0:
275,267,8715,2,0,P|264:309|292:377,1,99.9999999999999,6|8,1:2|1:3,0:2:0:0:
330,384,9075,1,8,1:3:0:0:
330,384,9195,2,0,L|438:370,1,99.9999999999999,4|8,1:3|1:3,0:0:0:0:
495,295,9675,6,0,P|503:252|477:146,2,150,12|2|10,1:3|1:2|1:2,0:2:0:0:
429,371,10635,1,2,1:2:0:0:
313,274,10995,1,2,1:2:0:0:
366,133,11355,1,8,1:2:0:0:
307,51,11595,2,0,P|238:22|166:36,2,150,6|2|10,1:2|1:2|1:2,0:2:0:0:
366,133,12555,2,0,L|343:234,1,99.9999999999999,0|12,1:2|1:2,0:2:0:0:
268,296,13035,2,0,P|216:302|173:282,1,99.9999999999999,8|4,1:3|1:3,0:0:0:0:
152,261,13395,1,4,1:3:0:0:
134,236,13515,6,0,P|85:186|-3:199,2,150,6|2|10,1:2|1:2|1:2,2:2:0:0:
204,306,14475,2,0,P|254:311|303:291,1,99.9999999999999,2|8,1:2|2:2,0:2:0:0:
343,267,14835,1,0,1:2:0:0:
343,267,14955,2,0,P|327:209|337:153,1,99.9999999999999,2|8,0:2|1:2,0:2:0:0:
345,70,15435,1,6,1:2:0:0:
493,93,15795,1,6,1:2:0:0:
511,241,16155,1,14,1:2:0:0:
450,320,16395,2,0,B|354:297|354:297|262:337|262:337|156:309,1,300,6|8,1:2|0:3,0:2:0:0:
76,358,17355,6,0,P|67:301|122:222,1,150,8|8,2:2|2:2,0:0:0:0:
211,199,17955,2,0,L|328:191,1,99.9999999999999,8|8,0:2|0:2,0:0:0:0:
354,167,18315,2,0,P|371:116|351:58,1,99.9999999999999,14|2,3:2|0:2,0:2:0:0:
277,16,18795,2,0,L|164:18,1,99.9999999999999,10|2,3:2|0:2,0:2:0:0:
80,56,19275,6,0,B|51:200|227:207|234:183|252:162|399:213|313:348|233:333|207:266,1,479.999999999999,6|8,1:2|1:2,0:2:0:0:
307,128,21195,6,0,L|470:110,2,150,12|2|10,1:3|2:2|2:2,0:2:0:0:
137,21,22395,1,10,2:2:0:0:
37,27,22635,1,2,1:2:0:0:
3,121,22875,1,10,2:2:0:0:
56,205,23115,2,0,L|219:187,1,150,6|2,1:2|1:2,0:2:0:0:
349,146,23835,1,10,0:2:0:0:
426,209,24075,2,0,P|439:254|428:316,1,99.9999999999999,0|8,1:2|0:2,0:2:0:0:
355,371,24555,2,0,L|249:359,1,99.9999999999999,8|4,1:3|1:3,0:0:0:0:
231,364,24915,1,4,1:3:0:0:
206,369,25035,6,0,L|43:351,1,150,6|2,1:2|1:2,0:2:0:0:
2,212,25755,1,10,0:2:0:0:
77,146,25995,1,2,1:2:0:0:
171,179,26235,1,10,0:2:0:0:
189,275,26475,1,2,0:2:0:0:
281,308,26715,1,10,0:2:0:0:
355,244,26955,6,0,B|375:199|375:199|363:140,1,99.9999999999999,6|8,1:2|0:2,0:2:0:0:
342,104,27315,2,0,B|293:110|293:110|237:80,1,99.9999999999999,6|0,1:2|1:2,0:2:0:0:
205,59,27675,1,14,1:2:0:0:
136,132,27915,2,0,B|91:108|91:108|42:114,1,99.9999999999999,4|8,1:2|1:2,0:2:0:0:
9,152,28275,1,0,1:2:0:0:
9,152,28395,2,0,B|16:186|16:186|11:199|11:199|24:266,1,99.9999999999999,8|4,1:3|1:3,0:0:0:0:
67,345,28875,6,0,P|129:361|205:304,2,150,12|2|10,1:3|0:2|0:2,0:2:0:0:
7,153,30075,1,10,0:2:0:0:
56,66,30315,1,2,1:2:0:0:
154,82,30555,1,10,0:2:0:0:
184,177,30795,2,0,P|246:193|322:136,1,150,6|2,1:2|1:2,0:2:0:0:
399,24,31515,1,10,0:2:0:0:
481,80,31755,2,0,P|492:126|479:182,1,99.9999999999999,0|12,1:2|0:2,0:2:0:0:
428,262,32235,2,0,P|393:294|338:311,1,99.9999999999999,8|4,1:3|1:3,0:0:0:0:
319,314,32595,1,4,1:3:0:0:
294,312,32715,6,0,P|255:293|146:307,2,150,6|2|10,1:2|0:2|0:2,0:2:0:0:
366,380,33675,1,2,1:2:0:0:
503,319,34035,1,2,1:2:0:0:
478,170,34395,1,10,0:2:0:0:
392,118,34635,6,0,B|359:112|359:112|336:125|336:125|276:111,1,99.9999999999999,6|8,1:2|0:2,0:2:0:0:
247,125,34995,2,0,B|214:119|214:119|191:132|191:132|131:118,1,99.9999999999999,6|0,1:2|1:2,0:2:0:0:
115,88,35355,1,14,0:2:0:0:
26,135,35595,2,0,P|6:175|7:320,1,179.999994506836,4|14,1:1|0:2,0:0:0:0:
194,364,36555,6,0,L|365:352,2,150,12|2|10,1:3|0:2|0:2,0:2:0:0:
2,307,37755,1,10,0:2:0:0:
12,207,37995,1,2,0:2:0:0:
108,181,38235,1,10,2:2:0:0:
182,247,38475,2,0,L|353:235,1,150,6|2,1:2|1:2,0:2:0:0:
462,309,39195,1,10,0:2:0:0:
509,221,39435,2,0,P|512:171|490:112,1,99.9999999999999,2|12,1:2|0:2,0:2:0:0:
424,55,39915,2,0,L|321:44,1,99.9999999999999,8|4,1:3|1:3,0:0:0:0:
300,49,40275,1,4,1:3:0:0:
277,60,40395,6,0,B|256:147|291:123|270:213,1,150,6|2,1:2|0:2,0:2:0:0:
212,346,41115,1,10,0:2:0:0:
117,379,41355,1,2,1:2:0:0:
40,313,41595,1,8,0:2:0:0:
58,214,41835,1,2,0:2:0:0:
154,180,42075,1,10,0:2:0:0:
231,246,42315,6,0,B|275:268|275:268|336:244,1,99.9999999999999,6|8,1:2|0:2,0:2:0:0:
372,244,42675,2,0,B|376:218|376:218|373:204|373:204|384:139,1,99.9999999999999,6|0,1:2|1:2,0:2:0:0:
404,100,43035,1,14,0:2:0:0:
332,29,43275,2,0,B|291:0|291:0|227:14,1,99.9999999999999,6|8,1:2|1:3,0:2:0:0:
208,46,43635,1,8,1:3:0:0:
208,46,43755,2,0,B|204:72|204:72|207:86|207:86|196:151,1,99.9999999999999,4|8,1:3|1:3,0:0:0:0:
133,222,44235,6,0,P|83:235|22:156,2,150,12|2|8,0:3|0:2|0:2,0:2:0:0:
306,121,45435,1,10,0:2:0:0:
405,131,45675,1,2,0:2:0:0:
467,209,45915,1,10,0:2:0:0:
458,308,46155,2,0,P|417:367|346:360,1,150,6|2,1:2|1:2,0:2:0:0:
222,275,46875,1,10,0:2:0:0:
271,188,47115,2,0,P|282:141|269:86,1,99.9999999999999,2|12,1:2|0:2,0:2:0:0:
186,37,47595,2,0,L|83:32,1,99.9999999999999,8|4,1:3|1:3,0:0:0:0:
63,42,47955,1,4,1:3:0:0:
43,58,48075,6,0,P|20:95|32:209,2,150,6|2|10,1:2|0:2|0:2,0:2:0:0:
134,17,49035,1,2,1:2:0:0:
202,90,49275,1,10,0:2:0:0:
154,178,49515,1,2,0:2:0:0:
222,250,49755,1,10,0:2:0:0:
311,207,49995,6,0,B|358:190|358:190|420:201,1,99.9999999999999,6|8,1:2|0:2,0:2:0:0:
446,230,50355,2,0,B|463:277|463:277|452:339,1,99.9999999999999,6|0,1:2|1:2,0:2:0:0:
423,365,50715,1,14,0:2:0:0:
338,327,50955,2,0,B|254:294|186:353|186:353|89:334|113:229,1,320,4|4,1:2|0:2,0:2:0:0:
0,131,59595,6,0,L|100:124,1,89.999997253418,6|0,1:2|0:2,0:2:0:0:
133,202,60075,2,0,L|233:195,1,89.999997253418,10|0,0:2|0:2,0:2:0:0:
263,174,60435,1,0,1:2:0:0:
263,174,60555,2,0,P|252:123|265:79,1,89.999997253418,2|0,0:2|1:2,0:0:0:0:
326,25,61035,2,0,L|426:18,1,89.999997253418,10|0,0:2|0:2,0:2:0:0:
492,65,61515,2,0,P|503:116|490:160,1,89.999997253418,2|0,0:2|1:2,0:2:0:0:
466,237,61995,2,0,P|477:288|464:332,1,89.999997253418,10|0,0:2|0:2,0:2:0:0:
439,359,62355,1,0,1:2:0:0:
439,359,62475,2,0,L|349:365,1,89.999997253418,2|0,0:2|1:2,0:0:0:0:
270,321,62955,1,8,0:2:0:0:
299,236,63195,1,8,0:3:0:0:
268,140,63435,6,0,P|239:107|81:108,1,200,6|0,1:2|1:2,0:2:0:0:
25,173,64155,1,8,0:2:0:0:
51,269,64395,2,0,P|105:311|197:294,1,150,2|2,1:2|1:2,0:2:0:0:
310,225,65115,1,10,0:2:0:0:
237,155,65355,2,0,P|230:110|258:55,1,99.9999999999999,6|8,1:2|0:2,0:2:0:0:
291,31,65715,2,0,B|338:48|338:48|402:23,1,99.9999999999999,0|0,1:0|1:0,0:0:0:0:
431,10,66075,1,8,0:0:0:0:
481,96,66315,2,0,P|488:141|460:196,1,99.9999999999999,2|12,1:2|0:2,0:2:0:0:
389,254,66795,5,8,1:3:0:0:
316,185,67035,1,4,1:3:0:0:
224,225,67275,1,4,1:2:0:0:
155,49,76875,6,0,P|69:57|37:136,1,179.999994506836,6|8,1:2|0:2,0:2:0:0:
88,261,77715,2,0,P|153:233|229:245,1,134.999995880127,0|0,1:2|1:2,0:0:0:0:
290,289,78315,1,8,0:2:0:0:
463,241,78795,2,0,B|493:211|493:211|498:133|460:76,1,179.999994506836,2|8,1:2|0:2,0:2:0:0:
340,20,79635,2,0,L|188:35,1,134.999995880127,0|0,1:2|1:2,0:0:0:0:
134,88,80235,2,0,P|131:140|165:176,1,89.999997253418,8|8,0:2|0:3,0:0:0:0:
178,178,80595,1,8,0:3:0:0:
204,181,80715,6,0,P|251:185|296:302,1,179.999994506836,6|10,1:2|0:2,0:2:0:0:
140,377,81675,1,2,0:2:0:0:
17,245,82155,1,10,0:2:0:0:
97,84,82635,2,0,L|203:70,1,89.999997253418,2|0,1:2|1:2,0:0:0:0:
273,94,83115,2,0,P|286:140|411:138,1,179.999994506836,8|2,2:2|1:2,0:0:0:0:
512,64,84555,6,0,L|384:57,1,104.999996795654,12|8,1:3|2:2,0:2:0:0:
366,24,84915,1,2,1:2:0:0:
276,79,85155,2,0,P|261:133|274:191,1,104.999996795654,2|0,1:2|1:2,0:0:0:0:
313,208,85515,2,0,P|387:218|406:250,1,104.999996795654,2|8,1:2|2:2,0:2:0:0:
418,288,85875,1,2,1:2:0:0:
346,347,86115,6,0,L|233:340,1,104.999996795654,2|0,1:2|1:2,0:0:0:0:
194,363,86475,2,0,L|81:356,1,104.999996795654,6|8,1:2|2:2,0:2:0:0:
41,377,86835,1,2,1:2:0:0:
0,279,87075,2,0,P|6:223|32:174,1,104.999996795654,2|0,1:2|1:2,0:0:0:0:
61,139,87435,1,2,1:2:0:0:
155,185,87675,1,10,0:2:0:0:
257,160,87915,1,8,1:3:0:0:
347,214,88155,1,4,1:3:0:0:
431,149,88395,6,0,P|426:97|403:50,1,104.999996795654,6|8,1:2|0:2,0:2:0:0:
351,60,88755,2,0,P|310:26|261:9,1,104.999996795654,0|0,1:2|1:2,0:2:0:0:
218,38,89115,2,0,P|166:42|119:65,1,104.999996795654,8|0,0:2|1:2,0:2:0:0:
46,140,89595,1,10,0:2:0:0:
53,244,89835,1,2,0:2:0:0:
146,291,90075,1,10,0:2:0:0:
242,264,90315,6,0,B|257:196|257:196|244:167|244:167|266:59,1,200,6|12,0:2|0:2,0:0:0:0:
456,16,91275,1,4,1:2:0:0:
506,102,91515,1,0,1:2:0:0:
482,199,91755,2,0,B|475:234|475:234|480:256|480:256|464:312,1,99.9999999999999,8|8,1:2|1:2,0:0:0:0:
458,324,92115,1,8,1:2:0:0:
448,348,92235,6,0,P|396:353|331:230,1,209.999993591309,12|0,1:3|1:0,0:2:0:0:
389,144,92955,1,10,0:2:0:0:
324,61,93195,1,0,1:2:0:0:
224,97,93435,1,10,0:2:0:0:
227,203,93675,1,2,0:2:0:0:
330,231,93915,5,10,0:2:0:0:
389,144,94155,1,6,1:2:0:0:
490,174,94395,1,10,0:2:0:0:
492,279,94635,1,2,2:2:0:0:
392,313,94875,2,0,L|271:343,2,104.999996795654,10|2|14,0:2|1:2|0:2,0:0:0:0:
495,292,95595,1,8,1:3:0:0:
508,187,95835,1,4,1:3:0:0:
434,111,96075,6,0,B|385:92|385:92|317:99,1,104.999996795654,6|10,1:2|0:2,0:2:0:0:
232,128,96555,1,2,1:2:0:0:
160,53,96795,1,10,0:2:0:0:
55,64,97035,1,2,1:2:0:0:
21,163,97275,1,10,0:2:0:0:
84,246,97515,1,2,0:2:0:0:
188,230,97755,6,0,L|298:208,2,104.999996795654,10|6|8,0:2|1:2|0:2,0:0:0:0:
163,239,98355,1,6,1:2:0:0:
142,255,98475,2,0,P|125:312|156:362,1,104.999996795654,2|14,0:2|0:2,0:2:0:0:
244,377,98955,2,0,L|354:355,2,104.999996795654,6|0|12,1:2|1:2|0:2,0:0:0:0:
143,350,99675,2,0,B|134:332|134:332|135:325|135:325|120:287,1,52.4999983978271,8|8,0:3|0:3,0:0:0:0:
89,274,99915,6,0,P|85:110|386:224,1,629.999980773926,4|0,1:2|0:0,0:0:0:0:
338,293,101835,2,0,P|280:273|-2:377,1,359.999989013672,6|2,1:2|0:3,0:2:0:0:
39,140,103395,6,0,L|30:86,2,44.999998626709,0|0|0,0:2|0:2|0:2,0:2:0:0:
71,161,103755,6,0,P|136:161|214:105,2,150,12|2|10,1:3|1:2|1:2,0:1:0:0:
6,237,104715,1,2,1:2:0:0:
63,375,105075,1,2,1:2:0:0:
202,318,105435,1,10,1:2:0:0:
295,354,105675,2,0,P|368:351|429:309,2,150,6|2|10,1:2|1:2|1:2,2:2:0:0:
217,291,106635,2,0,P|222:246|200:182,1,99.9999999999999,2|12,1:2|1:2,0:2:0:0:
112,163,107115,2,0,P|107:113|121:65,1,99.9999999999999,8|4,1:3|1:3,0:0:0:0:
208,16,107595,5,6,1:2:0:0:
307,128,107955,1,2,1:2:0:0:
420,29,108315,1,10,1:2:0:0:
494,96,108555,2,0,P|504:154|489:256,2,150,2|2|10,1:2|1:2|1:2,0:2:0:0:
420,29,109515,1,6,1:2:0:0:
307,128,109875,1,6,1:2:0:0:
383,257,110235,1,14,1:2:0:0:
313,329,110475,2,0,L|208:321,1,99.9999999999999,6|8,1:2|1:3,0:2:0:0:
178,357,110835,1,8,1:3:0:0:
178,357,110955,2,0,L|73:349,1,99.9999999999999,4|8,1:3|1:3,0:0:0:0:
7,277,111435,6,0,P|4:237|46:132,2,150,12|2|10,1:3|1:2|1:2,0:2:0:0:
78,349,112395,1,2,1:2:0:0:
218,295,112755,1,2,1:2:0:0:
197,146,113115,1,8,1:2:0:0:
277,86,113355,2,0,P|319:73|432:96,2,150,6|2|10,1:2|1:2|1:2,0:2:0:0:
215,164,114315,2,0,P|217:217|192:265,1,99.9999999999999,0|12,1:2|1:2,0:2:0:0:
97,272,114795,2,0,P|68:227|66:173,1,99.9999999999999,8|4,1:3|1:3,0:0:0:0:
76,153,115155,1,4,1:3:0:0:
92,127,115275,6,0,P|114:71|42:13,2,150,6|2|10,1:2|1:2|1:2,2:2:0:0:
151,207,116235,2,0,P|202:219|249:204,1,99.9999999999999,2|8,1:2|2:2,0:2:0:0:
283,172,116595,1,0,1:2:0:0:
283,172,116715,2,0,L|295:58,1,99.9999999999999,2|8,0:2|1:2,0:2:0:0:
371,9,117195,1,6,1:2:0:0:
482,109,117555,1,6,1:2:0:0:
372,211,117915,1,14,1:2:0:0:
280,175,118155,2,0,P|216:161|134:343,1,300,6|8,1:2|0:3,0:2:0:0:
221,373,119115,6,0,L|374:358,1,150,8|8,2:2|2:2,0:0:0:0:
468,378,119715,2,0,P|480:322|452:281,1,99.9999999999999,8|8,0:2|0:2,0:0:0:0:
418,258,120075,2,0,L|314:250,1,99.9999999999999,14|2,3:2|0:2,0:2:0:0:
232,198,120555,2,0,L|218:96,1,99.9999999999999,10|2,3:2|0:2,0:2:0:0:
284,24,121035,6,0,B|359:7|403:43|413:149|349:114|347:219|414:311|555:292|554:133|461:139,1,479.999999999999,6|8,1:2|1:2,0:2:0:0:
462,138,122955,6,0,P|459:242|237:85,1,595.000011348724,6|0,1:2|0:2,0:2:0:0:
313,56,124875,2,0,P|297:308|154:345,1,425.000008106231,6|0,1:2|0:0,0:2:0:0:
74,318,126315,2,0,P|54:264|59:216,1,89.999997253418,10|0,0:2|0:0,0:2:0:0:
105,150,126795,6,0,P|181:146|239:91,2,150,12|2|10,1:3|1:2|0:2,0:2:0:0:
5,136,127755,1,2,1:2:0:0:
16,36,127995,1,10,0:2:0:0:
116,50,128235,1,2,0:2:0:0:
105,150,128475,1,10,0:2:0:0:
162,231,128715,6,0,B|208:248|208:248|261:226,1,99.9999999999999,6|8,1:2|0:2,0:2:0:0:
293,195,129075,2,0,B|273:152|273:152|290:101,1,99.9999999999999,6|0,1:2|1:2,0:2:0:0:
314,58,129435,1,14,1:2:0:0:
411,79,129675,2,0,B|441:120|441:120|432:169,1,99.9999999999999,4|8,1:2|1:2,0:2:0:0:
429,221,130035,1,0,1:2:0:0:
429,221,130155,2,0,B|459:262|459:262|450:311,1,99.9999999999999,8|4,1:3|1:3,0:0:0:0:
365,363,130635,6,0,B|286:339|305:384|208:354,2,150,12|2|10,1:3|0:2|0:2,0:2:0:0:
491,208,131835,1,10,0:2:0:0:
417,140,132075,1,2,1:2:0:0:
323,175,132315,1,10,0:2:0:0:
243,114,132555,2,0,B|164:90|183:135|86:105,1,150,6|2,1:2|1:2,0:2:0:0:
7,229,133275,1,10,0:2:0:0:
77,300,133515,2,0,P|135:312|193:293,1,99.9999999999999,0|12,1:2|0:2,0:2:0:0:
254,244,133995,2,0,L|267:137,1,99.9999999999999,8|4,1:3|1:3,0:0:0:0:
277,122,134355,1,4,1:3:0:0:
290,100,134475,6,0,P|329:81|438:95,2,150,6|2|10,1:2|0:2|0:2,0:2:0:0:
232,182,135435,1,2,1:2:0:0:
349,274,135795,1,2,1:2:0:0:
235,372,136155,1,10,0:2:0:0:
150,317,136395,6,0,B|113:313|113:313|95:323|95:323|35:316,1,99.9999999999999,6|8,1:2|0:2,0:2:0:0:
20,280,136755,2,0,B|16:242|16:242|2:227|2:227|-1:185,1,99.9999999999999,6|0,1:2|1:2,0:2:0:0:
14,138,137115,1,14,0:2:0:0:
105,179,137355,2,0,B|153:217|212:177|212:177|206:144|237:109,1,179.999994506836,4|14,1:1|0:2,0:0:0:0:
436,54,138315,6,0,L|451:219,2,150,12|2|10,1:3|0:2|0:2,0:2:0:0:
241,4,139515,1,10,0:2:0:0:
148,41,139755,1,2,0:2:0:0:
135,140,139995,1,10,2:2:0:0:
207,208,140235,2,0,L|356:194,1,150,6|2,1:2|1:2,0:2:0:0:
485,270,140955,1,10,0:2:0:0:
426,350,141195,2,0,P|366:372|321:354,1,99.9999999999999,2|12,1:2|0:2,0:2:0:0:
254,300,141675,2,0,L|261:198,1,99.9999999999999,8|4,1:3|1:3,0:0:0:0:
272,178,142035,1,4,1:3:0:0:
286,157,142155,6,0,P|296:93|181:52,1,200,6|0,1:2|1:2,0:2:0:0:
98,90,142875,1,10,0:2:0:0:
60,182,143115,1,2,1:2:0:0:
96,275,143355,1,8,0:2:0:0:
191,305,143595,1,2,0:2:0:0:
281,262,143835,1,10,0:2:0:0:
299,163,144075,6,0,B|285:118|285:118|309:60,1,99.9999999999999,6|8,1:2|0:2,0:2:0:0:
332,27,144435,2,0,B|372:29|372:29|379:39|379:39|428:42,1,99.9999999999999,6|0,1:2|1:2,0:2:0:0:
474,25,144795,1,14,0:2:0:0:
504,120,145035,2,0,B|510:174|510:174|478:220,1,99.9999999999999,6|8,1:2|1:3,0:2:0:0:
448,246,145395,1,8,1:3:0:0:
448,246,145515,2,0,B|404:239|404:239|391:243|391:243|344:237,1,99.9999999999999,4|8,1:3|1:3,0:0:0:0:
281,164,145995,6,0,P|290:110|211:39,2,150,12|2|8,0:3|0:2|0:2,0:2:0:0:
189,342,147195,1,10,0:2:0:0:
281,379,147435,1,2,0:2:0:0:
370,335,147675,1,10,0:2:0:0:
409,243,147915,2,0,P|415:174|385:78,1,150,6|2,1:2|1:2,0:2:0:0:
268,14,148635,1,10,0:2:0:0:
200,87,148875,2,0,P|187:133|191:202,1,99.9999999999999,2|12,1:2|0:2,0:2:0:0:
235,277,149355,2,0,P|282:264|336:266,1,99.9999999999999,8|4,1:3|1:3,0:0:0:0:
350,273,149715,1,4,1:3:0:0:
369,288,149835,6,0,P|417:343|495:321,2,150,6|2|10,1:2|0:2|0:2,0:2:0:0:
399,192,150795,1,2,1:2:0:0:
306,153,151035,1,10,0:2:0:0:
309,53,151275,1,2,0:2:0:0:
213,24,151515,1,10,0:2:0:0:
146,98,151755,6,0,B|134:149|134:149|148:195,1,99.9999999999999,6|8,1:2|0:2,0:2:0:0:
187,224,152115,2,0,B|235:209|235:209|285:227,1,99.9999999999999,6|0,1:2|1:2,0:2:0:0:
322,254,152475,1,14,0:2:0:0:
277,340,152715,2,0,B|208:323|160:366|160:366|84:374|30:315|66:230,1,320,4|4,1:2|0:2,0:2:0:0:
9,350,161355,6,0,P|7:309|24:258,1,89.999997253418,6|0,1:2|0:2,0:2:0:0:
75,190,161835,2,0,P|73:149|90:98,1,89.999997253418,10|0,0:2|0:2,0:2:0:0:
124,77,162195,1,0,1:2:0:0:
124,77,162315,2,0,L|222:72,1,89.999997253418,2|0,0:2|1:2,0:0:0:0:
282,130,162795,2,0,L|380:125,1,89.999997253418,10|0,0:2|0:2,0:2:0:0:
456,156,163275,2,0,P|469:198|468:243,1,89.999997253418,2|0,0:2|1:2,0:2:0:0:
408,310,163755,2,0,L|318:314,1,89.999997253418,10|0,0:2|0:2,0:2:0:0:
287,347,164115,1,0,1:2:0:0:
287,347,164235,2,0,L|197:351,1,89.999997253418,2|0,0:2|1:2,0:0:0:0:
111,380,164715,1,8,0:2:0:0:
52,309,164955,1,8,0:3:0:0:
116,244,165195,6,0,B|139:222|144:192|144:192|104:135|138:44,1,200,6|0,1:2|1:2,0:2:0:0:
224,17,165915,1,8,0:2:0:0:
241,115,166155,2,0,P|274:166|371:144,1,150,2|2,1:2|1:2,0:2:0:0:
462,54,166875,1,10,0:2:0:0:
492,149,167115,2,0,L|480:254,1,99.9999999999999,6|8,1:2|0:2,0:2:0:0:
475,298,167475,2,0,L|370:286,1,99.9999999999999,0|0,1:0|0:2,0:0:0:0:
340,321,167835,1,8,0:0:0:0:
270,249,168075,2,0,B|279:214|263:195|281:144,1,99.9999999999999,2|12,1:2|0:2,0:2:0:0:
336,68,168555,5,8,1:3:0:0:
401,143,168795,1,4,1:3:0:0:
492,102,169035,1,4,1:2:0:0:
126,345,178635,6,0,B|75:368|75:368|13:344|21:265,1,179.999994506836,6|8,1:2|0:2,0:2:0:0:
76,144,179475,2,0,B|147:132|114:94|193:82,1,134.999995880127,0|0,1:2|1:2,0:0:0:0:
281,83,180075,1,8,0:2:0:0:
366,241,180555,2,0,P|413:285|509:232,1,179.999994506836,2|8,1:2|0:2,0:2:0:0:
447,118,181395,2,0,L|303:104,1,134.999995880127,0|0,1:2|1:2,0:0:0:0:
240,159,181995,2,0,L|232:262,1,89.999997253418,8|8,0:2|0:3,0:0:0:0:
226,275,182355,1,8,0:3:0:0:
216,300,182475,6,0,P|159:330|77:264,1,179.999994506836,6|10,1:2|0:2,0:2:0:0:
31,91,183435,1,2,0:2:0:0:
194,16,183915,1,10,0:2:0:0:
350,105,184395,2,0,L|366:201,1,89.999997253418,2|0,1:2|1:2,0:0:0:0:
400,276,184875,2,0,P|443:289|475:182,1,179.999994506836,8|2,2:2|1:2,0:0:0:0:
267,34,186315,6,0,B|222:30|222:30|208:39|208:39|143:32,1,104.999996795654,12|8,1:3|2:2,0:2:0:0:
114,20,186675,1,2,1:2:0:0:
21,69,186915,2,0,P|1:116|14:179,1,104.999996795654,2|0,1:2|1:2,0:0:0:0:
38,211,187275,2,0,P|18:258|31:321,1,104.999996795654,2|8,1:2|2:2,0:2:0:0:
61,348,187635,1,2,1:2:0:0:
155,302,187875,6,0,L|165:191,1,104.999996795654,2|0,1:2|1:2,0:0:0:0:
194,154,188235,2,0,P|242:141|295:160,1,104.999996795654,6|8,1:2|2:2,0:2:0:0:
314,206,188595,1,2,1:2:0:0:
344,306,188835,2,0,P|392:323|442:310,1,104.999996795654,2|0,1:2|1:2,0:0:0:0:
488,285,189195,1,2,1:2:0:0:
445,188,189435,1,10,0:2:0:0:
509,105,189675,1,8,1:3:0:0:
447,20,189915,1,4,1:3:0:0:
355,71,190155,6,0,B|303:80|303:80|251:56,1,104.999996795654,6|8,1:2|0:2,0:2:0:0:
220,97,190515,2,0,B|172:75|172:75|120:84,1,104.999996795654,0|0,1:2|1:2,0:2:0:0:
73,106,190875,2,0,B|54:157|54:157|66:210,1,104.999996795654,8|0,0:2|1:2,0:2:0:0:
147,271,191355,1,10,0:2:0:0:
234,212,191595,1,2,0:2:0:0:
324,266,191835,1,10,0:2:0:0:
417,210,192075,6,0,B|470:199|470:199|522:272|466:336,1,200,6|12,0:2|0:2,0:0:0:0:
273,379,193035,1,4,1:2:0:0:
208,302,193275,1,0,1:2:0:0:
259,215,193515,2,0,P|271:154|257:108,1,99.9999999999999,8|8,1:2|1:2,0:0:0:0:
245,95,193875,1,8,1:2:0:0:
226,76,193995,6,0,B|177:54|177:54|83:64|79:156,1,209.999993591309,12|0,1:3|1:0,0:2:0:0:
72,260,194715,1,10,0:2:0:0:
161,320,194955,1,0,1:2:0:0:
257,272,195195,1,10,0:2:0:0:
263,164,195435,1,2,0:2:0:0:
173,105,195675,5,10,0:2:0:0:
167,212,195915,1,6,1:2:0:0:
257,272,196155,1,10,0:2:0:0:
353,224,196395,1,2,0:2:0:0:
359,116,196635,2,0,L|371:6,2,104.999996795654,10|2|14,0:2|1:2|0:2,0:0:0:0:
352,224,197355,1,8,1:3:0:0:
257,272,197595,1,4,1:3:0:0:
167,212,197835,6,0,P|127:189|56:205,1,104.999996795654,6|10,1:2|0:2,0:2:0:0:
1,275,198315,1,2,1:2:0:0:
55,365,198555,1,10,0:2:0:0:
157,341,198795,1,2,1:2:0:0:
165,236,199035,1,10,0:2:0:0:
268,212,199275,1,2,0:2:0:0:
322,302,199515,6,0,P|362:325|433:309,2,104.999996795654,10|6|8,0:2|1:2|0:2,0:0:0:0:
304,282,200115,1,6,1:2:0:0:
295,257,200235,2,0,P|317:217|302:146,1,104.999996795654,2|14,0:2|0:2,0:2:0:0:
232,89,200715,2,0,P|180:96|135:72,2,104.999996795654,6|0|12,1:2|1:2|0:2,0:0:0:0:
330,51,201435,2,0,P|352:35|394:28,1,52.4999983978271,8|8,0:3|0:3,0:0:0:0:
425,33,201675,6,0,P|414:318|137:282,1,629.999980773926,4|0,1:2|0:0,0:0:0:0:
58,245,203595,2,0,P|126:252|35:122,1,359.999989013672,6|2,1:2|0:3,0:2:0:0:
47,109,205515,5,14,1:1:0:0:
118,186,205755,1,10,0:2:0:0:
221,170,205995,1,2,1:1:0:0:
253,70,206235,1,10,0:2:0:0:
352,36,206475,2,2,B|407:27|407:27|469:58,1,104.999996795654,2|8,1:1|0:2,0:1:0:0:
471,66,206835,1,2,1:2:0:0:
488,85,206955,2,2,L|478:192,1,104.999996795654,2|10,0:1|0:1,0:1:0:0:
429,282,207435,6,2,P|396:289|324:252,1,104.999996795654,6|8,1:1|0:2,0:1:0:0:
289,232,207795,2,2,L|278:118,1,104.999996795654,2|0,1:1|1:2,0:1:0:0:
261,77,208155,1,10,0:1:0:0:
164,35,208395,2,2,P|112:28|67:53,1,104.999996795654,2|12,1:1|0:2,0:1:0:0:
26,150,208875,2,0,L|37:264,1,104.999996795654,8|4,1:3|1:3,0:0:0:0:
39,280,209235,1,4,1:3:0:0:
45,305,209355,6,0,B|93:323|93:323|158:308,1,104.999996795654,6|10,1:1|0:2,0:0:0:0:
244,277,209835,2,0,B|296:264|296:264|344:282,1,104.999996795654,2|10,1:1|0:1,0:2:0:0:
422,358,210315,2,0,B|433:325|433:325|431:301|431:301|446:251,1,104.999996795654,2|8,1:0|0:0,0:0:0:0:
489,229,210675,2,0,B|478:196|478:196|480:172|480:172|465:122,1,104.999996795654,2|0,1:1|1:0,0:0:0:0:
443,80,211035,1,10,0:1:0:0:
356,139,211275,6,0,B|342:178|342:178|348:202|348:202|334:247,1,104.999996795654,6|8,1:1|0:2,0:0:0:0:
312,286,211635,2,0,P|268:305|203:280,1,104.999996795654,6|0,1:1|1:2,0:0:0:0:
182,248,211995,1,14,1:1:0:0:
84,285,212235,2,2,L|79:157,1,104.999996795654,6|8,1:1|1:3,0:1:0:0:
62,160,212595,1,8,1:3:0:0:
44,140,212715,2,0,L|39:12,1,104.999996795654,4|8,1:3|1:3,0:0:0:0:
138,72,213195,6,2,B|190:83|190:83|245:52,1,104.999996795654,14|10,1:1|0:2,0:1:0:0:
285,72,213555,2,2,B|330:46|330:46|382:57,1,104.999996795654,2|2,0:1|1:2,0:1:0:0:
423,89,213915,1,10,0:1:0:0:
473,181,214155,2,0,B|491:236|491:236|482:276|482:276|501:343,2,157.499995193481,2|2|10,1:1|1:1|0:1,0:2:0:0:
423,89,215115,5,6,1:1:0:0:
276,147,215475,1,2,1:1:0:0:
138,72,215835,1,10,0:1:0:0:
58,140,216075,2,2,P|40:187|52:254,1,104.999996795654,2|12,1:1|0:2,0:1:0:0:
113,321,216555,2,0,P|165:305|218:310,1,104.999996795654,8|4,1:3|1:3,0:0:0:0:
238,319,216915,1,4,1:3:0:0:
262,329,217035,6,0,P|311:344|363:340,1,104.999996795654,6|10,1:1|0:2,0:0:0:0:
454,286,217515,2,0,L|464:171,1,104.999996795654,2|10,1:1|0:2,0:0:0:0:
419,85,217995,1,2,1:1:0:0:
331,142,218235,1,10,0:2:0:0:
375,238,218475,1,2,1:1:0:0:
293,304,218715,1,10,0:2:0:0:
195,265,218955,6,2,B|160:260|160:260|141:269|141:269|77:259,1,104.999996795654,4|8,1:1|0:2,0:1:0:0:
44,239,219315,2,2,P|35:183|66:124,1,104.999996795654,6|0,1:1|1:2,0:1:0:0:
84,97,219675,1,14,0:1:0:0:
161,168,219915,1,6,1:1:0:0:
227,86,220155,1,2,1:2:0:0:
303,157,220395,1,8,1:3:0:0:
370,76,220635,1,4,1:3:0:0:
461,134,220875,6,0,P|474:183|317:292,1,269.999991760254,6|0,1:1|0:2,0:2:0:0:
255,236,221835,2,0,P|255:133|42:66,1,359.999989013672,6|4,1:1|0:2,0:2:0:0:
0,319,230475,6,0,L|186:302,1,170.000003242493,4|0,1:2|1:2,0:2:0:0:
298,220,231435,1,0,1:2:0:0:
365,357,231915,1,0,1:2:0:0:
485,263,232395,2,0,P|497:208|460:90,1,170.000003242493,4|0,1:2|1:2,0:2:0:0:
332,28,233355,1,0,1:2:0:0:
217,110,233835,2,0,P|205:177|212:204,1,89.999997253418,8|8,0:2|0:2,0:0:0:0:
221,217,234195,1,8,0:2:0:0:
236,233,234315,6,0,P|296:221|352:226,1,99.9999999999999,12|8,0:3|0:2,0:2:0:0:
350,321,234795,2,0,P|290:333|234:328,1,99.9999999999999,2|10,1:2|0:2,0:0:0:0:
157,298,235275,1,2,1:2:0:0:
76,357,235515,1,10,0:2:0:0:
1,290,235755,1,2,0:2:0:0:
82,231,235995,1,10,0:2:0:0:
14,151,236235,6,0,P|9:99|43:46,1,99.9999999999999,6|8,1:2|0:2,0:2:0:0:
73,32,236595,2,0,L|177:48,1,99.9999999999999,2|0,1:2|1:2,0:2:0:0:
202,87,236955,1,10,0:2:0:0:
294,49,237195,2,0,P|323:47|468:294,1,359.999989013672,6|2,1:2|2:3,0:2:0:0:
0,187,241035,2,0,B|222:188|91:41|319:29,1,359.999989013672,0|2,0:2|2:3,0:2:0:0:
486,162,242475,5,12,0:3:0:0:
486,162,242595,2,0,L|479:275,1,110.000003356934,2|0,1:2|1:2,0:0:0:0:
472,326,242955,2,0,P|424:345|374:322,1,110.000003356934,2|8,1:2|2:2,0:2:0:0:
332,284,243315,1,2,1:2:0:0:
304,177,243555,6,0,L|297:67,1,110.000003356934,2|0,1:2|1:2,0:0:0:0:
259,26,243915,2,0,B|220:23|220:23|200:37|200:37|139:32,1,110.000003356934,6|8,1:2|2:2,0:2:0:0:
98,25,244275,1,2,1:2:0:0:
14,96,244515,2,0,P|-1:150|20:212,1,110.000003356934,2|0,1:2|1:2,0:0:0:0:
35,250,244875,1,2,1:2:0:0:
134,203,245115,1,10,0:2:0:0:
183,301,245355,1,8,1:3:0:0:
284,259,245595,1,4,1:3:0:0:
240,157,245835,6,0,P|242:120|307:61,1,110.000003356934,6|8,1:2|0:2,0:2:0:0:
341,82,246195,2,0,P|374:65|457:92,1,110.000003356934,0|0,1:2|1:2,0:2:0:0:
456,131,246555,2,0,P|487:151|505:236,1,110.000003356934,8|0,0:2|1:2,0:2:0:0:
487,325,247035,1,10,0:2:0:0:
393,382,247275,1,2,0:2:0:0:
284,366,247515,1,10,0:2:0:0:
245,262,247755,6,0,B|240:225|257:204|257:204|245:172|245:172|272:135|258:68,1,200,6|12,0:2|0:2,0:0:0:0:
69,6,248715,1,4,1:2:0:0:
1,80,248955,1,0,1:2:0:0:
61,159,249195,2,0,B|106:170|106:170|165:138,1,99.9999999999999,8|8,1:2|1:2,0:0:0:0:
176,126,249555,1,8,1:2:0:0:
198,109,249675,6,0,P|262:80|373:185,1,220.000006713867,12|0,1:3|1:0,0:2:0:0:
383,270,250395,1,10,0:2:0:0:
296,336,250635,1,0,1:2:0:0:
195,293,250875,1,10,0:2:0:0:
181,184,251115,1,2,0:2:0:0:
268,117,251355,5,10,0:2:0:0:
282,226,251595,1,6,1:2:0:0:
383,270,251835,1,10,0:2:0:0:
369,161,252075,1,2,0:2:0:0:
268,117,252315,2,0,L|136:103,2,110.000003356934,10|2|14,0:2|1:2|0:2,0:0:0:0:
356,51,253035,1,8,1:3:0:0:
457,95,253275,1,4,1:3:0:0:
469,204,253515,6,0,L|450:331,1,110.000003356934,6|10,1:2|0:2,0:2:0:0:
360,372,253995,1,2,1:2:0:0:
253,350,254235,1,10,0:2:0:0:
192,258,254475,1,2,1:2:0:0:
214,150,254715,1,10,0:2:0:0:
306,89,254955,1,2,0:2:0:0:
414,110,255195,6,0,B|469:123|469:123|506:84,2,110.000003356934,10|6|8,0:2|1:2|0:2,0:0:0:0:
387,107,255795,1,6,1:2:0:0:
362,102,255915,2,0,B|307:89|307:89|270:128,1,110.000003356934,2|14,0:2|0:2,0:2:0:0:
280,237,256395,2,0,L|397:224,2,110.000003356934,6|0|12,1:2|1:2|0:2,0:0:0:0:
210,323,257115,2,0,B|184:334|184:334|150:329,1,55.0000016784668,8|8,0:3|0:3,0:0:0:0:
116,309,257355,6,0,P|192:34|452:144,1,629.999980773926,4|0,1:2|0:0,0:0:0:0:
463,223,259275,2,0,P|411:209|180:374,1,359.999989013672,6|2,1:2|0:3,0:2:0:0:
0,272,261195,6,0,L|110:258,1,99.9999999999999,12|8,1:3|0:2,0:2:0:0:
184,310,261675,1,2,1:2:0:0:
245,230,261915,1,10,0:2:0:0:
160,179,262155,2,0,P|149:130|169:71,1,99.9999999999999,2|8,1:2|0:2,0:2:0:0:
243,25,262635,2,0,L|357:29,1,99.9999999999999,2|8,0:2|0:2,2:2:0:0:
419,92,263115,6,0,P|431:139|420:188,1,99.9999999999999,6|8,1:2|0:2,0:2:0:0:
386,225,263475,2,0,P|338:237|289:226,1,99.9999999999999,2|0,1:2|1:2,0:2:0:0:
252,192,263835,1,10,0:2:0:0:
191,112,264075,2,0,P|142:101|94:113,1,99.9999999999999,2|12,1:2|0:2,0:2:0:0:
28,188,264555,2,0,L|20:298,1,99.9999999999999,8|4,1:3|1:3,0:0:0:0:
23,312,264915,1,4,1:3:0:0:
28,336,265035,6,0,P|76:346|124:334,1,99.9999999999999,4|8,1:2|0:2,0:2:0:0:
210,282,265515,1,2,1:2:0:0:
177,187,265755,1,10,0:2:0:0:
232,103,265995,2,0,B|275:83|275:83|339:92,1,99.9999999999999,2|10,1:2|0:2,0:2:0:0:
413,140,266475,1,2,0:2:0:0:
421,239,266715,1,10,0:2:0:0:
334,289,266955,6,0,L|225:282,1,99.9999999999999,4|8,1:2|0:2,0:2:0:0:
197,316,267315,2,0,L|88:309,1,99.9999999999999,4|0,1:2|1:2,0:2:0:0:
57,339,267675,1,14,0:2:0:0:
11,250,267915,2,0,P|6:200|23:150,1,99.9999999999999,6|8,1:2|1:3,0:2:0:0:
81,72,268395,1,4,1:3:0:0:
169,118,268635,1,8,1:3:0:0:
254,65,268875,6,0,B|324:44|324:44|410:72,2,150,12|2|10,1:3|1:2|0:2,0:2:0:0:
180,133,269835,2,0,P|166:168|173:240,1,99.9999999999999,2|8,1:2|0:2,0:2:0:0:
202,324,270315,1,2,0:2:0:0:
298,289,270555,1,10,0:2:0:0:
371,356,270795,6,0,P|418:372|475:346,1,99.9999999999999,6|8,1:2|0:2,0:2:0:0:
506,265,271275,2,0,L|489:158,1,99.9999999999999,2|8,0:2|0:2,0:2:0:0:
471,68,271755,1,2,1:2:0:0:
373,44,271995,1,8,0:2:0:0:
310,121,272235,2,0,B|264:142|264:142|213:121,1,99.9999999999999,8|4,1:3|1:3,0:0:0:0:
196,110,272595,1,4,1:3:0:0:
173,98,272715,6,0,P|119:81|62:108,1,99.9999999999999,6|8,1:2|0:2,0:2:0:0:
6,161,273195,1,2,1:2:0:0:
29,259,273435,1,10,0:2:0:0:
125,288,273675,1,2,1:2:0:0:
198,219,273915,1,10,0:2:0:0:
175,121,274155,1,2,0:2:0:0:
248,52,274395,1,10,0:2:0:0:
344,80,274635,6,0,B|390:92|390:92|454:67,1,99.9999999999999,6|8,1:2|0:2,0:2:0:0:
472,103,274995,2,0,P|488:140|476:212,1,99.9999999999999,6|0,1:2|1:2,0:2:0:0:
461,239,275416,2,0,L|361:246,1,89.999997253418,14|6,0:2|1:2,0:0:0:0:
248,367,276304,6,0,P|260:313|186:202,1,179.999994506836,14|4,0:2|0:2,0:0:0:0:
