osu file format v14

[General]
AudioFilename: audio.mp3
AudioLeadIn: 0
PreviewTime: 84015
Countdown: 0
SampleSet: Soft
StackLeniency: 0.6
Mode: 0
LetterboxInBreaks: 0
WidescreenStoryboard: 1

[Editor]
Bookmarks: 21195,36555,36615,36675,59595,69195,103755,126795,161355,178635,186315,192555,205515,222795,230475,261195
DistanceSpacing: 1.2
BeatDivisor: 4
GridSize: 32
TimelineZoom: 1.6

[Metadata]
Title:Maisery
TitleUnicode:Maisery
Artist:Symholic
ArtistUnicode:Symholic
Creator:Lasse
Version:Insane
Source:
Tags:Paspal Lalue 葉月ゆら Hatsuki Yura Japanese Doujin Symphonic Rock Metal Misery featured artist fa mappers' guild mpg
BeatmapID:2747701
BeatmapSetID:1322631

[Difficulty]
HPDrainRate:5
CircleSize:4
OverallDifficulty:8
ApproachRate:9
SliderMultiplier:1.52
SliderTickRate:1

[Events]
//Background and Video events
0,0,"thiscouldbeus.jpg",0,0
//Break Periods
2,52115,58995
2,153874,160755
2,222995,229875
//Storyboard Layer 0 (Background)
//Storyboard Layer 1 (Fail)
//Storyboard Layer 2 (Pass)
//Storyboard Layer 3 (Foreground)
//Storyboard Layer 4 (Overlay)
//Storyboard Sound Samples

[TimingPoints]
-1845,240,4,2,1,50,1,0
1635,-142.857142857143,4,2,1,50,0,0
1995,-100,4,2,1,70,0,0
5055,-100,4,2,1,50,0,0
5115,-100,4,2,1,70,0,0
5355,-100,4,2,2,70,0,0
5835,-100,4,2,1,70,0,0
7515,-100,4,2,1,70,0,0
7695,-100,4,2,1,50,0,0
7755,-83.3333333333333,4,2,1,70,0,0
8895,-100,4,2,1,50,0,0
8955,-100,4,2,2,70,0,0
9435,-100,4,2,3,70,0,0
9675,-100,4,2,1,70,0,0
13035,-100,4,2,2,70,0,0
13515,-100,4,2,1,70,0,0
15435,-83.3333333333333,4,2,1,70,0,0
16575,-100,4,2,1,50,0,0
16635,-100,4,2,1,70,0,0
16755,-100,4,2,2,70,0,0
16995,-100,4,2,1,70,0,0
17115,-100,4,2,2,70,0,0
17355,-100,4,2,2,65,0,0
18315,-111.111111111111,4,2,2,64,0,0
18395,-100,4,2,1,5,0,0
18475,-100,4,2,2,62,0,0
18555,-100,4,2,1,5,0,0
18635,-100,4,2,2,60,0,0
18715,-100,4,2,1,5,0,0
18795,-125,4,2,2,57,0,0
18875,-100,4,2,1,5,0,0
18955,-100,4,2,2,54,0,0
19035,-100,4,2,1,5,0,0
19115,-100,4,2,2,50,0,0
19195,-100,4,2,1,5,0,0
19275,-133.333333333333,4,2,1,55,0,0
19395,-125,4,2,1,30,0,0
20715,-125,4,2,2,55,0,0
21195,-111.111111111111,4,2,1,62,0,0
24555,-111.111111111111,4,2,2,62,0,0
25035,-111.111111111111,4,2,1,62,0,0
26955,-90.9090909090909,4,2,1,62,0,0
28155,-111.111111111111,4,2,1,62,0,0
28395,-111.111111111111,4,2,2,62,0,0
28875,-111.111111111111,4,2,1,62,0,0
32235,-111.111111111111,4,2,2,62,0,0
32715,-111.111111111111,4,2,1,62,0,0
34635,-90.9090909090908,4,2,1,62,0,0
35595,-111.111111111111,4,2,1,62,0,0
36075,-142.857142857143,4,2,1,50,0,0
36555,-105.263157894737,4,2,1,64,0,0
39915,-105.263157894737,4,2,2,64,0,0
40395,-105.263157894737,4,2,1,64,0,0
42315,-86.9565217391306,4,2,1,64,0,0
43455,-105.263157894737,4,2,1,46,0,0
43515,-105.263157894737,4,2,2,64,0,0
43995,-105.263157894737,4,2,3,64,0,0
44235,-105.263157894737,4,2,1,64,0,0
47595,-105.263157894737,4,2,2,64,0,0
48075,-105.263157894737,4,2,1,62,0,0
49995,-86.9565217391306,4,2,1,67,0,0
50895,-105.263157894737,4,2,1,40,0,0
50955,-153.846153846153,4,2,1,54,0,0
51075,-105.263157894737,4,2,1,20,0,0
51915,-105.263157894737,4,2,3,30,0,0
59595,-125,4,2,2,50,0,0
62955,-125,4,2,2,52,0,0
63435,-111.111111111111,4,2,1,55,0,0
65355,-105.263157894737,4,2,1,60,0,0
66795,-111.111111111111,4,2,2,60,0,0
69195,-200,4,2,1,35,0,0
69435,-200,4,2,1,25,0,0
69675,-200,4,2,1,35,0,0
70395,-200,4,2,1,25,0,0
70635,-200,4,2,1,35,0,0
71355,-200,4,2,1,25,0,0
71835,-200,4,2,1,35,0,0
73275,-200,4,2,1,25,0,0
73515,-200,4,2,1,35,0,0
75195,-200,4,2,1,25,0,0
75435,-200,4,2,1,35,0,0
75915,-200,4,2,1,40,0,0
76875,-125,4,2,2,52,0,0
80715,-111.111111111111,4,2,2,52,0,0
82635,-125,4,2,2,54,0,0
83115,-125,4,2,2,58,0,0
83595,-125,4,2,1,60,0,0
84075,-125,4,2,1,30,0,0
84555,-90.9090909090909,4,2,1,72,0,1
87915,-90.9090909090909,4,2,2,72,0,1
88395,-90.9090909090909,4,2,1,72,0,1
90315,-125,4,2,2,60,0,0
91755,-100,4,2,2,65,0,0
92235,-90.9090909090909,4,2,1,72,0,1
95595,-90.9090909090909,4,2,2,72,0,1
96075,-90.9090909090909,4,2,1,72,0,1
99675,-111.111111111111,4,2,2,65,0,0
99915,-142.857142857143,4,2,1,65,0,0
100395,-111.111111111111,4,2,1,40,0,0
101835,-166.666666666667,4,2,1,50,0,0
102075,-111.111111111111,4,2,1,20,0,0
102795,-111.111111111111,4,2,3,22,0,0
103395,-142.857142857143,4,2,1,50,0,0
103755,-100,4,2,1,70,0,0
106815,-100,4,2,1,50,0,0
106875,-100,4,2,1,70,0,0
107115,-100,4,2,2,70,0,0
107595,-100,4,2,1,70,0,0
109275,-100,4,2,1,70,0,0
109455,-100,4,2,1,50,0,0
109515,-83.3333333333333,4,2,1,70,0,0
110655,-100,4,2,1,70,0,0
110715,-100,4,2,2,70,0,0
111195,-100,4,2,3,70,0,0
111435,-100,4,2,1,70,0,0
114795,-100,4,2,2,70,0,0
115275,-100,4,2,1,70,0,0
117195,-83.3333333333333,4,2,1,70,0,0
118335,-100,4,2,1,50,0,0
118395,-100,4,2,1,70,0,0
118515,-100,4,2,2,70,0,0
118755,-100,4,2,1,70,0,0
118875,-100,4,2,2,70,0,0
119115,-100,4,2,2,65,0,0
120075,-111.111111111111,4,2,2,64,0,0
120155,-100,4,2,1,5,0,0
120235,-100,4,2,2,62,0,0
120315,-100,4,2,1,5,0,0
120395,-100,4,2,2,60,0,0
120475,-100,4,2,1,5,0,0
120555,-125,4,2,2,57,0,0
120635,-100,4,2,1,5,0,0
120715,-100,4,2,2,54,0,0
120795,-100,4,2,1,5,0,0
120875,-100,4,2,2,50,0,0
120955,-100,4,2,1,5,0,0
121035,-133.333333333333,4,2,1,55,0,0
121155,-125,4,2,1,30,0,0
122475,-125,4,2,2,55,0,0
122955,-166.666666666666,4,2,1,50,0,0
123195,-166.666666666666,4,2,1,30,0,0
124635,-166.666666666666,4,2,1,40,0,0
124875,-149.253731343284,4,2,1,52,0,0
125115,-149.253731343284,4,2,1,30,0,0
126195,-149.253731343284,4,2,1,40,0,0
126315,-111.111111111111,4,2,1,48,0,0
126375,-111.111111111111,4,2,1,30,0,0
126675,-111.111111111111,4,2,1,42,0,0
126795,-111.111111111111,4,2,1,62,0,0
128715,-90.9090909090909,4,2,1,62,0,0
129915,-111.111111111111,4,2,1,62,0,0
130155,-111.111111111111,4,2,2,62,0,0
130635,-111.111111111111,4,2,1,62,0,0
133995,-111.111111111111,4,2,2,62,0,0
134475,-111.111111111111,4,2,1,62,0,0
136395,-90.9090909090908,4,2,1,62,0,0
137355,-111.111111111111,4,2,1,62,0,0
137835,-142.857142857143,4,2,1,50,0,0
138315,-105.263157894737,4,2,1,64,0,0
141675,-105.263157894737,4,2,2,64,0,0
142155,-105.263157894737,4,2,1,64,0,0
144075,-86.9565217391306,4,2,1,64,0,0
145215,-105.263157894737,4,2,1,46,0,0
145275,-105.263157894737,4,2,2,64,0,0
145755,-105.263157894737,4,2,3,64,0,0
145995,-105.263157894737,4,2,1,64,0,0
149355,-105.263157894737,4,2,2,64,0,0
149835,-105.263157894737,4,2,1,62,0,0
151755,-86.9565217391306,4,2,1,67,0,0
152655,-105.263157894737,4,2,1,40,0,0
152715,-153.846153846153,4,2,1,54,0,0
152835,-105.263157894737,4,2,1,20,0,0
153675,-105.263157894737,4,2,3,30,0,0
161355,-125,4,2,2,50,0,0
164715,-125,4,2,2,52,0,0
165195,-111.111111111111,4,2,1,55,0,0
167115,-105.263157894737,4,2,1,60,0,0
168555,-111.111111111111,4,2,2,60,0,0
170955,-200,4,2,1,35,0,0
171195,-200,4,2,1,25,0,0
171435,-200,4,2,1,35,0,0
172155,-200,4,2,1,25,0,0
172395,-200,4,2,1,35,0,0
173115,-200,4,2,1,25,0,0
173595,-200,4,2,1,35,0,0
175035,-200,4,2,1,25,0,0
175275,-200,4,2,1,35,0,0
176955,-200,4,2,1,25,0,0
177195,-200,4,2,1,35,0,0
177675,-200,4,2,1,40,0,0
178635,-125,4,2,2,52,0,0
182475,-111.111111111111,4,2,2,52,0,0
184395,-125,4,2,2,54,0,0
184875,-125,4,2,2,58,0,0
185355,-125,4,2,1,60,0,0
185835,-125,4,2,1,30,0,0
186315,-90.9090909090909,4,2,1,72,0,1
189675,-90.9090909090909,4,2,2,72,0,1
190155,-90.9090909090909,4,2,1,72,0,1
192075,-125,4,2,2,60,0,0
193515,-100,4,2,2,65,0,0
193995,-90.9090909090909,4,2,1,72,0,1
197355,-90.9090909090909,4,2,2,72,0,1
197835,-90.9090909090909,4,2,1,72,0,1
201435,-111.111111111111,4,2,2,65,0,0
201675,-142.857142857143,4,2,1,65,0,0
202155,-111.111111111111,4,2,1,40,0,0
203595,-166.666666666667,4,2,1,50,0,0
203835,-111.111111111111,4,2,1,20,0,0
204555,-111.111111111111,4,2,3,22,0,0
204975,-125,4,2,1,50,0,0
205275,-111.111111111111,4,2,1,20,0,0
205395,-111.111111111111,4,2,1,30,0,0
205515,-90.9090909090909,4,2,2,72,0,0
205635,-90.9090909090909,4,2,1,72,0,0
207615,-90.9090909090909,4,2,1,50,0,0
207675,-90.9090909090909,4,2,1,72,0,0
208875,-90.9090909090909,4,2,2,72,0,0
209355,-90.9090909090909,4,2,1,72,0,0
211275,-80,4,2,1,72,0,0
212415,-90.9090909090909,4,2,1,50,0,0
212475,-90.9090909090909,4,2,2,72,0,0
212955,-90.9090909090909,4,2,3,72,0,0
213195,-86.9565217391304,4,2,2,72,0,0
213375,-86.9565217391304,4,2,1,50,0,0
213435,-86.9565217391304,4,2,1,72,0,0
214335,-86.9565217391304,4,2,1,50,0,0
214395,-86.9565217391304,4,2,1,72,0,0
215055,-86.9565217391304,4,2,1,50,0,0
215115,-86.9565217391304,4,2,1,72,0,0
216015,-86.9565217391304,4,2,1,50,0,0
216075,-86.9565217391304,4,2,1,72,0,0
216555,-86.9565217391304,4,2,2,72,0,0
217035,-86.9565217391304,4,2,1,72,0,0
217515,-86.9565217391304,4,2,1,73,0,0
217995,-86.9565217391304,4,2,1,74,0,0
218475,-86.9565217391304,4,2,1,75,0,0
218955,-80,4,2,1,74,0,0
220395,-80,4,2,2,74,0,0
220875,-125,4,2,1,60,0,0
220995,-86.9565217391304,4,2,1,20,0,0
221595,-86.9565217391304,4,2,1,40,0,0
221835,-142.857142857143,4,2,1,50,0,0
221955,-86.9565217391304,4,2,1,20,0,0
222795,-86.9565217391304,4,2,3,40,0,0
230475,-142.857142857143,4,2,2,40,0,0
230715,-142.857142857143,4,2,2,30,0,0
230955,-142.857142857143,4,2,2,40,0,0
231195,-142.857142857143,4,2,2,30,0,0
231435,-142.857142857143,4,2,2,40,0,0
231675,-142.857142857143,4,2,2,30,0,0
231915,-142.857142857143,4,2,2,40,0,0
232155,-142.857142857143,4,2,2,30,0,0
232395,-142.857142857143,4,2,2,45,0,0
232635,-142.857142857143,4,2,2,30,0,0
232875,-142.857142857143,4,2,2,45,0,0
233115,-142.857142857143,4,2,2,30,0,0
233355,-142.857142857143,4,2,2,45,0,0
233595,-142.857142857143,4,2,2,30,0,0
233835,-142.857142857143,4,2,2,48,0,0
234075,-142.857142857143,4,2,2,52,0,0
234315,-111.111111111111,4,2,1,58,0,0
236235,-90.9090909090909,4,2,1,62,0,0
237135,-111.111111111111,4,2,1,30,0,0
237195,-166.666666666667,4,2,1,50,0,0
237315,-111.111111111111,4,2,1,5,0,0
238155,-111.111111111111,4,2,3,14,0,0
241035,-200,4,2,1,24,0,0
241275,-111.111111111111,4,2,1,15,0,0
241515,-166.666666666667,4,2,1,30,0,0
241995,-125,4,2,3,36,0,0
242475,-86.2068965517241,4,2,1,74,0,1
245355,-86.2068965517241,4,2,2,74,0,1
245835,-86.2068965517241,4,2,1,74,0,1
247755,-125,4,2,2,60,0,0
249195,-100,4,2,2,65,0,0
249675,-86.2068965517241,4,2,1,74,0,1
253035,-86.2068965517241,4,2,2,74,0,1
253515,-86.2068965517241,4,2,1,74,0,1
257115,-111.111111111111,4,2,2,67,0,0
257355,-111.111111111111,4,2,1,65,0,0
257835,-111.111111111111,4,2,1,40,0,0
259275,-166.666666666667,4,2,1,50,0,0
259515,-111.111111111111,4,2,1,20,0,0
260235,-111.111111111111,4,2,3,22,0,0
261195,-95.2380952380952,4,2,1,67,0,0
264255,-95.2380952380952,4,2,1,50,0,0
264315,-95.2380952380952,4,2,1,67,0,0
264555,-95.2380952380952,4,2,2,67,0,0
265035,-95.2380952380952,4,2,1,67,0,0
266955,-83.3333333333333,4,2,1,67,0,0
268155,-83.3333333333333,4,2,2,67,0,0
268635,-83.3333333333333,4,2,3,67,0,0
268875,-95.2380952380952,4,2,1,68,0,0
272235,-95.2380952380952,4,2,2,68,0,0
272715,-95.2380952380952,4,2,1,68,0,0
274635,-76.9230769230769,4,2,1,68,0,0
274995,265.486725663717,4,2,1,70,1,0
274995,-76.9230769230769,4,2,1,70,0,0
275260,312.5,4,2,1,65,1,0
275416,600,4,2,1,65,1,0
275416,-66.6666666666667,4,2,1,65,0,0
275716,588.235294117647,4,2,1,58,1,0
276304,609.137055837563,4,2,1,46,1,0
276913,600,4,2,3,35,1,0
276913,-166.666666666667,4,2,3,35,0,0
276988,-166.666666666667,4,2,3,25,0,0
281113,-166.666666666667,4,2,3,22,0,0
281413,-166.666666666667,4,2,3,20,0,0
281713,-166.666666666667,4,2,3,23,0,0
282913,-181.818181818182,4,2,3,22,0,0
283213,-181.818181818182,4,2,3,18,0,0
283513,-200,4,2,3,20,0,0
283813,-200,4,2,3,16,0,0
284113,-222.222222222222,4,2,3,18,0,0
284713,-222.222222222222,4,2,3,5,0,0
285013,-222.222222222222,4,2,3,12,0,0
285313,-250,4,2,3,15,0,0
285913,-250,4,2,3,5,0,0
286513,-250,4,2,3,10,0,0

[Colours]
Combo1 : 240,140,140
Combo2 : 200,180,220
Combo3 : 240,200,155
Combo4 : 150,185,220

[HitObjects]
14,269,1635,6,0,L|4:339,2,53.1999983764649
95,232,1995,6,0,P|173:223|196:157,1,152,12|8,1:3|2:0,0:1:0:0:
105,109,2355,2,0,P|63:168|96:233,1,152,2|0,1:2|1:0,0:1:0:0:
63,335,2715,2,0,P|105:321|156:323,1,76,10|0,1:2|0:0,0:1:0:0:
271,368,2955,6,0,B|359:381|322:327|415:341,1,152,2|8,1:2|2:2,0:2:0:0:
290,285,3315,2,0,B|274:268|266:245|266:245|271:190|306:133,1,152,2|0,1:2|1:2,0:2:0:0:
371,91,3675,2,0,P|403:110|439:104,1,76,10|0,1:2|0:2,0:2:0:0:
303,28,3915,6,0,P|259:13|183:90,1,152,6|8,1:2|2:2,2:2:0:0:
279,161,4275,2,0,P|232:216|160:207,1,152,2|0,1:2|1:2,0:2:0:0:
109,129,4635,2,0,L|45:177,1,76,10|0,1:2|0:2,0:2:0:0:
160,207,4875,2,0,L|223:255,1,76,2|0,1:2|0:0,0:2:0:0:
63,257,5115,2,0,L|0:305,1,76,12|0,1:2|0:2,0:2:0:0:
146,307,5355,5,8,1:3:0:0:
146,307,5475,1,8,1:3:0:0:
202,382,5595,1,4,1:3:0:0:
202,382,5715,1,4,1:3:0:0:
296,350,5835,6,0,B|382:336|357:386|453:371,1,152,6|8,1:2|2:2,0:2:0:0:
375,264,6195,2,0,P|358:218|405:121,1,152,2|0,1:2|1:2,0:2:0:0:
480,76,6555,2,0,L|495:165,1,76,10|0,1:2|0:2,0:2:0:0:
402,14,6795,6,0,P|361:39|248:11,1,152,2|8,1:2|2:2,0:2:0:0:
395,127,7155,2,0,P|455:170|473:242,1,152,2|0,1:2|1:2,0:2:0:0:
512,349,7515,2,0,L|417:324,1,76,10|0,1:2|0:0,0:2:0:0:
322,384,7755,6,0,B|309:336|309:336|320:292|320:292|294:193,1,182.399994433594,6|8,1:2|2:2,0:1:0:0:
140,293,8115,2,0,B|153:245|153:245|142:201|142:201|168:102,1,182.399994433594,6|0,1:2|1:2,0:2:0:0:
298,208,8475,2,0,B|343:216|343:216|396:184,1,91.199997216797,14|0,1:2|0:2,0:2:0:0:
269,70,8715,2,0,B|307:46|307:46|352:54,1,91.199997216797,6|0,1:2|0:0,0:2:0:0:
462,110,8955,5,8,1:3:0:0:
462,110,9075,1,8,1:3:0:0:
407,184,9195,1,4,1:3:0:0:
407,184,9315,1,4,1:3:0:0:
467,258,9435,1,8,1:3:0:0:
467,258,9555,1,8,1:3:0:0:
410,342,9675,6,0,B|378:354|355:370|355:370|327:329|275:328,1,152,12|8,1:3|2:2,0:2:0:0:
130,366,10035,2,0,B|81:365|53:324|53:324|25:343|-1:352,1,152,2|0,1:2|1:2,0:2:0:0:
134,269,10395,2,0,P|152:229|147:188,1,76,10|0,1:2|0:2,0:2:0:0:
25,152,10635,6,0,P|54:193|155:159,1,152,2|8,1:2|2:2,0:2:0:0:
127,84,10995,2,0,P|55:86|25:152,1,152,2|0,1:2|1:2,0:2:0:0:
0,248,11355,2,0,P|40:234|86:231,1,76,8|0,1:2|0:2,0:2:0:0:
149,303,11595,6,0,B|167:355|232:354|232:354|279:310,1,152,6|8,1:2|2:2,0:2:0:0:
373,365,11955,2,0,B|407:333|407:333|472:332|490:384,1,152,2|0,1:2|1:2,0:2:0:0:
399,288,12315,2,0,P|385:256|390:195,1,76,10|0,1:2|0:2,0:2:0:0:
440,152,12555,2,0,P|472:132|495:102,1,76,0|0,1:2|0:2,0:2:0:0:
357,135,12795,2,0,P|324:116|287:112,1,76,12|0,1:2|0:2,0:2:0:0:
184,156,13035,5,8,1:3:0:0:
184,156,13155,1,8,1:3:0:0:
205,249,13275,1,4,1:3:0:0:
205,249,13395,1,4,1:3:0:0:
129,316,13515,6,0,B|86:327|86:327|20:305|43:233,1,152,6|8,1:2|2:2,2:2:0:0:
98,141,13875,2,0,B|141:152|141:152|207:130|184:58,1,152,2|0,1:2|1:2,0:2:0:0:
113,12,14235,2,0,L|37:21,1,76,10|0,1:2|0:2,0:2:0:0:
200,76,14475,6,0,B|284:74|233:21|335:20,1,152,2|8,1:2|2:2,0:2:0:0:
296,128,14835,1,0,1:2:0:0:
296,128,14955,2,0,P|314:169|418:153,1,152,2|8,0:2|1:2,0:2:0:0:
445,366,15435,6,0,B|488:351|488:351|336:333,1,182.399994433594,6|8,1:2|2:2,0:2:0:0:
226,270,15795,2,0,B|183:255|183:255|335:237,1,182.399994433594,6|0,1:2|1:2,0:2:0:0:
408,166,16155,2,0,P|420:115|391:55,1,91.199997216797,14|0,1:2|0:2,0:2:0:0:
225,4,16395,2,0,P|214:47|226:91,1,91.199997216797,6|0,1:2|0:0,0:2:0:0:
278,164,16635,5,8,1:2:0:0:
278,164,16755,1,8,1:3:0:0:
201,198,16875,1,8,0:3:0:0:
201,198,16995,1,8,0:2:0:0:
151,130,17115,1,8,0:3:0:0:
0,252,17355,6,0,L|87:243,1,76,8|8,2:2|2:2,0:0:0:0:
80,348,17595,2,0,L|167:339,1,76,8|8,2:2|2:2,0:0:0:0:
344,200,17955,2,0,L|419:192,2,76,8|8|8,0:2|0:2|0:2,0:0:0:0:
269,155,18315,6,0,P|260:96|277:56,2,91.199997216797,14|8|4,3:2|3:3|3:3,0:2:0:0:
350,216,18795,6,0,P|359:275|346:307,2,81.0666666666667,10|8|4,3:2|3:3|3:3,0:2:0:0:
247,159,19275,6,0,B|250:239|182:280|183:254|106:279|91:375|91:375|-40:217|57:57|175:45,1,684.00002609253,6|8,1:2|1:2,0:2:0:0:
156,48,21195,6,0,B|176:90|235:85|235:85|273:44,1,136.799995825195,12|8,1:3|2:2,0:2:0:0:
362,0,21555,2,0,P|409:20|408:112,1,136.799995825195,2|0,2:2|1:2,0:0:0:0:
483,179,21915,2,0,P|482:244|426:277,2,136.799995825195,10|0|10,2:2|1:2|2:2,0:2:0:0:
418,98,22515,1,0,1:2:0:0:
343,147,22635,2,0,P|304:146|270:119,1,68.3999979125977,2|0,1:2|1:2,0:2:0:0:
256,26,22875,2,0,P|222:25|192:41,1,68.3999979125977,10|0,2:2|0:2,0:2:0:0:
119,105,23115,6,0,B|109:132|83:143|83:143|51:115|1:119,1,136.799995825195,6|8,1:2|0:2,0:2:0:0:
69,234,23475,2,0,B|29:277|42:333|42:333|80:359,1,136.799995825195,2|0,1:2|1:2,0:2:0:0:
170,317,23835,2,0,L|160:404,1,68.3999979125977,10|0,0:2|0:2,0:2:0:0:
269,281,24075,2,0,L|259:368,1,68.3999979125977,0|0,1:2|0:2,0:2:0:0:
162,246,24315,2,0,L|152:333,1,68.3999979125977,8|0,0:2|0:2,0:2:0:0:
253,190,24555,5,8,1:3:0:0:
253,190,24675,1,8,1:3:0:0:
296,273,24795,1,4,1:3:0:0:
296,273,24915,1,4,1:3:0:0:
391,241,25035,6,0,B|449:232|483:278|483:278|518:265,1,136.799995825195,6|8,1:2|0:2,0:2:0:0:
470,156,25395,2,0,B|487:137|489:118|489:118|487:68|445:27,1,136.799995825195,2|0,1:2|1:2,0:0:0:0:
361,91,25755,2,0,P|329:110|283:100,1,68.3999979125977,10|0,0:2|0:2,0:2:0:0:
217,26,25995,2,0,P|152:18|109:68,1,136.799995825195,2|10,1:2|0:2,0:2:0:0:
92,142,26355,1,0,1:2:0:0:
24,108,26475,2,0,L|29:27,1,68.3999979125977,2|0,0:2|1:2,0:2:0:0:
101,158,26715,2,0,L|96:239,1,68.3999979125977,10|0,0:2|0:2,0:2:0:0:
228,118,26955,6,0,B|316:96|261:56|366:27,1,167.200005102539,6|8,1:2|0:2,0:2:0:0:
442,124,27315,2,0,B|476:124|495:143|495:143|515:200|481:260,1,167.200005102539,6|0,1:2|1:2,0:2:0:0:
512,346,27675,2,0,L|421:331,1,83.6000025512696,14|0,1:2|0:2,0:2:0:0:
303,252,27915,2,0,L|394:237,1,83.6000025512696,4|0,1:2|0:2,0:2:0:0:
483,160,28155,5,8,1:2:0:0:
483,160,28275,1,0,1:2:0:0:
501,75,28395,1,8,1:3:0:0:
501,75,28515,1,8,1:3:0:0:
436,21,28635,1,4,1:3:0:0:
436,21,28755,1,4,1:3:0:0:
336,71,28875,6,0,B|300:94|300:94|199:71,1,136.799995825195,12|8,1:3|2:2,0:2:0:0:
93,13,29235,2,0,B|75:25|61:43|61:43|59:85|88:139,1,136.799995825195,2|0,0:2|1:2,0:0:0:0:
167,205,29595,2,0,P|216:187|315:200,2,136.799995825195,10|0|10,0:2|1:2|0:2,0:2:0:0:
89,283,30195,1,0,1:2:0:0:
151,352,30315,2,0,P|189:362|238:353,1,68.3999979125977,2|0,1:2|1:2,0:2:0:0:
325,330,30555,2,0,P|363:319|412:328,1,68.3999979125977,10|0,0:2|0:2,0:2:0:0:
240,266,30795,6,0,P|212:219|245:128,1,136.799995825195,6|8,1:2|0:2,0:2:0:0:
340,74,31155,2,0,P|369:133|350:197,1,136.799995825195,2|0,1:2|1:2,0:2:0:0:
214,152,31515,2,0,P|184:145|132:151,1,68.3999979125977,10|0,0:2|0:2,0:2:0:0:
82,208,31755,2,0,P|67:238|44:263,1,68.3999979125977,0|0,1:2|0:2,0:2:0:0:
60,120,31995,2,0,P|40:91|30:59,1,68.3999979125977,12|0,0:2|0:2,0:2:0:0:
135,10,32235,5,8,1:3:0:0:
135,10,32355,1,8,1:3:0:0:
205,71,32475,1,4,1:3:0:0:
205,71,32595,1,4,1:3:0:0:
293,30,32715,6,0,P|349:21|426:92,1,136.799995825195,6|8,1:2|2:2,0:2:0:0:
386,179,33075,2,0,P|319:185|265:146,1,136.799995825195,2|0,0:2|1:2,0:0:0:0:
205,71,33435,2,0,P|165:50|114:52,1,68.3999979125977,10|0,0:2|0:2,0:2:0:0:
35,116,33675,2,0,L|50:262,1,136.799995825195,2|8,1:2|0:2,0:2:0:0:
169,288,34035,2,0,L|155:151,1,136.799995825195,2|0,1:2|1:2,0:0:0:0:
258,78,34395,2,0,L|264:146,1,68.3999979125977,10|0,0:2|0:2,0:2:0:0:
341,229,34635,6,0,B|371:277|445:260|445:260|452:238|434:200,1,167.200005102539,6|8,1:2|0:2,0:2:0:0:
281,158,34995,2,0,B|251:206|177:189|177:189|170:167|188:129,1,167.200005102539,6|0,1:2|1:2,0:2:0:0:
317,45,35355,2,0,B|347:93|421:76|421:76|428:54|410:16,1,167.200005102539,14|4,0:2|1:1,0:2:0:0:
415,27,36075,6,0,P|393:90|420:134,1,106.39999675293,14|0,0:2|0:2,0:2:0:0:
408,123,36555,6,0,B|329:118|367:64|274:66,1,144.399996144104,12|8,1:3|0:2,0:2:0:0:
184,127,36915,2,0,B|105:122|143:68|50:70,1,144.399996144104,2|0,0:2|1:2,0:0:0:0:
90,199,37275,2,0,P|59:228|56:330,2,144.399996144104,10|0|10,0:2|1:2|0:2,0:2:0:0:
182,149,37875,1,0,1:2:0:0:
254,209,37995,2,0,P|292:213|324:192,1,72.1999980720521,2|0,0:2|1:2,0:2:0:0:
409,120,38235,5,10,2:2:0:0:
409,120,38355,1,2,0:2:0:0:
475,200,38475,6,0,P|502:264|478:330,1,144.399996144104,6|8,1:2|0:2,0:2:0:0:
364,348,38835,2,0,P|320:292|327:222,1,144.399996144104,2|0,1:2|1:2,2:2:0:0:
241,140,39195,2,0,L|331:115,1,72.1999980720521,10|0,0:2|0:2,0:2:0:0:
169,59,39435,2,0,L|259:34,1,72.1999980720521,2|0,1:2|0:2,0:2:0:0:
166,186,39675,2,0,L|256:161,1,72.1999980720521,12|0,0:2|0:2,0:2:0:0:
76,121,39915,5,8,1:3:0:0:
76,121,40035,1,8,1:3:0:0:
37,208,40155,1,4,1:3:0:0:
37,208,40275,1,4,1:3:0:0:
106,285,40395,6,0,B|155:295|155:295|190:260|253:271,1,144.399996144104,6|8,1:2|0:2,0:2:0:0:
328,363,40755,2,0,B|380:372|415:337|415:337|464:347,1,144.399996144104,2|0,0:2|1:2,0:0:0:0:
348,276,41115,2,0,P|335:245|351:198,1,72.1999980720521,10|0,0:2|0:2,0:2:0:0:
431,145,41355,2,0,B|469:167|469:167|504:163|530:127|508:83,1,144.399996144104,2|8,1:2|0:2,0:2:0:0:
470,29,41715,1,0,1:2:0:0:
405,67,41835,2,0,P|371:78|326:56,1,72.1999980720521,2|0,0:2|1:2,0:2:0:0:
252,12,42075,5,10,0:2:0:0:
252,12,42195,1,0,0:2:0:0:
167,67,42315,6,0,B|142:84|128:106|128:106|117:167|174:232,1,174.800003334045,6|8,1:2|0:2,0:2:0:0:
318,93,42675,2,0,B|343:110|357:132|357:132|368:193|311:258,1,174.800003334045,6|0,1:2|1:2,0:2:0:0:
199,284,43035,2,0,P|154:269|106:276,1,87.4000016670227,14|0,0:2|0:2,0:2:0:0:
291,361,43275,2,0,P|334:364|375:349,1,87.4000016670227,6|0,1:2|0:0,0:2:0:0:
468,277,43515,5,8,1:3:0:0:
468,277,43635,1,8,1:3:0:0:
414,206,43755,1,4,1:3:0:0:
414,206,43875,1,4,1:3:0:0:
477,137,43995,1,8,1:3:0:0:
477,137,44115,1,8,1:3:0:0:
410,58,44235,6,0,B|383:81|350:80|350:80|325:42|268:31,1,144.399996144104,12|8,0:3|0:2,0:2:0:0:
223,129,44595,2,0,B|196:152|163:151|163:151|138:113|99:106,1,144.399996144104,2|0,0:2|1:2,0:0:0:0:
21,183,44955,2,0,B|14:241|14:241|21:258|21:258|10:340,2,144.399996144104,8|0|10,0:2|1:2|0:2,0:2:0:0:
100,106,45555,1,0,1:2:0:0:
182,150,45675,2,0,P|224:151|263:131,1,72.1999980720521,2|0,0:2|1:2,0:2:0:0:
348,77,45915,5,10,0:2:0:0:
348,77,46035,1,2,0:2:0:0:
428,137,46155,6,0,B|458:165|458:165|465:222|434:263,1,144.399996144104,6|8,1:2|0:2,0:2:0:0:
505,338,46515,2,0,P|461:313|349:314,1,144.399996144104,2|0,1:2|1:2,0:2:0:0:
248,361,46875,2,0,L|326:372,1,72.1999980720521,10|0,0:2|0:2,0:2:0:0:
238,243,47115,2,0,L|316:254,1,72.1999980720521,2|0,1:2|0:2,0:2:0:0:
163,366,47355,2,0,L|241:377,1,72.1999980720521,12|0,0:2|0:2,0:2:0:0:
138,280,47595,5,8,1:3:0:0:
138,280,47715,1,8,1:3:0:0:
68,347,47835,1,4,1:3:0:0:
68,347,47955,1,4,1:3:0:0:
11,258,48075,6,0,P|2:198|50:111,1,144.399996144104,6|8,1:2|0:2,0:2:0:0:
163,146,48435,2,0,P|172:206|124:293,1,144.399996144104,2|0,0:2|1:2,0:0:0:0:
68,347,48795,2,0,L|-14:354,1,72.1999980720521,10|0,0:2|0:2,0:2:0:0:
151,295,49035,2,0,B|208:301|208:301|215:306|215:306|311:319,1,144.399996144104,2|10,1:2|0:2,0:2:0:0:
346,375,49395,1,0,1:2:0:0:
410,329,49515,2,0,P|423:290|417:253,1,72.1999980720521,2|0,0:2|1:2,0:2:0:0:
341,165,49755,5,10,0:2:0:0:
341,165,49875,1,2,0:2:0:0:
261,238,49995,6,0,B|227:275|227:275|153:280|108:213,1,174.800003334045,6|8,1:2|0:2,0:2:0:0:
235,151,50355,2,0,B|184:153|184:153|128:104|144:25,1,174.800003334045,6|0,1:2|1:2,0:2:0:0:
272,74,50715,2,0,P|281:32|312:3,1,87.4000016670227,14|0,0:2|0:0,0:2:0:0:
421,45,50955,6,0,B|472:93|474:169|448:232|390:269|390:269|438:335|519:304,1,395.199981909181,4|4,1:2|0:2,0:2:0:0:
510,307,59595,6,0,L|372:286,1,121.6,6|0,1:2|0:2,0:2:0:0:
293,355,60075,2,0,L|155:334,1,121.6,10|0,0:2|0:2,0:2:0:0:
104,375,60435,1,0,1:2:0:0:
104,375,60555,2,0,P|96:325|136:266,1,121.6,2|0,0:2|1:2,0:0:0:0:
277,231,61035,2,0,P|283:171|247:123,1,121.6,10|0,0:2|0:2,0:2:0:0:
123,52,61515,6,0,B|100:82|100:82|13:69,1,121.6,2|0,0:2|1:2,0:2:0:0:
231,134,61995,2,0,B|254:164|254:164|341:151,1,121.6,10|0,0:2|0:2,0:2:0:0:
397,104,62355,1,0,1:2:0:0:
397,104,62475,2,0,B|420:74|420:74|507:87,1,121.6,2|0,0:2|1:2,0:0:0:0:
413,256,62955,5,8,0:2:0:0:
413,256,63075,1,8,0:2:0:0:
338,234,63195,1,8,0:3:0:0:
338,234,63315,1,8,0:3:0:0:
283,292,63435,6,0,P|264:349|191:354,2,136.799995825195,6|8|0,1:2|2:2|1:2,0:2:0:0:
203,154,64155,1,8,0:2:0:0:
203,154,64275,1,0,0:2:0:0:
132,195,64395,2,0,P|80:201|21:128,1,136.799995825195,2|8,1:2|0:2,0:2:0:0:
67,68,64755,2,0,P|119:62|178:135,1,136.799995825195,2|0,1:2|1:2,0:2:0:0:
153,223,65115,2,0,P|186:206|228:206,1,68.3999979125977,10|0,0:2|0:2,0:2:0:0:
312,272,65355,6,0,B|354:293|354:293|399:271|399:213,1,144.399996144104,6|8,1:2|0:2,0:2:0:0:
299,174,65715,2,0,B|256:195|256:195|208:168|211:115,1,144.399996144104,0|0,1:2|1:2,0:2:0:0:
250,19,66075,2,0,L|336:7,1,72.1999980720521,8|0,0:2|0:2,0:2:0:0:
206,105,66315,2,0,L|134:95,1,72.1999980720521,2|0,1:2|0:2,0:2:0:0:
259,32,66555,2,0,L|330:22,1,72.1999980720521,12|0,0:2|0:2,0:2:0:0:
455,39,66795,5,8,1:3:0:0:
455,39,66915,1,8,1:3:0:0:
409,108,67035,1,4,1:3:0:0:
409,108,67155,1,4,1:3:0:0:
464,168,67275,1,4,1:2:0:0:
464,168,69195,6,0,B|449:236|483:260|483:260|496:233|481:206,1,152,2|0,0:2|0:2,0:2:0:0:
390,131,70155,2,0,B|296:113|339:160|240:140,1,152,2|0,0:2|0:2,0:2:0:0:
138,0,71115,2,0,B|191:59|133:107|153:110|92:147|133:212,1,228,2|0,0:2|0:2,0:2:0:0:
185,278,72075,5,2,0:2:0:0:
250,238,72315,1,0,0:2:0:0:
325,244,72555,1,0,0:2:0:0:
380,296,72795,5,0,0:2:0:0:
384,306,72915,1,0,0:2:0:0:
389,315,73035,2,0,P|458:310|456:237,1,152,2|0,0:2|0:2,0:2:0:0:
412,182,73755,1,0,0:2:0:0:
344,217,73995,2,0,P|302:223|261:199,1,76,2|0,0:2|0:2,0:2:0:0:
197,195,74475,2,0,P|155:189|114:213,1,76,0|0,0:2|0:2,0:2:0:0:
71,256,74955,2,0,B|59:293|59:293|9:259|24:190,1,152,2|0,0:2|0:2,0:2:0:0:
66,130,75675,6,0,P|98:126|113:110,1,38,0|0,0:2|0:2,0:2:0:0:
115,115,75915,2,0,P|133:79|173:70,1,76,2|0,0:2|0:2,0:2:0:0:
181,187,76395,2,0,P|215:174|231:140,1,76,2|0,0:2|0:2,0:2:0:0:
332,29,76875,6,0,P|411:23|447:56,1,121.6,6|0,1:2|0:2,0:2:0:0:
417,191,77355,2,0,P|338:197|302:164,1,121.6,8|0,0:2|0:2,0:2:0:0:
254,118,77715,1,0,1:2:0:0:
240,266,77955,1,8,0:2:0:0:
240,266,78075,1,0,1:2:0:0:
361,347,78315,2,0,P|440:353|476:320,1,121.6,8|0,0:2|0:2,0:2:0:0:
391,183,78795,6,0,P|400:121|391:54,1,121.6,2|0,1:2|1:2,0:2:0:0:
213,171,79275,2,0,P|206:110|215:50,1,121.6,8|0,0:2|0:2,0:2:0:0:
277,5,79635,1,0,1:2:0:0:
314,150,79875,1,8,0:2:0:0:
314,150,79995,1,0,1:2:0:0:
174,192,80235,5,8,0:2:0:0:
174,192,80355,1,8,0:2:0:0:
214,265,80475,1,8,0:3:0:0:
214,265,80595,1,8,0:3:0:0:
162,325,80715,6,0,P|96:343|26:300,1,136.799995825195,6|0,1:2|0:2,0:2:0:0:
49,181,81195,2,0,P|115:163|185:206,1,136.799995825195,10|0,0:2|0:2,0:2:0:0:
229,246,81555,1,0,1:2:0:0:
291,197,81675,2,0,P|309:132|273:73,1,136.799995825195,2|0,0:2|1:2,0:0:0:0:
155,198,82155,2,0,P|136:262|173:322,1,136.799995825195,10|0,0:2|0:2,0:2:0:0:
312,381,82635,5,2,1:2:0:0:
305,241,82875,1,0,1:2:0:0:
298,101,83115,5,8,2:2:0:0:
298,101,83235,1,8,2:2:0:0:
227,133,83355,1,8,2:3:0:0:
227,133,83475,1,8,2:2:0:0:
171,78,83595,1,2,1:2:0:0:
99,376,84555,6,0,L|138:188,1,167.200005102539,12|8,1:3|2:2,0:2:0:0:
22,128,84915,2,0,P|61:140|101:130,1,83.6000025512696,2|0,1:2|0:2,0:2:0:0:
163,72,85155,1,2,1:2:0:0:
267,181,85275,2,0,P|225:176|193:151,1,83.6000025512696,8|0,2:2|1:2,0:0:0:0:
323,56,85515,6,0,P|333:134|268:180,1,167.200005102539,2|8,1:2|2:2,0:2:0:0:
249,27,85875,2,0,P|289:30|322:55,1,83.6000025512696,2|0,1:2|0:2,0:2:0:0:
163,72,86115,1,2,1:2:0:0:
79,118,86235,2,0,P|37:112|4:87,1,83.6000025512696,8|0,2:2|1:2,0:0:0:0:
115,223,86475,6,0,B|174:238|186:301|186:301|267:322,1,167.200005102539,6|8,1:2|2:2,0:2:0:0:
449,292,86835,2,0,B|390:307|378:370|378:370|297:391,1,167.200005102539,2|2,1:2|1:2,0:2:0:0:
232,206,87195,1,8,0:2:0:0:
232,206,87315,1,0,1:2:0:0:
323,239,87435,6,0,P|364:237|399:216,1,83.6000025512696,2|0,1:2|0:2,0:2:0:0:
366,104,87675,2,0,P|325:105|290:127,1,83.6000025512696,10|0,0:2|0:2,0:2:0:0:
237,210,87915,1,8,1:3:0:0:
237,210,88035,1,8,1:3:0:0:
196,119,88155,1,4,1:3:0:0:
196,119,88275,1,4,1:3:0:0:
290,128,88395,6,0,B|333:165|401:137|401:137|391:113|354:99,1,167.200005102539,6|8,1:2|0:2,0:2:0:0:
237,210,88755,2,0,B|183:228|173:301|173:301|199:304|230:279,1,167.200005102539,0|0,1:2|1:2,0:2:0:0:
196,119,89115,2,0,B|206:63|148:18|148:18|132:39|138:78,1,167.200005102539,8|0,0:2|1:2,0:2:0:0:
223,292,89595,5,10,0:2:0:0:
223,292,89715,1,0,1:2:0:0:
300,353,89835,2,0,P|353:354|385:314,1,83.6000025512696,2|0,0:2|1:2,0:2:0:0:
288,228,90075,2,0,P|340:217|379:251,1,83.6000025512696,10|0,0:2|0:2,0:2:0:0:
448,277,90315,5,6,0:2:0:0:
448,277,90435,2,0,P|457:226|423:157,1,121.6,0|0,1:2|1:2,0:0:0:0:
462,76,90795,5,12,0:2:0:0:
462,76,90915,2,0,P|422:109|345:114,1,121.6,0|0,1:2|1:2,0:0:0:0:
275,87,91275,5,4,1:2:0:0:
429,163,91515,1,0,1:2:0:0:
275,175,91755,5,8,1:2:0:0:
275,175,91875,1,8,1:2:0:0:
354,116,91995,1,8,1:2:0:0:
359,215,92115,1,8,1:2:0:0:
279,276,92235,6,0,B|233:233|155:252|155:252|221:263,1,167.200005102539,12|8,1:3|0:2,0:2:0:0:
275,175,92595,2,0,B|298:151|305:125|305:125|302:80|235:37,1,167.200005102539,0|0,1:2|1:2,0:2:0:0:
144,4,92955,5,10,0:2:0:0:
144,4,93075,1,2,0:2:0:0:
120,91,93195,2,0,L|98:171,1,83.6000025512696,0|0,1:2|0:2,0:2:0:0:
11,196,93435,5,10,0:2:0:0:
11,196,93555,1,2,1:2:0:0:
98,172,93675,2,0,L|178:150,1,83.6000025512696,2|0,0:2|1:2,0:2:0:0:
243,215,93915,5,10,0:2:0:0:
243,215,94035,1,2,0:2:0:0:
178,150,94155,2,0,L|118:90,1,83.6000025512696,6|0,1:2|0:2,0:2:0:0:
144,4,94395,5,10,0:2:0:0:
144,4,94515,1,2,1:2:0:0:
119,91,94635,2,0,L|97:171,1,83.6000025512696,2|0,0:2|1:2,0:2:0:0:
0,224,94875,5,10,0:2:0:0:
0,224,94995,1,2,0:2:0:0:
83,274,95115,2,0,L|197:254,1,83.6000025512696,2|0,1:2|0:2,0:2:0:0:
201,76,95355,2,0,L|87:96,1,83.6000025512696,14|0,0:2|0:2,0:2:0:0:
272,148,95595,1,8,1:3:0:0:
272,148,95715,1,8,1:3:0:0:
313,31,95835,1,4,1:3:0:0:
313,31,95955,1,4,1:3:0:0:
405,78,96075,6,0,P|461:85|491:185,1,167.200005102539,6|10,1:2|0:2,0:2:0:0:
467,268,96435,1,2,0:2:0:0:
379,241,96555,2,0,L|362:148,1,83.6000025512696,2|0,1:2|1:2,0:2:0:0:
310,62,96795,5,10,0:2:0:0:
310,62,96915,1,2,0:2:0:0:
222,89,97035,2,0,L|205:182,1,83.6000025512696,2|0,1:2|0:2,0:2:0:0:
143,270,97275,5,10,0:2:0:0:
143,270,97395,1,2,1:2:0:0:
55,243,97515,2,0,L|38:150,1,83.6000025512696,2|0,0:2|1:2,0:2:0:0:
129,44,97755,5,10,0:2:0:0:
129,44,97875,1,2,0:2:0:0:
222,89,97995,2,0,P|263:102|344:16,1,167.200005102539,6|8,1:2|0:2,0:2:0:0:
289,142,98355,1,6,1:2:0:0:
289,142,98475,2,0,P|284:184|305:228,1,83.6000025512696,2|0,0:2|1:2,0:2:0:0:
439,199,98715,2,0,P|444:157|423:113,1,83.6000025512696,14|0,0:2|0:2,0:2:0:0:
378,278,98955,5,6,1:2:0:0:
452,315,99075,1,8,0:2:0:0:
382,360,99195,1,0,1:2:0:0:
299,221,99435,5,12,0:2:0:0:
419,122,99675,5,8,0:3:0:0:
492,146,99795,1,8,0:3:0:0:
476,69,99915,1,4,1:2:0:0:
310,5,100395,5,0,0:2:0:0:
206,79,100875,5,0,0:2:0:0:
96,41,101355,5,0,0:2:0:0:
0,125,101835,6,0,B|74:90|130:122|154:191|145:191|134:190|154:253|229:293|293:255,1,364.799988867188,6|2,1:2|0:3,0:2:0:0:
292,255,103395,6,0,L|282:325,2,53.1999983764649,0|0|0,0:2|0:2|0:2,0:2:0:0:
371,202,103755,6,0,B|412:250|474:231|474:231|496:194,1,152,12|8,1:3|2:0,0:1:0:0:
436,101,104115,2,0,B|348:89|399:44|305:36,1,152,2|0,1:2|1:0,0:1:0:0:
243,130,104475,2,0,P|230:87|210:56,1,76,10|0,1:2|0:0,0:1:0:0:
105,21,104715,6,0,P|61:38|56:153,1,152,2|8,1:2|2:2,0:2:0:0:
144,193,105075,2,0,B|193:180|234:221|234:221|262:218|302:184,1,152,2|0,1:2|1:2,0:2:0:0:
166,270,105435,2,0,B|151:284|151:284|78:275,1,76,10|0,1:2|0:2,0:2:0:0:
225,346,105675,6,0,B|249:366|249:366|308:337|381:352,1,152,6|8,1:2|2:2,2:2:0:0:
475,383,106035,2,0,B|444:291|487:328|449:223,1,152,2|0,1:2|1:2,0:2:0:0:
396,144,106395,2,0,P|390:181|367:211,1,76,10|0,1:2|0:2,0:2:0:0:
278,80,106635,2,0,P|313:67|350:72,1,76,2|0,1:2|0:0,0:2:0:0:
282,213,106875,2,0,P|253:190|239:155,1,76,12|0,1:2|0:2,0:2:0:0:
195,51,107115,5,8,1:3:0:0:
195,51,107235,1,8,1:3:0:0:
110,32,107355,1,4,1:3:0:0:
110,32,107475,1,4,1:3:0:0:
36,93,107595,6,0,P|9:168|62:222,1,152,6|8,1:2|2:2,0:2:0:0:
149,148,107955,2,0,P|108:88|36:93,1,152,2|0,1:2|1:2,0:2:0:0:
59,234,108315,2,0,P|95:240|135:225,1,76,10|0,1:2|0:2,0:2:0:0:
229,124,108555,6,0,P|262:51|338:51,1,152,2|8,1:2|2:2,0:2:0:0:
348,166,108915,2,0,P|276:179|229:124,1,152,2|0,1:2|1:2,0:2:0:0:
344,40,109275,2,0,P|373:61|391:100,1,76,10|0,1:2|0:0,0:2:0:0:
334,197,109515,6,0,B|279:253|310:330|310:330|353:349,1,182.399994433594,6|8,1:2|2:2,0:1:0:0:
467,236,109875,2,0,B|522:292|491:369|491:369|448:388,1,182.399994433594,6|0,1:2|1:2,0:2:0:0:
334,323,110235,2,0,P|312:308|237:313,1,91.199997216797,14|0,1:2|0:2,0:2:0:0:
144,375,110475,2,0,P|99:379|59:358,1,91.199997216797,6|0,1:2|0:2,0:2:0:0:
0,276,110715,5,8,1:3:0:0:
0,276,110835,1,8,1:3:0:0:
56,205,110955,1,4,1:3:0:0:
56,205,111075,1,4,1:3:0:0:
18,127,111195,1,8,1:3:0:0:
18,127,111315,1,8,1:3:0:0:
77,39,111435,6,0,B|92:71|135:74|135:74|159:37|205:38,1,152,12|8,1:3|2:2,0:2:0:0:
322,69,111795,2,0,B|337:101|380:104|380:104|404:67|450:68,1,152,2|0,1:2|1:2,0:2:0:0:
487,168,112155,2,0,P|508:199|512:243,1,76,10|0,1:2|0:2,0:2:0:0:
418,316,112395,6,0,B|389:297|359:303|359:303|340:314|340:314|300:324|269:295,1,152,2|8,1:2|2:2,0:2:0:0:
354,201,112755,2,0,P|365:128|321:68,1,152,2|0,1:2|1:2,0:2:0:0:
238,0,113115,2,0,L|220:74,1,76,8|0,1:2|0:2,0:2:0:0:
123,125,113355,6,0,B|84:89|15:105|15:105|18:127|52:134,1,152,6|8,1:2|2:2,0:2:0:0:
130,209,113715,2,0,B|169:173|238:189|238:189|229:209|201:218,1,152,2|0,1:2|1:2,0:2:0:0:
146,295,114075,2,0,P|132:327|142:387,1,76,10|0,1:2|0:2,0:2:0:0:
219,244,114315,2,0,P|234:279|232:317,1,76,0|0,1:2|0:2,0:2:0:0:
69,251,114555,2,0,P|95:223|130:208,1,76,12|0,1:2|0:2,0:2:0:0:
279,181,114795,5,8,1:3:0:0:
279,181,114915,1,8,1:3:0:0:
356,237,115035,1,4,1:3:0:0:
356,237,115155,1,4,1:3:0:0:
437,174,115275,6,0,P|456:104|409:13,1,152,6|8,1:2|2:2,2:2:0:0:
270,39,115635,2,0,P|251:111|279:181,1,152,2|0,1:2|1:2,0:2:0:0:
364,258,115995,2,0,P|399:257|444:275,1,76,10|0,1:2|0:2,0:2:0:0:
329,345,116235,2,0,B|241:313|267:367|181:335,1,152,2|8,1:2|2:2,0:2:0:0:
66,275,116595,1,0,1:2:0:0:
66,275,116715,2,0,B|26:309|39:365|79:376|79:376|110:371,1,152,2|8,0:2|1:2,0:2:0:0:
316,244,117195,6,0,B|331:260|356:273|356:273|317:213|290:157,1,182.399994433594,6|8,1:2|2:2,0:2:0:0:
166,45,117555,2,0,B|138:105|101:161|101:161|125:147|141:132,1,182.399994433594,6|0,1:2|1:2,0:2:0:0:
265,40,117915,2,0,P|311:17|355:21,1,91.199997216797,14|0,1:2|0:2,0:2:0:0:
305,167,118155,2,0,P|350:167|389:146,1,91.199997216797,6|0,1:2|0:0,0:2:0:0:
462,59,118395,5,8,1:2:0:0:
462,59,118515,1,8,1:3:0:0:
511,140,118635,1,8,0:3:0:0:
511,140,118755,1,8,0:2:0:0:
479,225,118875,1,8,0:3:0:0:
305,167,119115,6,0,L|218:158,1,76,8|8,2:2|2:2,0:0:0:0:
340,270,119355,2,0,L|415:277,1,76,8|8,2:2|2:2,0:0:0:0:
96,347,119715,2,0,L|21:339,2,76,8|8|8,0:2|0:2|0:2,0:0:0:0:
180,295,120075,6,0,B|189:335|189:335|186:347|186:347|195:390,2,91.199997216797,14|8|4,3:2|3:3|3:3,0:2:0:0:
208,201,120555,6,0,B|216:163|216:163|213:151|213:151|222:111,2,81.0666666666667,10|8|4,3:2|3:3|3:3,0:2:0:0:
208,201,121035,6,0,B|457:361|621:57|435:-160|148:-40|189:165|318:173|351:120|351:120,1,684.00002609253,6|8,1:2|1:2,0:2:0:0:
347,123,122955,6,0,B|261:81|133:142|133:142|199:221|163:239|253:300|253:300|152:396|37:349,1,638.399980517579,6|0,1:2|0:2,0:2:0:0:
56,356,124875,6,0,B|91:277|8:196|8:196|27:155|22:110|22:110|66:63|156:55|156:55|118:91|136:150,1,509.199975913697,6|0,1:2|0:0,0:2:0:0:
178,253,126315,6,0,B|234:247|234:247|258:265|258:265|307:286,1,136.799995825195,10|0,0:2|0:0,0:2:0:0:
477,258,126795,6,0,P|501:213|473:105,1,136.799995825195,12|8,1:3|0:2,0:2:0:0:
420,56,127155,2,0,B|415:94|378:98|378:98|295:74,1,136.799995825195,2|0,1:2|1:2,0:0:0:0:
194,14,127515,2,0,L|270:4,1,68.3999979125977,10|0,0:2|0:2,0:2:0:0:
323,96,127755,2,0,P|298:155|232:157,1,136.799995825195,2|10,1:2|0:2,0:2:0:0:
175,109,128115,1,0,1:2:0:0:
121,162,128235,2,0,P|117:189|137:243,1,68.3999979125977,2|0,0:2|1:2,0:2:0:0:
202,281,128475,2,0,P|240:268|291:265,1,68.3999979125977,10|0,0:2|0:2,0:2:0:0:
363,333,128715,6,0,B|396:363|396:363|475:367|499:296,1,167.200005102539,6|8,1:2|0:2,0:2:0:0:
408,211,129075,2,0,B|451:220|451:220|521:184|507:110,1,167.200005102539,6|0,1:2|1:2,0:2:0:0:
408,91,129435,2,0,P|400:49|368:2,1,83.6000025512696,14|0,1:2|0:2,0:2:0:0:
270,87,129675,2,0,P|277:127|298:163,1,83.6000025512696,4|0,1:2|0:2,0:2:0:0:
412,215,129915,5,8,1:2:0:0:
412,215,130035,1,0,1:2:0:0:
469,289,130155,1,8,1:3:0:0:
469,289,130275,1,8,1:3:0:0:
419,363,130395,1,4,1:3:0:0:
419,363,130515,1,4,1:3:0:0:
311,336,130635,6,0,B|262:327|262:327|243:334|243:334|160:322,1,136.799995825195,12|8,1:3|2:2,0:2:0:0:
272,232,130995,2,0,P|291:193|280:98,1,136.799995825195,2|0,0:2|1:2,0:0:0:0:
182,51,131355,2,0,B|119:73|119:73|37:39,2,136.799995825195,10|0|10,0:2|1:2|0:2,0:2:0:0:
282,7,131955,1,0,1:2:0:0:
360,48,132075,2,0,P|372:71|380:131,1,68.3999979125977,2|0,1:2|1:2,0:2:0:0:
439,185,132315,2,0,P|433:218|418:249,1,68.3999979125977,10|0,0:2|0:2,0:2:0:0:
376,341,132555,6,0,B|432:334|432:334|437:335|437:335|523:323,1,136.799995825195,6|8,1:2|0:2,0:2:0:0:
418,249,132915,2,0,P|396:188|418:110,1,136.799995825195,2|0,1:2|1:2,0:2:0:0:
350,9,133275,2,0,P|349:38|331:78,1,68.3999979125977,10|0,0:2|0:2,0:2:0:0:
256,113,133515,2,0,P|222:116|191:131,1,68.3999979125977,0|0,1:2|0:2,0:2:0:0:
328,160,133755,2,0,P|348:188|377:207,1,68.3999979125977,12|0,0:2|0:2,0:2:0:0:
512,233,133995,5,8,1:3:0:0:
512,233,134115,1,8,1:3:0:0:
500,324,134235,1,4,1:3:0:0:
500,324,134355,1,4,1:3:0:0:
407,362,134475,6,0,B|364:339|364:339|328:371|251:354,1,136.799995825195,6|8,1:2|2:2,0:2:0:0:
158,347,134835,2,0,B|110:334|74:366|74:366|31:343,1,136.799995825195,2|0,0:2|1:2,0:0:0:0:
158,261,135195,2,0,P|167:236|161:187,1,68.3999979125977,10|0,0:2|0:2,0:2:0:0:
40,222,135435,2,0,P|23:156|59:98,1,136.799995825195,2|8,1:2|0:2,0:2:0:0:
155,179,135795,2,0,P|221:200|284:168,1,136.799995825195,2|0,1:2|1:2,0:0:0:0:
328,85,136155,2,0,P|327:54|347:2,1,68.3999979125977,10|0,0:2|0:2,0:2:0:0:
442,75,136395,6,0,B|470:90|482:112|482:112|486:162|451:218,1,167.200005102539,6|8,1:2|0:2,0:2:0:0:
278,173,136755,2,0,B|250:188|238:210|238:210|234:260|268:316,1,167.200005102539,6|0,1:2|1:2,0:2:0:0:
454,232,137115,2,0,B|482:247|494:269|494:269|498:319|463:375,1,167.200005102539,14|4,0:2|1:1,0:2:0:0:
463,374,137835,6,0,L|355:360,1,106.39999675293,14|0,0:2|0:2,0:2:0:0:
357,360,138315,6,0,B|332:288|377:303|344:206,1,144.399996144104,12|8,1:3|0:2,0:2:0:0:
245,163,138675,2,0,B|219:90|264:105|231:8,1,144.399996144104,2|0,0:2|1:2,0:0:0:0:
142,125,139035,2,0,P|94:147|10:108,2,144.399996144104,10|0|10,0:2|1:2|0:2,0:2:0:0:
226,40,139635,1,0,1:2:0:0:
303,93,139755,2,0,P|340:105|389:92,1,72.1999980720521,2|0,0:2|1:2,0:2:0:0:
467,37,139995,5,10,2:2:0:0:
467,37,140115,1,2,0:2:0:0:
512,127,140235,6,0,B|503:200|503:200|505:207|505:207|496:271,1,144.399996144104,6|8,1:2|0:2,0:2:0:0:
416,353,140595,2,0,B|407:290|407:290|409:283|409:283|400:210,1,144.399996144104,2|0,1:2|1:2,2:2:0:0:
283,130,140955,2,0,L|376:125,1,72.1999980720521,10|0,0:2|0:2,0:2:0:0:
239,230,141195,2,0,L|332:225,1,72.1999980720521,2|0,1:2|0:2,0:2:0:0:
197,110,141435,2,0,L|290:105,1,72.1999980720521,12|0,0:2|0:2,0:2:0:0:
133,190,141675,5,8,1:3:0:0:
133,190,141795,1,8,1:3:0:0:
69,127,141915,1,4,1:3:0:0:
69,127,142035,1,4,1:3:0:0:
11,220,142155,6,0,P|8:264|28:384,1,144.399996144104,6|8,1:2|0:2,0:2:0:0:
145,338,142515,2,0,P|148:294|128:174,1,144.399996144104,2|0,0:2|1:2,0:0:0:0:
69,127,142875,2,0,P|38:136|-5:126,1,72.1999980720521,10|0,0:2|0:2,0:2:0:0:
119,47,143115,2,0,B|137:26|160:19|160:19|199:16|256:41,1,144.399996144104,2|8,1:2|0:2,0:2:0:0:
311,90,143475,1,0,1:2:0:0:
388,107,143595,2,0,P|423:105|454:87,1,72.1999980720521,2|0,0:2|1:2,0:2:0:0:
343,15,143835,5,10,0:2:0:0:
343,15,143955,1,0,0:2:0:0:
301,105,144075,6,0,B|284:157|314:193|325:181|361:214|348:263,1,174.800003334045,6|8,1:2|0:2,0:2:0:0:
278,360,144435,2,0,B|238:336|190:349|190:349|188:353|188:353|149:371|112:354,1,174.800003334045,6|0,1:2|1:2,0:2:0:0:
22,273,144795,2,0,P|11:312|24:371,1,87.4000016670227,14|0,0:2|0:2,0:2:0:0:
153,275,145035,2,0,P|148:231|126:194,1,87.4000016670227,6|0,1:2|0:0,0:2:0:0:
24,143,145275,5,8,1:3:0:0:
24,143,145395,1,8,1:3:0:0:
4,55,145515,1,4,1:3:0:0:
4,55,145635,1,4,1:3:0:0:
86,7,145755,1,8,1:3:0:0:
86,7,145875,1,8,1:3:0:0:
152,80,145995,6,0,B|185:108|233:102|233:102|247:73|280:53,1,144.399996144104,12|8,0:3|0:2,0:2:0:0:
296,171,146355,2,0,B|329:199|377:193|377:193|391:164|424:144,1,144.399996144104,2|0,0:2|1:2,0:0:0:0:
496,230,146715,2,0,B|504:294|504:294|502:303|502:303|514:382,2,144.399996144104,8|0|10,0:2|1:2|0:2,0:2:0:0:
414,150,147315,1,0,1:2:0:0:
333,199,147435,2,0,P|298:201|264:188,1,72.1999980720521,2|0,0:2|1:2,0:2:0:0:
158,119,147675,5,10,0:2:0:0:
158,119,147795,1,2,0:2:0:0:
77,171,147915,6,0,P|59:209|86:319,1,144.399996144104,6|8,1:2|0:2,0:2:0:0:
29,382,148275,2,0,P|85:347|182:352,1,144.399996144104,2|0,1:2|1:2,0:2:0:0:
270,313,148635,2,0,L|277:384,1,72.1999980720521,10|0,0:2|0:2,0:2:0:0:
373,257,148875,2,0,L|380:328,1,72.1999980720521,2|0,1:2|0:2,0:2:0:0:
243,228,149115,2,0,L|250:299,1,72.1999980720521,12|0,0:2|0:2,0:2:0:0:
338,169,149355,5,8,1:3:0:0:
338,169,149475,1,8,1:3:0:0:
409,237,149595,1,4,1:3:0:0:
409,237,149715,1,4,1:3:0:0:
478,161,149835,6,0,P|497:115|460:20,1,144.399996144104,6|8,1:2|0:2,0:2:0:0:
329,36,150195,2,0,P|309:103|337:168,1,144.399996144104,2|0,0:2|1:2,0:0:0:0:
409,237,150555,2,0,B|433:242|433:242|436:247|436:247|480:258,1,72.1999980720521,10|0,0:2|0:2,0:2:0:0:
361,332,150795,2,0,B|303:321|303:321|296:323|296:323|201:305,1,144.399996144104,2|10,1:2|0:2,0:2:0:0:
166,249,151155,1,0,1:2:0:0:
215,186,151275,2,0,P|227:152|224:116,1,72.1999980720521,2|0,0:2|1:2,0:2:0:0:
133,37,151515,5,10,0:2:0:0:
133,37,151635,1,2,0:2:0:0:
47,99,151755,6,0,B|11:135|11:135|5:191|52:255,1,174.800003334045,6|8,1:2|0:2,0:2:0:0:
228,196,152115,2,0,B|264:232|264:232|270:288|223:352,1,174.800003334045,6|0,1:2|1:2,0:2:0:0:
128,254,152475,2,0,B|87:257|87:257|84:262|84:262|42:265,1,87.4000016670227,14|0,0:2|0:0,0:2:0:0:
238,183,152715,6,0,B|308:167|377:222|323:267|380:329|526:377|537:204|446:211,1,395.199981909181,4|4,1:2|0:2,0:2:0:0:
512,121,161355,6,0,L|374:100,1,121.6,6|0,1:2|0:2,0:2:0:0:
450,209,161835,2,0,P|459:260|418:344,1,121.6,10|0,0:2|0:2,0:2:0:0:
373,368,162195,1,0,1:2:0:0:
373,368,162315,2,0,P|333:352|245:352,1,121.6,2|0,0:2|1:2,0:0:0:0:
126,298,162795,2,0,P|68:317|8:316,1,121.6,10|0,0:2|0:2,0:2:0:0:
115,190,163275,6,0,B|91:161|91:161|118:61,1,121.6,2|0,0:2|1:2,0:2:0:0:
265,231,163755,2,0,B|289:202|289:202|267:120,1,121.6,10|0,0:2|0:2,0:2:0:0:
218,63,164115,1,0,1:2:0:0:
218,63,164235,2,0,B|195:93|195:93|109:79,1,121.6,2|0,0:2|1:2,0:0:0:0:
5,191,164715,5,8,0:2:0:0:
5,191,164835,1,8,0:2:0:0:
84,179,164955,1,8,0:3:0:0:
84,179,165075,1,8,0:3:0:0:
136,238,165195,6,0,L|121:377,2,136.799995825195,6|8|0,1:2|2:2|1:2,0:2:0:0:
290,148,165915,1,8,0:2:0:0:
290,148,166035,1,0,0:2:0:0:
362,186,166155,2,0,B|427:208|427:208|485:173,1,136.799995825195,2|8,1:2|0:2,0:2:0:0:
471,77,166515,2,0,B|406:55|406:55|347:89,1,136.799995825195,2|0,1:2|1:2,0:2:0:0:
290,148,166875,2,0,B|257:158|257:158|223:150,1,68.3999979125977,10|0,0:2|0:2,0:2:0:0:
134,84,167115,6,0,P|111:31|20:36,1,144.399996144104,6|8,1:2|0:2,0:2:0:0:
0,128,167475,2,0,B|11:185|11:185|14:192|14:192|13:203|13:203|29:286,1,144.399996144104,0|0,1:2|1:2,0:2:0:0:
108,344,167835,2,0,L|115:272,1,72.1999980720521,8|0,0:2|0:2,0:2:0:0:
212,222,168075,2,0,L|204:293,1,72.1999980720521,2|0,1:2|0:2,0:2:0:0:
285,365,168315,2,0,L|292:293,1,72.1999980720521,12|0,0:2|0:2,0:2:0:0:
386,234,168555,5,8,1:3:0:0:
386,234,168675,1,8,1:3:0:0:
460,279,168795,1,4,1:3:0:0:
460,279,168915,1,4,1:3:0:0:
502,209,169035,1,4,1:2:0:0:
512,133,170955,6,0,B|414:120|460:170|355:152,1,152,2|0,0:2|0:2,0:2:0:0:
271,92,171915,2,0,P|266:54|163:36,1,152,2|0,0:2|0:2,0:2:0:0:
121,149,172875,2,0,B|174:208|116:256|136:259|75:296|116:361,1,228,2|0,0:2|0:2,0:2:0:0:
209,266,173835,5,2,0:2:0:0:
278,297,174075,1,0,0:2:0:0:
351,278,174315,1,0,0:2:0:0:
398,219,174555,5,0,0:2:0:0:
393,208,174675,1,0,0:2:0:0:
389,197,174795,2,0,B|357:163|379:109|379:109|340:56,1,152,2|0,0:2|0:2,0:2:0:0:
280,21,175515,1,0,0:2:0:0:
219,67,175755,2,0,P|210:95|215:144,1,76,2|0,0:2|0:2,0:2:0:0:
294,199,176235,2,0,P|303:227|298:276,1,76,0|0,0:2|0:2,0:2:0:0:
221,344,176715,2,0,B|173:330|131:365|131:365|65:349,1,152,2|0,0:2|0:2,0:2:0:0:
0,264,177435,6,0,L|8:224,1,38,0|0,0:2|0:2,0:2:0:0:
13,211,177675,2,0,P|51:216|96:197,1,76,2|0,0:2|0:2,0:2:0:0:
106,114,178155,2,0,P|68:108|32:120,1,76,2|0,0:2|0:2,0:2:0:0:
174,184,178635,6,0,P|159:125|177:68,1,121.6,6|0,1:2|0:2,0:2:0:0:
318,110,179115,2,0,P|332:168|314:225,1,121.6,8|0,0:2|0:2,0:2:0:0:
278,288,179475,1,0,1:2:0:0:
397,379,179715,1,8,0:2:0:0:
397,379,179835,1,0,1:2:0:0:
469,252,180075,2,0,P|487:195|472:136,1,121.6,8|0,0:2|0:2,0:2:0:0:
363,40,180555,6,0,B|336:61|336:61|232:44,1,121.6,2|0,1:2|1:2,0:2:0:0:
137,139,181035,2,0,B|164:160|164:160|268:143,1,121.6,8|0,0:2|0:2,0:2:0:0:
305,97,181395,1,0,1:2:0:0:
357,238,181635,1,8,0:2:0:0:
357,238,181755,1,0,1:2:0:0:
262,349,181995,5,8,0:2:0:0:
262,349,182115,1,8,0:2:0:0:
191,313,182235,1,8,0:3:0:0:
191,313,182355,1,8,0:3:0:0:
123,361,182475,6,0,B|77:375|77:375|32:352|39:296,1,136.799995825195,6|0,1:2|0:2,0:2:0:0:
154,194,182955,2,0,P|220:205|273:154,1,136.799995825195,10|0,0:2|0:2,0:2:0:0:
291,86,183315,1,0,1:2:0:0:
232,33,183435,2,0,P|166:22|113:73,1,136.799995825195,2|0,0:2|1:2,0:0:0:0:
160,219,183915,2,0,P|226:230|279:179,1,136.799995825195,10|0,0:2|0:2,0:2:0:0:
354,40,184395,5,2,1:2:0:0:
367,185,184635,1,0,1:2:0:0:
387,333,184875,5,8,2:2:0:0:
387,333,184995,1,8,2:2:0:0:
453,299,185115,1,8,2:3:0:0:
453,299,185235,1,8,2:2:0:0:
495,358,185355,1,2,1:2:0:0:
352,384,186315,6,0,B|360:299|321:309|327:198,1,167.200005102539,12|8,1:3|2:2,0:2:0:0:
258,324,186675,2,0,P|219:336|175:319,1,83.6000025512696,2|0,1:2|0:2,0:2:0:0:
322,202,186915,1,2,1:2:0:0:
422,244,187035,2,0,P|462:243|499:214,1,83.6000025512696,8|0,2:2|1:2,0:0:0:0:
316,183,187275,6,0,P|311:106|231:73,1,167.200005102539,2|8,1:2|2:2,0:2:0:0:
133,105,187635,2,0,L|148:16,1,83.6000025512696,2|0,1:2|0:2,0:2:0:0:
236,157,187875,1,2,1:2:0:0:
151,190,187995,2,0,P|114:193|70:163,1,83.6000025512696,8|0,2:2|1:2,0:0:0:0:
236,72,188235,6,0,B|266:72|291:59|291:59|316:72|316:72|359:71|396:111,1,167.200005102539,6|8,1:2|2:2,0:2:0:0:
434,229,188595,2,0,B|458:265|503:267|503:267|523:216|490:185,1,167.200005102539,2|2,1:2|1:2,0:2:0:0:
397,111,188955,1,8,0:2:0:0:
397,111,189075,1,0,1:2:0:0:
343,194,189195,6,0,L|336:293,1,83.6000025512696,2|0,1:2|0:2,0:2:0:0:
253,139,189435,2,0,L|246:40,1,83.6000025512696,10|0,0:2|0:2,0:2:0:0:
150,136,189675,1,8,1:3:0:0:
150,136,189795,1,8,1:3:0:0:
90,61,189915,1,4,1:3:0:0:
90,61,190035,1,4,1:3:0:0:
21,139,190155,6,0,B|3:178|0:199|0:199|13:253|57:298,1,167.200005102539,6|8,1:2|0:2,0:2:0:0:
238,242,190515,2,0,B|213:206|196:193|196:193|143:178|82:193,1,167.200005102539,0|0,1:2|1:2,0:2:0:0:
41,378,190875,2,0,B|83:374|103:366|103:366|143:327|160:267,1,167.200005102539,8|0,0:2|1:2,0:2:0:0:
187,65,191355,5,10,0:2:0:0:
187,65,191475,1,0,1:2:0:0:
93,102,191595,2,0,L|-1:116,1,83.6000025512696,2|0,0:2|1:2,0:2:0:0:
147,177,191835,2,0,L|241:163,1,83.6000025512696,10|0,0:2|0:2,0:2:0:0:
337,112,192075,5,6,0:2:0:0:
337,112,192195,2,0,P|326:49|361:-8,1,121.6,0|0,1:2|1:2,0:0:0:0:
436,10,192555,5,12,0:2:0:0:
436,10,192675,2,0,P|446:72|411:130,1,121.6,0|0,1:2|1:2,0:0:0:0:
358,192,193035,5,4,1:2:0:0:
512,155,193275,1,0,1:2:0:0:
357,229,193515,5,8,1:2:0:0:
357,229,193635,1,8,1:2:0:0:
448,265,193755,1,8,1:2:0:0:
410,356,193875,1,8,1:2:0:0:
314,324,193995,6,0,B|285:316|262:305|262:305|234:343|176:379,1,167.200005102539,12|8,1:3|0:2,0:2:0:0:
101,281,194355,2,0,B|81:303|49:307|49:307|2:269|7:193,1,167.200005102539,0|0,1:2|1:2,0:2:0:0:
63,119,194715,5,10,0:2:0:0:
63,119,194835,1,2,0:2:0:0:
146,149,194955,2,0,P|185:151|228:117,1,83.6000025512696,0|0,1:2|0:2,0:2:0:0:
290,72,195195,5,10,0:2:0:0:
290,72,195315,1,2,1:2:0:0:
222,128,195435,2,0,P|200:161|208:215,1,83.6000025512696,2|0,0:2|1:2,0:2:0:0:
217,290,195675,5,10,0:2:0:0:
217,290,195795,1,2,0:2:0:0:
202,203,195915,2,0,P|184:167|133:147,1,83.6000025512696,6|0,1:2|0:2,0:2:0:0:
64,118,196155,5,10,0:2:0:0:
64,118,196275,1,2,1:2:0:0:
147,148,196395,2,0,P|186:150|229:116,1,83.6000025512696,2|0,0:2|1:2,0:2:0:0:
316,42,196635,5,10,0:2:0:0:
316,42,196755,1,2,0:2:0:0:
304,129,196875,2,0,L|293:221,1,83.6000025512696,2|0,1:2|0:2,0:2:0:0:
380,317,197115,2,0,L|466:300,1,83.6000025512696,14|0,0:2|0:2,0:2:0:0:
295,236,197355,1,8,1:3:0:0:
295,236,197475,1,8,1:3:0:0:
282,356,197595,1,4,1:3:0:0:
282,356,197715,1,4,1:3:0:0:
176,295,197835,6,0,B|68:270|119:333|-2:303,1,167.200005102539,6|10,1:2|0:2,0:2:0:0:
72,213,198195,1,2,0:2:0:0:
12,142,198315,2,0,P|3:111|18:53,1,83.6000025512696,2|0,1:2|1:2,0:2:0:0:
153,8,198555,5,10,0:2:0:0:
153,8,198675,1,2,0:2:0:0:
218,72,198795,2,0,P|254:92|306:79,1,83.6000025512696,2|0,1:2|0:2,0:2:0:0:
407,23,199035,5,10,0:2:0:0:
407,23,199155,1,2,1:2:0:0:
471,90,199275,2,0,P|480:121|465:179,1,83.6000025512696,2|0,0:2|1:2,0:2:0:0:
380,250,199515,5,10,0:2:0:0:
380,250,199635,1,2,0:2:0:0:
292,195,199755,2,0,B|266:176|266:176|123:187,1,167.200005102539,6|8,1:2|0:2,0:2:0:0:
55,230,200115,1,6,1:2:0:0:
55,230,200235,2,0,B|42:191|42:191|53:149,1,83.6000025512696,2|0,0:2|1:2,0:2:0:0:
206,212,200475,2,0,B|217:254|217:254|204:293,1,83.6000025512696,14|0,0:2|0:2,0:2:0:0:
133,378,200715,5,6,1:2:0:0:
110,297,200835,1,8,0:2:0:0:
51,357,200955,1,0,1:2:0:0:
222,306,201195,5,12,0:2:0:0:
315,183,201435,5,8,0:3:0:0:
370,239,201555,1,8,0:3:0:0:
392,163,201675,1,4,1:2:0:0:
247,82,202155,5,0,0:2:0:0:
198,230,202635,5,0,0:2:0:0:
76,187,203115,5,0,0:2:0:0:
0,243,203595,6,0,B|62:190|124:197|198:264|119:267|178:330|260:351|311:297,1,364.799988867188,6|2,1:2|0:3,0:2:0:0:
362,362,204975,5,2,0:2:0:0:
362,362,205035,2,2,B|352:291|352:291|354:286|354:286|340:176,1,182.4,2|0,0:1|0:2,0:1:0:0:
260,120,205515,6,0,B|302:122|337:149|337:149|361:116|406:100,1,167.200005102539,14|8,1:1|0:2,0:0:0:0:
314,44,205875,1,2,0:2:0:0:
253,135,205995,2,0,P|253:187|268:221,1,83.6000025512696,2|0,1:1|1:2,0:0:0:0:
158,109,206235,2,0,P|158:57|143:23,1,83.6000025512696,10|0,0:2|0:2,0:0:0:0:
58,138,206475,6,2,B|4:168|10:243|10:243|31:256|45:284,1,167.200005102539,2|8,1:1|0:2,0:1:0:0:
66,354,206835,1,2,1:2:0:0:
147,371,206955,2,2,L|264:350,1,83.6000025512696,2|0,0:1|1:2,0:1:0:0:
264,215,207195,2,2,L|182:230,1,83.6000025512696,10|0,0:1|0:1,0:1:0:0:
331,309,207435,6,2,P|353:356|466:345,1,167.200005102539,6|8,1:1|0:2,0:1:0:0:
387,220,207795,2,2,P|464:235|512:172,1,167.200005102539,2|0,1:1|1:2,0:1:0:0:
404,118,208155,2,2,P|399:67|378:34,1,83.6000025512696,10|0,0:1|0:2,0:1:0:0:
279,55,208395,2,2,P|239:22|201:13,1,83.6000025512696,2|0,1:1|0:2,0:1:0:0:
146,98,208635,2,0,P|94:103|62:124,1,83.6000025512696,12|0,0:2|0:2,0:2:0:0:
0,214,208875,5,8,1:3:0:0:
0,214,208995,1,8,1:3:0:0:
66,284,209115,1,4,1:3:0:0:
66,284,209235,1,4,1:3:0:0:
147,240,209355,6,0,B|242:215|208:292|313:257,1,167.200005102539,6|8,1:1|0:2,0:0:0:0:
390,225,209715,1,2,0:2:0:0:
323,162,209835,2,0,B|312:121|312:121|329:83,1,83.6000025512696,2|0,1:1|1:2,0:2:0:0:
471,194,210075,2,0,B|482:235|482:235|465:273,1,83.6000025512696,10|0,0:1|0:2,0:2:0:0:
384,365,210315,6,2,B|333:349|333:349|296:366|296:366|208:347,1,167.200005102539,2|8,1:1|0:2,0:1:0:0:
172,218,210675,2,2,P|217:161|182:50,1,167.200005102539,2|0,1:1|1:2,0:1:0:0:
106,8,211035,2,2,L|112:100,1,83.6000025512696,10|0,0:1|0:2,0:1:0:0:
247,145,211275,6,0,B|372:109|300:192|459:143,1,190,6|8,1:1|0:2,0:0:0:0:
277,236,211635,2,0,B|152:200|224:283|65:234,1,190,6|0,1:1|1:2,0:0:0:0:
0,199,211995,6,0,L|6:297,1,95,14|0,1:1|0:2,0:0:0:0:
158,384,212235,2,2,L|164:286,1,95,6|0,1:1|0:0,0:1:0:0:
253,216,212475,5,8,1:3:0:0:
253,216,212595,1,8,1:3:0:0:
315,290,212715,1,4,1:3:0:0:
315,290,212835,1,4,1:3:0:0:
408,275,212955,1,8,1:3:0:0:
408,275,213075,1,8,1:3:0:0:
465,194,213195,6,2,B|448:153|448:153|473:82|434:23,1,174.800003334045,14|10,1:1|0:2,0:1:0:0:
344,153,213555,2,2,P|292:176|199:109,1,174.800003334045,2|2,0:1|1:2,0:1:0:0:
141,33,213915,1,10,0:1:0:0:
141,33,214035,1,0,1:2:0:0:
60,77,214155,6,0,P|22:151|49:241,1,174.800003334045,2|10,1:1|0:2,0:2:0:0:
0,340,214515,2,2,B|55:352|55:352|102:305|182:322,1,174.800003334045,2|0,1:1|1:2,0:1:0:0:
266,384,214875,2,2,L|259:280,1,87.4000016670227,10|0,0:1|0:0,0:1:0:0:
360,206,215115,6,2,B|349:295|349:295|287:331|262:260,1,174.800003334045,6|8,1:1|0:2,0:1:0:0:
180,220,215475,2,2,B|70:185|110:247|9:213,1,174.800003334045,2|0,1:1|1:2,2:1:0:0:
101,113,215835,2,2,P|104:65|144:26,1,87.4000016670227,10|0,0:1|0:0,0:1:0:0:
217,153,216075,2,2,P|214:201|174:240,1,87.4000016670227,2|0,1:1|0:2,0:1:0:0:
319,127,216315,2,0,P|322:79|362:40,1,87.4000016670227,12|0,0:2|0:2,0:2:0:0:
460,0,216555,5,8,1:3:0:0:
460,0,216675,1,8,1:3:0:0:
494,90,216795,1,4,1:3:0:0:
494,90,216915,1,4,1:3:0:0:
419,170,217035,6,0,B|349:157|349:157|319:168|319:168|237:153,1,174.800003334045,6|10,1:1|0:2,0:0:0:0:
175,92,217395,1,0,0:2:0:0:
87,132,217515,2,0,P|68:170|73:213,1,87.4000016670227,2|0,1:1|1:2,0:0:0:0:
15,318,217755,2,0,L|123:295,1,87.4000016670227,10|0,0:2|0:2,0:0:0:0:
211,350,217995,6,0,B|283:356|283:356|301:370|301:370|399:381,1,174.800003334045,2|10,1:1|0:2,0:0:0:0:
477,340,218355,1,0,1:2:0:0:
397,271,218475,2,0,B|385:228|385:228|401:183,1,87.4000016670227,2|0,0:1|1:2,0:0:0:0:
509,131,218715,2,0,B|523:171|523:171|511:214,1,87.4000016670227,10|0,0:2|0:2,0:0:0:0:
372,97,218955,6,2,B|333:72|261:84|303:132|236:139|195:111,1,190,4|8,1:1|0:2,0:1:0:0:
99,28,219315,2,2,B|47:55|47:55|26:125|85:185,1,190,6|0,1:1|1:2,0:1:0:0:
19,281,219675,2,2,P|61:265|115:263,1,95,14|0,0:1|0:2,0:1:0:0:
188,384,219915,6,0,B|195:347|195:347|192:338|192:338|202:291,1,95,6|8,1:1|1:2,0:0:0:0:
281,239,220155,1,2,1:2:0:0:
334,317,220275,2,0,B|374:340|374:340|428:326,1,95,8|8,1:2|1:3,0:0:0:0:
505,256,220515,5,8,1:3:0:0:
444,195,220635,1,4,1:3:0:0:
474,115,220755,1,4,1:3:0:0:
399,65,220875,6,0,B|289:121|179:24|179:24|51:66,1,364.8,6|0,1:1|0:2,0:2:0:0:
237,110,221835,6,0,P|320:248|173:184,1,425.599987011719,6|4,1:1|0:2,0:2:0:0:
319,212,230475,6,0,L|427:202,1,106.39999675293,4|0,1:2|0:2,0:2:0:0:
276,129,230955,2,0,L|265:18,1,106.39999675293,0|0,1:2|0:2,0:2:0:0:
193,172,231435,2,0,L|84:181,1,106.39999675293,0|0,1:2|0:2,0:2:0:0:
236,255,231915,2,0,L|246:365,1,106.39999675293,0|0,1:2|0:2,0:2:0:0:
339,216,232395,6,0,P|397:219|440:179,1,106.39999675293,4|0,1:2|0:2,0:2:0:0:
280,109,232875,2,0,P|283:51|243:8,1,106.39999675293,0|0,1:2|0:2,0:2:0:0:
173,168,233355,2,0,P|115:165|72:205,1,106.39999675293,0|0,1:2|0:2,0:2:0:0:
280,275,233835,5,8,0:2:0:0:
196,368,234075,1,8,0:2:0:0:
196,368,234195,1,8,0:2:0:0:
124,323,234315,6,0,P|70:315|15:385,2,136.799995825195,12|8|2,0:3|0:2|1:2,0:2:0:0:
196,368,234915,1,0,1:2:0:0:
268,330,235035,2,0,P|277:301|266:247,1,68.3999979125977,10|0,0:2|0:2,0:2:0:0:
157,235,235275,2,0,P|143:147|175:88,1,136.799995825195,2|10,1:2|0:2,0:2:0:0:
218,46,235635,1,0,1:2:0:0:
290,84,235755,2,0,P|323:80|353:63,1,68.3999979125977,2|0,0:2|1:2,0:2:0:0:
218,46,235995,2,10,P|186:28|147:27,1,68.3999979125977,10|0,0:2|0:2,0:2:0:0:
364,57,236235,6,0,P|412:53|472:157,1,167.200005102539,6|8,1:2|0:2,0:2:0:0:
377,204,236595,2,0,P|329:200|269:304,1,167.200005102539,2|0,1:2|1:2,0:2:0:0:
336,364,236955,2,0,P|375:351|435:347,1,83.6000025512696,10|0,0:2|0:0,0:2:0:0:
254,275,237195,6,0,B|192:252|105:267|197:350|63:378|-27:309|5:242|48:196|93:229,1,364.799988867188,6|2,1:2|2:3,0:2:0:0:
477,384,241035,2,0,L|480:297,1,76,0|0,0:2|0:2,0:2:0:0:
479,308,241515,2,0,B|379:296|430:232|328:217,1,182.399994433594,2|2,0:2|2:3,0:2:0:0:
329,217,242475,6,0,L|416:203,1,88.1600026904298,12|2,0:3|1:2,0:0:0:0:
183,167,242715,2,0,L|95:180,1,88.1600026904298,8|0,2:2|1:2,0:0:0:0:
254,35,242955,6,0,P|269:122|364:114,1,176.32000538086,2|8,1:2|2:2,0:2:0:0:
497,59,243315,2,0,L|402:48,1,88.1600026904298,2|0,1:2|0:2,0:2:0:0:
344,129,243555,1,2,1:2:0:0:
416,203,243675,2,0,L|503:192,1,88.1600026904298,8|0,2:2|1:2,0:0:0:0:
330,136,243915,6,0,B|261:108|213:155|213:155|165:123,1,176.32000538086,6|8,1:2|2:2,0:2:0:0:
289,225,244275,2,0,B|324:271|302:344|302:344|247:364,1,176.32000538086,2|2,1:2|1:2,0:2:0:0:
75,273,244635,1,8,0:2:0:0:
75,273,244755,1,0,1:2:0:0:
42,354,244875,6,0,P|87:360|136:331,1,88.1600026904298,2|0,1:2|0:2,0:2:0:0:
105,192,245115,2,0,P|60:186|11:215,1,88.1600026904298,10|0,0:2|0:2,0:2:0:0:
180,260,245355,1,8,1:3:0:0:
180,260,245475,1,8,1:3:0:0:
256,192,245595,1,4,1:3:0:0:
256,192,245715,1,4,1:3:0:0:
352,223,245835,6,0,B|396:268|444:248|444:248|424:213|381:220,1,176.32000538086,6|8,1:2|0:2,0:2:0:0:
181,259,246195,2,0,B|120:275|113:326|113:326|153:326|169:286,1,176.32000538086,0|0,1:2|1:2,0:2:0:0:
234,93,246555,2,0,B|251:32|210:1|210:1|190:36|217:69,1,176.32000538086,8|0,0:2|1:2,0:2:0:0:
386,298,247035,5,10,0:2:0:0:
386,298,247155,1,0,1:2:0:0:
452,227,247275,2,0,P|462:188|437:130,1,88.1600026904298,2|0,0:2|1:2,0:2:0:0:
306,234,247515,2,0,P|292:192|302:150,1,88.1600026904298,10|0,0:2|0:2,0:2:0:0:
366,86,247755,5,6,0:2:0:0:
366,86,247875,2,0,P|416:62|401:-12,1,121.6,0|0,1:2|1:2,0:0:0:0:
450,79,248235,5,12,0:2:0:0:
450,79,248355,2,0,P|500:103|485:177,1,121.6,0|0,1:2|1:2,0:0:0:0:
450,231,248715,5,4,1:2:0:0:
366,86,248955,1,0,1:2:0:0:
368,275,249195,5,8,1:2:0:0:
368,275,249315,1,8,1:2:0:0:
381,177,249435,1,8,1:2:0:0:
291,135,249555,1,8,1:2:0:0:
215,200,249675,6,0,B|173:230|173:230|101:222|80:158,1,176.32000538086,12|8,1:3|0:2,0:2:0:0:
179,72,250035,2,0,B|290:68|222:11|345:7,1,176.32000538086,0|0,1:2|1:2,0:2:0:0:
500,67,250395,5,10,0:2:0:0:
500,67,250515,1,2,0:2:0:0:
486,162,250635,2,0,L|469:277,1,88.1600026904298,0|0,1:2|0:2,0:2:0:0:
487,344,250875,5,10,0:2:0:0:
487,344,250995,1,2,1:2:0:0:
473,249,251115,2,0,L|456:133,1,88.1600026904298,2|0,0:2|1:2,0:2:0:0:
474,66,251355,5,10,0:2:0:0:
474,66,251475,1,2,0:2:0:0:
460,161,251595,2,0,L|443:276,1,88.1600026904298,6|0,1:2|0:2,0:2:0:0:
461,343,251835,5,10,0:2:0:0:
461,343,251955,1,2,1:2:0:0:
447,248,252075,2,0,L|430:132,1,88.1600026904298,2|0,0:2|1:2,0:2:0:0:
337,86,252315,5,10,0:2:0:0:
337,86,252435,1,2,0:2:0:0:
260,145,252555,2,0,P|220:148|175:116,1,88.1600026904298,2|0,1:2|0:2,0:2:0:0:
337,86,252795,2,0,P|373:62|416:64,1,88.1600026904298,14|0,0:2|0:2,0:2:0:0:
512,144,253035,5,8,1:3:0:0:
512,144,253155,1,8,1:3:0:0:
467,233,253275,1,4,1:3:0:0:
467,233,253395,1,4,1:3:0:0:
368,184,253515,6,0,P|317:168|235:254,1,176.32000538086,6|10,1:2|0:2,0:2:0:0:
256,338,253875,1,2,0:2:0:0:
344,377,253995,2,0,P|402:366|439:334,1,88.1600026904298,2|0,1:2|1:2,0:2:0:0:
491,245,254235,5,10,0:2:0:0:
491,245,254355,1,2,0:2:0:0:
475,149,254475,2,0,P|436:104|390:88,1,88.1600026904298,2|0,1:2|0:2,0:2:0:0:
295,58,254715,5,10,0:2:0:0:
295,58,254835,1,2,1:2:0:0:
219,119,254955,2,0,P|199:174|208:222,1,88.1600026904298,2|0,0:2|1:2,0:2:0:0:
256,317,255195,5,10,0:2:0:0:
256,317,255315,1,2,0:2:0:0:
166,371,255435,2,0,P|82:373|51:297,1,176.32000538086,6|8,1:2|0:2,0:2:0:0:
0,207,255795,1,6,1:2:0:0:
0,207,255915,2,0,P|46:213|86:183,1,88.1600026904298,2|0,0:2|1:2,0:2:0:0:
121,61,256155,2,0,P|163:54|200:76,1,88.1600026904298,14|0,0:2|0:2,0:2:0:0:
311,172,256395,5,6,1:2:0:0:
374,110,256515,1,8,0:2:0:0:
327,35,256635,1,0,1:2:0:0:
215,192,256875,5,12,0:2:0:0:
333,265,257115,5,8,0:3:0:0:
404,241,257235,1,8,0:3:0:0:
466,282,257355,1,4,1:2:0:0:
306,374,257835,5,0,0:2:0:0:
170,302,258315,5,0,0:2:0:0:
70,343,258795,5,0,0:2:0:0:
0,295,259275,6,0,B|79:313|127:270|136:198|128:200|117:203|124:137|189:83|259:106,1,364.799988867188,6|2,1:2|0:3,0:2:0:0:
259,106,261195,6,0,B|282:122|282:122|412:109,2,159.599995129395,12|8|2,1:3|0:2|1:2,0:2:0:0:
166,53,261795,1,0,1:2:0:0:
109,119,261915,2,0,P|97:151|111:214,1,79.7999975646974,10|0,0:2|0:2,0:2:0:0:
202,272,262155,2,0,B|332:259|332:259|355:275,1,159.599995129395,2|8,1:2|0:2,0:2:0:0:
431,354,262515,1,0,1:2:0:0:
490,289,262635,2,0,P|507:242|480:131,1,159.599995129395,2|8,0:2|0:2,2:2:0:0:
390,60,263115,6,0,P|323:78|247:13,1,159.599995129395,6|8,1:2|0:2,0:2:0:0:
188,98,263475,2,0,P|112:81|51:128,1,159.599995129395,2|0,1:2|1:2,0:2:0:0:
92,227,263835,2,0,L|13:241,1,79.7999975646974,10|0,0:2|0:2,0:2:0:0:
177,321,264075,2,0,L|98:335,1,79.7999975646974,2|0,1:2|0:0,0:2:0:0:
183,192,264315,2,0,L|104:206,1,79.7999975646974,12|0,0:2|0:2,0:2:0:0:
252,259,264555,5,8,1:3:0:0:
252,259,264675,1,8,1:3:0:0:
279,165,264795,1,4,1:3:0:0:
279,165,264915,1,4,1:3:0:0:
362,226,265035,6,0,P|424:247|521:208,2,159.599995129395,4|8|2,1:2|0:2|1:2,0:2:0:0:
279,165,265635,1,0,1:2:0:0:
346,109,265755,2,0,B|377:104|377:104|382:107|382:107|453:95,1,79.7999975646974,10|0,0:2|0:2,0:2:0:0:
277,39,265995,2,0,P|212:24|148:96,1,159.599995129395,2|10,1:2|0:2,0:2:0:0:
124,180,266355,1,0,1:2:0:0:
50,131,266475,2,0,L|37:34,1,79.7999975646974,2|0,0:2|1:2,0:2:0:0:
150,83,266715,2,0,L|229:72,1,79.7999975646974,10|0,0:2|0:2,0:2:0:0:
353,140,266955,6,0,B|395:158|395:158|436:89|385:31,1,182.399994433594,4|8,1:2|0:2,0:2:0:0:
233,161,267315,2,0,B|182:218|223:287|223:287|265:269,1,182.399994433594,4|0,1:2|1:2,0:2:0:0:
411,198,267675,2,0,P|460:179|509:198,1,91.199997216797,14|0,0:2|0:2,0:2:0:0:
446,347,267915,2,0,P|397:366|348:347,1,91.199997216797,6|0,1:2|0:2,0:2:0:0:
271,277,268155,5,8,1:3:0:0:
271,277,268275,1,8,1:3:0:0:
233,361,268395,1,4,1:3:0:0:
233,361,268515,1,4,1:3:0:0:
181,292,268635,1,8,1:3:0:0:
181,292,268755,1,8,1:3:0:0:
271,277,268875,6,0,B|300:262|309:239|309:239|306:179|268:134,1,159.599995129395,12|8,1:3|0:2,0:2:0:0:
350,68,269235,2,0,P|296:106|196:67,1,159.599995129395,2|0,1:2|1:2,0:2:0:0:
147,19,269595,1,10,0:2:0:0:
147,19,269715,1,0,0:2:0:0:
69,75,269835,2,0,B|37:112|34:172|34:172|43:195|72:210,1,159.599995129395,2|8,1:2|0:2,0:2:0:0:
158,197,270195,1,0,1:2:0:0:
209,268,270315,2,0,P|215:310|198:366,1,79.7999975646974,2|0,0:2|1:2,0:2:0:0:
70,376,270555,2,0,P|63:336|71:297,1,79.7999975646974,10|0,0:2|0:2,0:2:0:0:
158,197,270795,6,0,P|208:236|302:206,1,159.599995129395,6|8,1:2|0:2,0:2:0:0:
356,151,271155,1,0,1:2:0:0:
306,78,271275,2,0,L|223:64,1,79.7999975646974,2|0,0:2|1:2,0:2:0:0:
153,175,271515,2,0,L|74:161,1,79.7999975646974,8|0,0:2|0:2,0:2:0:0:
149,87,271755,2,0,P|147:47|165:12,1,79.7999975646974,2|0,1:2|0:2,0:2:0:0:
228,157,271995,2,0,P|229:196|211:231,1,79.7999975646974,8|0,0:2|0:2,0:2:0:0:
132,296,272235,5,8,1:3:0:0:
132,296,272355,1,8,1:3:0:0:
196,363,272475,1,4,1:3:0:0:
196,363,272595,1,4,1:3:0:0:
269,315,272715,6,0,P|318:303|413:370,2,159.599995129395,6|8|2,1:2|0:2|1:2,0:2:0:0:
196,363,273315,1,0,1:2:0:0:
132,296,273435,2,0,B|122:257|122:257|135:218,1,79.7999975646974,10|0,0:2|0:2,0:2:0:0:
223,159,273675,2,0,P|272:171|367:104,1,159.599995129395,2|10,1:2|0:2,0:2:0:0:
393,36,274035,1,0,1:2:0:0:
469,78,274155,2,0,P|476:111|449:177,1,79.7999975646974,2|0,0:2|1:2,0:2:0:0:
363,272,274395,2,0,L|338:172,1,79.7999975646974,10|0,0:2|0:2,0:2:0:0:
240,79,274635,6,0,P|148:78|125:167,1,197.59999095459,6|8,1:2|0:2,0:2:0:0:
360,117,274995,2,0,P|451:116|474:205,1,197.59999095459,6|0,1:2|1:2,0:2:0:0:
354,295,275416,6,0,P|322:281|228:292,1,114.000004348755,14|6,0:2|1:2,0:0:0:0:
111,366,276304,5,14,0:2:0:0:
25,297,276913,6,0,L|20:191,2,91.199997216797,4|0|0,0:2|0:2|0:2,0:2:0:0:
111,366,278713,2,0,P|141:365|163:353,1,45.5999986083985,0|0,0:2|0:2,0:2:0:0:
200,328,279313,2,0,P|189:294|198:226,1,91.199997216797,2|0,0:2|0:2,0:2:0:0:
256,168,280513,2,0,P|299:181|352:166,1,91.199997216797,0|0,0:2|0:2,0:2:0:0:
399,120,281413,5,0,0:2:0:0:
396,111,281563,1,0,0:2:0:0:
394,102,281713,2,0,P|391:52|407:12,1,91.199997216797,2|0,0:2|0:2,0:2:0:0:
499,104,282913,6,0,P|502:154|486:194,1,83.6000025512696,2|2,0:2|0:2,0:2:0:0:
387,259,284113,6,0,P|358:237|292:242,1,102.599996868897,2|0,0:3|0:2,0:2:0:0:
295,241,285313,6,0,B|290:301|247:318|247:318|226:303,1,121.6,2|4,0:2|0:2,0:2:0:0:
