osu file format v14

[General]
AudioFilename: audio.mp3
AudioLeadIn: 0
PreviewTime: 84015
Countdown: 0
SampleSet: Soft
StackLeniency: 0.7
Mode: 0
LetterboxInBreaks: 0
WidescreenStoryboard: 1

[Editor]
DistanceSpacing: 0.7
BeatDivisor: 4
GridSize: 32
TimelineZoom: 1.6

[Metadata]
Title:Maisery
TitleUnicode:Maisery
Artist:Symholic
ArtistUnicode:Symholic
Creator:Lasse
Version:Hard
Source:
Tags:Paspal Lalue 葉月ゆら Hatsuki Yura Japanese Doujin Symphonic Rock Metal Misery featured artist fa mappers' guild mpg
BeatmapID:2742997
BeatmapSetID:1322631

[Difficulty]
HPDrainRate:4.5
CircleSize:3.8
OverallDifficulty:7
ApproachRate:8
SliderMultiplier:1.3
SliderTickRate:1

[Events]
//Background and Video events
0,0,"thiscouldbeus.jpg",0,0
//Break Periods
2,52115,58845
2,69195,76125
2,153875,160605
2,170955,177885
2,222994,229725
//Storyboard Layer 0 (Background)
//Storyboard Layer 1 (Fail)
//Storyboard Layer 2 (Pass)
//Storyboard Layer 3 (Foreground)
//Storyboard Layer 4 (Overlay)
//Storyboard Sound Samples

[TimingPoints]
-1845,240,4,2,1,50,1,0
1635,-125,4,2,1,50,0,0
1995,-100,4,2,1,70,0,0
5055,-100,4,2,1,50,0,0
5115,-100,4,2,1,70,0,0
5355,-100,4,2,2,70,0,0
5835,-100,4,2,1,70,0,0
7515,-100,4,2,1,70,0,0
7695,-100,4,2,1,50,0,0
7755,-83.3333333333333,4,2,1,70,0,0
8895,-100,4,2,1,50,0,0
8955,-100,4,2,2,70,0,0
9435,-100,4,2,3,70,0,0
9675,-100,4,2,1,70,0,0
13035,-100,4,2,2,70,0,0
13515,-100,4,2,1,70,0,0
15435,-83.3333333333333,4,2,1,70,0,0
16575,-100,4,2,1,50,0,0
16635,-100,4,2,1,70,0,0
16755,-100,4,2,2,70,0,0
16995,-100,4,2,1,70,0,0
17115,-100,4,2,2,70,0,0
17355,-100,4,2,2,65,0,0
18315,-111.111111111111,4,2,2,64,0,0
18395,-100,4,2,1,5,0,0
18475,-100,4,2,2,62,0,0
18555,-100,4,2,1,5,0,0
18635,-100,4,2,2,60,0,0
18715,-100,4,2,1,5,0,0
18795,-125,4,2,2,57,0,0
18875,-100,4,2,1,5,0,0
18955,-100,4,2,2,54,0,0
19035,-100,4,2,1,5,0,0
19115,-100,4,2,2,50,0,0
19195,-100,4,2,1,5,0,0
19275,-152.20700152207,4,2,1,55,0,0
19395,-125,4,2,1,30,0,0
20715,-125,4,2,2,55,0,0
21195,-111.111111111111,4,2,1,62,0,0
24555,-111.111111111111,4,2,2,62,0,0
25035,-111.111111111111,4,2,1,62,0,0
26955,-90.9090909090909,4,2,1,62,0,0
28155,-111.111111111111,4,2,1,62,0,0
28395,-111.111111111111,4,2,2,62,0,0
28875,-111.111111111111,4,2,1,62,0,0
32235,-111.111111111111,4,2,2,62,0,0
32715,-111.111111111111,4,2,1,62,0,0
34635,-90.9090909090908,4,2,1,62,0,0
35595,-111.111111111111,4,2,1,62,0,0
36075,-142.857142857143,4,2,1,50,0,0
36555,-105.263157894737,4,2,1,64,0,0
39915,-105.263157894737,4,2,2,64,0,0
40395,-105.263157894737,4,2,1,64,0,0
42315,-86.9565217391306,4,2,1,64,0,0
43455,-105.263157894737,4,2,1,46,0,0
43515,-105.263157894737,4,2,2,64,0,0
43995,-105.263157894737,4,2,3,64,0,0
44235,-105.263157894737,4,2,1,64,0,0
47595,-105.263157894737,4,2,2,64,0,0
48075,-105.263157894737,4,2,1,62,0,0
49995,-86.9565217391306,4,2,1,67,0,0
50895,-105.263157894737,4,2,1,40,0,0
50955,-153.846153846153,4,2,1,54,0,0
51075,-105.263157894737,4,2,1,20,0,0
51915,-105.263157894737,4,2,3,30,0,0
59595,-125,4,2,2,50,0,0
62955,-125,4,2,2,52,0,0
63435,-111.111111111111,4,2,1,55,0,0
65355,-105.263157894737,4,2,1,60,0,0
66795,-111.111111111111,4,2,2,60,0,0
69195,-111.111111111111,4,2,1,35,0,0
69435,-111.111111111111,4,2,1,25,0,0
69675,-111.111111111111,4,2,1,35,0,0
70395,-111.111111111111,4,2,1,25,0,0
70635,-111.111111111111,4,2,1,35,0,0
71355,-111.111111111111,4,2,1,25,0,0
71835,-111.111111111111,4,2,1,35,0,0
73275,-111.111111111111,4,2,1,25,0,0
73515,-111.111111111111,4,2,1,35,0,0
75195,-111.111111111111,4,2,1,25,0,0
75435,-111.111111111111,4,2,1,35,0,0
75915,-111.111111111111,4,2,1,40,0,0
76875,-125,4,2,2,52,0,0
82635,-111.111111111111,4,2,2,54,0,0
83115,-111.111111111111,4,2,2,58,0,0
83595,-111.111111111111,4,2,1,60,0,0
84075,-111.111111111111,4,2,1,30,0,0
84555,-90.9090909090909,4,2,1,72,0,1
87915,-90.9090909090909,4,2,2,72,0,1
88395,-90.9090909090909,4,2,1,72,0,1
90315,-125,4,2,2,60,0,0
91755,-100,4,2,2,65,0,0
92235,-90.9090909090909,4,2,1,72,0,1
95595,-90.9090909090909,4,2,2,72,0,1
96075,-90.9090909090909,4,2,1,72,0,1
99675,-111.111111111111,4,2,2,65,0,0
99915,-142.857142857143,4,2,1,65,0,0
100395,-111.111111111111,4,2,1,40,0,0
101835,-142.857142857143,4,2,1,50,0,0
102075,-111.111111111111,4,2,1,20,0,0
102795,-111.111111111111,4,2,3,22,0,0
103395,-125,4,2,1,50,0,0
103755,-100,4,2,1,70,0,0
106815,-100,4,2,1,50,0,0
106875,-100,4,2,1,70,0,0
107115,-100,4,2,2,70,0,0
107595,-100,4,2,1,70,0,0
109275,-100,4,2,1,70,0,0
109455,-100,4,2,1,50,0,0
109515,-83.3333333333333,4,2,1,70,0,0
110655,-100,4,2,1,70,0,0
110715,-100,4,2,2,70,0,0
111195,-100,4,2,3,70,0,0
111435,-100,4,2,1,70,0,0
114795,-100,4,2,2,70,0,0
115275,-100,4,2,1,70,0,0
117195,-83.3333333333333,4,2,1,70,0,0
118335,-100,4,2,1,50,0,0
118395,-100,4,2,1,70,0,0
118515,-100,4,2,2,70,0,0
118755,-100,4,2,1,70,0,0
118875,-100,4,2,2,70,0,0
119115,-100,4,2,2,65,0,0
120075,-111.111111111111,4,2,2,64,0,0
120155,-100,4,2,1,5,0,0
120235,-100,4,2,2,62,0,0
120315,-100,4,2,1,5,0,0
120395,-100,4,2,2,60,0,0
120475,-100,4,2,1,5,0,0
120555,-125,4,2,2,57,0,0
120635,-100,4,2,1,5,0,0
120715,-100,4,2,2,54,0,0
120795,-100,4,2,1,5,0,0
120875,-100,4,2,2,50,0,0
120955,-100,4,2,1,5,0,0
121035,-152.20700152207,4,2,1,55,0,0
121155,-125,4,2,1,30,0,0
122475,-125,4,2,2,55,0,0
122955,-138.888888888889,4,2,1,50,0,0
123195,-133.333333333333,4,2,1,30,0,0
124635,-133.333333333333,4,2,1,40,0,0
124875,-133.333333333333,4,2,1,52,0,0
125115,-133.333333333333,4,2,1,30,0,0
126195,-133.333333333333,4,2,1,40,0,0
126315,-121.951219512195,4,2,1,48,0,0
126375,-121.951219512195,4,2,1,30,0,0
126675,-121.951219512195,4,2,1,42,0,0
126795,-111.111111111111,4,2,1,62,0,0
128715,-90.9090909090909,4,2,1,62,0,0
129915,-111.111111111111,4,2,1,62,0,0
130155,-111.111111111111,4,2,2,62,0,0
130635,-111.111111111111,4,2,1,62,0,0
133995,-111.111111111111,4,2,2,62,0,0
134475,-111.111111111111,4,2,1,62,0,0
136395,-90.9090909090908,4,2,1,62,0,0
137355,-111.111111111111,4,2,1,62,0,0
137835,-142.857142857143,4,2,1,50,0,0
138315,-105.263157894737,4,2,1,64,0,0
141675,-105.263157894737,4,2,2,64,0,0
142155,-105.263157894737,4,2,1,64,0,0
144075,-86.9565217391306,4,2,1,64,0,0
145215,-105.263157894737,4,2,1,46,0,0
145275,-105.263157894737,4,2,2,64,0,0
145755,-105.263157894737,4,2,3,64,0,0
145995,-105.263157894737,4,2,1,64,0,0
149355,-105.263157894737,4,2,2,64,0,0
149835,-105.263157894737,4,2,1,62,0,0
151755,-86.9565217391306,4,2,1,67,0,0
152655,-105.263157894737,4,2,1,40,0,0
152715,-153.846153846153,4,2,1,54,0,0
152835,-105.263157894737,4,2,1,20,0,0
153675,-105.263157894737,4,2,3,30,0,0
161355,-125,4,2,2,50,0,0
164715,-125,4,2,2,52,0,0
165195,-111.111111111111,4,2,1,55,0,0
167115,-105.263157894737,4,2,1,60,0,0
168555,-111.111111111111,4,2,2,60,0,0
170955,-111.111111111111,4,2,1,35,0,0
171195,-111.111111111111,4,2,1,25,0,0
171435,-111.111111111111,4,2,1,35,0,0
172155,-111.111111111111,4,2,1,25,0,0
172395,-111.111111111111,4,2,1,35,0,0
173115,-111.111111111111,4,2,1,25,0,0
173595,-111.111111111111,4,2,1,35,0,0
175035,-111.111111111111,4,2,1,25,0,0
175275,-111.111111111111,4,2,1,35,0,0
176955,-111.111111111111,4,2,1,25,0,0
177195,-111.111111111111,4,2,1,35,0,0
177675,-111.111111111111,4,2,1,40,0,0
178635,-125,4,2,2,52,0,0
184395,-111.111111111111,4,2,2,54,0,0
184875,-111.111111111111,4,2,2,58,0,0
185355,-111.111111111111,4,2,1,60,0,0
185835,-111.111111111111,4,2,1,30,0,0
186315,-90.9090909090909,4,2,1,72,0,1
186375,-90.9090909090909,4,2,1,72,0,1
189675,-90.9090909090909,4,2,2,72,0,1
189735,-90.9090909090909,4,2,2,72,0,1
190155,-90.9090909090909,4,2,1,72,0,1
190215,-90.9090909090909,4,2,1,72,0,1
192075,-125,4,2,2,60,0,0
192135,-125,4,2,2,60,0,0
193515,-100,4,2,2,65,0,0
193575,-100,4,2,2,65,0,0
193995,-90.9090909090909,4,2,1,72,0,1
194055,-90.9090909090909,4,2,1,72,0,1
197355,-90.9090909090909,4,2,2,72,0,1
197415,-90.9090909090909,4,2,2,72,0,1
197835,-90.9090909090909,4,2,1,72,0,1
197895,-90.9090909090909,4,2,1,72,0,1
201435,-95.2380952380952,4,2,2,65,0,0
201675,-142.857142857143,4,2,1,65,0,0
202155,-111.111111111111,4,2,1,40,0,0
203595,-142.857142857143,4,2,1,50,0,0
203835,-111.111111111111,4,2,1,20,0,0
204555,-111.111111111111,4,2,3,22,0,0
204975,-125,4,2,1,50,0,0
205275,-111.111111111111,4,2,1,20,0,0
205395,-111.111111111111,4,2,1,30,0,0
205515,-95.2380952380952,4,2,2,72,0,0
205635,-95.2380952380952,4,2,1,72,0,0
207615,-95.2380952380952,4,2,1,50,0,0
207675,-95.2380952380952,4,2,1,72,0,0
208875,-95.2380952380952,4,2,2,72,0,0
209355,-95.2380952380952,4,2,1,72,0,0
211275,-86.9565217391304,4,2,1,72,0,0
212415,-95.2380952380952,4,2,1,50,0,0
212475,-95.2380952380952,4,2,2,72,0,0
212955,-95.2380952380952,4,2,3,72,0,0
213195,-90.9090909090909,4,2,2,72,0,0
213375,-90.9090909090909,4,2,1,50,0,0
213435,-90.9090909090909,4,2,1,72,0,0
214335,-90.9090909090909,4,2,1,50,0,0
214395,-90.9090909090909,4,2,1,72,0,0
215055,-90.9090909090909,4,2,1,50,0,0
215115,-90.9090909090909,4,2,1,72,0,0
216015,-90.9090909090909,4,2,1,50,0,0
216075,-90.9090909090909,4,2,1,72,0,0
216555,-90.9090909090909,4,2,2,72,0,0
217035,-90.9090909090909,4,2,1,72,0,0
217515,-90.9090909090909,4,2,1,73,0,0
217995,-90.9090909090909,4,2,1,74,0,0
218475,-90.9090909090909,4,2,1,75,0,0
218955,-90.9090909090909,4,2,1,74,0,0
220395,-90.9090909090909,4,2,2,74,0,0
220875,-125,4,2,1,60,0,0
220995,-90.9090909090909,4,2,1,20,0,0
221595,-90.9090909090909,4,2,1,40,0,0
221835,-125,4,2,1,50,0,0
221955,-90.9090909090909,4,2,1,20,0,0
222795,-90.9090909090909,4,2,3,40,0,0
230475,-125,4,2,2,40,0,0
230715,-125,4,2,2,30,0,0
230955,-125,4,2,2,40,0,0
231195,-125,4,2,2,30,0,0
231435,-125,4,2,2,40,0,0
231675,-125,4,2,2,30,0,0
231915,-125,4,2,2,40,0,0
232155,-125,4,2,2,30,0,0
232395,-125,4,2,2,45,0,0
232635,-125,4,2,2,30,0,0
232875,-125,4,2,2,45,0,0
233115,-125,4,2,2,30,0,0
233355,-125,4,2,2,45,0,0
233595,-125,4,2,2,30,0,0
233835,-125,4,2,2,48,0,0
234075,-125,4,2,2,52,0,0
234315,-111.111111111111,4,2,1,58,0,0
236235,-100,4,2,1,62,0,0
237135,-111.111111111111,4,2,1,30,0,0
237195,-142.857142857143,4,2,1,50,0,0
237315,-111.111111111111,4,2,1,5,0,0
238155,-111.111111111111,4,2,3,14,0,0
241035,-142.857142857143,4,2,1,24,0,0
241275,-111.111111111111,4,2,1,15,0,0
241515,-125,4,2,1,30,0,0
241995,-125,4,2,3,36,0,0
242475,-90.9090909090909,4,2,1,74,0,1
245355,-90.9090909090909,4,2,2,74,0,1
245835,-90.9090909090909,4,2,1,74,0,1
247755,-125,4,2,2,60,0,0
249195,-100,4,2,2,65,0,0
249675,-90.9090909090909,4,2,1,74,0,1
253035,-90.9090909090909,4,2,2,74,0,1
253515,-90.9090909090909,4,2,1,74,0,1
257115,-111.111111111111,4,2,2,67,0,0
257355,-142.857142857143,4,2,1,65,0,0
257835,-111.111111111111,4,2,1,40,0,0
259275,-142.857142857143,4,2,1,50,0,0
259515,-111.111111111111,4,2,1,20,0,0
260235,-111.111111111111,4,2,3,22,0,0
261195,-100,4,2,1,67,0,0
264255,-100,4,2,1,50,0,0
264315,-100,4,2,1,67,0,0
264555,-100,4,2,2,67,0,0
265035,-100,4,2,1,67,0,0
266955,-90.9090909090909,4,2,1,67,0,0
268155,-100,4,2,2,67,0,0
268635,-100,4,2,3,67,0,0
268875,-100,4,2,1,68,0,0
272235,-100,4,2,2,68,0,0
272715,-100,4,2,1,68,0,0
274635,-90.9090909090909,4,2,1,68,0,0
274995,265.486725663717,4,2,1,70,1,0
274995,-90.9090909090909,4,2,1,70,0,0
275260,312.5,4,2,1,65,1,0
275416,600,4,2,1,65,1,0
275416,-50,4,2,1,65,0,0
275716,588.235294117647,4,2,1,58,1,0
276304,609.137055837563,4,2,1,46,1,0
276304,-55.5555555555556,4,2,1,46,0,0
276913,600,4,2,3,35,1,0
276913,-142.857142857143,4,2,3,35,0,0
276988,-142.857142857143,4,2,3,25,0,0
281113,-142.857142857143,4,2,3,22,0,0
281413,-142.857142857143,4,2,3,20,0,0
281713,-142.857142857143,4,2,3,23,0,0
282913,-153.846153846154,4,2,3,22,0,0
283213,-153.846153846154,4,2,3,18,0,0
283513,-166.666666666667,4,2,3,20,0,0
283813,-166.666666666667,4,2,3,16,0,0
284113,-181.818181818182,4,2,3,18,0,0
284713,-181.818181818182,4,2,3,5,0,0
285013,-181.818181818182,4,2,3,12,0,0
285313,-200,4,2,3,15,0,0
285913,-200,4,2,3,5,0,0
286513,-200,4,2,3,10,0,0

[Colours]
Combo1 : 240,140,140
Combo2 : 200,180,220
Combo3 : 240,200,155
Combo4 : 150,185,220

[HitObjects]
14,257,1635,6,0,L|10:308,2,52
53,189,1995,6,0,P|89:183|131:266,1,130,12|8,1:3|2:0,0:1:0:0:
186,320,2355,2,0,P|222:326|264:243,1,130,2|0,1:2|1:0,0:1:0:0:
258,173,2715,1,10,1:2:0:0:
375,51,2955,2,0,P|411:45|453:128,1,130,2|8,1:2|2:2,0:2:0:0:
505,183,3315,2,0,P|511:219|428:261,1,130,2|0,1:2|1:2,0:2:0:0:
371,219,3675,1,10,1:2:0:0:
250,331,3915,6,0,B|202:318|202:318|177:336|177:336|109:320,1,130,6|8,1:2|2:2,2:2:0:0:
58,362,4275,2,0,P|45:324|96:250,1,130,2|0,1:2|1:2,0:2:0:0:
115,172,4635,2,0,L|50:181,1,65,10|0,1:2|0:2,0:2:0:0:
1,112,4875,2,0,L|136:91,1,130,2|12,1:2|1:2,0:2:0:0:
279,0,5355,5,8,1:3:0:0:
268,44,5475,1,8,1:3:0:0:
284,86,5595,1,4,1:3:0:0:
325,104,5715,1,4,1:3:0:0:
370,99,5835,6,0,P|428:93|459:174,1,130,6|8,1:2|2:2,0:2:0:0:
420,219,6195,2,0,L|282:206,1,130,2|0,1:2|1:2,0:2:0:0:
218,162,6555,1,10,1:2:0:0:
63,231,6795,2,0,B|30:263|30:263|52:356,1,130,2|8,1:2|2:2,0:2:0:0:
129,372,7155,2,0,P|196:339|255:346,1,130,2|0,1:2|1:2,0:2:0:0:
324,382,7515,1,10,1:2:0:0:
509,299,7755,6,0,P|435:298|377:232,1,155.999995239258,6|8,1:2|2:2,0:1:0:0:
284,210,8115,2,0,P|360:208|412:153,1,155.999995239258,6|0,1:2|1:2,0:2:0:0:
478,75,8475,2,0,L|389:55,1,77.999997619629,14|0,1:2|0:2,0:2:0:0:
283,9,8715,6,0,B|276:56|243:68|243:68|143:36,1,155.999995239258,6|8,1:2|1:3,0:2:0:0:
82,31,9075,1,8,1:3:0:0:
20,89,9195,2,0,P|5:120|10:156,1,65,4|4,1:3|1:3,0:0:0:0:
58,217,9435,2,0,P|90:219|118:204,1,65,8|8,1:3|1:3,0:0:0:0:
218,146,9675,6,0,P|264:141|319:219,1,130,12|8,1:3|2:2,0:2:0:0:
391,154,10035,2,0,P|437:149|492:227,1,130,2|0,1:2|1:2,0:2:0:0:
487,290,10395,1,10,1:2:0:0:
337,367,10635,2,0,B|257:336|285:383|192:354,1,130,2|8,1:2|2:2,0:2:0:0:
175,280,10995,2,0,B|95:249|123:296|30:267,1,130,2|0,1:2|1:2,0:2:0:0:
1,200,11355,1,8,1:2:0:0:
63,43,11595,6,0,B|104:34|104:34|130:55|130:55|197:46,1,130,6|8,1:2|2:2,0:2:0:0:
257,5,11955,2,0,P|300:20|297:115,1,130,2|0,1:2|1:2,0:2:0:0:
249,151,12315,2,0,P|221:151|184:157,1,65,10|0,1:2|0:2,0:2:0:0:
310,208,12555,2,0,P|351:230|441:188,1,130,0|12,1:2|1:2,0:2:0:0:
510,60,13035,5,8,1:3:0:0:
474,88,13155,1,8,1:3:0:0:
429,98,13275,1,4,1:3:0:0:
384,86,13395,1,4,1:3:0:0:
351,53,13515,6,0,P|309:31|211:41,1,130,6|8,1:2|2:2,2:2:0:0:
166,91,13875,2,0,B|155:141|155:141|163:166|163:166|146:239,1,130,2|0,1:2|1:2,0:2:0:0:
132,299,14235,1,10,1:2:0:0:
2,190,14475,2,0,L|35:55,1,130,2|8,1:2|2:2,0:2:0:0:
151,217,14955,2,0,L|277:247,1,130,2|8,0:2|1:2,0:2:0:0:
466,174,15435,6,0,P|489:122|462:26,1,155.999995239258,6|8,1:2|2:2,0:2:0:0:
367,60,15795,2,0,P|344:112|371:208,1,155.999995239258,6|0,1:2|1:2,0:2:0:0:
441,275,16155,2,0,P|485:283|509:306,1,77.999997619629,14|0,1:2|0:2,0:2:0:0:
348,303,16395,2,0,P|300:341|191:311,1,155.999995239258,6|8,1:2|1:2,0:2:0:0:
183,292,16755,1,8,1:3:0:0:
137,286,16875,1,8,0:3:0:0:
97,309,16995,1,8,0:2:0:0:
92,354,17115,1,8,0:3:0:0:
0,199,17355,6,0,L|75:191,1,65,8|8,2:2|2:2,0:0:0:0:
149,191,17595,2,0,L|156:255,1,65,8|8,2:2|2:2,0:0:0:0:
291,126,17955,2,0,L|283:61,2,65,8|8|8,0:2|0:2|0:2,0:0:0:0:
359,176,18315,6,0,P|396:181|431:164,2,77.999997619629,14|8|4,3:2|3:3|3:3,0:2:0:0:
366,271,18795,6,0,P|401:286|438:278,2,69.3333333333333,10|8|4,3:2|3:3|3:3,0:2:0:0:
311,342,19275,6,0,B|242:322|191:374|191:374|133:334|138:257|138:257|88:208|13:235|13:235|89:239|118:291,1,512.460002658636,6|8,1:2|1:2,0:2:0:0:
24,189,21195,6,0,P|13:129|47:71,1,116.999996429443,12|8,1:3|2:2,0:2:0:0:
104,45,21555,2,0,P|146:55|200:10,1,116.999996429443,2|0,2:2|1:2,0:0:0:0:
253,78,21915,2,0,P|309:71|348:111,2,116.999996429443,10|0|10,2:2|1:2|2:2,0:2:0:0:
176,82,22515,1,0,1:2:0:0:
120,133,22635,2,0,P|79:172|86:228,1,116.999996429443,2|10,1:2|2:2,0:2:0:0:
180,348,23115,2,0,L|320:330,1,116.999996429443,6|8,1:2|0:2,0:2:0:0:
367,369,23475,2,0,L|393:230,1,116.999996429443,2|0,1:2|1:2,0:2:0:0:
444,197,23835,2,0,L|320:129,2,116.999996429443,10|0|8,0:2|1:2|0:2,0:2:0:0:
512,58,24555,5,8,1:3:0:0:
479,83,24675,1,8,1:3:0:0:
438,91,24795,1,4,1:3:0:0:
399,78,24915,1,4,1:3:0:0:
368,50,25035,6,0,P|321:33|255:80,1,116.999996429443,6|8,1:2|0:2,0:2:0:0:
282,142,25395,2,0,P|227:158|178:129,1,116.999996429443,2|0,1:2|1:2,0:0:0:0:
123,76,25755,2,0,L|140:-1,1,58.4999982147217,10|0,0:2|0:2,0:2:0:0:
51,111,25995,2,0,P|27:147|47:236,1,116.999996429443,2|10,1:2|0:2,0:2:0:0:
74,282,26355,1,0,1:2:0:0:
140,245,26475,2,0,P|195:230|257:244,1,116.999996429443,2|10,0:2|0:2,0:2:0:0:
381,376,26955,6,0,B|387:330|387:330|376:303|376:303|384:236,1,143.000004364014,6|8,1:2|0:2,0:2:0:0:
296,318,27315,2,0,B|302:272|302:272|291:245|291:245|299:178,1,143.000004364014,6|0,1:2|1:2,0:2:0:0:
211,260,27675,2,0,B|217:214|217:214|206:187|206:187|214:120,1,143.000004364014,14|4,1:2|1:2,0:2:0:0:
54,22,28155,5,8,1:2:0:0:
23,48,28275,1,0,1:2:0:0:
14,87,28395,1,8,1:3:0:0:
26,126,28515,1,8,1:3:0:0:
60,147,28635,1,4,1:3:0:0:
100,150,28755,1,4,1:3:0:0:
137,133,28875,6,0,P|174:104|262:113,1,116.999996429443,12|8,1:3|2:2,0:2:0:0:
299,153,29235,2,0,P|356:150|403:183,1,116.999996429443,2|0,0:2|1:2,0:0:0:0:
447,246,29595,2,0,L|428:377,2,116.999996429443,10|0|10,0:2|1:2|0:2,0:2:0:0:
508,199,30195,1,0,1:2:0:0:
465,135,30315,2,0,L|446:4,1,116.999996429443,2|10,1:2|0:2,0:2:0:0:
346,132,30795,2,0,P|291:137|217:92,1,116.999996429443,6|8,1:2|0:2,0:2:0:0:
167,147,31155,2,0,P|109:142|56:166,1,116.999996429443,2|0,1:2|1:2,0:2:0:0:
16,232,31515,2,0,L|-3:363,2,116.999996429443,10|0|12,0:2|1:2|0:2,0:2:0:0:
91,93,32235,5,8,1:3:0:0:
124,118,32355,1,8,1:3:0:0:
165,126,32475,1,4,1:3:0:0:
204,113,32595,1,4,1:3:0:0:
235,85,32715,6,0,B|266:70|266:70|372:90,1,116.999996429443,6|8,1:2|2:2,0:2:0:0:
380,154,33075,2,0,B|411:139|411:139|517:159,1,116.999996429443,2|0,0:2|1:2,0:0:0:0:
444,226,33435,2,0,L|502:236,1,58.4999982147217,10|0,0:2|0:2,0:2:0:0:
461,310,33675,2,0,P|451:349|368:353,1,116.999996429443,2|8,1:2|0:2,0:2:0:0:
324,316,34035,2,0,P|268:312|246:261,1,116.999996429443,2|0,1:2|1:2,0:0:0:0:
254,185,34395,2,0,L|334:173,1,58.4999982147217,10|0,0:2|0:2,0:2:0:0:
218,107,34635,6,0,B|185:125|185:125|73:90,1,143.000004364014,6|8,1:2|0:2,0:2:0:0:
9,149,34995,2,0,B|42:131|42:131|142:162,1,143.000004364014,6|0,1:2|1:2,0:2:0:0:
189,243,35355,2,0,B|156:261|156:261|55:229,1,143.000004364014,14|4,0:2|1:1,0:2:0:0:
55,229,36075,6,0,L|44:134,1,90.9999972229005,14|0,0:2|0:2,0:2:0:0:
162,29,36555,6,0,B|197:54|197:54|284:37,1,123.499996702194,12|8,1:3|0:2,0:2:0:0:
351,64,36915,2,0,P|400:75|422:144,1,123.499996702194,2|0,0:2|1:2,0:0:0:0:
484,191,37275,2,0,P|468:248|411:265,2,123.499996702194,10|0|10,0:2|1:2|0:2,0:2:0:0:
423,138,37875,1,0,1:2:0:0:
349,170,37995,2,0,L|219:151,1,123.499996702194,2|10,0:2|2:2,0:2:0:0:
99,283,38475,2,0,B|156:306|156:306|229:264,1,123.499996702194,6|8,1:2|0:2,0:2:0:0:
247,345,38835,2,0,B|304:368|304:368|377:326,1,123.499996702194,2|0,1:2|1:2,2:2:0:0:
401,269,39195,2,0,B|458:292|458:292|511:261,2,123.499996702194,10|2|12,0:2|1:2|0:2,0:2:0:0:
287,149,39915,5,8,1:3:0:0:
327,134,40035,1,8,1:3:0:0:
345,94,40155,1,4,1:3:0:0:
337,51,40275,1,4,1:3:0:0:
304,22,40395,6,0,B|250:16|250:16|229:29|229:29|166:21,1,123.499996702194,6|8,1:2|0:2,0:2:0:0:
106,39,40755,2,0,P|82:96|102:162,1,123.499996702194,2|0,0:2|1:2,0:0:0:0:
166,193,41115,2,0,L|239:180,1,61.7499983510972,10|0,0:2|0:2,0:2:0:0:
299,217,41355,2,0,P|322:274|303:340,1,123.499996702194,2|8,1:2|0:2,0:2:0:0:
241,377,41715,1,0,1:2:0:0:
163,355,41835,2,0,P|98:338|23:346,1,123.499996702194,2|10,0:2|0:2,0:2:0:0:
0,150,42315,6,0,B|42:170|42:170|74:115|138:115,1,149.500002851486,6|8,1:2|0:2,0:2:0:0:
125,212,42675,2,0,B|175:211|207:266|207:266|249:246,1,149.500002851486,6|0,1:2|1:2,0:2:0:0:
295,331,43035,2,0,B|336:311|336:311|368:366|418:365,1,149.500002851486,14|6,0:2|1:2,0:2:0:0:
385,205,43515,5,8,1:3:0:0:
427,197,43635,1,8,1:3:0:0:
460,169,43755,1,4,1:3:0:0:
471,127,43875,1,4,1:3:0:0:
460,84,43995,1,8,1:3:0:0:
429,53,44115,1,8,1:3:0:0:
386,43,44235,6,0,B|347:39|347:39|316:59|316:59|237:49,1,123.499996702194,12|8,0:3|0:2,0:2:0:0:
200,11,44595,2,0,P|217:84|160:137,1,123.499996702194,2|0,0:2|1:2,0:0:0:0:
112,120,44955,2,0,P|84:66|104:9,2,123.499996702194,8|0|10,0:2|1:2|0:2,0:2:0:0:
186,150,45555,1,0,1:2:0:0:
254,107,45675,2,0,P|303:93|388:109,1,123.499996702194,2|10,0:2|0:2,0:2:0:0:
450,244,46155,2,0,P|401:258|316:242,1,123.499996702194,6|8,1:2|0:2,0:2:0:0:
285,315,46515,2,0,P|236:329|151:313,1,123.499996702194,2|0,1:2|1:2,0:2:0:0:
119,253,46875,2,0,P|70:267|-15:251,2,123.499996702194,10|2|12,0:2|1:2|0:2,0:2:0:0:
242,150,47595,5,8,1:3:0:0:
209,121,47715,1,8,1:3:0:0:
205,74,47835,1,4,1:3:0:0:
230,39,47955,1,4,1:3:0:0:
272,30,48075,6,0,B|309:49|309:49|409:35,1,123.499996702194,6|8,1:2|0:2,0:2:0:0:
446,95,48435,2,0,P|476:110|487:211,1,123.499996702194,2|0,0:2|1:2,0:0:0:0:
452,258,48795,2,0,L|390:258,1,61.7499983510972,10|0,0:2|0:2,0:2:0:0:
320,296,49035,2,0,B|297:236|331:243|298:155,1,123.499996702194,2|10,1:2|0:2,0:2:0:0:
252,113,49395,1,0,1:2:0:0:
175,137,49515,2,0,P|122:151|44:124,1,123.499996702194,2|10,0:2|0:2,0:2:0:0:
5,321,49995,6,0,B|39:352|39:352|142:333,1,149.500002851486,6|8,1:2|0:2,0:2:0:0:
224,383,50355,2,0,B|258:352|258:352|361:371,1,149.500002851486,6|0,1:2|1:2,0:2:0:0:
442,319,50715,2,0,B|476:333|476:333|455:300,1,74.7500014257431,14|0,0:2|0:0,0:2:0:0:
420,220,50955,6,0,B|380:143|373:14|491:-26|558:75|474:126,1,337.999984527589,4|4,1:2|0:2,0:2:0:0:
512,183,59595,6,0,L|396:175,1,104,6|0,1:2|0:2,0:2:0:0:
358,290,60075,2,0,L|242:282,1,104,10|0,0:2|0:2,0:2:0:0:
216,213,60435,1,0,1:2:0:0:
216,213,60555,2,0,P|230:170|214:99,1,104,2|0,0:2|1:2,0:0:0:0:
99,141,61035,2,0,P|85:184|101:255,1,104,10|0,0:2|0:2,0:2:0:0:
189,321,61515,2,0,L|292:328,1,104,2|0,0:2|1:2,0:2:0:0:
407,379,61995,2,0,P|396:328|408:278,1,104,10|0,0:2|0:2,0:2:0:0:
465,223,62355,1,0,1:2:0:0:
465,223,62475,2,0,P|477:173|465:118,1,104,2|0,0:2|1:2,0:0:0:0:
356,45,62955,5,8,0:2:0:0:
331,72,63075,1,8,0:2:0:0:
297,85,63195,1,8,0:3:0:0:
260,84,63315,1,8,0:3:0:0:
228,65,63435,6,0,B|202:42|202:42|93:58,2,116.999996429443,6|8|0,1:2|2:2|1:2,0:2:0:0:
287,192,64155,1,8,0:2:0:0:
287,192,64275,1,0,0:2:0:0:
337,250,64395,2,0,B|363:273|363:273|472:257,1,116.999996429443,2|8,1:2|0:2,0:2:0:0:
503,212,64755,2,0,P|515:161|478:86,1,116.999996429443,2|0,1:2|1:2,0:2:0:0:
436,50,65115,1,10,0:2:0:0:
313,153,65355,6,0,B|280:179|280:179|172:156,1,123.499996702194,6|8,1:2|0:2,0:2:0:0:
238,88,65715,2,0,B|205:62|205:62|125:78,1,123.499996702194,0|0,1:2|1:2,0:2:0:0:
63,27,66075,1,8,0:2:0:0:
3,176,66315,1,2,1:2:0:0:
111,294,66555,1,12,0:2:0:0:
260,253,66795,5,8,1:3:0:0:
231,223,66915,1,8,1:3:0:0:
228,182,67035,1,4,1:3:0:0:
247,146,67155,1,4,1:3:0:0:
286,133,67275,1,4,1:2:0:0:
0,190,76875,6,0,L|118:174,1,104,6|0,1:2|0:2,0:2:0:0:
80,298,77355,2,0,L|198:282,1,104,8|0,0:2|0:2,0:2:0:0:
228,348,77715,1,0,1:2:0:0:
348,315,77955,1,8,0:2:0:0:
348,315,78075,1,0,1:2:0:0:
470,384,78315,6,0,B|460:352|460:352|465:334|465:334|449:263,1,104,8|0,0:2|0:2,0:2:0:0:
354,206,78795,2,0,P|292:217|242:193,1,104,2|0,1:2|1:2,0:2:0:0:
195,312,79275,2,0,P|145:324|95:308,1,104,8|0,0:2|0:2,0:2:0:0:
26,276,79635,1,0,1:2:0:0:
79,165,79875,1,8,0:2:0:0:
79,165,79995,1,0,1:2:0:0:
127,50,80235,5,8,0:2:0:0:
152,76,80355,1,8,0:2:0:0:
186,86,80475,1,8,0:3:0:0:
221,80,80595,1,8,0:3:0:0:
253,63,80715,6,0,P|305:48|369:65,1,104,6|0,1:2|0:2,0:2:0:0:
444,141,81195,2,0,P|486:170|510:216,1,104,10|0,0:2|0:2,0:2:0:0:
512,294,81555,1,0,1:2:0:0:
512,294,81675,2,0,P|487:339|445:369,1,104,2|0,0:2|1:2,0:0:0:0:
321,345,82155,2,0,P|295:299|253:269,1,104,10|0,0:2|0:2,0:2:0:0:
127,208,82635,2,0,L|254:187,1,116.999996429443,2|0,1:2|1:2,0:0:0:0:
367,97,83115,5,8,2:2:0:0:
356,136,83235,1,8,2:2:0:0:
366,175,83355,1,8,2:3:0:0:
396,202,83475,1,8,2:2:0:0:
435,210,83595,1,2,1:2:0:0:
512,32,84555,6,0,B|469:53|469:53|431:19|355:21,1,143.000004364014,12|8,1:3|2:2,0:2:0:0:
291,19,84915,1,2,1:2:0:0:
178,150,85155,1,2,1:2:0:0:
241,207,85275,2,0,P|280:197|320:207,1,71.5000021820069,8|0,2:2|1:2,0:0:0:0:
363,270,85515,2,0,P|361:330|270:367,1,143.000004364014,2|8,1:2|2:2,0:2:0:0:
209,364,85875,1,2,1:2:0:0:
88,242,86115,1,2,1:2:0:0:
3,256,86235,2,0,L|19:172,1,71.5000021820069,8|0,2:2|1:2,0:0:0:0:
60,102,86475,6,0,P|86:128|192:103,1,143.000004364014,6|8,1:2|2:2,0:2:0:0:
241,51,86835,1,2,1:2:0:0:
408,15,87075,1,2,1:2:0:0:
490,38,87195,2,0,P|511:79|509:119,1,71.5000021820069,8|0,0:2|1:2,0:0:0:0:
466,176,87435,2,0,L|318:162,1,143.000004364014,2|10,1:2|0:2,0:2:0:0:
166,247,87915,5,8,1:3:0:0:
190,282,88035,1,8,1:3:0:0:
197,324,88155,1,4,1:3:0:0:
180,363,88275,1,4,1:3:0:0:
141,381,88395,6,0,B|90:367|90:367|57:386|57:386|-5:374,1,143.000004364014,6|8,1:2|0:2,0:2:0:0:
33,294,88755,2,0,P|20:227|69:155,1,143.000004364014,0|0,1:2|1:2,0:2:0:0:
141,161,89115,2,0,B|172:193|172:193|276:179,2,143.000004364014,8|0|10,0:2|1:2|0:2,0:2:0:0:
95,87,89715,1,0,1:2:0:0:
163,34,89835,2,0,B|203:15|203:15|295:65,1,143.000004364014,2|10,0:2|0:2,0:2:0:0:
401,122,90315,5,6,0:2:0:0:
401,122,90435,2,0,P|451:129|491:98,1,104,0|0,1:2|1:2,0:0:0:0:
489,178,90795,1,12,0:2:0:0:
489,178,90915,2,0,L|470:293,1,104,0|0,1:2|1:2,0:0:0:0:
456,356,91275,1,4,1:2:0:0:
349,277,91515,1,0,1:2:0:0:
236,369,91755,5,8,1:2:0:0:
222,325,91875,1,8,1:2:0:0:
245,286,91995,1,8,1:2:0:0:
234,241,92115,1,8,1:2:0:0:
258,195,92235,6,0,B|270:156|270:156|261:106|261:106|277:45,1,143.000004364014,12|8,1:3|0:2,0:2:0:0:
182,129,92595,2,0,P|147:141|60:85,1,143.000004364014,0|0,1:2|1:2,0:2:0:0:
36,13,92955,1,10,0:2:0:0:
36,13,93075,1,2,0:2:0:0:
45,98,93195,2,0,L|51:261,1,143.000004364014,0|10,1:2|0:2,0:2:0:0:
14,311,93555,1,2,1:2:0:0:
70,366,93675,2,0,B|97:388|138:379|138:379|161:349|222:337,1,143.000004364014,2|10,0:2|0:2,0:2:0:0:
277,348,94035,1,2,0:2:0:0:
354,381,94155,6,0,B|380:353|380:353|351:246,1,143.000004364014,6|10,1:2|0:2,0:2:0:0:
313,183,94515,1,2,1:2:0:0:
254,235,94635,2,0,P|203:249|123:212,1,143.000004364014,2|10,0:2|0:2,0:2:0:0:
81,145,94995,1,2,0:2:0:0:
140,93,95115,2,0,P|191:79|271:116,1,143.000004364014,2|14,1:2|0:2,0:2:0:0:
353,251,95595,5,8,1:3:0:0:
386,288,95715,1,8,1:3:0:0:
435,294,95835,1,4,1:3:0:0:
479,271,95955,1,4,1:3:0:0:
495,223,96075,6,0,B|481:181|481:181|490:150|490:150|464:64,1,143.000004364014,6|10,1:2|0:2,0:2:0:0:
419,25,96435,1,2,0:2:0:0:
361,78,96555,2,0,P|312:102|229:74,1,143.000004364014,2|10,1:2|0:2,0:2:0:0:
180,16,96915,1,2,0:2:0:0:
112,57,97035,2,0,B|81:86|81:86|73:136|109:196,1,143.000004364014,2|10,1:2|0:2,0:2:0:0:
167,224,97395,1,2,1:2:0:0:
241,198,97515,2,0,P|316:195|358:252,1,143.000004364014,2|10,0:2|0:2,0:2:0:0:
371,320,97875,1,2,0:2:0:0:
298,366,97995,6,0,B|247:353|247:353|219:367|219:367|141:352,1,143.000004364014,6|8,1:2|0:2,0:2:0:0:
85,380,98355,1,6,1:2:0:0:
23,331,98475,2,0,P|15:277|56:192,1,143.000004364014,2|14,0:2|0:2,0:2:0:0:
172,99,98955,1,6,1:2:0:0:
172,99,99075,1,8,0:2:0:0:
228,152,99195,2,0,B|261:182|261:182|317:190|365:139,1,143.000004364014,0|12,1:2|0:2,0:0:0:0:
452,80,99675,5,8,0:3:0:0:
452,80,99795,1,8,0:3:0:0:
452,80,99915,2,0,P|391:347|155:209,1,636.999980560303,4|0,1:2|0:0,0:0:0:0:
223,127,101835,6,0,P|362:119|249:37,1,363.999988891602,6|2,1:2|0:3,0:2:0:0:
249,38,103395,6,0,L|175:42,2,52,0|0|0,0:2|0:2|0:2,0:2:0:0:
332,19,103755,6,0,P|376:19|419:96,1,130,12|8,1:3|2:0,0:1:0:0:
487,135,104115,2,0,P|460:191|398:200,1,130,2|0,1:2|1:0,0:1:0:0:
329,152,104475,1,10,1:2:0:0:
197,40,104715,2,0,P|135:49|108:105,1,130,2|8,1:2|2:2,0:2:0:0:
105,190,105075,2,0,P|43:199|16:255,1,130,2|0,1:2|1:2,0:2:0:0:
29,339,105435,1,10,1:2:0:0:
196,357,105675,6,0,B|244:349|244:349|266:363|266:363|337:358,1,130,6|8,1:2|2:2,2:2:0:0:
403,381,106035,2,0,B|416:318|383:328|401:242,1,130,2|0,1:2|1:2,0:2:0:0:
448,183,106395,2,0,P|477:195|508:189,1,65,10|0,1:2|0:2,0:2:0:0:
433,98,106635,2,0,P|374:66|311:73,1,130,2|12,1:2|1:2,0:2:0:0:
190,187,107115,5,8,1:3:0:0:
214,225,107235,1,8,1:3:0:0:
211,270,107355,1,4,1:3:0:0:
178,300,107475,1,4,1:3:0:0:
134,309,107595,6,0,B|95:296|95:296|57:309|57:309|0:294,1,130,6|8,1:2|2:2,0:2:0:0:
45,220,107955,2,0,P|33:159|73:94,1,130,2|0,1:2|1:2,0:2:0:0:
125,43,108315,1,10,1:2:0:0:
273,124,108555,2,0,B|336:140|336:140|407:109,1,130,2|8,1:2|2:2,0:2:0:0:
473,147,108915,2,0,P|499:185|486:277,1,130,2|0,1:2|1:2,0:2:0:0:
459,344,109275,1,10,1:2:0:0:
272,265,109515,6,0,B|258:217|258:217|274:187|274:187|255:112,1,155.999995239258,6|8,1:2|2:2,0:1:0:0:
187,41,109875,2,0,B|140:21|140:21|75:41|84:115,1,155.999995239258,6|0,1:2|1:2,0:2:0:0:
28,185,110235,2,0,L|105:177,1,77.999997619629,14|0,1:2|0:2,0:2:0:0:
56,265,110475,2,0,B|52:321|113:343|113:343|160:323,1,155.999995239258,6|8,1:2|1:3,0:2:0:0:
234,362,110835,1,8,1:3:0:0:
285,294,110955,2,0,L|292:215,1,65,4|4,1:3|1:3,0:0:0:0:
238,162,111195,2,0,L|245:83,1,65,8|8,1:3|1:3,0:0:0:0:
316,35,111435,6,0,B|379:19|379:19|458:55,1,130,12|8,1:3|2:2,0:2:0:0:
488,113,111795,2,0,B|480:158|480:158|487:184|487:184|474:257,1,130,2|0,1:2|1:2,0:2:0:0:
459,323,112155,1,10,1:2:0:0:
297,372,112395,2,0,B|283:326|283:326|291:302|291:302|274:238,1,130,2|8,1:2|2:2,0:2:0:0:
208,197,112755,2,0,B|194:151|194:151|202:127|202:127|185:63,1,130,2|0,1:2|1:2,0:2:0:0:
120,21,113115,1,8,1:2:0:0:
14,152,113355,6,0,P|0:206|32:289,1,130,6|8,1:2|2:2,0:2:0:0:
78,337,113715,2,0,P|137:309|221:323,1,130,2|0,1:2|1:2,0:2:0:0:
272,372,114075,2,0,L|285:302,1,65,10|0,1:2|0:2,0:2:0:0:
360,345,114315,2,0,P|424:349|482:321,1,130,0|12,1:2|1:2,0:2:0:0:
502,153,114795,5,8,1:3:0:0:
459,168,114915,1,8,1:3:0:0:
413,164,115035,1,4,1:3:0:0:
374,138,115155,1,4,1:3:0:0:
352,97,115275,6,0,B|337:60|337:60|222:42,1,130,6|8,1:2|2:2,2:2:0:0:
203,117,115635,2,0,L|219:259,1,130,2|0,1:2|1:2,0:2:0:0:
200,328,115995,1,10,1:2:0:0:
37,281,116235,2,0,L|21:139,1,130,2|8,1:2|2:2,0:2:0:0:
172,52,116715,2,0,L|186:181,1,130,2|8,0:2|1:2,0:2:0:0:
317,335,117195,6,0,B|392:357|392:357|450:303,1,155.999995239258,6|8,1:2|2:2,0:2:0:0:
421,206,117555,2,0,B|346:184|346:184|287:237,1,155.999995239258,6|0,1:2|1:2,0:2:0:0:
218,311,117915,2,0,B|178:326|178:326|122:309,1,77.999997619629,14|0,1:2|0:2,0:2:0:0:
61,255,118155,2,0,B|47:209|47:209|56:175|56:175|33:97,1,155.999995239258,6|8,1:2|1:2,0:2:0:0:
48,61,118515,1,8,1:3:0:0:
83,89,118635,1,8,0:3:0:0:
128,87,118755,1,8,0:2:0:0:
160,55,118875,1,8,0:3:0:0:
326,86,119115,6,0,L|401:78,1,65,8|8,2:2|2:2,0:0:0:0:
466,117,119355,2,0,L|474:192,1,65,8|8,2:2|2:2,0:0:0:0:
359,307,119715,2,0,L|367:382,2,65,8|8|8,0:2|0:2|0:2,0:0:0:0:
285,254,120075,6,0,B|256:250|256:250|237:258|237:258|203:253,2,77.999997619629,14|8|4,3:2|3:3|3:3,0:2:0:0:
353,194,120555,6,0,B|376:190|376:190|392:197|392:197|420:193,2,69.3333333333333,10|8|4,3:2|3:3|3:3,0:2:0:0:
289,139,121035,6,0,B|290:82|237:45|237:45|190:85|131:62|131:62|76:96|64:173|95:223|95:223|76:158|115:118,1,512.460002658636,6|8,1:2|1:2,0:2:0:0:
109,123,122955,6,0,B|234:0|436:-7|525:96|525:96|467:150|387:156|325:126,1,655.200015996094,6|0,1:2|0:0,0:2:0:0:
345,134,124875,6,0,B|270:115|203:185|203:185|223:217|225:249|225:249|235:260|235:260|234:287|253:316|253:316|177:406|84:358,1,487.50001859665,6|0,1:2|0:0,0:2:0:0:
88,360,126315,6,0,L|80:229,1,106.600001626587,10|0,0:2|0:0,0:2:0:0:
1,109,126795,6,0,P|33:123|102:80,1,116.999996429443,12|8,1:3|0:2,0:2:0:0:
166,123,127155,2,0,P|198:137|267:94,1,116.999996429443,2|0,1:2|1:2,0:0:0:0:
340,108,127515,2,0,L|349:27,1,58.4999982147217,10|0,0:2|0:2,0:2:0:0:
421,100,127755,2,0,P|448:126|438:219,1,116.999996429443,2|10,1:2|0:2,0:2:0:0:
406,264,128115,1,0,1:2:0:0:
331,280,128235,2,0,L|212:265,1,116.999996429443,2|10,0:2|0:2,0:2:0:0:
40,236,128715,6,0,B|88:224|88:224|107:208|107:208|174:195,1,143.000004364014,6|8,1:2|0:2,0:2:0:0:
80,306,129075,2,0,B|128:294|128:294|147:278|147:278|214:265,1,143.000004364014,6|0,1:2|1:2,0:2:0:0:
120,376,129435,2,0,B|168:364|168:364|187:348|187:348|254:335,1,143.000004364014,14|4,1:2|1:2,0:2:0:0:
398,382,129915,5,8,1:2:0:0:
360,365,130035,1,0,1:2:0:0:
334,332,130155,1,8,1:3:0:0:
325,291,130275,1,8,1:3:0:0:
343,254,130395,1,4,1:3:0:0:
377,231,130515,1,4,1:3:0:0:
417,225,130635,6,0,B|479:240|479:240|510:224|512:177,1,116.999996429443,12|8,1:3|2:2,0:2:0:0:
481,127,130995,2,0,B|419:110|449:76|362:55,1,116.999996429443,2|0,0:2|1:2,0:0:0:0:
317,94,131355,2,0,B|255:77|285:43|198:22,2,116.999996429443,10|0|10,0:2|1:2|0:2,0:2:0:0:
392,82,131955,1,0,1:2:0:0:
446,134,132075,2,0,P|458:177|437:253,1,116.999996429443,2|10,1:2|0:2,0:2:0:0:
347,366,132555,2,0,B|304:354|304:354|282:362|282:362|211:342,1,116.999996429443,6|8,1:2|0:2,0:2:0:0:
161,370,132915,2,0,B|118:358|118:358|96:366|96:366|25:346,1,116.999996429443,2|0,1:2|1:2,0:2:0:0:
10,286,133275,2,0,P|17:221|58:175,2,116.999996429443,10|0|12,0:2|1:2|0:2,0:2:0:0:
153,356,133995,5,8,1:3:0:0:
177,323,134115,1,8,1:3:0:0:
215,308,134235,1,4,1:3:0:0:
254,317,134355,1,4,1:3:0:0:
282,345,134475,6,0,B|314:362|314:362|419:344,1,116.999996429443,6|8,1:2|2:2,0:2:0:0:
462,379,134835,2,0,B|479:347|479:347|461:242,1,116.999996429443,2|0,0:2|1:2,0:0:0:0:
435,197,135195,2,0,L|360:186,1,58.4999982147217,10|0,0:2|0:2,0:2:0:0:
309,153,135435,2,0,B|277:170|277:170|172:152,1,116.999996429443,2|8,1:2|0:2,0:2:0:0:
164,225,135795,2,0,B|132:242|132:242|27:224,1,116.999996429443,2|0,1:2|1:2,0:0:0:0:
6,167,136155,2,0,P|9:131|27:100,1,58.4999982147217,10|0,0:2|0:2,0:2:0:0:
84,45,136395,6,0,B|100:74|137:78|137:78|160:42|198:35,1,143.000004364014,6|8,1:2|0:2,0:2:0:0:
236,121,136755,2,0,B|251:149|288:153|288:153|311:117|350:111,1,143.000004364014,6|0,1:2|1:2,0:2:0:0:
383,198,137115,2,0,B|398:226|435:230|435:230|458:194|497:188,1,143.000004364014,14|4,0:2|1:1,0:2:0:0:
498,188,137835,6,0,L|489:92,1,90.9999972229005,14|0,0:2|0:2,0:2:0:0:
352,14,138315,6,0,B|349:58|312:62|312:62|247:42,1,123.499996702194,12|8,1:3|0:2,0:2:0:0:
186,80,138675,2,0,B|132:52|132:52|73:72,1,123.499996702194,2|0,0:2|1:2,0:0:0:0:
16,129,139035,2,0,B|3:175|3:175|12:199|12:199|2:248,2,123.499996702194,10|0|10,0:2|1:2|0:2,0:2:0:0:
72,72,139635,1,0,1:2:0:0:
131,126,139755,2,0,P|189:142|256:106,1,123.499996702194,2|10,0:2|2:2,0:2:0:0:
381,204,140235,2,0,P|436:179|495:195,1,123.499996702194,6|8,1:2|0:2,0:2:0:0:
504,276,140595,2,0,P|448:300|389:284,1,123.499996702194,2|0,1:2|1:2,2:2:0:0:
357,211,140955,2,0,P|376:150|343:79,2,123.499996702194,10|2|12,0:2|1:2|0:2,0:2:0:0:
197,224,141675,5,8,1:3:0:0:
169,190,141795,1,8,1:3:0:0:
127,178,141915,1,4,1:3:0:0:
84,185,142035,1,4,1:3:0:0:
51,213,142155,6,0,P|32:270|51:328,1,123.499996702194,6|8,1:2|0:2,0:2:0:0:
123,364,142515,2,0,L|251:343,1,123.499996702194,2|0,0:2|1:2,0:0:0:0:
311,298,142875,2,0,P|313:265|292:227,1,61.7499983510972,10|0,0:2|0:2,0:2:0:0:
249,177,143115,2,0,P|229:119|248:61,1,123.499996702194,2|8,1:2|0:2,0:2:0:0:
316,17,143475,1,0,1:2:0:0:
383,60,143595,2,0,P|402:117|383:175,1,123.499996702194,2|10,0:2|0:2,0:2:0:0:
207,258,144075,6,0,B|159:223|88:247|88:247|121:278,1,149.500002851486,6|8,1:2|0:2,0:2:0:0:
171,337,144435,2,0,B|219:372|290:348|290:348|257:317,1,149.500002851486,6|0,1:2|1:2,0:2:0:0:
222,246,144795,2,0,B|187:198|211:127|211:127|242:160,1,149.500002851486,14|6,0:2|1:2,0:2:0:0:
368,223,145275,5,8,1:3:0:0:
410,230,145395,1,8,1:3:0:0:
451,216,145515,1,4,1:3:0:0:
476,181,145635,1,4,1:3:0:0:
481,137,145755,1,8,1:3:0:0:
463,96,145875,1,8,1:3:0:0:
427,72,145995,6,0,B|390:61|390:61|360:75|360:75|290:55,1,123.499996702194,12|8,0:3|0:2,0:2:0:0:
251,5,146355,2,0,L|264:138,1,123.499996702194,2|0,0:2|1:2,0:0:0:0:
243,206,146715,2,0,L|256:339,2,123.499996702194,8|0|10,0:2|1:2|0:2,0:2:0:0:
182,153,147315,1,0,1:2:0:0:
127,211,147435,2,0,P|67:239|6:196,1,123.499996702194,2|10,0:2|0:2,0:2:0:0:
13,55,147915,2,0,P|73:27|134:70,1,123.499996702194,6|8,1:2|0:2,0:2:0:0:
174,110,148275,2,0,P|229:132|282:104,1,123.499996702194,2|0,1:2|1:2,0:2:0:0:
338,47,148635,2,0,P|390:18|446:41,2,123.499996702194,10|2|12,0:2|1:2|0:2,0:2:0:0:
452,160,149355,5,8,1:3:0:0:
485,189,149475,1,8,1:3:0:0:
489,236,149595,1,4,1:3:0:0:
464,271,149715,1,4,1:3:0:0:
422,280,149835,6,0,B|378:271|378:271|354:284|354:284|285:275,1,123.499996702194,6|8,1:2|0:2,0:2:0:0:
237,229,150195,2,0,B|219:170|254:173|231:107,1,123.499996702194,2|0,0:2|1:2,0:0:0:0:
175,49,150555,2,0,L|100:41,1,61.7499983510972,10|0,0:2|0:2,0:2:0:0:
40,75,150795,2,0,P|16:118|33:207,1,123.499996702194,2|10,1:2|0:2,0:2:0:0:
59,261,151155,1,0,1:2:0:0:
137,279,151275,2,0,L|270:258,1,123.499996702194,2|10,0:2|0:2,0:2:0:0:
358,91,151755,6,0,B|392:60|392:60|495:79,1,149.500002851486,6|8,1:2|0:2,0:2:0:0:
504,175,152115,2,0,B|470:206|470:206|367:187,1,149.500002851486,6|0,1:2|1:2,0:2:0:0:
278,149,152475,2,0,B|258:104|258:104|255:129,1,74.7500014257431,14|0,0:2|0:0,0:2:0:0:
221,210,152715,6,0,B|220:302|133:386|18:349|31:215|128:232,1,337.999984527589,4|4,1:2|0:2,0:2:0:0:
0,345,161355,6,0,L|116:337,1,104,6|0,1:2|0:2,0:2:0:0:
165,224,161835,2,0,P|145:173|173:114,1,104,10|0,0:2|0:2,0:2:0:0:
213,68,162195,1,0,1:2:0:0:
213,68,162315,2,0,L|329:60,1,104,2|0,0:2|1:2,0:0:0:0:
430,7,162795,2,0,P|450:58|422:117,1,104,10|0,0:2|0:2,0:2:0:0:
488,216,163275,2,0,P|508:267|480:326,1,104,2|0,0:2|1:2,0:2:0:0:
384,374,163755,2,0,L|280:366,1,104,10|0,0:2|0:2,0:2:0:0:
208,343,164115,1,0,1:2:0:0:
208,343,164235,2,0,L|197:238,1,104,2|0,0:2|1:2,0:0:0:0:
263,135,164715,5,8,0:2:0:0:
288,162,164835,1,8,0:2:0:0:
322,175,164955,1,8,0:3:0:0:
359,174,165075,1,8,0:3:0:0:
391,155,165195,6,0,B|398:115|398:115|390:93|390:93|403:28,2,116.999996429443,6|8|0,1:2|2:2|1:2,0:2:0:0:
276,242,165915,1,8,0:2:0:0:
276,242,166035,1,0,0:2:0:0:
209,198,166155,2,0,B|154:177|154:177|98:197,1,116.999996429443,2|8,1:2|0:2,0:2:0:0:
98,280,166515,2,0,B|152:299|152:299|207:278,1,116.999996429443,2|0,1:2|1:2,0:2:0:0:
276,242,166875,1,10,0:2:0:0:
396,347,167115,6,0,P|446:370|508:331,1,123.499996702194,6|8,1:2|0:2,0:2:0:0:
479,263,167475,2,0,P|516:222|498:151,1,123.499996702194,0|0,1:2|1:2,0:2:0:0:
446,104,167835,1,8,0:2:0:0:
315,198,168075,1,2,1:2:0:0:
222,66,168315,1,12,0:2:0:0:
99,151,168555,5,8,1:3:0:0:
73,183,168675,1,8,1:3:0:0:
64,223,168795,1,4,1:3:0:0:
71,263,168915,1,4,1:3:0:0:
96,295,169035,1,4,1:2:0:0:
0,315,178635,6,0,L|118:298,1,104,6|0,1:2|0:2,0:2:0:0:
208,367,179115,2,0,L|326:350,1,104,8|0,0:2|0:2,0:2:0:0:
375,308,179475,1,0,1:2:0:0:
480,384,179715,1,8,0:2:0:0:
480,384,179835,1,0,1:2:0:0:
498,260,180075,6,0,B|488:228|488:228|493:210|493:210|472:137,1,104,8|0,0:2|0:2,0:2:0:0:
373,228,180555,2,0,B|363:196|363:196|368:178|368:178|347:105,1,104,2|0,1:2|1:2,0:2:0:0:
248,196,181035,2,0,B|238:164|238:164|243:146|243:146|222:73,1,104,8|0,0:2|0:2,0:2:0:0:
170,49,181395,1,0,1:2:0:0:
62,109,181635,1,8,0:2:0:0:
62,109,181755,1,0,1:2:0:0:
132,212,181995,5,8,0:2:0:0:
160,190,182115,1,8,0:2:0:0:
195,185,182235,1,8,0:3:0:0:
229,197,182355,1,8,0:3:0:0:
253,224,182475,6,0,B|303:252|303:252|359:214,1,104,6|0,1:2|0:2,0:2:0:0:
407,119,182955,2,0,P|397:83|432:19,1,104,10|0,0:2|0:2,0:2:0:0:
503,40,183315,1,0,1:2:0:0:
503,40,183435,2,0,P|513:76|478:140,1,104,2|0,0:2|1:2,0:0:0:0:
389,213,183915,2,0,L|276:201,1,104,10|0,0:2|0:2,0:2:0:0:
208,320,184395,2,0,B|197:281|197:281|200:261|200:261|183:194,1,116.999996429443,2|0,1:2|1:2,0:0:0:0:
108,88,184875,5,8,2:2:0:0:
104,128,184995,1,8,2:2:0:0:
77,159,185115,1,8,2:3:0:0:
36,165,185235,1,8,2:2:0:0:
0,145,185355,1,2,1:2:0:0:
0,145,186315,6,0,B|58:141|58:141|78:157|78:157|152:151,1,143.000004364014,12|8,1:3|2:2,0:2:0:0:
211,110,186675,1,2,1:2:0:0:
176,278,186915,1,2,1:2:0:0:
230,344,187035,2,0,B|264:352|264:352|299:339,1,71.5000021820069,8|0,2:2|1:2,0:0:0:0:
350,271,187275,2,0,P|330:190|359:114,1,143.000004364014,2|8,1:2|2:2,0:2:0:0:
409,76,187635,1,2,1:2:0:0:
253,3,187875,1,2,1:2:0:0:
177,41,187995,2,0,L|102:33,1,71.5000021820069,8|0,2:2|1:2,0:0:0:0:
43,103,188235,6,0,B|4:123|4:123|-10:169|18:225,1,143.000004364014,6|8,1:2|2:2,0:2:0:0:
52,297,188595,1,2,1:2:0:0:
202,378,188835,1,2,1:2:0:0:
266,321,188955,2,0,P|278:283|271:233,1,71.5000021820069,8|0,0:2|1:2,0:0:0:0:
239,169,189195,2,0,P|229:91|277:42,1,143.000004364014,2|10,1:2|0:2,0:2:0:0:
445,8,189675,5,8,1:3:0:0:
477,36,189795,1,8,1:3:0:0:
488,77,189915,1,4,1:3:0:0:
481,119,190035,1,4,1:3:0:0:
454,152,190155,6,0,B|403:138|403:138|370:157|370:157|308:145,1,143.000004364014,6|8,1:2|0:2,0:2:0:0:
257,87,190515,2,0,B|206:73|206:73|173:92|173:92|111:80,1,143.000004364014,0|0,1:2|1:2,0:2:0:0:
39,106,190875,2,0,P|8:147|20:245,2,143.000004364014,8|0|10,0:2|1:2|0:2,0:2:0:0:
121,82,191475,1,0,1:2:0:0:
185,140,191595,2,0,B|224:166|224:166|318:146,1,143.000004364014,2|10,0:2|0:2,0:2:0:0:
439,108,192075,5,6,0:2:0:0:
439,108,192195,2,0,L|430:220,1,104,0|0,1:2|1:2,0:0:0:0:
504,258,192555,1,12,0:2:0:0:
504,258,192675,2,0,L|392:249,1,104,0|0,1:2|1:2,0:0:0:0:
348,306,193035,1,4,1:2:0:0:
287,182,193275,1,0,1:2:0:0:
198,307,193515,5,8,1:2:0:0:
162,335,193635,1,8,1:2:0:0:
118,320,193755,1,8,1:2:0:0:
87,353,193875,1,8,1:2:0:0:
44,336,193995,6,0,B|27:300|27:300|59:193,1,143.000004364014,12|8,1:3|0:2,0:2:0:0:
0,131,194355,2,0,P|39:150|121:105,1,143.000004364014,0|0,1:2|1:2,0:2:0:0:
166,29,194715,1,10,0:2:0:0:
166,29,194835,1,2,0:2:0:0:
218,96,194955,2,0,B|228:151|228:151|219:176|219:176|233:234,1,143.000004364014,0|10,1:2|0:2,0:2:0:0:
257,309,195315,1,2,1:2:0:0:
315,361,195435,2,0,P|384:372|445:338,1,143.000004364014,2|10,0:2|0:2,0:2:0:0:
491,272,195795,1,2,0:2:0:0:
448,200,195915,6,0,B|393:196|393:196|372:212|372:212|306:207,1,143.000004364014,6|10,1:2|0:2,0:2:0:0:
249,157,196275,1,2,1:2:0:0:
203,221,196395,2,0,P|181:285|113:293,1,143.000004364014,2|10,0:2|0:2,0:2:0:0:
44,329,196755,1,2,0:2:0:0:
5,260,196875,2,0,L|32:120,1,143.000004364014,2|14,1:2|0:2,0:2:0:0:
175,26,197355,5,8,1:3:0:0:
196,71,197475,1,8,1:3:0:0:
236,100,197595,1,4,1:3:0:0:
285,104,197715,1,4,1:3:0:0:
328,79,197835,6,0,P|365:56|474:98,1,143.000004364014,6|10,1:2|0:2,0:2:0:0:
492,146,198195,1,2,0:2:0:0:
463,219,198315,2,0,P|398:246|333:221,1,143.000004364014,2|10,1:2|0:2,0:2:0:0:
265,180,198675,1,2,0:2:0:0:
199,135,198795,2,0,P|133:109|69:137,1,143.000004364014,2|10,1:2|0:2,0:2:0:0:
25,202,199155,1,2,1:2:0:0:
70,266,199275,2,0,P|135:291|199:263,1,143.000004364014,2|10,0:2|0:2,0:2:0:0:
255,207,199635,1,2,0:2:0:0:
282,287,199755,6,0,B|301:340|345:344|345:344|367:324|403:319,1,143.000004364014,6|8,1:2|0:2,0:2:0:0:
456,365,200115,1,6,1:2:0:0:
504,302,200235,2,0,B|487:255|487:255|494:232|494:232|469:143,1,143.000004364014,2|14,0:2|0:2,0:2:0:0:
414,25,200715,1,6,1:2:0:0:
414,25,200835,1,8,0:2:0:0:
393,100,200955,2,0,B|363:167|363:167|315:178|296:144,1,143.000004364014,0|12,1:2|0:2,0:0:0:0:
213,60,201435,5,8,0:3:0:0:
213,60,201555,1,8,0:3:0:0:
213,60,201675,2,0,P|-6:179|232:252,1,636.999980560303,4|0,1:2|0:0,0:0:0:0:
313,192,203595,6,0,P|308:159|404:238,1,363.999988891602,6|2,1:2|0:3,0:2:0:0:
469,345,205035,6,2,P|420:317|313:329,1,156,2|0,0:1|0:0,0:1:0:0:
261,376,205515,6,0,L|279:222,1,136.499995834351,14|8,1:1|0:2,0:0:0:0:
235,169,205875,1,2,0:2:0:0:
162,206,205995,2,0,P|133:213|92:199,1,68.2499979171754,2|0,1:1|1:2,0:0:0:0:
100,120,206235,2,0,P|129:113|170:127,1,68.2499979171754,10|0,0:2|0:2,0:0:0:0:
235,169,206475,2,2,P|298:189|360:135,1,136.499995834351,2|8,1:1|0:2,0:1:0:0:
395,81,206835,1,2,1:2:0:0:
465,122,206955,2,2,P|489:184|467:247,1,136.499995834351,2|10,0:1|0:1,0:1:0:0:
340,350,207435,6,2,B|289:342|289:342|263:362|263:362|188:353,1,136.499995834351,6|8,1:1|0:2,0:1:0:0:
130,343,207795,2,2,B|79:335|79:335|53:355|53:355|-22:346,1,136.499995834351,2|0,1:1|1:2,0:1:0:0:
29,271,208155,2,2,P|13:229|23:199,1,68.2499979171754,10|0,0:1|0:2,0:1:0:0:
1,126,208395,2,2,P|16:78|106:35,1,136.499995834351,2|12,1:1|0:2,0:1:0:0:
251,12,208875,5,8,1:3:0:0:
266,49,208995,1,8,1:3:0:0:
296,75,209115,1,4,1:3:0:0:
334,89,209235,1,4,1:3:0:0:
374,83,209355,6,0,P|424:71|487:151,1,136.499995834351,6|8,1:1|0:2,0:0:0:0:
486,197,209715,1,2,0:2:0:0:
440,256,209835,2,0,L|301:243,1,136.499995834351,2|10,1:1|0:1,0:2:0:0:
249,98,210315,2,2,L|110:85,1,136.499995834351,2|8,1:1|0:2,0:1:0:0:
44,115,210675,2,2,P|20:151|35:252,1,136.499995834351,2|0,1:1|1:2,0:1:0:0:
8,322,211035,2,2,L|84:305,1,68.2499979171754,10|0,0:1|0:2,0:1:0:0:
163,348,211275,6,0,B|203:368|203:368|313:341,1,149.500002851486,6|8,1:1|0:2,0:0:0:0:
304,260,211635,2,0,B|260:217|265:165|265:165|285:149|291:131,1,149.500002851486,6|0,1:1|1:2,0:0:0:0:
255,55,211995,2,0,L|181:41,1,74.7500014257431,14|0,1:1|0:2,0:0:0:0:
330,20,212235,2,2,P|374:18|417:127,1,149.500002851486,6|8,1:1|1:3,0:1:0:0:
487,236,212715,5,4,1:3:0:0:
443,216,212835,1,4,1:3:0:0:
395,219,212955,1,8,1:3:0:0:
366,257,213075,1,8,1:3:0:0:
360,304,213195,6,2,B|352:350|314:360|314:360|286:336|225:330,1,143.000004364014,14|10,1:1|0:2,0:1:0:0:
175,325,213555,2,2,P|143:362|39:341,1,143.000004364014,2|2,0:1|1:2,0:1:0:0:
5,296,213915,2,0,L|27:200,1,71.5000021820069,10|0,0:1|1:2,0:0:0:0:
90,187,214155,2,0,P|157:200|209:154,1,143.000004364014,2|10,1:1|0:2,0:2:0:0:
256,219,214515,2,2,P|323:205|375:251,1,143.000004364014,2|0,1:1|1:2,0:1:0:0:
394,329,214875,1,10,0:1:0:0:
494,216,215115,6,2,B|482:177|482:177|489:153|489:153|466:68,1,143.000004364014,6|8,1:1|0:2,0:1:0:0:
434,7,215475,2,2,P|415:49|318:41,1,143.000004364014,2|0,1:1|1:2,2:1:0:0:
256,84,215835,2,2,L|241:5,1,71.5000021820069,10|0,0:1|0:0,0:1:0:0:
168,42,216075,2,2,P|100:31|61:86,1,143.000004364014,2|12,1:1|0:2,0:1:0:0:
0,226,216555,5,8,1:3:0:0:
44,202,216675,1,8,1:3:0:0:
93,206,216795,1,4,1:3:0:0:
124,244,216915,1,4,1:3:0:0:
125,294,217035,6,0,B|132:331|159:344|159:344|246:330,1,143.000004364014,6|10,1:1|0:2,0:0:0:0:
311,362,217395,1,0,0:2:0:0:
348,293,217515,2,0,P|351:264|331:220,1,71.5000021820069,2|0,1:1|1:2,0:0:0:0:
275,174,217755,2,0,P|260:141|262:106,1,71.5000021820069,10|0,0:2|0:2,0:0:0:0:
317,49,217995,2,0,B|362:47|398:29|398:29|425:36|462:64,1,143.000004364014,2|10,1:1|0:2,0:0:0:0:
493,121,218355,1,0,1:2:0:0:
444,183,218475,2,0,P|400:192|357:172,1,71.5000021820069,2|0,0:1|1:2,0:0:0:0:
300,158,218715,2,0,P|265:150|231:159,1,71.5000021820069,10|0,0:2|0:2,0:0:0:0:
160,223,218955,6,2,B|125:258|125:258|68:265|41:222,1,143.000004364014,4|8,1:1|0:2,0:1:0:0:
35,139,219315,2,2,B|70:104|70:104|127:97|154:140,1,143.000004364014,6|0,1:1|1:2,0:1:0:0:
171,220,219675,2,2,B|177:249|177:249|175:257|175:257|184:289,1,71.5000021820069,14|0,0:1|0:2,0:1:0:0:
246,348,219915,2,0,P|318:359|357:285,1,143.000004364014,6|2,1:1|1:2,0:0:0:0:
401,234,220275,2,0,P|473:245|512:171,1,143.000004364014,8|8,1:2|1:3,0:0:0:0:
500,111,220635,5,4,1:3:0:0:
467,125,220755,1,4,1:3:0:0:
434,139,220875,2,0,B|400:152|400:152|360:60|251:69|251:69|316:82|336:135,1,312,6|0,1:1|0:2,0:2:0:0:
326,115,221835,6,0,B|239:44|130:175|241:270|319:222|319:222|271:260|290:316,1,416,6|4,1:1|0:2,0:2:0:0:
1,275,230475,5,4,1:2:0:0:
174,345,230955,1,0,1:2:0:0:
244,173,231435,1,0,1:2:0:0:
71,103,231915,1,0,1:2:0:0:
244,173,232395,5,4,1:2:0:0:
392,58,232875,1,0,1:2:0:0:
417,243,233355,1,0,1:2:0:0:
244,173,233835,5,8,0:2:0:0:
230,279,234075,1,8,0:2:0:0:
230,279,234195,1,8,0:2:0:0:
156,297,234315,6,0,B|120:286|120:286|91:298|91:298|35:282,2,116.999996429443,12|8|2,0:3|0:2|1:2,0:2:0:0:
230,279,234915,1,0,1:2:0:0:
219,203,235035,2,0,P|215:175|226:138,1,58.4999982147217,10|0,0:2|0:2,0:2:0:0:
274,90,235275,2,0,P|331:73|399:85,1,116.999996429443,2|10,1:2|0:2,0:2:0:0:
471,206,235755,2,0,P|414:223|346:211,1,116.999996429443,2|10,0:2|0:2,0:2:0:0:
263,74,236235,6,0,B|233:54|233:54|129:72,1,130,6|8,1:2|0:2,0:2:0:0:
130,153,236595,2,0,B|160:173|160:173|252:156,1,130,2|0,1:2|1:2,0:2:0:0:
327,197,236955,2,0,L|338:126,1,65,10|0,0:2|0:0,0:2:0:0:
400,81,237195,6,0,B|509:119|505:260|437:302|437:302|402:274|343:282,1,363.999988891602,6|2,1:2|2:3,0:2:0:0:
0,376,241035,2,0,B|224:329|50:213|290:170,1,363.999988891602,0|2,0:2|2:3,0:2:0:0:
276,172,242475,6,0,L|284:247,1,71.5000021820069,12|2,0:3|1:2,0:0:0:0:
340,307,242715,2,0,P|385:310|416:289,1,71.5000021820069,8|0,2:2|1:2,0:0:0:0:
468,238,242955,2,0,L|452:88,1,143.000004364014,2|8,1:2|2:2,0:2:0:0:
399,27,243315,1,2,1:2:0:0:
240,92,243555,1,2,1:2:0:0:
175,34,243675,2,0,P|141:26|90:44,1,71.5000021820069,8|0,2:2|1:2,0:0:0:0:
32,95,243915,6,0,L|16:237,1,143.000004364014,6|8,1:2|2:2,0:2:0:0:
0,322,244275,1,2,1:2:0:0:
153,244,244515,1,2,1:2:0:0:
199,316,244635,2,0,P|236:327|273:315,1,71.5000021820069,8|0,0:2|1:2,0:0:0:0:
317,248,244875,2,0,P|302:176|329:110,1,143.000004364014,2|10,1:2|0:2,0:2:0:0:
473,17,245355,5,8,1:3:0:0:
440,44,245475,1,8,1:3:0:0:
426,84,245595,1,4,1:3:0:0:
438,125,245715,1,4,1:3:0:0:
469,154,245835,6,0,P|484:226|457:292,1,143.000004364014,6|8,1:2|0:2,0:2:0:0:
395,345,246195,2,0,B|346:338|346:338|318:355|318:355|254:345,1,143.000004364014,0|0,1:2|1:2,0:2:0:0:
189,294,246555,2,0,P|174:222|201:156,2,143.000004364014,8|0|10,0:2|1:2|0:2,0:2:0:0:
258,346,247155,1,0,1:2:0:0:
334,307,247275,2,0,P|358:240|343:172,1,143.000004364014,2|10,0:2|0:2,0:2:0:0:
252,93,247755,5,6,0:2:0:0:
252,93,247875,2,0,P|202:100|155:75,1,104,0|0,1:2|1:2,0:0:0:0:
186,156,248235,1,12,0:2:0:0:
186,156,248355,2,0,P|135:149|89:172,1,104,0|0,1:2|1:2,0:0:0:0:
33,224,248715,1,4,1:2:0:0:
69,359,248955,1,0,1:2:0:0:
222,272,249195,5,8,1:2:0:0:
265,257,249315,1,8,1:2:0:0:
298,288,249435,1,8,1:2:0:0:
341,275,249555,1,8,1:2:0:0:
376,310,249675,6,0,B|443:335|443:335|511:280,1,143.000004364014,12|8,1:3|0:2,0:2:0:0:
466,209,250035,2,0,P|482:154|452:64,1,143.000004364014,0|0,1:2|1:2,0:2:0:0:
391,21,250395,1,10,0:2:0:0:
391,21,250515,1,2,0:2:0:0:
353,90,250635,2,0,B|297:134|297:134|230:109,1,143.000004364014,0|10,1:2|0:2,0:2:0:0:
157,79,250995,1,2,1:2:0:0:
92,124,251115,2,0,P|69:190|85:259,1,143.000004364014,2|10,0:2|0:2,0:2:0:0:
151,303,251475,1,2,0:2:0:0:
223,256,251595,6,0,P|273:230|378:245,1,143.000004364014,6|10,1:2|0:2,0:2:0:0:
416,287,251955,1,2,1:2:0:0:
367,349,252075,2,0,P|302:378|232:370,1,143.000004364014,2|10,0:2|0:2,0:2:0:0:
157,344,252435,1,2,0:2:0:0:
113,278,252555,2,0,P|105:207|134:143,1,143.000004364014,2|14,1:2|0:2,0:2:0:0:
266,30,253035,5,8,1:3:0:0:
273,79,253155,1,8,1:3:0:0:
311,111,253275,1,4,1:3:0:0:
360,118,253395,1,4,1:3:0:0:
406,100,253515,6,0,B|447:81|447:81|498:97|498:174,1,143.000004364014,6|10,1:2|0:2,0:2:0:0:
491,235,253875,1,2,0:2:0:0:
420,270,253995,2,0,B|376:258|376:258|343:269|343:269|274:255,1,143.000004364014,2|10,1:2|0:2,0:2:0:0:
214,215,254355,1,2,0:2:0:0:
258,150,254475,2,0,P|258:100|162:78,1,143.000004364014,2|10,1:2|0:2,0:2:0:0:
115,24,254835,1,2,1:2:0:0:
55,75,254955,2,0,L|38:221,1,143.000004364014,2|10,0:2|0:2,0:2:0:0:
12,291,255315,1,2,0:2:0:0:
76,351,255435,6,0,B|117:371|149:369|149:369|164:336|199:320,1,143.000004364014,6|8,1:2|0:2,0:2:0:0:
268,293,255795,1,6,1:2:0:0:
329,341,255915,2,0,B|365:369|417:367|417:367|433:350|444:318,1,143.000004364014,2|14,0:2|0:2,0:2:0:0:
442,167,256395,1,6,1:2:0:0:
442,167,256515,1,8,0:2:0:0:
385,222,256635,2,0,B|321:253|321:253|239:207,1,143.000004364014,0|12,1:2|0:2,0:0:0:0:
219,132,257115,5,8,0:3:0:0:
219,132,257235,1,8,0:3:0:0:
219,132,257355,2,0,B|240:266|138:269|96:359|96:359|0:253|14:82|133:34,1,636.999980560303,4|0,1:2|0:0,0:0:0:0:
225,26,259275,6,0,P|309:178|474:144,1,363.999988891602,6|2,1:2|0:3,0:2:0:0:
472,145,261195,6,0,P|493:197|475:272,2,130,12|8|2,1:3|0:2|1:2,0:2:0:0:
414,91,261795,1,0,1:2:0:0:
346,129,261915,2,0,P|314:132|272:115,1,65,10|0,0:2|0:2,0:2:0:0:
223,71,262155,2,0,P|181:52|102:79,1,130,2|8,1:2|0:2,0:2:0:0:
112,239,262635,2,0,P|154:258|233:231,1,130,2|8,0:2|0:2,2:2:0:0:
386,147,263115,6,0,B|422:168|422:168|395:208|399:273,1,130,6|8,1:2|0:2,0:2:0:0:
435,325,263475,2,0,P|396:295|308:313,1,130,2|0,1:2|1:2,0:2:0:0:
259,354,263835,1,10,0:2:0:0:
119,284,264075,2,0,B|112:242|112:242|97:224|97:224|85:152,1,130,2|12,1:2|0:2,0:2:0:0:
162,24,264555,5,8,1:3:0:0:
193,57,264675,1,8,1:3:0:0:
236,68,264795,1,4,1:3:0:0:
280,61,264915,1,4,1:3:0:0:
320,39,265035,6,0,P|377:18|465:41,2,130,4|8|2,1:2|0:2|1:2,0:2:0:0:
261,92,265635,1,0,1:2:0:0:
304,156,265755,2,0,P|315:179|318:225,1,65,10|0,0:2|0:2,0:2:0:0:
280,285,265995,2,0,P|223:306|135:283,1,130,2|10,1:2|0:2,0:2:0:0:
22,212,266475,2,0,L|40:59,1,130,2|10,0:2|0:2,0:2:0:0:
208,98,266955,6,0,B|266:91|266:91|283:72|283:72|351:63,1,143.000004364014,4|8,1:2|0:2,0:2:0:0:
420,98,267315,2,0,P|479:122|488:216,1,143.000004364014,4|0,1:2|1:2,0:2:0:0:
452,266,267675,2,0,B|393:263|393:263|373:279|373:279|304:277,1,143.000004364014,14|6,0:2|1:2,0:2:0:0:
213,169,268155,5,8,1:3:0:0:
253,147,268275,1,8,1:3:0:0:
269,104,268395,1,4,1:3:0:0:
255,60,268515,1,4,1:3:0:0:
214,39,268635,1,8,1:3:0:0:
169,46,268755,1,8,1:3:0:0:
139,80,268875,6,0,B|107:94|107:94|1:68,1,130,12|8,1:3|0:2,0:2:0:0:
64,137,269235,2,0,P|35:178|39:268,1,130,2|0,1:2|1:2,0:2:0:0:
84,314,269595,2,0,L|219:323,2,130,10|2|8,0:2|1:2|0:2,0:0:0:0:
33,255,270195,1,0,1:2:0:0:
6,181,270315,2,0,P|2:117|36:62,1,130,2|10,0:2|0:2,0:2:0:0:
191,83,270795,6,0,B|243:61|243:61|252:42|252:42|300:20,1,130,6|8,1:2|0:2,0:2:0:0:
377,11,271155,1,0,1:2:0:0:
443,51,271275,2,0,P|469:103|444:189,1,130,2|8,0:2|0:2,0:2:0:0:
305,206,271755,2,0,B|273:184|273:184|166:187,1,130,2|8,1:2|0:2,0:2:0:0:
24,255,272235,5,8,1:3:0:0:
3,295,272355,1,8,1:3:0:0:
14,339,272475,1,4,1:3:0:0:
52,362,272595,1,4,1:3:0:0:
97,359,272715,6,0,P|145:343|244:346,1,130,6|8,1:2|0:2,0:2:0:0:
377,370,273195,2,0,P|441:370|503:352,1,130,2|10,1:2|0:2,0:0:0:0:
480,198,273675,2,0,P|415:197|353:215,1,130,2|10,1:2|0:2,0:2:0:0:
288,258,274035,1,0,1:2:0:0:
237,317,274155,2,0,P|174:335|110:334,1,130,2|10,0:2|0:2,0:2:0:0:
0,216,274635,6,0,L|25:57,1,143.000004364014,6|8,1:2|0:2,0:2:0:0:
96,134,274995,2,0,P|165:145|215:79,1,143.000004364014,6|0,1:2|1:2,0:2:0:0:
293,26,275416,6,0,P|374:49|378:114,1,130,14|6,0:2|1:2,0:0:0:0:
226,221,276304,5,14,0:2:0:0:
352,332,276913,6,0,P|406:323|452:326,2,90.9999972229005,4|0|0,0:2|0:2|0:2,0:2:0:0:
232,379,278713,2,0,P|223:346|227:315,1,45.4999986114502,0|0,0:2|0:2,0:2:0:0:
237,261,279313,2,0,P|251:225|238:156,1,90.9999972229005,2|0,0:2|0:2,0:2:0:0:
246,173,280513,2,0,L|135:159,1,90.9999972229005,0|0,0:2|0:2,0:2:0:0:
72,131,281413,5,0,0:2:0:0:
72,131,281563,1,0,0:2:0:0:
72,131,281713,2,0,P|79:176|85:233,1,90.9999972229005,2|0,0:2|0:2,0:2:0:0:
172,328,282913,2,0,P|177:283|183:240,1,84.4999961318971,2|2,0:2|0:2,0:2:0:0:
265,160,284113,6,0,P|303:171|373:140,1,107.25000327301,2|0,0:3|0:2,0:2:0:0:
365,149,285313,6,0,P|413:177|423:254,1,130,2|4,0:2|0:2,0:2:0:0:
