osu file format v14

[General]
AudioFilename: audio.mp3
AudioLeadIn: 0
PreviewTime: 84015
Countdown: 0
SampleSet: Soft
StackLeniency: 0.6
Mode: 0
LetterboxInBreaks: 0
WidescreenStoryboard: 1

[Editor]
Bookmarks: 21195,36555,51915,59595,76875,84555,103395,126795,138315,161355,186315,230475,242475,261195
DistanceSpacing: 1
BeatDivisor: 4
GridSize: 32
TimelineZoom: 2.1

[Metadata]
Title:Maisery
TitleUnicode:Maisery
Artist:Symholic
ArtistUnicode:Symholic
Creator:Lasse
Version:Expert
Source:
Tags:Paspal Lalue 葉月ゆら Hatsuki Yura Japanese Doujin Symphonic Rock Metal Misery featured artist fa mappers' guild mpg
BeatmapID:2751758
BeatmapSetID:1322631

[Difficulty]
HPDrainRate:5.4
CircleSize:4
OverallDifficulty:8.6
ApproachRate:9.3
SliderMultiplier:1.7
SliderTickRate:1

[Events]
//Background and Video events
0,0,"thiscouldbeus.jpg",0,0
//Break Periods
2,52115,59041
2,153874,160801
2,222995,229921
//Storyboard Layer 0 (Background)
//Storyboard Layer 1 (Fail)
//Storyboard Layer 2 (Pass)
//Storyboard Layer 3 (Foreground)
//Storyboard Layer 4 (Overlay)
//Storyboard Sound Samples

[TimingPoints]
-1845,240,4,2,1,50,1,0
1635,-133.333333333333,4,2,1,50,0,0
1995,-83.3333333333333,4,2,1,70,0,0
5055,-83.3333333333333,4,2,1,50,0,0
5115,-83.3333333333333,4,2,1,70,0,0
5355,-83.3333333333333,4,2,2,70,0,0
5835,-83.3333333333333,4,2,1,70,0,0
7695,-100,4,2,1,50,0,0
7755,-66.6666666666667,4,2,1,70,0,0
8895,-66.6666666666667,4,2,1,50,0,0
8955,-66.6666666666667,4,2,2,70,0,0
9435,-66.6666666666667,4,2,3,70,0,0
9675,-83.3333333333333,4,2,1,70,0,0
13035,-83.3333333333333,4,2,2,70,0,0
13515,-83.3333333333333,4,2,1,70,0,0
15435,-66.6666666666667,4,2,1,70,0,0
16575,-66.6666666666667,4,2,1,50,0,0
16635,-66.6666666666667,4,2,1,70,0,0
16755,-66.6666666666667,4,2,2,70,0,0
16995,-66.6666666666667,4,2,1,70,0,0
17115,-66.6666666666667,4,2,2,70,0,0
17355,-66.6666666666667,4,2,2,65,0,0
18315,-100,4,2,2,64,0,0
18395,-100,4,2,1,5,0,0
18475,-111.111111111111,4,2,2,62,0,0
18555,-100,4,2,1,5,0,0
18635,-125,4,2,2,60,0,0
18715,-100,4,2,1,5,0,0
18795,-142.857142857143,4,2,2,57,0,0
18875,-100,4,2,1,5,0,0
18955,-166.666666666667,4,2,2,54,0,0
19035,-100,4,2,1,5,0,0
19115,-200,4,2,2,50,0,0
19195,-100,4,2,1,5,0,0
19275,-133.333333333333,4,2,1,55,0,0
19395,-133.333333333333,4,2,1,30,0,0
20715,-133.333333333333,4,2,2,55,0,0
21195,-111.111111111111,4,2,1,62,0,0
24555,-111.111111111111,4,2,2,62,0,0
25035,-111.111111111111,4,2,1,62,0,0
26955,-90.9090909090908,4,2,1,62,0,0
28395,-90.9090909090908,4,2,2,62,0,0
28875,-111.111111111111,4,2,1,62,0,0
32235,-111.111111111111,4,2,2,62,0,0
32715,-111.111111111111,4,2,1,62,0,0
34635,-90.9090909090909,4,2,1,62,0,0
35355,-83.3333333333333,4,2,1,62,0,0
36075,-133.333333333333,4,2,1,50,0,0
36555,-100,4,2,1,64,0,0
39915,-100,4,2,2,64,0,0
40395,-100,4,2,1,64,0,0
42315,-76.9230769230769,4,2,1,64,0,0
43455,-76.9230769230769,4,2,1,46,0,0
43515,-76.9230769230769,4,2,2,64,0,0
43995,-76.9230769230769,4,2,3,64,0,0
44235,-100,4,2,1,64,0,0
47595,-100,4,2,2,64,0,0
48075,-100,4,2,1,62,0,0
49995,-76.9230769230769,4,2,1,67,0,0
50895,-76.9230769230769,4,2,1,40,0,0
50955,-166.666666666667,4,2,1,54,0,0
51075,-166.666666666667,4,2,1,20,0,0
51915,-200,4,2,3,30,0,0
59595,-133.333333333333,4,2,2,50,0,0
62955,-133.333333333333,4,2,2,52,0,0
63435,-111.111111111111,4,2,1,55,0,0
65355,-100,4,2,1,60,0,0
66795,-100,4,2,2,60,0,0
69195,-200,4,2,1,35,0,0
69435,-200,4,2,1,25,0,0
69675,-200,4,2,1,35,0,0
70395,-200,4,2,1,25,0,0
70635,-200,4,2,1,35,0,0
71355,-200,4,2,1,25,0,0
71835,-200,4,2,1,35,0,0
73275,-200,4,2,1,25,0,0
73515,-200,4,2,1,35,0,0
75195,-200,4,2,1,25,0,0
75435,-200,4,2,1,35,0,0
75675,-181.818181818182,4,2,1,35,0,0
75915,-166.666666666666,4,2,1,40,0,0
76875,-133.333333333333,4,2,2,52,0,0
82635,-133.333333333333,4,2,2,54,0,0
83115,-133.333333333333,4,2,2,58,0,0
83595,-133.333333333333,4,2,1,60,0,0
84075,-133.333333333333,4,2,1,30,0,0
84555,-83.3333333333333,4,2,1,72,0,1
87915,-83.3333333333333,4,2,2,72,0,1
88395,-83.3333333333333,4,2,1,72,0,1
90315,-133.333333333333,4,2,2,60,0,0
91755,-83.3333333333333,4,2,2,65,0,0
92235,-83.3333333333333,4,2,1,72,0,1
95595,-83.3333333333333,4,2,2,72,0,1
96075,-83.3333333333333,4,2,1,72,0,1
99675,-200,4,2,2,65,0,0
99915,-200,4,2,1,65,0,0
100395,-200,4,2,1,40,0,0
101835,-172.413793103448,4,2,1,50,0,0
102075,-172.413793103448,4,2,1,20,0,0
102795,-172.413793103448,4,2,3,22,0,0
103395,-133.333333333333,4,2,1,50,0,0
103755,-83.3333333333333,4,2,1,70,0,0
106815,-83.3333333333333,4,2,1,50,0,0
106875,-83.3333333333333,4,2,1,70,0,0
107115,-83.3333333333333,4,2,2,70,0,0
107595,-83.3333333333333,4,2,1,70,0,0
109275,-100,4,2,1,70,0,0
109455,-100,4,2,1,50,0,0
109515,-66.6666666666667,4,2,1,70,0,0
110715,-66.6666666666667,4,2,2,70,0,0
111195,-66.6666666666667,4,2,3,70,0,0
111435,-83.3333333333333,4,2,1,70,0,0
114795,-83.3333333333333,4,2,2,70,0,0
115275,-83.3333333333333,4,2,1,70,0,0
117195,-66.6666666666667,4,2,1,70,0,0
118335,-66.6666666666667,4,2,1,50,0,0
118395,-66.6666666666667,4,2,1,70,0,0
118515,-66.6666666666667,4,2,2,70,0,0
118755,-66.6666666666667,4,2,1,70,0,0
118875,-66.6666666666667,4,2,2,70,0,0
119115,-66.6666666666667,4,2,2,65,0,0
120075,-100,4,2,2,64,0,0
120155,-100,4,2,1,5,0,0
120235,-111.111111111111,4,2,2,62,0,0
120315,-100,4,2,1,5,0,0
120395,-125,4,2,2,60,0,0
120475,-100,4,2,1,5,0,0
120555,-142.857142857143,4,2,2,57,0,0
120635,-100,4,2,1,5,0,0
120715,-166.666666666667,4,2,2,54,0,0
120795,-100,4,2,1,5,0,0
120875,-200,4,2,2,50,0,0
120955,-100,4,2,1,5,0,0
121035,-133.333333333333,4,2,1,55,0,0
121155,-133.333333333333,4,2,1,30,0,0
122475,-133.333333333333,4,2,2,55,0,0
122955,-181.818181818182,4,2,1,50,0,0
123195,-181.818181818182,4,2,1,30,0,0
124635,-181.818181818182,4,2,1,40,0,0
124875,-153.846153846154,4,2,1,52,0,0
125115,-153.846153846154,4,2,1,30,0,0
126195,-153.846153846154,4,2,1,40,0,0
126315,-133.333333333333,4,2,1,48,0,0
126375,-133.333333333333,4,2,1,30,0,0
126675,-133.333333333333,4,2,1,42,0,0
126795,-111.111111111111,4,2,1,62,0,0
128715,-90.9090909090909,4,2,1,62,0,0
130155,-90.9090909090909,4,2,2,62,0,0
130635,-111.111111111111,4,2,1,62,0,0
133995,-111.111111111111,4,2,2,62,0,0
134475,-111.111111111111,4,2,1,62,0,0
136395,-90.9090909090909,4,2,1,62,0,0
137115,-83.3333333333333,4,2,1,62,0,0
137835,-133.333333333333,4,2,1,50,0,0
138315,-100,4,2,1,64,0,0
141675,-100,4,2,2,64,0,0
142155,-100,4,2,1,64,0,0
144075,-76.9230769230769,4,2,1,64,0,0
145215,-76.9230769230769,4,2,1,46,0,0
145275,-76.9230769230769,4,2,2,64,0,0
145755,-76.9230769230769,4,2,3,64,0,0
145995,-100,4,2,1,64,0,0
149355,-100,4,2,2,64,0,0
149835,-100,4,2,1,62,0,0
151755,-76.9230769230769,4,2,1,67,0,0
152655,-76.9230769230769,4,2,1,40,0,0
152715,-166.666666666667,4,2,1,54,0,0
152835,-166.666666666667,4,2,1,20,0,0
153675,-166.666666666667,4,2,3,30,0,0
161355,-133.333333333333,4,2,2,50,0,0
164715,-133.333333333333,4,2,2,52,0,0
165195,-111.111111111111,4,2,1,55,0,0
167115,-100,4,2,1,60,0,0
168555,-100,4,2,2,60,0,0
170955,-200,4,2,1,35,0,0
171195,-200,4,2,1,25,0,0
171435,-200,4,2,1,35,0,0
172155,-200,4,2,1,25,0,0
172395,-200,4,2,1,35,0,0
173115,-200,4,2,1,25,0,0
173595,-200,4,2,1,35,0,0
175035,-200,4,2,1,25,0,0
175275,-200,4,2,1,35,0,0
176955,-200,4,2,1,25,0,0
177195,-200,4,2,1,35,0,0
177435,-181.818181818182,4,2,1,35,0,0
177675,-166.666666666666,4,2,1,40,0,0
178635,-133.333333333333,4,2,2,52,0,0
184395,-133.333333333333,4,2,2,54,0,0
184875,-133.333333333333,4,2,2,58,0,0
185355,-133.333333333333,4,2,1,60,0,0
185835,-133.333333333333,4,2,1,30,0,0
186315,-83.3333333333333,4,2,1,72,0,1
189675,-83.3333333333333,4,2,2,72,0,1
190155,-83.3333333333333,4,2,1,72,0,1
192075,-133.333333333333,4,2,2,60,0,0
193515,-83.3333333333333,4,2,2,65,0,0
193995,-83.3333333333333,4,2,1,72,0,1
197355,-83.3333333333333,4,2,2,72,0,1
197835,-83.3333333333333,4,2,1,72,0,1
201435,-83.3333333333333,4,2,2,65,0,0
201675,-83.3333333333333,4,2,1,65,0,0
202155,-83.3333333333333,4,2,1,40,0,0
203595,-172.413793103448,4,2,1,50,0,0
203835,-172.413793103448,4,2,1,20,0,0
204555,-172.413793103448,4,2,3,22,0,0
204975,-172.413793103448,4,2,1,50,0,0
205035,-142.857142857143,4,2,1,50,0,0
205275,-142.857142857143,4,2,1,20,0,0
205395,-142.857142857143,4,2,1,30,0,0
205515,-76.9230769230769,4,2,2,72,0,0
205635,-76.9230769230769,4,2,1,72,0,0
207615,-76.9230769230769,4,2,1,50,0,0
207675,-76.9230769230769,4,2,1,72,0,0
208875,-76.9230769230769,4,2,2,72,0,0
209355,-76.9230769230769,4,2,1,72,0,0
211275,-66.6666666666667,4,2,1,72,0,0
212415,-76.9230769230769,4,2,1,50,0,0
212475,-76.9230769230769,4,2,2,72,0,0
212955,-76.9230769230769,4,2,3,72,0,0
213195,-76.9230769230769,4,2,2,72,0,0
213375,-76.9230769230769,4,2,1,50,0,0
213435,-76.9230769230769,4,2,1,72,0,0
214335,-76.9230769230769,4,2,1,50,0,0
214395,-76.9230769230769,4,2,1,72,0,0
215055,-76.9230769230769,4,2,1,50,0,0
215115,-76.9230769230769,4,2,1,72,0,0
216015,-76.9230769230769,4,2,1,50,0,0
216075,-76.9230769230769,4,2,1,72,0,0
216555,-76.9230769230769,4,2,2,72,0,0
217035,-76.9230769230769,4,2,1,72,0,0
217515,-76.9230769230769,4,2,1,73,0,0
217995,-76.9230769230769,4,2,1,74,0,0
218475,-76.9230769230769,4,2,1,75,0,0
218955,-71.4285714285714,4,2,1,74,0,0
220395,-71.4285714285714,4,2,2,74,0,0
220875,-111.111111111111,4,2,1,60,0,0
220995,-111.111111111111,4,2,1,20,0,0
221595,-111.111111111111,4,2,1,40,0,0
221835,-111.111111111111,4,2,1,50,0,0
221955,-111.111111111111,4,2,1,20,0,0
222795,-111.111111111111,4,2,3,40,0,0
230475,-166.666666666667,4,2,2,40,0,0
230715,-166.666666666667,4,2,2,30,0,0
230955,-166.666666666667,4,2,2,40,0,0
231195,-166.666666666667,4,2,2,30,0,0
231435,-166.666666666667,4,2,2,40,0,0
231675,-166.666666666667,4,2,2,30,0,0
231915,-166.666666666667,4,2,2,40,0,0
232155,-166.666666666667,4,2,2,30,0,0
232395,-142.857142857143,4,2,2,45,0,0
232635,-142.857142857143,4,2,2,30,0,0
232875,-142.857142857143,4,2,2,45,0,0
233115,-142.857142857143,4,2,2,30,0,0
233355,-142.857142857143,4,2,2,45,0,0
233595,-142.857142857143,4,2,2,30,0,0
233835,-142.857142857143,4,2,2,48,0,0
234075,-142.857142857143,4,2,2,52,0,0
234315,-111.111111111111,4,2,1,58,0,0
236235,-100,4,2,1,62,0,0
236955,-90.9090909090909,4,2,1,62,0,0
237135,-90.9090909090909,4,2,1,30,0,0
237195,-200,4,2,1,50,0,0
237315,-200,4,2,1,5,0,0
238155,-200,4,2,3,14,0,0
241035,-250,4,2,1,24,0,0
241275,-250,4,2,1,15,0,0
241515,-200,4,2,1,30,0,0
241995,-200,4,2,3,36,0,0
242475,-76.9230769230769,4,2,1,74,0,1
245355,-76.9230769230769,4,2,2,74,0,1
245835,-76.9230769230769,4,2,1,74,0,1
247755,-133.333333333333,4,2,2,60,0,0
249195,-76.9230769230769,4,2,2,65,0,0
249675,-76.9230769230769,4,2,1,74,0,1
253035,-76.9230769230769,4,2,2,74,0,1
253515,-76.9230769230769,4,2,1,74,0,1
257115,-76.9230769230769,4,2,2,67,0,0
257355,-83.3333333333333,4,2,1,65,0,0
257835,-83.3333333333333,4,2,1,40,0,0
259275,-147.058823529412,4,2,1,50,0,0
259515,-147.058823529412,4,2,1,20,0,0
260235,-147.058823529412,4,2,3,22,0,0
261195,-90.9090909090909,4,2,1,67,0,0
264255,-90.9090909090909,4,2,1,50,0,0
264315,-90.9090909090909,4,2,1,67,0,0
264555,-90.9090909090909,4,2,2,67,0,0
265035,-90.9090909090909,4,2,1,67,0,0
266955,-76.9230769230769,4,2,1,67,0,0
268155,-76.9230769230769,4,2,2,67,0,0
268635,-76.9230769230769,4,2,3,67,0,0
268875,-90.9090909090909,4,2,1,68,0,0
272235,-90.9090909090909,4,2,2,68,0,0
272715,-90.9090909090909,4,2,1,68,0,0
274635,-71.4285714285714,4,2,1,68,0,0
274995,265.486725663717,4,2,1,70,1,0
274995,-71.4285714285714,4,2,1,70,0,0
275260,312.5,4,2,1,65,1,0
275416,600,4,2,1,65,1,0
275716,588.235294117647,4,2,1,58,1,0
276304,609.137055837563,4,2,1,46,1,0
276913,600,4,2,3,35,1,0
276913,-166.666666666667,4,2,3,35,0,0
276988,-166.666666666667,4,2,3,25,0,0
281113,-166.666666666667,4,2,3,22,0,0
281413,-166.666666666667,4,2,3,20,0,0
281713,-166.666666666667,4,2,3,23,0,0
282913,-181.818181818182,4,2,3,22,0,0
283213,-181.818181818182,4,2,3,18,0,0
283513,-200,4,2,3,20,0,0
283813,-200,4,2,3,16,0,0
284113,-222.222222222222,4,2,3,18,0,0
284713,-222.222222222222,4,2,3,5,0,0
285013,-222.222222222222,4,2,3,12,0,0
285313,-250,4,2,3,15,0,0
285913,-250,4,2,3,5,0,0
286513,-250,4,2,3,10,0,0

[Colours]
Combo1 : 240,140,140
Combo2 : 200,180,220
Combo3 : 240,200,155
Combo4 : 150,185,220

[HitObjects]
260,163,1635,6,0,L|251:234,2,63.7500024318696
364,47,1995,6,0,P|361:132|254:161,1,203.999993774414,12|8,1:3|2:0,0:1:0:0:
75,94,2355,2,0,P|37:170|120:161,1,203.999993774414,2|0,1:2|1:0,0:1:0:0:
215,6,2715,2,0,P|188:51|191:99,1,101.999996887207,10|0,1:2|0:0,0:1:0:0:
332,233,2955,6,0,B|389:179|477:218|477:218|445:235|396:223,1,203.999993774414,2|8,1:2|2:2,0:2:0:0:
260,163,3315,2,0,P|314:201|308:350,1,203.999993774414,2|0,1:2|1:2,0:2:0:0:
124,311,3675,2,0,P|166:282|216:274,1,101.999996887207,10|0,1:2|0:2,0:2:0:0:
404,379,3915,6,0,B|448:401|501:368|501:368|481:319|426:306,1,203.999993774414,6|8,1:2|2:2,2:2:0:0:
216,274,4275,2,0,B|172:296|119:263|119:263|139:214|194:201,1,203.999993774414,2|0,1:2|1:2,0:2:0:0:
354,166,4635,6,0,P|400:185|450:182,1,101.999996887207,10|0,1:2|0:2,0:2:0:0:
382,0,4875,2,0,P|341:30|319:75,1,101.999996887207,2|0,1:2|0:0,0:2:0:0:
512,107,5115,2,0,P|505:56|477:14,1,101.999996887207,12|0,1:2|0:2,0:2:0:0:
477,14,5295,1,0,1:2:0:0:
477,14,5355,1,8,1:3:0:0:
382,0,5475,1,8,1:3:0:0:
416,92,5595,1,4,1:3:0:0:
319,75,5715,1,4,1:3:0:0:
353,188,5835,6,0,P|348:285|261:328,1,203.999993774414,6|8,1:2|2:2,0:2:0:0:
185,197,6195,2,0,P|266:143|352:188,1,203.999993774414,2|0,1:2|1:2,0:2:0:0:
168,296,6555,2,0,P|111:267|89:219,1,101.999996887207,10|0,1:2|0:2,0:2:0:0:
89,23,6795,6,0,P|7:75|12:172,1,203.999993774414,2|8,1:2|2:2,0:2:0:0:
172,167,7155,2,0,P|173:70|88:22,1,203.999993774414,2|0,1:2|1:2,0:2:0:0:
92,235,7515,2,0,P|131:268|181:274,1,101.999996887207,10|0,1:2|0:0,0:2:0:0:
379,265,7755,6,0,B|450:244|517:291|527:356|527:356|478:348|458:295,1,255.000009727478,6|8,1:2|2:2,0:1:0:0:
328,159,8115,2,0,B|399:180|466:133|476:67|476:67|427:76|417:116,1,255.000009727478,6|0,1:2|1:2,0:2:0:0:
320,308,8475,2,0,P|368:268|431:261,1,127.500004863739,14|0,1:2|0:2,0:2:0:0:
268,116,8715,2,0,P|316:155|379:162,1,127.500004863739,6|0,1:2|0:0,0:2:0:0:
164,0,8955,5,8,1:3:0:0:
73,59,9075,1,8,1:3:0:0:
181,96,9195,1,4,1:3:0:0:
90,155,9315,1,4,1:3:0:0:
198,192,9435,1,8,1:3:0:0:
107,251,9555,1,8,1:3:0:0:
212,308,9675,6,0,B|339:293|275:375|424:354,1,203.999993774414,12|8,1:3|2:2,0:2:0:0:
492,159,10035,2,0,P|396:171|375:265,1,203.999993774414,2|0,1:2|1:2,0:2:0:0:
498,381,10395,2,0,P|502:334|466:285,1,101.999996887207,10|0,1:2|0:2,0:2:0:0:
283,163,10635,6,0,P|186:153|151:61,1,203.999993774414,2|8,1:2|2:2,0:2:0:0:
343,89,10995,2,0,P|382:178|320:254,1,203.999993774414,2|0,1:2|1:2,0:2:0:0:
247,78,11355,2,0,P|266:24|312:-1,1,101.999996887207,8|0,1:2|0:2,0:2:0:0:
384,170,11595,6,0,P|287:165|246:77,1,203.999993774414,6|8,1:2|2:2,0:2:0:0:
383,3,11955,2,0,P|434:86|383:169,1,203.999993774414,2|0,1:2|1:2,0:2:0:0:
221,61,12315,6,0,P|174:36|110:38,1,101.999996887207,10|0,1:2|0:2,0:2:0:0:
173,229,12555,2,0,P|218:200|248:144,1,101.999996887207,0|0,1:2|0:2,0:2:0:0:
52,103,12795,2,0,P|53:156|87:210,1,101.999996887207,12|0,1:2|0:2,0:2:0:0:
76,198,12975,1,0,1:2:0:0:
76,198,13035,1,8,1:3:0:0:
150,131,13155,1,8,1:3:0:0:
243,160,13275,1,4,1:3:0:0:
173,229,13395,1,4,1:3:0:0:
272,320,13515,6,0,P|354:304|298:241,1,203.999993774414,6|8,1:2|2:2,2:2:0:0:
75,358,13875,2,0,P|-7:342|48:279,1,203.999993774414,2|0,1:2|1:2,0:2:0:0:
268,339,14235,2,0,P|317:348|363:328,1,101.999996887207,10|0,1:2|0:2,0:2:0:0:
247,170,14475,6,0,P|210:260|268:338,1,203.999993774414,2|8,1:2|2:2,0:2:0:0:
343,190,14835,1,0,1:2:0:0:
317,97,14955,2,0,P|264:72|193:94,1,101.999996887207,2|0,0:2|1:2,0:2:0:0:
190,239,15195,2,0,P|243:264|314:242,1,101.999996887207,8|0,1:2|0:2,0:2:0:0:
419,82,15435,6,0,B|436:41|480:33|480:33|524:137|424:186,1,255.000009727478,6|8,1:2|2:2,0:2:0:0:
156,147,15795,2,0,B|120:119|78:135|78:135|92:247|203:239,1,255.000009727478,6|0,1:2|1:2,0:2:0:0:
397,117,16155,2,0,P|391:54|348:9,1,127.500004863739,14|0,1:2|0:2,0:2:0:0:
191,240,16395,2,0,P|193:291|258:355,1,127.500004863739,6|0,1:2|0:0,0:2:0:0:
510,348,16635,5,8,1:2:0:0:
428,384,16755,1,8,1:3:0:0:
355,330,16875,1,8,0:3:0:0:
364,240,16995,1,8,0:2:0:0:
448,204,17115,1,8,0:3:0:0:
379,38,17355,5,8,2:2:0:0:
311,72,17475,1,8,2:2:0:0:
235,61,17595,1,8,2:2:0:0:
180,6,17715,1,8,2:2:0:0:
200,157,17955,5,8,0:2:0:0:
132,123,18075,1,8,0:2:0:0:
56,134,18195,1,8,0:2:0:0:
1,189,18315,5,14,3:2:0:0:
84,63,18475,5,8,3:3:0:0:
152,166,18635,5,4,3:3:0:0:
240,86,18795,5,10,3:2:0:0:
298,158,18955,5,8,3:3:0:0:
371,121,19115,5,4,3:3:0:0:
441,161,19275,6,0,B|473:277|405:248|395:368|395:368|274:315|235:207|276:107|276:107|249:43|165:45|165:45|222:52|247:98,1,765.000029182435,6|8,1:2|1:2,0:2:0:0:
239,86,21195,6,0,B|143:56|182:121|81:93,1,152.999995330811,12|8,1:3|2:2,0:2:0:0:
207,163,21555,1,2,2:2:0:0:
207,163,21675,2,0,P|228:217|219:255,1,76.4999976654053,0|0,1:2|1:2,0:0:0:0:
129,319,21915,2,0,P|55:318|11:386,1,152.999995330811,10|0,2:2|1:2,0:2:0:0:
230,238,22395,1,10,2:2:0:0:
230,238,22515,1,0,1:2:0:0:
283,302,22635,2,0,P|320:306|374:282,1,76.4999976654053,2|0,1:2|1:2,0:2:0:0:
260,170,22875,2,0,P|238:200|231:258,1,76.4999976654053,10|0,2:2|0:2,0:2:0:0:
402,225,23115,6,0,B|392:187|370:163|360:178|323:143|333:90,1,152.999995330811,6|8,1:2|0:2,0:2:0:0:
439,32,23475,2,0,B|473:44|484:89|484:89|454:116|407:99,1,152.999995330811,2|0,1:2|1:2,0:2:0:0:
283,18,23835,2,0,P|319:5|357:7,1,76.4999976654053,10|0,0:2|0:2,0:2:0:0:
412,101,24075,2,0,P|405:138|384:170,1,76.4999976654053,0|0,1:2|0:2,0:2:0:0:
276,171,24315,2,0,P|247:146|229:112,1,76.4999976654053,8|0,0:2|0:2,0:2:0:0:
229,112,24495,1,0,1:2:0:0:
229,112,24555,1,8,1:3:0:0:
201,187,24675,1,8,1:3:0:0:
153,127,24795,1,4,1:3:0:0:
186,58,24915,1,4,1:3:0:0:
103,22,25035,6,0,P|57:26|33:135,1,152.999995330811,6|8,1:2|0:2,0:2:0:0:
128,200,25395,1,2,1:2:0:0:
128,200,25515,2,0,P|167:184|216:192,1,76.4999976654053,0|0,1:2|1:2,0:2:0:0:
222,292,25755,2,0,P|183:308|134:300,1,76.4999976654053,10|0,0:2|0:2,0:2:0:0:
286,228,25995,2,0,B|381:206|345:271|451:247,1,152.999995330811,2|10,1:2|0:2,0:2:0:0:
432,250,26355,1,0,1:2:0:0:
504,171,26475,2,0,P|507:129|494:85,1,76.4999976654053,2|0,0:2|1:2,0:2:0:0:
354,156,26715,2,0,P|351:198|364:242,1,76.4999976654053,10|0,0:2|0:2,0:2:0:0:
266,103,26955,6,0,B|248:149|208:161|208:161|173:122|107:126,1,187.000005706787,6|8,1:2|0:2,0:2:0:0:
359,231,27315,2,0,B|377:277|417:289|417:289|452:250|518:254,1,187.000005706787,6|0,1:2|1:2,0:2:0:0:
274,384,27675,2,0,P|288:341|268:286,1,93.5000028533936,14|0,1:2|0:2,0:2:0:0:
131,182,27915,2,0,P|161:215|218:225,1,93.5000028533936,4|0,1:2|0:2,0:2:0:0:
363,139,28155,5,8,1:2:0:0:
291,182,28275,1,0,1:2:0:0:
217,141,28395,1,8,1:3:0:0:
215,57,28515,1,8,1:3:0:0:
288,13,28635,1,4,1:3:0:0:
362,54,28755,1,4,1:3:0:0:
289,98,28875,6,0,B|244:83|207:113|207:113|166:111|143:82,1,152.999995330811,12|8,1:3|2:2,0:2:0:0:
266,181,29235,1,2,0:2:0:0:
266,181,29355,2,0,P|274:212|257:265,1,76.4999976654053,0|0,1:2|1:2,0:0:0:0:
164,324,29595,2,0,B|119:309|82:339|82:339|41:337|18:308,2,152.999995330811,10|0|10,0:2|1:2|0:2,0:2:0:0:
225,382,30195,1,0,1:2:0:0:
296,338,30315,2,0,P|308:309|295:247,1,76.4999976654053,2|0,1:2|1:2,0:2:0:0:
173,252,30555,2,0,P|160:280|174:343,1,76.4999976654053,10|0,0:2|0:2,0:2:0:0:
250,201,30795,6,0,B|281:127|224:131|260:43,1,152.999995330811,6|8,1:2|0:2,0:2:0:0:
98,78,31155,2,0,P|107:148|177:159,1,152.999995330811,2|0,1:2|1:2,0:2:0:0:
330,47,31515,2,0,P|292:40|256:53,1,76.4999976654053,10|0,0:2|0:2,0:2:0:0:
350,199,31755,2,0,P|374:169|381:132,1,76.4999976654053,0|0,1:2|0:2,0:2:0:0:
206,140,31995,2,0,P|220:175|248:200,1,76.4999976654053,12|0,0:2|0:2,0:2:0:0:
248,200,32175,1,0,1:2:0:0:
248,200,32235,1,8,1:3:0:0:
198,258,32355,1,8,1:3:0:0:
270,282,32475,1,4,1:3:0:0:
214,334,32595,1,4,1:3:0:0:
316,368,32715,6,0,B|351:341|390:354|390:354|414:385|455:385,1,152.999995330811,6|8,1:2|2:2,0:2:0:0:
396,269,33075,1,2,0:2:0:0:
396,269,33195,2,0,P|409:233|403:191,1,76.4999976654053,0|0,1:2|1:2,0:2:0:0:
496,141,33435,2,0,P|489:103|463:69,1,76.4999976654053,10|0,0:2|0:2,0:2:0:0:
351,28,33675,2,0,B|316:55|277:42|277:42|253:11|212:11,1,152.999995330811,2|8,1:2|0:2,0:2:0:0:
190,140,34035,1,2,1:2:0:0:
190,140,34155,2,0,P|229:141|281:104,1,76.4999976654053,0|0,2:2|1:2,0:2:0:0:
134,16,34395,2,0,P|117:50|119:88,1,76.4999976654053,10|0,0:2|0:2,0:2:0:0:
286,138,34635,6,0,P|343:141|377:276,1,187.000005706787,6|8,1:2|0:2,0:2:0:0:
106,199,34995,2,0,P|19:221|0:308,1,187.000005706787,6|0,1:2|1:2,0:2:0:0:
232,384,35355,6,0,B|209:353|221:312|221:312|252:287|254:253|245:230|221:225|221:225|234:243|237:268,1,203.999993774414,14|4,0:2|1:1,0:2:0:0:
332,360,36075,6,0,B|414:342|390:399|471:375,1,127.500004863739,14|0,0:2|0:2,0:2:0:0:
454,380,36555,6,0,P|488:305|447:234,1,170,12|8,1:3|0:2,0:2:0:0:
270,243,36915,2,0,P|318:309|400:310,1,170,2|0,0:2|1:2,0:0:0:0:
480,151,37275,2,0,P|398:159|357:230,1,170,10|0,0:2|1:2,0:2:0:0:
151,106,37755,2,0,P|195:106|241:71,1,85,10|0,0:2|1:2,0:0:0:0:
172,28,37995,2,0,P|150:66|157:123,1,85,2|0,0:2|1:2,0:2:0:0:
253,9,38235,5,10,2:2:0:0:
253,9,38355,1,2,0:2:0:0:
314,71,38475,6,0,B|355:134|316:196|316:196|289:174|295:140,1,170,6|8,1:2|0:2,0:2:0:0:
419,141,38835,2,0,P|467:193|399:214,1,170,2|0,1:2|1:2,2:2:0:0:
221,199,39195,2,0,P|254:173|295:166,1,85,10|0,0:2|0:2,0:2:0:0:
427,261,39435,2,0,P|387:245|361:213,1,85,2|0,1:2|0:2,0:2:0:0:
376,51,39675,2,0,P|382:92|367:131,1,85,12|0,0:2|0:2,0:2:0:0:
367,131,39855,1,0,1:2:0:0:
367,131,39915,1,8,1:3:0:0:
295,166,40035,1,8,1:3:0:0:
361,213,40155,1,4,1:3:0:0:
287,248,40275,1,4,1:3:0:0:
374,311,40395,6,0,B|483:306|424:362|540:371,1,170,6|8,1:2|0:2,0:2:0:0:
448,224,40755,1,2,0:2:0:0:
448,224,40875,2,0,P|491:213|514:170,1,85,0|0,1:2|1:2,0:2:0:0:
421,92,41115,2,0,P|423:47|390:12,1,85,10|0,0:2|0:2,0:2:0:0:
271,63,41355,2,0,B|206:30|152:73|152:73|149:44|183:27,1,170,2|8,1:2|0:2,0:2:0:0:
168,35,41715,1,0,1:2:0:0:
221,133,41835,2,0,P|224:174|199:207,1,85,2|0,0:2|1:2,0:2:0:0:
97,276,42075,5,10,0:2:0:0:
97,276,42195,1,0,0:2:0:0:
237,358,42315,6,0,B|283:316|349:338|349:338|389:389|449:384,1,220.999989883423,6|8,1:2|0:2,0:2:0:0:
315,197,42675,2,0,B|361:239|427:217|427:217|467:166|527:170,1,220.999989883423,6|0,1:2|1:2,0:2:0:0:
344,100,43035,2,0,P|350:54|313:-1,1,110.499994941712,14|0,0:2|0:2,0:2:0:0:
230,170,43275,2,0,P|224:216|261:271,1,110.499994941712,6|0,1:2|0:0,0:2:0:0:
420,237,43515,5,8,1:3:0:0:
497,278,43635,1,8,1:3:0:0:
499,365,43755,1,4,1:3:0:0:
422,324,43875,1,4,1:3:0:0:
420,237,43995,1,8,1:3:0:0:
495,191,44115,1,8,1:3:0:0:
411,116,44235,6,0,P|402:193|323:209,1,170,12|8,0:3|0:2,0:2:0:0:
240,114,44595,1,2,0:2:0:0:
240,114,44715,2,0,P|246:77|221:26,1,85,0|0,1:2|1:2,0:0:0:0:
123,108,44955,2,0,P|44:122|35:201,1,170,8|0,0:2|1:2,0:2:0:0:
214,380,45435,2,0,P|230:341|225:299,1,85,10|0,0:2|1:2,0:0:0:0:
150,330,45675,2,0,P|174:363|213:379,1,85,2|0,0:2|1:2,0:2:0:0:
157,239,45915,5,10,0:2:0:0:
157,239,46035,1,2,0:2:0:0:
226,300,46155,6,0,B|329:311|280:240|399:258,1,170,6|8,1:2|0:2,0:2:0:0:
249,221,46515,2,0,B|220:199|213:172|213:172|214:115|264:76,1,170,2|0,1:2|1:2,0:2:0:0:
417,26,46875,2,0,P|384:31|325:1,1,85,10|0,0:2|0:2,0:2:0:0:
407,167,47115,2,0,P|419:135|474:99,1,85,2|0,1:2|0:2,0:2:0:0:
289,87,47355,2,0,P|309:113|313:179,1,85,12|0,0:2|0:2,0:2:0:0:
317,163,47535,1,0,1:2:0:0:
317,163,47595,1,8,1:3:0:0:
241,156,47715,1,8,1:3:0:0:
187,222,47835,1,4,1:3:0:0:
270,235,47955,1,4,1:3:0:0:
170,300,48075,6,0,P|95:305|71:410,1,170,6|8,1:2|0:2,0:2:0:0:
235,366,48435,1,2,0:2:0:0:
235,366,48555,2,0,P|254:335|254:278,1,85,0|0,1:2|1:2,0:2:0:0:
352,236,48795,2,0,P|343:200|303:160,1,85,10|0,0:2|0:2,0:2:0:0:
421,81,49035,2,0,P|392:156|312:165,1,170,2|10,1:2|0:2,0:2:0:0:
311,164,49395,1,0,1:2:0:0:
237,94,49515,2,0,P|252:67|242:-3,1,85,2|0,0:2|1:2,0:2:0:0:
161,32,49755,5,10,0:2:0:0:
161,32,49875,1,2,0:2:0:0:
342,94,49995,6,0,B|378:87|406:104|406:104|434:183|364:255,1,220.999989883423,6|8,1:2|0:2,0:2:0:0:
69,168,50355,2,0,B|36:159|5:178|5:178|-23:257|47:329,1,220.999989883423,6|0,1:2|1:2,0:2:0:0:
229,384,50715,6,0,B|253:300|190:308|226:214,1,165.749992412568,14|0,0:2|0:2,0:2:0:0:
234,205,50955,6,0,P|259:236|287:77,1,407.999987548829,4|4,1:2|0:2,0:2:0:0:
191,57,59595,6,0,B|121:46|144:22|72:14,1,127.500004863739,6|0,1:2|0:2,0:2:0:0:
138,153,60075,2,0,P|101:184|111:277,1,127.500004863739,10|0,0:2|0:2,0:2:0:0:
127,330,60435,1,0,1:2:0:0:
197,359,60555,2,0,L|327:349,1,127.500004863739,2|0,0:2|1:2,0:0:0:0:
207,375,61035,2,0,L|334:365,1,127.500004863739,10|0,0:2|0:2,0:2:0:0:
497,265,61515,6,0,P|512:204|488:140,1,127.500004863739,2|0,0:2|1:2,0:2:0:0:
373,37,61995,2,0,B|366:69|337:83|337:83|304:81|271:68,1,127.500004863739,10|0,0:2|0:2,0:2:0:0:
216,14,62355,1,0,1:2:0:0:
156,61,62475,2,0,P|135:120|150:181,1,127.500004863739,2|0,0:2|1:2,0:0:0:0:
276,268,62955,5,8,0:2:0:0:
337,223,63075,1,8,0:2:0:0:
403,259,63195,1,8,0:3:0:0:
342,304,63315,1,8,0:3:0:0:
262,260,63435,6,0,B|168:239|217:298|91:270,2,152.999995330811,6|8|0,1:2|2:2|1:2,0:2:0:0:
406,384,64155,1,8,0:2:0:0:
406,384,64275,1,0,0:2:0:0:
484,322,64395,2,0,P|504:276|457:168,1,152.999995330811,2|8,1:2|0:2,0:2:0:0:
304,196,64755,2,0,P|284:242|331:350,1,152.999995330811,2|0,1:2|1:2,0:2:0:0:
388,217,65115,2,0,P|389:170|367:135,1,76.4999976654053,10|0,0:2|0:2,0:2:0:0:
254,46,65355,6,0,B|205:40|169:64|169:64|142:32|97:17,1,170,6|8,1:2|0:2,0:2:0:0:
229,145,65715,2,0,P|251:235|200:297,1,170,0|0,1:2|1:2,0:2:0:0:
115,337,66075,6,0,L|105:242,1,85,8|0,0:2|0:2,0:2:0:0:
280,370,66315,2,0,L|290:275,1,85,2|0,1:2|0:2,0:2:0:0:
28,384,66555,2,0,L|18:289,1,85,12|0,0:2|0:2,0:2:0:0:
19,299,66735,1,0,1:2:0:0:
19,299,66795,1,8,1:3:0:0:
106,251,66915,1,8,1:3:0:0:
23,191,67035,1,4,1:3:0:0:
103,147,67155,1,4,1:3:0:0:
48,81,67275,1,4,1:2:0:0:
40,81,69195,6,0,B|140:72|79:33|203:24,1,170,2|0,0:2|0:2,0:2:0:0:
252,81,69915,1,0,0:2:0:0:
181,114,70155,2,0,B|152:134|143:158|143:158|145:217|192:265,1,170,2|0,0:2|0:2,0:2:0:0:
186,258,71115,2,0,B|256:230|322:285|269:322|338:365|401:333,1,255,2|0,0:2|0:2,0:2:0:0:
508,292,72075,5,2,0:2:0:0:
435,258,72315,1,0,0:2:0:0:
425,178,72555,1,0,0:2:0:0:
482,122,72795,5,0,0:2:0:0:
487,115,72915,1,0,0:2:0:0:
492,108,73035,2,0,B|511:76|510:53|510:53|467:14|398:32,1,170,2|0,0:2|0:2,0:2:0:0:
336,71,73755,1,0,0:2:0:0:
384,134,73995,2,0,P|390:165|369:225,1,85,2|0,0:2|0:2,0:2:0:0:
403,290,74475,2,0,P|385:316|328:343,1,85,0|0,0:2|0:2,0:2:0:0:
268,377,74955,2,0,P|228:363|194:243,1,170,2|0,0:2|0:2,0:2:0:0:
97,196,75675,2,0,L|142:186,1,46.7500014266968,0|0,0:2|0:2,0:2:0:0:
187,122,75915,6,0,P|179:70|211:15,1,101.999996887207,2|0,0:2|0:2,0:2:0:0:
305,108,76395,2,0,P|313:160|281:215,1,101.999996887207,2|0,0:2|0:2,0:2:0:0:
172,278,76875,6,0,L|44:290,1,127.500004863739,6|0,1:2|0:2,0:2:0:0:
236,372,77355,2,0,L|364:384,1,127.500004863739,8|0,0:2|0:2,0:2:0:0:
431,348,77715,1,0,1:2:0:0:
384,202,77955,1,8,0:2:0:0:
384,202,78075,1,0,1:2:0:0:
512,97,78315,2,0,L|385:85,1,127.500004863739,8|0,0:2|0:2,0:2:0:0:
278,0,78795,6,0,P|295:59|264:113,1,127.500004863739,2|0,1:2|1:2,0:2:0:0:
98,199,79275,2,0,P|80:139|111:85,1,127.500004863739,8|0,0:2|0:2,0:2:0:0:
174,41,79635,1,0,1:2:0:0:
223,190,79875,1,8,0:2:0:0:
223,190,79995,1,0,1:2:0:0:
97,288,80235,5,8,0:2:0:0:
167,257,80355,1,8,0:2:0:0:
241,273,80475,1,8,0:3:0:0:
291,329,80595,1,8,0:3:0:0:
364,344,80715,6,0,P|421:342|497:285,1,127.500004863739,6|0,1:2|0:2,0:2:0:0:
425,98,81195,2,0,P|368:100|292:157,1,127.500004863739,10|0,0:2|0:2,0:2:0:0:
256,192,81555,1,0,1:2:0:0:
203,248,81675,2,0,P|149:282|87:286,1,127.500004863739,2|0,0:2|1:2,0:0:0:0:
31,77,82155,2,0,P|85:43|148:40,1,127.500004863739,10|0,0:2|0:2,0:2:0:0:
260,196,82635,5,2,1:2:0:0:
260,196,82875,1,0,1:2:0:0:
321,139,83115,5,8,2:2:0:0:
234,273,83235,1,8,2:2:0:0:
225,113,83355,1,8,2:3:0:0:
326,237,83475,1,8,2:2:0:0:
172,196,83595,1,2,1:2:0:0:
393,29,84075,5,0,0:2:0:0:
430,19,84315,5,0,0:2:0:0:
467,25,84555,6,0,P|513:80|477:208,1,203.999993774414,12|8,1:3|2:2,0:2:0:0:
315,146,84915,2,0,P|359:121|410:121,1,101.999996887207,2|0,1:2|0:2,0:2:0:0:
490,305,85155,1,2,1:2:0:0:
406,364,85275,2,0,P|355:363|311:338,1,101.999996887207,8|0,2:2|1:2,0:0:0:0:
177,214,85515,6,0,B|175:155|126:112|66:125|66:125|43:140|43:181,1,203.999993774414,2|8,1:2|2:2,0:2:0:0:
149,301,85875,2,0,P|200:302|244:277,1,101.999996887207,2|0,1:2|0:2,0:2:0:0:
336,108,86115,1,2,1:2:0:0:
252,49,86235,1,8,2:2:0:0:
345,5,86355,1,0,1:2:0:0:
429,64,86475,6,0,P|462:135|402:243,1,203.999993774414,6|8,1:2|2:2,0:2:0:0:
127,206,86835,2,0,P|94:135|154:27,1,203.999993774414,2|2,1:2|1:2,0:2:0:0:
268,247,87195,1,8,0:2:0:0:
268,247,87315,1,0,1:2:0:0:
158,330,87435,6,0,P|118:339|50:309,1,101.999996887207,2|0,1:2|0:2,0:2:0:0:
86,131,87675,2,0,P|135:122|182:141,1,101.999996887207,10|0,0:2|0:2,0:2:0:0:
182,141,87855,1,0,1:2:0:0:
182,141,87915,1,8,1:3:0:0:
268,247,88035,1,8,1:3:0:0:
289,145,88155,1,4,1:3:0:0:
170,246,88275,1,4,1:3:0:0:
307,329,88395,6,0,B|437:304|379:378|503:360,1,203.999993774414,6|8,1:2|0:2,0:2:0:0:
425,207,88755,2,0,B|451:237|486:238|486:238|535:177|484:93,1,203.999993774414,0|0,1:2|1:2,0:2:0:0:
354,50,89115,2,0,B|224:75|282:1|158:19,1,203.999993774414,8|0,0:2|1:2,0:2:0:0:
159,18,89595,5,10,0:2:0:0:
159,18,89715,1,0,1:2:0:0:
50,128,89835,2,0,P|33:75|62:15,1,101.999996887207,2|0,0:2|1:2,0:2:0:0:
200,145,90075,2,0,P|200:195|171:236,1,101.999996887207,10|0,0:2|0:2,0:2:0:0:
0,186,90315,5,6,0:2:0:0:
0,186,90435,2,0,P|64:178|133:173,1,127.500004863739,0|0,1:2|1:2,0:0:0:0:
30,263,90795,5,12,0:2:0:0:
30,263,90915,2,0,P|94:255|163:250,1,127.500004863739,0|0,1:2|1:2,0:0:0:0:
198,318,91275,5,4,1:2:0:0:
262,79,91515,1,0,1:2:0:0:
277,346,91755,5,8,1:2:0:0:
405,300,91875,1,8,1:2:0:0:
301,262,91995,1,8,1:2:0:0:
383,384,92115,1,8,1:2:0:0:
486,267,92235,6,0,P|514:196|443:55,1,203.999993774414,12|8,1:3|0:2,0:2:0:0:
226,183,92595,2,0,P|198:254|269:395,1,203.999993774414,0|0,1:2|1:2,0:2:0:0:
317,164,92955,5,10,0:2:0:0:
317,164,93075,1,2,0:2:0:0:
172,241,93195,2,0,P|114:236|78:202,1,101.999996887207,0|0,1:2|0:2,0:2:0:0:
390,213,93435,5,10,0:2:0:0:
390,213,93555,1,2,1:2:0:0:
243,135,93675,2,0,P|185:140|149:174,1,101.999996887207,2|0,0:2|1:2,0:2:0:0:
457,162,93915,5,10,0:2:0:0:
457,162,94035,1,2,0:2:0:0:
310,246,94155,2,0,P|252:241|216:207,1,101.999996887207,6|0,1:2|0:2,0:2:0:0:
510,230,94395,5,10,0:2:0:0:
510,230,94515,1,2,1:2:0:0:
377,135,94635,2,0,P|319:140|283:174,1,101.999996887207,2|0,0:2|1:2,0:2:0:0:
228,328,94875,5,10,0:2:0:0:
228,328,94995,1,2,0:2:0:0:
322,375,95115,2,0,P|372:373|411:342,1,101.999996887207,2|0,1:2|0:2,0:2:0:0:
198,200,95355,2,0,P|237:169|287:167,1,101.999996887207,14|0,0:2|0:2,0:2:0:0:
287,167,95535,1,0,1:2:0:0:
287,167,95595,1,8,1:3:0:0:
228,328,95715,1,8,1:3:0:0:
198,200,95835,1,4,1:3:0:0:
322,287,95955,1,4,1:3:0:0:
389,195,96075,6,0,B|409:165|418:131|418:131|412:65|333:17,1,203.999993774414,6|10,1:2|0:2,0:2:0:0:
245,4,96435,1,2,0:2:0:0:
154,51,96555,2,0,P|133:85|129:161,1,101.999996887207,2|0,1:2|1:2,0:2:0:0:
248,13,96795,5,10,0:2:0:0:
329,29,96915,1,2,0:2:0:0:
359,105,97035,2,0,P|370:143|354:217,1,101.999996887207,2|0,1:2|0:2,0:2:0:0:
250,21,97275,5,10,0:2:0:0:
154,51,97395,1,2,1:2:0:0:
125,145,97515,2,0,P|123:184|158:252,1,101.999996887207,2|0,0:2|1:2,0:2:0:0:
252,29,97755,5,10,0:2:0:0:
352,87,97875,1,2,0:2:0:0:
360,203,97995,2,0,B|358:284|281:307|281:307|262:283|229:272,1,203.999993774414,6|8,1:2|0:2,0:2:0:0:
107,378,98355,1,6,1:2:0:0:
107,378,98475,2,0,P|157:378|201:354,1,101.999996887207,2|0,0:2|1:2,0:2:0:0:
62,288,98715,2,0,P|98:253|147:240,1,101.999996887207,14|0,0:2|0:2,0:2:0:0:
352,305,98955,5,6,1:2:0:0:
229,272,99075,1,8,0:2:0:0:
360,203,99195,1,0,1:2:0:0:
143,15,99435,5,12,0:2:0:0:
0,192,99675,5,8,0:3:0:0:
59,131,99795,1,8,0:3:0:0:
141,150,99915,1,4,1:2:0:0:
199,336,100395,5,0,0:2:0:0:
334,288,100875,5,0,0:2:0:0:
416,368,101355,5,0,0:2:0:0:
496,323,101835,6,0,P|433:154|256:192,1,394.400012036133,6|2,1:2|0:3,0:2:0:0:
370,45,103395,6,0,L|361:108,2,63.7500024318696,0|0|0,0:2|0:2|0:2,0:2:0:0:
485,158,103755,6,0,P|475:76|367:47,1,203.999993774414,12|8,1:3|2:0,0:1:0:0:
256,192,104115,2,0,P|266:274|374:303,1,203.999993774414,2|0,1:2|1:0,0:1:0:0:
330,134,104475,2,0,P|288:104|222:106,1,101.999996887207,10|0,1:2|0:0,0:1:0:0:
128,288,104715,6,0,B|79:316|32:291|32:291|44:235|102:218,1,203.999993774414,2|8,1:2|2:2,0:2:0:0:
370,304,105075,2,0,B|424:319|436:375|436:375|389:400|340:372,1,203.999993774414,2|0,1:2|1:2,0:2:0:0:
185,219,105435,2,0,P|175:169|196:124,1,101.999996887207,10|0,1:2|0:2,0:2:0:0:
380,189,105675,6,0,P|469:189|511:87,1,203.999993774414,6|8,1:2|2:2,2:2:0:0:
391,27,106035,2,0,P|333:104|380:189,1,203.999993774414,2|0,1:2|1:2,0:2:0:0:
229,44,106395,6,0,P|184:20|134:24,1,101.999996887207,10|0,1:2|0:2,0:2:0:0:
196,214,106635,2,0,P|238:187|260:141,1,101.999996887207,2|0,1:2|0:0,0:2:0:0:
66,100,106875,2,0,P|68:150|96:192,1,101.999996887207,12|0,1:2|0:2,0:2:0:0:
96,192,107055,1,0,1:2:0:0:
96,192,107115,1,8,1:3:0:0:
163,121,107235,1,8,1:3:0:0:
196,214,107355,1,4,1:3:0:0:
260,141,107475,1,4,1:3:0:0:
316,268,107595,6,0,B|439:303|380:220|523:251,1,203.999993774414,6|8,1:2|2:2,0:2:0:0:
360,174,107955,2,0,P|357:98|236:39,1,203.999993774414,2|0,1:2|1:2,0:2:0:0:
170,172,108315,2,0,P|220:171|260:141,1,101.999996887207,10|0,1:2|0:2,0:2:0:0:
97,94,108555,6,0,P|64:186|122:266,1,203.999993774414,2|8,1:2|2:2,0:2:0:0:
330,237,108915,2,0,P|267:161|169:172,1,203.999993774414,2|0,1:2|1:2,0:2:0:0:
116,366,109275,2,0,P|157:361|191:336,1,85,10|0,1:2|0:0,0:2:0:0:
453,168,109515,6,0,B|506:201|504:292|435:334|435:334|380:315,1,255.000009727478,6|8,1:2|2:2,0:1:0:0:
84,212,109875,2,0,B|40:257|66:345|143:367|143:367|192:335,1,255.000009727478,6|0,1:2|1:2,0:2:0:0:
404,104,110235,2,0,P|415:165|391:224,1,127.500004863739,14|0,1:2|0:2,0:2:0:0:
161,246,110475,2,0,P|123:195|118:133,1,127.500004863739,6|0,1:2|0:2,0:2:0:0:
292,0,110715,5,8,1:3:0:0:
201,59,110835,1,8,1:3:0:0:
309,96,110955,1,4,1:3:0:0:
218,155,111075,1,4,1:3:0:0:
326,192,111195,1,8,1:3:0:0:
235,251,111315,1,8,1:3:0:0:
344,322,111435,6,0,P|419:354|500:260,1,203.999993774414,12|8,1:3|2:2,0:2:0:0:
408,174,111795,2,0,P|327:227|344:322,1,203.999993774414,2|0,1:2|1:2,0:2:0:0:
494,196,112155,2,0,P|493:141|456:98,1,101.999996887207,10|0,1:2|0:2,0:2:0:0:
294,67,112395,6,0,B|176:72|234:4|106:6,1,203.999993774414,2|8,1:2|2:2,0:2:0:0:
133,177,112755,2,0,P|215:128|200:33,1,203.999993774414,2|0,1:2|1:2,0:2:0:0:
38,160,113115,2,0,P|38:218|68:256,1,101.999996887207,8|0,1:2|0:2,0:2:0:0:
281,296,113355,6,0,P|319:369|237:357,1,203.999993774414,6|8,1:2|2:2,0:2:0:0:
62,252,113715,2,0,P|2:310|84:324,1,203.999993774414,2|0,1:2|1:2,0:2:0:0:
304,202,114075,6,0,P|306:254|280:298,1,101.999996887207,10|0,1:2|0:2,0:2:0:0:
137,157,114315,2,0,P|180:129|230:128,1,101.999996887207,0|0,1:2|0:2,0:2:0:0:
182,322,114555,2,0,P|135:297|110:253,1,101.999996887207,12|0,1:2|0:2,0:2:0:0:
111,255,114735,1,0,1:2:0:0:
111,255,114795,1,8,1:3:0:0:
137,157,114915,1,8,1:3:0:0:
208,228,115035,1,4,1:3:0:0:
230,128,115155,1,4,1:3:0:0:
317,219,115275,6,0,B|331:287|414:308|414:308|435:286|432:237,1,203.999993774414,6|8,1:2|2:2,2:2:0:0:
362,68,115635,2,0,B|421:31|493:78|493:78|491:108|453:139,1,203.999993774414,2|0,1:2|1:2,0:2:0:0:
303,129,115995,2,0,P|277:85|281:35,1,101.999996887207,10|0,1:2|0:2,0:2:0:0:
442,55,116235,6,0,P|398:140|302:128,1,203.999993774414,2|8,1:2|2:2,0:2:0:0:
167,14,116595,1,0,1:2:0:0:
167,14,116715,2,0,P|189:58|184:108,1,101.999996887207,2|0,0:2|1:2,0:2:0:0:
34,248,116955,2,0,P|11:203|16:153,1,101.999996887207,8|0,1:2|0:2,0:2:0:0:
217,304,117195,6,0,B|284:324|337:263|337:263|402:246|455:285,1,255.000009727478,6|8,1:2|2:2,0:2:0:0:
242,184,117555,2,0,B|176:115|234:16|234:16|281:30|299:91,1,255.000009727478,6|0,1:2|1:2,0:2:0:0:
336,298,117915,2,0,P|385:313|453:280,1,127.500004863739,14|0,1:2|0:2,0:2:0:0:
287,61,118155,2,0,P|237:45|169:78,1,127.500004863739,6|0,1:2|0:0,0:2:0:0:
318,168,118395,5,8,1:2:0:0:
385,223,118515,1,8,1:3:0:0:
371,312,118635,1,8,0:3:0:0:
287,345,118755,1,8,0:2:0:0:
215,286,118875,1,8,0:3:0:0:
318,168,119115,5,8,2:2:0:0:
389,194,119235,1,8,2:2:0:0:
463,175,119355,1,8,2:2:0:0:
512,115,119475,1,8,2:2:0:0:
319,23,119715,5,8,0:2:0:0:
341,95,119835,1,8,0:2:0:0:
318,168,119955,1,8,0:2:0:0:
255,214,120075,5,14,3:2:0:0:
172,113,120235,5,8,3:3:0:0:
59,123,120395,5,4,3:3:0:0:
2,206,120555,5,10,3:2:0:0:
14,304,120715,5,8,3:3:0:0:
91,352,120875,5,4,3:3:0:0:
171,334,121035,6,0,B|228:262|199:137|156:181|126:197|86:6|163:-116|362:-108|592:41|461:312|194:305|270:101|270:101,1,765.000029182435,6|8,1:2|1:2,0:2:0:0:
268,112,122955,6,0,P|75:244|303:194,1,654.500019973755,6|0,1:2|0:2,0:2:0:0:
303,196,124875,6,0,P|513:218|300:278,1,607.749972179414,6|0,1:2|0:2,0:2:0:0:
302,282,126315,6,0,B|327:235|304:192|304:192|253:166|251:111,1,191.250007295609,10|0,0:2|0:2,0:2:0:0:
393,21,126795,6,0,P|399:92|329:114,1,152.999995330811,12|8,1:3|0:2,0:2:0:0:
204,53,127155,1,2,1:2:0:0:
204,53,127275,2,0,P|242:39|292:48,1,76.4999976654053,0|0,1:2|1:2,0:2:0:0:
298,196,127515,2,0,P|262:209|224:206,1,76.4999976654053,10|0,0:2|0:2,0:2:0:0:
79,147,127755,2,0,P|11:170|17:241,1,152.999995330811,2|10,1:2|0:2,0:2:0:0:
17,241,128115,1,0,1:2:0:0:
120,205,128235,2,0,P|110:169|79:147,1,76.4999976654053,2|0,0:2|1:2,0:2:0:0:
53,320,128475,2,0,P|90:316|116:290,1,76.4999976654053,10|0,0:2|0:2,0:2:0:0:
227,176,128715,6,0,B|201:94|269:43|269:43|260:102,1,187.000005706787,6|8,1:2|0:2,0:2:0:0:
315,256,129075,2,0,B|375:315|452:278|452:278|395:260,1,187.000005706787,6|0,1:2|1:2,0:2:0:0:
227,176,129435,2,0,P|180:174|122:205,1,93.5000028533936,14|0,1:2|0:2,0:2:0:0:
173,374,129675,2,0,P|220:376|278:345,1,93.5000028533936,4|0,1:2|0:2,0:2:0:0:
383,235,129915,5,8,1:2:0:0:
318,179,130035,1,0,1:2:0:0:
335,95,130155,1,8,1:3:0:0:
414,67,130275,1,8,1:3:0:0:
479,123,130395,1,4,1:3:0:0:
463,207,130515,1,4,1:3:0:0:
398,151,130635,6,0,B|370:118|370:118|363:55|420:20,1,152.999995330811,12|8,1:3|2:2,0:2:0:0:
467,211,130995,1,2,0:2:0:0:
467,211,131115,2,0,P|435:237|396:238,1,76.4999976654053,0|0,1:2|1:2,0:0:0:0:
306,143,131355,2,0,P|281:100|166:111,2,152.999995330811,10|0|10,0:2|1:2|0:2,0:2:0:0:
287,248,131955,1,0,1:2:0:0:
354,310,132075,2,0,P|395:324|438:309,1,76.4999976654053,2|0,1:2|1:2,0:2:0:0:
287,248,132315,2,0,P|249:240|214:254,1,76.4999976654053,10|0,0:2|0:2,0:2:0:0:
96,350,132555,6,0,B|60:377|25:360|25:360|43:322|87:322,1,152.999995330811,6|8,1:2|0:2,0:2:0:0:
197,272,132915,2,0,P|223:204|175:149,1,152.999995330811,2|0,1:2|1:2,0:2:0:0:
30,126,133275,2,0,P|69:131|107:108,1,76.4999976654053,10|0,0:2|0:2,0:2:0:0:
196,0,133515,2,0,P|172:31|173:75,1,76.4999976654053,0|0,1:2|0:2,0:2:0:0:
221,205,133755,2,0,P|205:168|166:147,1,76.4999976654053,12|0,0:2|0:2,0:2:0:0:
175,149,133935,1,0,1:2:0:0:
175,149,133995,1,8,1:3:0:0:
145,223,134115,1,8,1:3:0:0:
221,224,134235,1,4,1:3:0:0:
182,290,134355,1,4,1:3:0:0:
261,348,134475,6,0,B|304:336|304:336|336:382|399:374,1,152.999995330811,6|8,1:2|2:2,0:2:0:0:
486,282,134835,1,2,0:2:0:0:
486,282,134955,2,0,P|496:325|482:362,1,76.4999976654053,0|0,1:2|1:2,0:2:0:0:
375,291,135195,2,0,P|365:248|379:211,1,76.4999976654053,10|0,0:2|0:2,0:2:0:0:
481,134,135435,2,0,B|526:108|525:52|525:52|511:26|482:20,1,152.999995330811,2|8,1:2|0:2,0:2:0:0:
398,124,135795,1,2,1:2:0:0:
398,124,135915,2,0,P|359:142|302:132,1,76.4999976654053,0|0,2:2|1:2,0:2:0:0:
288,38,136155,2,0,P|327:20|384:30,1,76.4999976654053,10|0,0:2|0:2,0:2:0:0:
185,107,136395,6,0,B|121:79|71:123|71:123|29:129|8:89,1,187.000005706787,6|8,1:2|0:2,0:2:0:0:
141,220,136755,2,0,B|103:298|183:357|183:357|230:311,1,187.000005706787,6|0,1:2|1:2,0:2:0:0:
360,159,137115,6,0,B|386:125|430:128|430:128|461:151|497:158|515:140|510:117|510:117|498:124|488:137,1,203.999993774414,14|4,0:2|1:1,0:2:0:0:
346,175,137835,6,0,P|288:177|262:105,1,127.500004863739,14|0,0:2|0:2,0:2:0:0:
258,121,138315,6,0,P|217:49|135:40,1,170,12|8,1:3|0:2,0:2:0:0:
128,187,138675,2,0,P|210:187|258:121,1,170,2|0,0:2|1:2,0:0:0:0:
136,39,139035,2,0,P|96:113|128:187,1,170,10|0,0:2|1:2,0:2:0:0:
308,296,139515,2,0,P|305:254|324:207,1,85,10|0,0:2|1:2,0:0:0:0:
411,231,139755,2,0,P|414:273|395:320,1,85,2|0,0:2|1:2,0:2:0:0:
340,384,139995,5,10,2:2:0:0:
340,384,140115,1,2,0:2:0:0:
227,340,140235,6,0,B|134:314|159:380|64:349,1,170,6|8,1:2|0:2,0:2:0:0:
187,246,140595,2,0,P|216:191|175:98,1,170,2|0,1:2|1:2,2:2:0:0:
46,193,140955,2,0,P|87:197|123:176,1,85,10|0,0:2|0:2,0:2:0:0:
201,23,141195,2,0,P|177:53|183:113,1,85,2|0,1:2|0:2,0:2:0:0:
271,241,141435,2,0,P|256:205|201:180,1,85,12|0,0:2|0:2,0:2:0:0:
217,182,141615,1,0,1:2:0:0:
217,182,141675,1,8,1:3:0:0:
133,196,141795,1,8,1:3:0:0:
190,258,141915,1,4,1:3:0:0:
108,283,142035,1,4,1:3:0:0:
207,351,142155,6,0,B|246:329|287:335|287:335|313:375|368:383,1,170,6|8,1:2|0:2,0:2:0:0:
449,271,142515,1,2,0:2:0:0:
449,271,142635,2,0,P|452:330|440:355,1,85,0|0,1:2|1:2,0:2:0:0:
284,334,142875,2,0,P|277:292|290:252,1,85,10|0,0:2|0:2,0:2:0:0:
421,163,143115,2,0,B|454:188|502:169|502:169|500:123|457:98,1,170,2|8,1:2|0:2,0:2:0:0:
459,99,143475,1,0,1:2:0:0:
349,197,143595,2,0,P|309:212|251:195,1,85,2|0,0:2|1:2,0:2:0:0:
173,132,143835,5,10,0:2:0:0:
173,132,143955,1,0,0:2:0:0:
79,230,144075,6,0,B|29:323|98:388|98:388|124:385|151:356,1,220.999989883423,6|8,1:2|0:2,0:2:0:0:
349,197,144435,2,0,B|421:273|371:354|371:354|345:358|312:337,1,220.999989883423,6|0,1:2|1:2,0:2:0:0:
90,154,144795,2,0,P|113:202|177:215,1,110.499994941712,14|0,0:2|0:2,0:2:0:0:
319,121,145035,2,0,P|311:173|255:205,1,110.499994941712,6|0,1:2|0:0,0:2:0:0:
105,1,145275,5,8,1:3:0:0:
53,73,145395,1,8,1:3:0:0:
90,154,145515,1,4,1:3:0:0:
178,163,145635,1,4,1:3:0:0:
230,90,145755,1,8,1:3:0:0:
192,8,145875,1,8,1:3:0:0:
143,83,145995,6,0,B|123:173|186:153|144:260,1,170,12|8,0:3|0:2,0:2:0:0:
9,245,146355,1,2,0:2:0:0:
9,245,146475,2,0,P|37:213|77:204,1,85,0|0,1:2|1:2,0:0:0:0:
165,334,146715,2,0,B|194:375|261:368|261:368|275:336|325:311,1,170,8|0,0:2|1:2,0:2:0:0:
416,142,147195,2,0,P|388:109|376:60,1,85,10|0,0:2|1:2,0:0:0:0:
461,28,147435,2,0,P|488:60|500:109,1,85,2|0,0:2|1:2,0:2:0:0:
493,194,147675,5,10,0:2:0:0:
493,194,147795,1,2,0:2:0:0:
367,206,147915,6,0,B|258:162|301:234|200:192,1,170,6|8,1:2|0:2,0:2:0:0:
179,29,148275,2,0,P|247:34|235:132,1,170,2|0,1:2|1:2,0:2:0:0:
119,210,148635,2,0,P|122:163|152:122,1,85,10|0,0:2|0:2,0:2:0:0:
263,256,148875,2,0,P|220:276|170:271,1,85,2|0,1:2|0:2,0:2:0:0:
231,109,149115,2,0,P|270:135|290:181,1,85,12|0,0:2|0:2,0:2:0:0:
287,167,149295,1,0,1:2:0:0:
287,167,149355,1,8,1:3:0:0:
263,256,149475,1,8,1:3:0:0:
334,306,149595,1,4,1:3:0:0:
363,223,149715,1,4,1:3:0:0:
460,275,149835,6,0,B|489:290|489:290|534:217|454:157,1,170,6|8,1:2|0:2,0:2:0:0:
356,97,150195,1,2,0:2:0:0:
356,97,150315,2,0,P|312:130|266:117,1,85,0|0,1:2|1:2,0:2:0:0:
212,180,150555,2,0,P|170:178|140:149,1,85,10|0,0:2|0:2,0:2:0:0:
82,60,150795,2,0,B|48:135|124:176|124:176|140:151,1,170,2|10,1:2|0:2,0:2:0:0:
140,150,151155,1,0,1:2:0:0:
43,246,151275,2,0,P|29:286|56:338,1,85,2|0,0:2|1:2,0:2:0:0:
173,384,151515,5,10,0:2:0:0:
173,384,151635,1,2,0:2:0:0:
300,323,151755,6,0,B|350:282|418:307|418:307|442:357|511:365,1,220.999989883423,6|8,1:2|0:2,0:2:0:0:
383,167,152115,2,0,B|424:147|438:106|438:106|425:26|344:3,1,220.999989883423,6|0,1:2|1:2,0:2:0:0:
222,144,152475,6,0,B|182:102|93:109|93:109|137:137,1,165.749992412568,14|0,0:2|0:2,0:2:0:0:
131,131,152715,6,0,P|199:271|68:190,1,407.999987548829,4|4,1:2|0:2,0:2:0:0:
0,316,161355,6,0,P|64:331|124:283,1,127.500004863739,6|0,1:2|0:2,0:2:0:0:
189,167,161835,2,0,P|162:110|175:49,1,127.500004863739,10|0,0:2|0:2,0:2:0:0:
239,7,162195,1,0,1:2:0:0:
309,36,162315,2,0,P|335:92|322:153,1,127.500004863739,2|0,0:2|1:2,0:0:0:0:
324,36,162795,2,0,P|351:92|338:154,1,127.500004863739,10|0,0:2|0:2,0:2:0:0:
119,142,163275,6,0,P|105:203|132:259,1,127.500004863739,2|0,0:2|1:2,0:2:0:0:
243,356,163755,2,0,L|383:351,1,127.500004863739,10|0,0:2|0:2,0:2:0:0:
445,370,164115,1,0,1:2:0:0:
492,310,164235,2,0,P|505:248|478:192,1,127.500004863739,2|0,0:2|1:2,0:0:0:0:
328,95,164715,5,8,0:2:0:0:
320,171,164835,1,8,0:2:0:0:
381,215,164955,1,8,0:3:0:0:
389,139,165075,1,8,0:3:0:0:
319,80,165195,6,0,B|233:48|250:98|167:70,2,152.999995330811,6|8|0,1:2|2:2|1:2,0:2:0:0:
415,259,165915,1,8,0:2:0:0:
415,259,166035,1,0,0:2:0:0:
349,333,166155,2,0,P|278:359|179:320,1,152.999995330811,2|8,1:2|0:2,0:2:0:0:
192,207,166515,2,0,P|262:182|335:200,1,152.999995330811,2|0,1:2|1:2,0:2:0:0:
136,284,166875,2,0,P|113:256|103:213,1,76.4999976654053,10|0,0:2|0:2,0:2:0:0:
220,123,167115,6,0,B|261:138|261:138|325:110|304:30,1,170,6|8,1:2|0:2,0:2:0:0:
108,116,167475,2,0,B|87:193|151:221|151:221|192:206,1,170,0|0,1:2|1:2,0:2:0:0:
165,49,167835,6,0,P|156:40|80:28,1,85,8|0,0:2|0:2,0:2:0:0:
23,206,168075,2,0,P|57:229|99:229,1,85,2|0,1:2|0:2,0:2:0:0:
260,112,168315,2,0,P|294:88|336:88,1,85,12|0,0:2|0:2,0:2:0:0:
336,88,168495,1,0,1:2:0:0:
336,88,168555,1,8,1:3:0:0:
433,144,168675,1,8,1:3:0:0:
356,206,168795,1,4,1:3:0:0:
426,263,168915,1,4,1:3:0:0:
390,338,169035,1,4,1:2:0:0:
415,366,170955,6,0,P|490:343|481:266,1,170,2|0,0:2|0:2,0:2:0:0:
426,208,171675,1,0,0:2:0:0:
356,246,171915,2,0,B|307:277|249:266|249:266|227:252|217:215,1,170,2|0,0:2|0:2,0:2:0:0:
218,218,172875,2,0,B|293:215|333:144|265:130|313:58|383:62,1,255,2|0,0:2|0:2,0:2:0:0:
510,92,173835,5,2,0:2:0:0:
461,156,174075,1,0,0:2:0:0:
503,224,174315,1,0,0:2:0:0:
458,290,174555,5,0,0:2:0:0:
449,286,174675,1,0,0:2:0:0:
440,283,174795,2,0,B|390:261|341:300|341:300|306:300|279:257,1,170,2|0,0:2|0:2,0:2:0:0:
247,201,175515,1,0,0:2:0:0:
281,129,175755,2,0,P|294:89|289:47,1,85,2|0,0:2|0:2,0:2:0:0:
159,75,176235,2,0,P|153:116|167:156,1,85,0|0,0:2|0:2,0:2:0:0:
247,201,176715,2,0,P|291:209|328:325,1,170,2|0,0:2|0:2,0:2:0:0:
224,357,177435,2,0,L|179:347,1,46.7500014266968,0|0,0:2|0:2,0:2:0:0:
107,383,177675,6,0,P|99:331|133:279,1,101.999996887207,2|0,0:2|0:2,0:2:0:0:
332,314,178155,2,0,P|340:264|317:219,1,101.999996887207,2|0,0:2|0:2,0:2:0:0:
160,142,178635,6,0,L|28:136,1,127.500004863739,6|0,1:2|0:2,0:2:0:0:
150,41,179115,2,0,L|282:35,1,127.500004863739,8|0,0:2|0:2,0:2:0:0:
350,11,179475,1,0,1:2:0:0:
469,114,179715,1,8,0:2:0:0:
469,114,179835,1,0,1:2:0:0:
351,211,180075,2,0,L|223:216,1,127.500004863739,8|0,0:2|0:2,0:2:0:0:
71,179,180555,6,0,P|52:119|77:58,1,127.500004863739,2|0,1:2|1:2,0:2:0:0:
227,98,181035,2,0,P|246:158|221:219,1,127.500004863739,8|0,0:2|0:2,0:2:0:0:
172,273,181395,1,0,1:2:0:0:
285,382,181635,1,8,0:2:0:0:
285,382,181755,1,0,1:2:0:0:
422,315,181995,5,8,0:2:0:0:
353,278,182115,1,8,0:2:0:0:
330,203,182235,1,8,0:3:0:0:
366,135,182355,1,8,0:3:0:0:
441,111,182475,6,0,B|468:89|468:89|483:45|441:4,1,127.500004863739,6|0,1:2|0:2,0:2:0:0:
194,39,182955,2,0,B|153:78|168:122|168:122|195:144,1,127.500004863739,10|0,0:2|0:2,0:2:0:0:
256,192,183315,1,0,1:2:0:0:
316,239,183435,2,0,B|343:261|343:261|358:305|318:345,1,127.500004863739,2|0,0:2|1:2,0:0:0:0:
69,378,183915,2,0,B|29:339|44:295|44:295|71:273,1,127.500004863739,10|0,0:2|0:2,0:2:0:0:
260,196,184395,5,2,1:2:0:0:
260,196,184635,1,0,1:2:0:0:
203,127,184875,5,8,2:2:0:0:
260,276,184995,1,8,2:2:0:0:
300,122,185115,1,8,2:3:0:0:
177,222,185235,1,8,2:2:0:0:
337,214,185355,1,2,1:2:0:0:
232,47,185835,5,0,0:2:0:0:
206,82,186075,5,0,0:2:0:0:
203,127,186315,6,0,P|266:200|366:189,1,203.999993774414,12|8,1:3|2:2,0:2:0:0:
352,9,186675,2,0,P|318:46|307:96,1,101.999996887207,2|0,1:2|0:2,0:2:0:0:
421,269,186915,1,2,1:2:0:0:
471,180,187035,2,0,P|455:132|418:97,1,101.999996887207,8|0,2:2|1:2,0:0:0:0:
180,108,187275,6,0,B|137:135|81:115|81:115|93:61|145:42,1,203.999993774414,2|8,1:2|2:2,0:2:0:0:
319,188,187635,2,0,P|325:216|294:308,1,101.999996887207,2|0,1:2|0:2,0:2:0:0:
90,378,187875,1,2,1:2:0:0:
14,309,187995,1,8,2:2:0:0:
99,254,188115,1,0,1:2:0:0:
209,324,188235,6,0,B|273:334|309:287|309:287|360:274|398:316,1,203.999993774414,6|8,1:2|2:2,0:2:0:0:
224,209,188595,2,0,B|194:176|191:139|191:139|216:59|269:28,1,203.999993774414,2|2,1:2|1:2,0:2:0:0:
380,195,188955,1,8,0:2:0:0:
380,195,189075,1,0,1:2:0:0:
300,294,189195,6,0,P|258:323|208:323,1,101.999996887207,2|0,1:2|0:2,0:2:0:0:
153,137,189435,2,0,P|111:108|61:107,1,101.999996887207,10|0,0:2|0:2,0:2:0:0:
61,107,189615,1,0,1:2:0:0:
61,107,189675,1,8,1:3:0:0:
0,200,189795,1,8,1:3:0:0:
153,137,189915,1,4,1:3:0:0:
62,272,190035,1,4,1:3:0:0:
201,217,190155,6,0,B|329:190|274:269|417:243,1,203.999993774414,6|8,1:2|0:2,0:2:0:0:
500,37,190515,2,0,P|403:53|364:142,1,203.999993774414,0|0,1:2|1:2,0:2:0:0:
495,292,190875,2,0,B|521:282|538:255|538:255|531:167|467:136,1,203.999993774414,8|0,0:2|1:2,0:2:0:0:
466,135,191355,5,10,0:2:0:0:
466,135,191475,1,0,1:2:0:0:
390,236,191595,2,0,P|338:242|287:205,1,101.999996887207,2|0,0:2|1:2,0:2:0:0:
290,58,191835,2,0,P|333:33|383:39,1,101.999996887207,10|0,0:2|0:2,0:2:0:0:
226,143,192075,5,6,0:2:0:0:
226,143,192195,2,0,P|161:124|94:121,1,127.500004863739,0|0,1:2|1:2,0:0:0:0:
177,205,192555,5,12,0:2:0:0:
177,205,192675,2,0,P|109:195|43:201,1,127.500004863739,0|0,1:2|1:2,0:0:0:0:
0,264,193035,5,4,1:2:0:0:
101,120,193275,1,0,1:2:0:0:
280,354,193515,5,8,1:2:0:0:
126,285,193635,1,8,1:2:0:0:
158,384,193755,1,8,1:2:0:0:
248,255,193875,1,8,1:2:0:0:
382,345,193995,6,0,B|411:371|439:374|439:374|505:320|475:240,1,203.999993774414,12|8,1:3|0:2,0:2:0:0:
420,77,194355,2,0,P|376:156|251:124,1,203.999993774414,0|0,1:2|1:2,0:2:0:0:
103,54,194715,5,10,0:2:0:0:
103,54,194835,1,2,0:2:0:0:
83,231,194955,2,0,L|94:129,1,101.999996887207,0|0,1:2|0:2,0:2:0:0:
266,73,195195,5,10,0:2:0:0:
266,73,195315,1,2,1:2:0:0:
285,250,195435,2,0,L|273:148,1,101.999996887207,2|0,0:2|1:2,0:2:0:0:
66,90,195675,5,10,0:2:0:0:
66,90,195795,1,2,0:2:0:0:
47,267,195915,2,0,L|58:165,1,101.999996887207,6|0,1:2|0:2,0:2:0:0:
309,110,196155,5,10,0:2:0:0:
309,110,196275,1,2,1:2:0:0:
328,287,196395,2,0,L|316:185,1,101.999996887207,2|0,0:2|1:2,0:2:0:0:
29,126,196635,5,10,0:2:0:0:
29,126,196755,1,2,0:2:0:0:
129,208,196875,2,0,P|183:213|233:179,1,101.999996887207,2|0,1:2|0:2,0:2:0:0:
276,22,197115,2,0,P|330:17|380:51,1,101.999996887207,14|0,0:2|0:2,0:2:0:0:
370,39,197295,1,0,1:2:0:0:
370,39,197355,1,8,1:3:0:0:
425,173,197475,1,8,1:3:0:0:
472,49,197595,1,4,1:3:0:0:
329,138,197715,1,4,1:3:0:0:
480,251,197835,6,0,B|502:343|425:386|425:386|404:369|356:357,1,203.999993774414,6|10,1:2|0:2,0:2:0:0:
283,378,198195,1,2,0:2:0:0:
213,303,198315,2,0,P|209:253|232:190,1,101.999996887207,2|0,1:2|1:2,0:2:0:0:
288,370,198555,5,10,0:2:0:0:
387,354,198675,1,2,0:2:0:0:
443,269,198795,2,0,P|432:219|405:176,1,101.999996887207,2|0,1:2|0:2,0:2:0:0:
292,362,199035,5,10,0:2:0:0:
199,304,199155,1,2,1:2:0:0:
211,196,199275,2,0,P|232:150|269:115,1,101.999996887207,2|0,0:2|1:2,0:2:0:0:
296,353,199515,5,10,0:0:0:0:
408,362,199635,1,2,0:2:0:0:
470,268,199755,2,0,B|478:187|419:148|419:148|413:105|446:74,1,203.999993774414,6|8,1:2|0:2,0:2:0:0:
352,251,200115,1,6,1:2:0:0:
352,251,200235,2,0,P|302:251|258:227,1,101.999996887207,2|0,0:2|1:2,0:2:0:0:
219,46,200475,2,0,P|169:46|125:70,1,101.999996887207,14|0,0:2|0:2,0:2:0:0:
49,193,200715,5,6,1:2:0:0:
174,177,200835,1,8,0:2:0:0:
2,87,200955,1,0,1:2:0:0:
44,363,201195,5,12,0:2:0:0:
256,320,201435,5,8,0:3:0:0:
328,363,201555,1,8,0:3:0:0:
403,324,201675,1,4,1:2:0:0:
261,211,202155,5,0,0:2:0:0:
399,135,202635,5,0,0:2:0:0:
318,37,203115,5,0,0:2:0:0:
405,17,203595,6,0,B|444:101|418:217|314:244|314:244|292:198|303:160|331:128,1,394.400012036133,6|2,1:2|0:3,0:2:0:0:
267,89,204975,5,2,0:2:0:0:
267,89,205035,2,2,L|462:72,1,178.499994552612,2|0,0:1|0:2,0:1:0:0:
444,73,205515,6,0,B|475:83|496:98|496:98|513:188|426:247,1,220.999989883423,14|8,1:1|0:2,0:0:0:0:
272,123,205875,1,2,0:2:0:0:
249,229,205995,2,0,P|309:228|363:185,1,110.499994941712,2|0,1:1|1:2,0:0:0:0:
295,17,206235,2,0,P|235:18|181:61,1,110.499994941712,10|0,0:2|0:2,0:0:0:0:
104,217,206475,6,2,B|73:261|4:247|4:247|0:180|57:155,1,220.999989883423,2|8,1:1|0:2,0:1:0:0:
272,123,206835,1,2,1:2:0:0:
350,201,206955,2,2,P|367:248|345:330,1,110.499994941712,2|0,0:1|1:2,0:1:0:0:
184,384,207195,2,2,P|167:337|189:255,1,110.499994941712,10|0,0:1|0:1,0:1:0:0:
370,187,207435,6,2,B|401:231|470:217|470:217|474:150|417:125,1,220.999989883423,6|8,1:1|0:2,0:1:0:0:
243,104,207795,2,2,B|212:148|143:134|143:134|139:67|193:44,1,220.999989883423,2|0,1:1|1:2,0:1:0:0:
421,127,208155,2,2,P|446:79|436:26,1,110.499994941712,10|0,0:1|0:2,0:1:0:0:
189,169,208395,2,2,P|178:222|203:270,1,110.499994941712,2|0,1:1|0:2,0:1:0:0:
354,365,208635,6,0,L|475:349,1,110.499994941712,12|0,0:2|0:2,0:2:0:0:
463,350,208815,1,0,1:2:0:0:
463,350,208875,1,8,1:3:0:0:
398,260,208995,1,8,1:3:0:0:
491,201,209115,1,4,1:3:0:0:
438,101,209235,1,4,1:3:0:0:
309,153,209355,6,0,B|171:162|252:73|108:82,1,220.999989883423,6|8,1:1|0:2,0:0:0:0:
253,259,209715,1,2,0:2:0:0:
372,218,209835,2,0,P|394:168|386:114,1,110.499994941712,2|0,1:1|1:2,0:2:0:0:
133,173,210075,2,0,P|124:226|147:276,1,110.499994941712,10|0,0:1|0:2,0:2:0:0:
337,357,210315,6,2,B|400:307|510:357|510:357|447:397,1,220.999989883423,2|8,1:1|0:2,0:1:0:0:
351,221,210675,2,2,P|301:142|384:19,1,220.999989883423,2|0,1:1|1:2,0:1:0:0:
512,146,211035,2,2,P|458:152|411:127,1,110.499994941712,10|0,0:1|0:2,0:1:0:0:
231,25,211275,6,0,B|140:9|86:109|86:109|115:132|157:126,1,255.000009727478,6|8,1:1|0:2,0:0:0:0:
353,221,211635,2,0,B|444:204|498:304|498:304|459:331|429:320,1,255.000009727478,6|0,1:1|1:2,0:0:0:0:
182,212,211995,2,0,B|139:205|100:220|100:220|80:236|71:264,1,127.500004863739,14|0,1:1|0:2,0:0:0:0:
321,365,212235,2,2,B|363:371|402:356|402:356|422:340|431:312,1,127.500004863739,6|0,1:1|0:0,0:1:0:0:
413,130,212475,5,8,1:3:0:0:
353,221,212595,1,8,1:3:0:0:
305,83,212715,1,4,1:3:0:0:
277,200,212835,1,4,1:3:0:0:
185,79,212955,1,8,1:3:0:0:
199,197,213075,1,8,1:3:0:0:
90,117,213195,6,2,B|38:165|43:250|43:250|81:286|117:280,1,220.999989883423,14|10,1:1|0:2,0:1:0:0:
185,79,213555,2,2,P|153:34|93:15,1,110.499994941712,2|0,0:1|1:2,0:1:0:0:
19,287,213795,1,2,1:2:0:0:
118,370,213915,2,0,P|168:350|200:306,1,110.499994941712,10|0,0:1|1:2,0:0:0:0:
302,138,214155,6,0,B|357:62|474:98|474:98|462:141,1,220.999989883423,2|10,1:1|0:2,0:2:0:0:
337,277,214515,2,2,P|354:349|483:369,1,220.999989883423,2|0,1:1|1:2,0:1:0:0:
413,203,214875,2,2,P|366:174|311:176,1,110.499994941712,10|0,0:1|0:0,0:1:0:0:
112,321,215115,6,2,P|22:314|82:247,1,220.999989883423,6|8,1:1|0:2,0:1:0:0:
299,347,215475,2,2,P|388:350|337:277,1,220.999989883423,2|0,1:1|1:2,2:1:0:0:
120,335,215835,6,2,P|64:361|-3:323,1,110.499994941712,10|0,0:1|0:0,0:1:0:0:
103,177,216075,2,2,P|61:131|78:55,1,110.499994941712,2|0,1:1|0:2,0:1:0:0:
240,110,216315,2,0,P|270:56|347:49,1,110.499994941712,12|0,0:2|0:2,0:2:0:0:
314,42,216495,1,0,1:2:0:0:
314,42,216555,1,8,1:3:0:0:
453,108,216675,1,8,1:3:0:0:
424,7,216795,1,4,1:3:0:0:
343,149,216915,1,4,1:3:0:0:
479,221,217035,6,0,B|527:312|442:372|442:372|382:329,1,220.999989883423,6|10,1:1|0:2,0:0:0:0:
216,240,217395,1,0,0:2:0:0:
199,360,217515,2,0,P|258:359|310:323,1,110.499994941712,2|0,1:1|1:2,0:0:0:0:
233,120,217755,2,0,P|174:121|122:157,1,110.499994941712,10|0,0:2|0:2,0:0:0:0:
333,202,217995,6,0,P|366:115|307:-3,1,220.999989883423,2|10,1:1|0:2,0:0:0:0:
216,240,218355,1,0,1:2:0:0:
315,303,218475,2,0,P|369:299|415:269,1,110.499994941712,2|0,0:1|1:2,0:0:0:0:
222,98,218715,2,0,P|167:101|121:131,1,110.499994941712,10|0,0:2|0:2,0:0:0:0:
304,319,218955,6,2,B|398:346|448:258|448:258|450:228|415:184,1,237.999992736817,4|8,1:1|0:2,0:1:0:0:
159,246,219315,2,2,B|65:273|15:185|15:185|13:155|48:111,1,237.999992736817,6|0,1:1|1:2,0:1:0:0:
404,181,219675,2,2,P|432:121|421:63,1,118.999996368408,14|0,0:1|0:2,0:1:0:0:
223,0,219915,5,6,1:1:0:0:
320,104,220035,1,8,1:2:0:0:
181,136,220155,1,2,1:2:0:0:
278,240,220275,2,0,P|292:301|253:373,1,118.999996368408,8|8,1:2|1:3,0:0:0:0:
0,313,220515,5,8,1:3:0:0:
154,223,220635,1,4,1:3:0:0:
20,182,220755,1,4,1:3:0:0:
134,354,220875,2,0,P|239:375|294:101,1,458.999985992432,6|0,1:1|0:2,0:2:0:0:
236,59,221715,5,2,0:2:0:0:
236,59,221835,2,0,P|285:249|348:17,1,611.999981323243,6|4,1:1|0:2,0:2:0:0:
184,132,230475,6,0,L|69:137,1,101.999996887207,4|0,1:2|0:2,0:2:0:0:
316,120,230955,2,0,L|311:5,1,101.999996887207,0|0,1:2|0:2,0:2:0:0:
328,252,231435,2,0,L|443:247,1,101.999996887207,0|0,1:2|0:2,0:2:0:0:
196,264,231915,2,0,L|201:379,1,101.999996887207,0|0,1:2|0:2,0:2:0:0:
184,378,232395,6,0,L|178:259,1,118.999996368408,4|0,1:2|0:2,0:2:0:0:
70,120,232875,2,0,L|188:114,1,118.999996368408,0|0,1:2|0:2,0:2:0:0:
328,6,233355,2,0,L|333:124,1,118.999996368408,0|0,1:2|0:2,0:2:0:0:
398,305,233835,5,8,0:2:0:0:
256,192,234075,1,8,0:2:0:0:
256,192,234195,1,8,0:2:0:0:
324,249,234315,6,0,P|389:272|462:220,2,152.999995330811,12|8|2,0:3|0:2|1:2,0:2:0:0:
256,192,234915,1,0,1:2:0:0:
196,261,235035,2,0,P|184:301|205:351,1,76.4999976654053,10|0,0:2|0:2,0:2:0:0:
324,249,235275,2,0,P|347:184|295:111,1,152.999995330811,2|10,1:2|0:2,0:2:0:0:
305,116,235635,1,0,1:2:0:0:
185,172,235755,2,0,P|218:191|256:192,1,76.4999976654053,2|0,0:2|1:2,0:2:0:0:
249,58,235995,2,10,P|211:58|179:78,1,76.4999976654053,10|0,0:2|0:2,0:2:0:0:
79,219,236235,6,0,B|55:231|28:224|28:224|1:159|60:117,1,170,6|8,1:2|0:2,0:2:0:0:
256,192,236595,2,0,B|310:231|283:296|283:296|256:303|233:291,1,170,2|0,1:2|1:2,0:2:0:0:
145,154,236955,2,0,P|142:92|205:43,1,140.25000428009,10|0,0:2|0:2,0:2:0:0:
218,41,237195,6,0,B|265:123|369:139|417:94|417:94|396:38|336:32,1,340,6|2,1:2|2:3,0:2:0:0:
381,265,241035,2,0,L|370:185,1,68,0|0,0:2|0:2,0:2:0:0:
372,198,241515,2,0,B|284:165|299:240|208:209,1,170,2|2,0:2|2:3,0:2:0:0:
210,210,242475,6,0,P|197:161|137:114,1,110.499994941712,12|2,0:3|1:2,0:0:0:0:
36,376,242715,2,0,P|84:389|155:361,1,110.499994941712,8|0,2:2|1:2,0:0:0:0:
14,192,242955,6,0,P|-26:289|34:375,1,220.999989883423,2|8,1:2|2:2,0:2:0:0:
201,267,243315,2,0,L|220:152,1,110.499994941712,2|0,1:2|0:2,0:2:0:0:
365,5,243555,1,2,1:2:0:0:
391,112,243675,1,8,2:2:0:0:
285,81,243795,1,0,1:2:0:0:
470,35,243915,6,0,P|498:136|425:213,1,220.999989883423,6|8,1:2|2:2,0:2:0:0:
219,157,244275,2,0,B|182:200|210:261|210:261|271:261|293:198,1,220.999989883423,2|2,1:2|1:2,0:2:0:0:
162,40,244635,1,8,0:2:0:0:
162,40,244755,1,0,1:2:0:0:
81,165,244875,6,0,P|71:221|92:276,1,110.499994941712,2|0,1:2|0:2,0:2:0:0:
292,200,245115,2,0,P|302:144|281:89,1,110.499994941712,10|0,0:2|0:2,0:2:0:0:
284,94,245295,1,0,1:2:0:0:
284,94,245355,1,8,1:3:0:0:
162,40,245475,1,8,1:3:0:0:
261,0,245595,1,4,1:3:0:0:
202,152,245715,1,4,1:3:0:0:
402,188,245835,6,0,B|458:247|447:321|447:321|430:352|390:369,1,220.999989883423,6|8,1:2|0:2,0:2:0:0:
193,169,246195,2,0,B|119:204|102:277|102:277|108:312|138:341,1,220.999989883423,0|0,1:2|1:2,0:2:0:0:
402,188,246555,2,0,B|432:158|437:124|437:124|420:50|347:15,1,220.999989883423,8|0,0:2|1:2,0:2:0:0:
347,15,247035,5,10,0:2:0:0:
347,15,247155,1,0,1:2:0:0:
292,152,247275,2,0,P|253:178|174:151,1,110.499994941712,2|0,0:2|1:2,0:2:0:0:
171,46,247515,2,0,P|218:18|271:29,1,110.499994941712,10|0,0:2|0:2,0:2:0:0:
123,120,247755,5,6,0:2:0:0:
123,120,247875,2,0,P|68:117|0:138,1,127.500004863739,0|0,1:2|1:2,0:0:0:0:
114,208,248235,5,12,0:2:0:0:
114,208,248355,2,0,P|64:232|16:285,1,127.500004863739,0|0,1:2|1:2,0:0:0:0:
180,267,248715,5,4,1:2:0:0:
256,32,248955,1,0,1:2:0:0:
401,262,249195,5,8,1:2:0:0:
260,218,249315,1,8,1:2:0:0:
298,333,249435,1,8,1:2:0:0:
368,149,249555,1,8,1:2:0:0:
478,182,249675,6,0,P|511:263|439:378,1,220.999989883423,12|8,1:3|0:2,0:2:0:0:
260,218,250035,2,0,P|227:137|299:22,1,220.999989883423,0|0,1:2|1:2,0:2:0:0:
371,152,250395,5,10,0:2:0:0:
371,152,250515,1,2,0:2:0:0:
205,137,250635,2,0,L|87:123,1,110.499994941712,0|0,1:2|0:2,0:2:0:0:
271,67,250875,5,10,0:2:0:0:
271,67,250995,1,2,1:2:0:0:
204,219,251115,2,0,L|154:326,1,110.499994941712,2|0,0:2|1:2,0:2:0:0:
159,135,251355,5,10,0:2:0:0:
159,135,251475,1,2,0:2:0:0:
284,244,251595,2,0,L|371:324,1,110.499994941712,6|0,1:2|0:2,0:2:0:0:
189,262,251835,5,10,0:2:0:0:
189,262,251955,1,2,1:2:0:0:
332,175,252075,2,0,L|435:116,1,110.499994941712,2|0,0:2|1:2,0:2:0:0:
351,60,252315,5,10,0:2:0:0:
351,60,252435,1,2,0:2:0:0:
504,148,252555,2,0,P|505:92|460:47,1,110.499994941712,2|0,1:2|0:2,0:2:0:0:
256,145,252795,2,0,P|255:201|300:246,1,110.499994941712,14|0,0:2|0:2,0:2:0:0:
289,241,252975,1,0,1:2:0:0:
289,241,253035,1,8,1:3:0:0:
463,277,253155,1,8,1:3:0:0:
395,162,253275,1,4,1:3:0:0:
360,365,253395,1,4,1:3:0:0:
296,249,253515,6,0,B|170:214|207:299|73:260,1,220.999989883423,6|10,1:2|0:2,0:2:0:0:
0,184,253875,1,2,0:2:0:0:
53,85,253995,2,0,P|105:63|168:76,1,110.499994941712,2|0,1:2|1:2,0:2:0:0:
0,184,254235,5,10,0:2:0:0:
65,275,254355,1,2,0:2:0:0:
171,303,254475,2,0,P|214:270|236:220,1,110.499994941712,2|0,1:2|0:2,0:2:0:0:
0,184,254715,5,10,0:2:0:0:
51,72,254835,1,2,1:2:0:0:
168,41,254955,2,0,P|220:62|256:116,1,110.499994941712,2|0,0:2|1:2,0:2:0:0:
0,184,255195,5,10,0:2:0:0:
58,299,255315,1,2,0:2:0:0:
183,321,255435,2,0,B|245:307|248:240|248:240|294:191|351:225,1,220.999989883423,6|8,1:2|0:2,0:2:0:0:
446,366,255795,1,6,1:2:0:0:
446,366,255915,2,0,P|391:379|344:353,1,110.499994941712,2|0,0:2|1:2,0:2:0:0:
268,192,256155,2,0,P|219:167|167:180,1,110.499994941712,14|0,0:2|0:2,0:2:0:0:
14,275,256395,5,6,1:2:0:0:
70,124,256515,1,8,0:2:0:0:
118,330,256635,1,0,1:2:0:0:
256,64,256875,5,12,0:2:0:0:
512,212,257115,5,8,0:3:0:0:
424,198,257235,1,8,0:3:0:0:
336,184,257355,1,4,1:2:0:0:
275,370,257835,5,0,0:2:0:0:
183,307,258315,5,0,0:2:0:0:
95,374,258795,5,0,0:2:0:0:
32,324,259275,6,0,B|-19:230|7:72|132:36|132:36|78:77|104:104|49:118,1,462.400002822266,6|2,1:2|0:3,0:2:0:0:
180,295,261195,6,0,B|77:253|98:334|-10:292,2,187.000005706787,12|8|2,1:3|0:2|1:2,0:2:0:0:
268,346,261795,1,0,1:2:0:0:
357,294,261915,2,0,P|367:262|348:186,1,93.5000028533936,10|0,0:2|0:2,0:2:0:0:
258,98,262155,6,0,B|155:56|176:137|67:95,1,187.000005706787,2|8,1:2|0:2,0:2:0:0:
78,99,262515,1,0,1:2:0:0:
169,188,262635,2,0,P|179:231|161:292,1,93.5000028533936,2|0,0:2|1:2,2:2:0:0:
14,367,262875,2,0,P|4:324|22:263,1,93.5000028533936,8|0,0:2|0:2,0:2:0:0:
262,352,263115,6,0,P|364:351|401:270,1,187.000005706787,6|8,1:2|0:2,0:2:0:0:
274,198,263475,2,0,P|223:286|275:359,1,187.000005706787,2|0,1:2|1:2,0:2:0:0:
360,209,263835,6,0,P|358:165|327:123,1,93.5000028533936,10|0,0:2|0:2,0:2:0:0:
224,262,264075,2,0,P|263:282|314:276,1,93.5000028533936,2|0,1:2|0:0,0:2:0:0:
246,117,264315,2,0,P|208:140|188:188,1,93.5000028533936,12|0,0:2|0:2,0:2:0:0:
188,184,264495,1,0,1:2:0:0:
188,184,264555,1,8,1:3:0:0:
273,198,264675,1,8,1:3:0:0:
224,262,264795,1,4,1:3:0:0:
147,257,264915,1,4,1:3:0:0:
99,169,265035,6,0,P|0:220|1:289,2,187.000005706787,4|8|2,1:2|0:2|1:2,0:2:0:0:
142,297,265635,1,0,1:2:0:0:
220,338,265755,2,0,L|325:328,1,93.5000028533936,10|0,0:2|0:2,0:2:0:0:
473,384,265995,6,0,P|490:282|438:203,1,187.000005706787,2|10,1:2|0:2,0:2:0:0:
450,212,266355,1,0,1:2:0:0:
383,277,266475,2,0,P|332:275|276:240,1,93.5000028533936,2|0,0:2|1:2,0:2:0:0:
328,88,266715,2,0,P|377:90|421:112,1,93.5000028533936,10|0,0:2|0:2,0:2:0:0:
187,139,266955,6,0,B|52:106|155:50|0:26,1,220.999989883423,4|8,1:2|0:2,0:2:0:0:
80,217,267315,2,0,B|31:309|114:372|114:372|184:340,1,220.999989883423,4|0,1:2|1:2,0:2:0:0:
393,274,267675,2,0,P|407:339|366:400,1,110.499994941712,14|0,0:2|0:2,0:2:0:0:
189,242,267915,2,0,P|171:190|186:138,1,110.499994941712,6|0,1:2|0:2,0:2:0:0:
317,11,268155,5,8,1:3:0:0:
268,98,268275,1,8,1:3:0:0:
318,183,268395,1,4,1:3:0:0:
417,181,268515,1,4,1:3:0:0:
466,96,268635,1,8,1:3:0:0:
416,12,268755,1,8,1:3:0:0:
367,97,268875,6,0,B|327:187|417:187|360:298,1,187.000005706787,12|8,1:3|0:2,0:2:0:0:
186,340,269235,2,0,P|200:252|285:228,1,187.000005706787,2|0,1:2|1:2,0:2:0:0:
381,371,269595,1,10,0:2:0:0:
381,371,269715,1,0,0:2:0:0:
481,270,269835,6,0,P|500:180|465:95,1,187.000005706787,2|8,1:2|0:2,0:2:0:0:
464,94,270195,1,0,1:2:0:0:
376,194,270315,2,0,P|329:197|292:168,1,93.5000028533936,2|0,0:2|1:2,0:2:0:0:
250,32,270555,2,0,P|204:27|167:55,1,93.5000028533936,10|0,0:2|0:2,0:2:0:0:
90,199,270795,6,0,B|64:230|5:231|5:231|-5:174|42:139,1,187.000005706787,6|8,1:2|0:2,0:2:0:0:
32,146,271155,1,0,1:2:0:0:
133,280,271275,2,0,L|144:391,1,93.5000028533936,2|0,0:2|1:2,0:2:0:0:
257,226,271515,2,0,L|266:132,1,93.5000028533936,8|0,0:2|0:2,0:2:0:0:
381,294,271755,6,0,P|422:313|489:284,1,93.5000028533936,2|0,1:2|0:2,0:2:0:0:
481,88,271995,2,0,P|440:69|373:98,1,93.5000028533936,8|0,0:2|0:2,0:2:0:0:
394,78,272175,1,0,1:2:0:0:
394,78,272235,1,8,1:3:0:0:
436,173,272355,1,8,1:3:0:0:
351,213,272475,1,4,1:3:0:0:
310,128,272595,1,4,1:3:0:0:
208,187,272715,6,0,P|140:188|101:61,2,187.000005706787,6|8|2,1:2|0:2|1:2,0:2:0:0:
310,128,273315,1,0,1:2:0:0:
351,213,273435,2,0,P|363:252|340:318,1,93.5000028533936,10|0,0:2|0:2,0:2:0:0:
205,349,273675,6,0,B|90:316|133:379|23:353,1,187.000005706787,2|10,1:2|0:2,0:2:0:0:
23,353,274035,1,0,1:2:0:0:
140,250,274155,2,0,P|153:203|130:133,1,93.5000028533936,2|0,0:2|1:2,0:2:0:0:
17,73,274395,2,0,P|4:120|27:190,1,93.5000028533936,10|0,0:2|0:2,0:2:0:0:
218,68,274635,6,0,B|282:77|325:12|325:12|395:-6|435:46,1,237.999992736817,6|8,1:2|0:2,0:2:0:0:
387,246,274995,2,0,B|368:346|469:371|469:371|488:345|477:295,1,237.999992736817,6|0,1:2|1:2,0:2:0:0:
345,159,275416,5,14,0:2:0:0:
243,356,275716,5,6,1:2:0:0:
118,267,276304,5,14,0:2:0:0:
118,267,276913,6,0,P|62:256|6:254,2,101.999996887207,4|0|0,0:2|0:2|0:2,0:2:0:0:
238,361,278713,2,0,P|270:359|305:347,1,50.9999984436036,0|0,0:2|0:2,0:2:0:0:
338,296,279313,2,0,P|327:262|335:190,1,101.999996887207,2|0,0:2|0:2,0:2:0:0:
447,95,280513,2,0,P|458:129|450:201,1,101.999996887207,0|0,0:2|0:2,0:2:0:0:
396,259,281413,5,0,0:2:0:0:
389,267,281563,1,0,0:2:0:0:
382,275,281713,2,0,B|355:263|321:277|321:277|290:266|281:241,1,101.999996887207,2|0,0:2|0:2,0:2:0:0:
245,192,282613,1,0,0:2:0:0:
302,141,282913,6,0,P|313:115|312:83,1,46.7500014266968,2|0,0:2|0:2,0:2:0:0:
279,30,283513,6,0,P|254:18|227:17,1,42.5,2|0,0:2|0:2,0:2:0:0:
174,58,284113,6,0,P|161:97|88:88,1,114.749996498108,2|0,0:3|0:2,0:2:0:0:
95,97,285313,6,0,P|58:129|80:219,1,136,2|4,0:2|0:2,0:2:0:0:
