osu file format v14

[General]
AudioFilename: audio.mp3
AudioLeadIn: 0
PreviewTime: 84015
Countdown: 0
SampleSet: Soft
StackLeniency: 0.7
Mode: 0
LetterboxInBreaks: 0
WidescreenStoryboard: 1

[Editor]
DistanceSpacing: 1
BeatDivisor: 4
GridSize: 32
TimelineZoom: 1.3

[Metadata]
Title:Maisery
TitleUnicode:Maisery
Artist:Symholic
ArtistUnicode:Symholic
Creator:Lasse
Version:Easy
Source:
Tags:Paspal Lalue 葉月ゆら Hatsuki Yura Japanese Doujin Symphonic Rock Metal Misery featured artist fa mappers' guild mpg
BeatmapID:2739659
BeatmapSetID:1322631

[Difficulty]
HPDrainRate:3
CircleSize:3.2
OverallDifficulty:4
ApproachRate:5
SliderMultiplier:0.599999999999999
SliderTickRate:0.5

[Events]
//Background and Video events
0,0,"thiscouldbeus.jpg",0,0
//Break Periods
2,52114,58395
2,69195,75675
2,153874,160155
2,170955,177435
2,222994,229275
//Storyboard Layer 0 (Background)
//Storyboard Layer 1 (Fail)
//Storyboard Layer 2 (Pass)
//Storyboard Layer 3 (Foreground)
//Storyboard Layer 4 (Overlay)
//Storyboard Sound Samples

[TimingPoints]
-1845,240,4,2,1,50,1,0
1995,-100,4,2,1,70,0,0
5055,-100,4,2,1,50,0,0
5115,-100,4,2,1,70,0,0
5355,-100,4,2,2,70,0,0
5835,-100,4,2,1,70,0,0
7695,-100,4,2,1,50,0,0
7755,-100,4,2,1,70,0,0
8895,-100,4,2,1,50,0,0
8955,-100,4,2,2,70,0,0
9435,-100,4,2,3,70,0,0
9675,-100,4,2,1,70,0,0
13035,-100,4,2,2,70,0,0
13515,-100,4,2,1,70,0,0
16575,-100,4,2,1,50,0,0
16635,-100,4,2,1,70,0,0
16755,-100,4,2,2,70,0,0
16995,-100,4,2,1,70,0,0
17115,-100,4,2,2,70,0,0
17355,-100,4,2,2,65,0,0
18315,-100,4,2,2,64,0,0
18395,-100,4,2,1,5,0,0
18475,-100,4,2,2,62,0,0
18555,-100,4,2,1,5,0,0
18635,-100,4,2,2,60,0,0
18715,-100,4,2,1,5,0,0
18795,-100,4,2,2,57,0,0
18875,-100,4,2,1,5,0,0
18955,-100,4,2,2,54,0,0
19035,-100,4,2,1,5,0,0
19115,-100,4,2,2,50,0,0
19195,-100,4,2,1,5,0,0
19275,-100,4,2,1,55,0,0
19395,-100,4,2,1,30,0,0
20715,-100,4,2,2,55,0,0
21195,-105.263157894737,4,2,1,62,0,0
24555,-105.263157894737,4,2,2,62,0,0
25035,-105.263157894737,4,2,1,62,0,0
28395,-105.263157894737,4,2,2,62,0,0
28875,-105.263157894737,4,2,1,62,0,0
32235,-105.263157894737,4,2,2,62,0,0
32715,-105.263157894737,4,2,1,62,0,0
36075,-105.263157894737,4,2,1,50,0,0
36555,-105.263157894737,4,2,1,64,0,0
39915,-105.263157894737,4,2,2,64,0,0
40395,-105.263157894737,4,2,1,64,0,0
43455,-105.263157894737,4,2,1,46,0,0
43515,-105.263157894737,4,2,2,64,0,0
43995,-105.263157894737,4,2,3,64,0,0
44235,-105.263157894737,4,2,1,64,0,0
47595,-105.263157894737,4,2,2,64,0,0
48075,-105.263157894737,4,2,1,62,0,0
49995,-105.263157894737,4,2,1,67,0,0
50895,-105.263157894737,4,2,1,40,0,0
50955,-111.111111111111,4,2,1,54,0,0
51075,-111.111111111111,4,2,1,20,0,0
51915,-111.111111111111,4,2,3,30,0,0
59595,-105.263157894737,4,2,2,50,0,0
62955,-105.263157894737,4,2,2,52,0,0
63435,-100,4,2,1,55,0,0
65355,-100,4,2,1,60,0,0
66795,-100,4,2,2,60,0,0
69195,-100,4,2,1,35,0,0
69435,-100,4,2,1,25,0,0
69675,-100,4,2,1,35,0,0
70395,-100,4,2,1,25,0,0
70635,-100,4,2,1,35,0,0
71355,-100,4,2,1,25,0,0
71835,-100,4,2,1,35,0,0
73275,-100,4,2,1,25,0,0
73515,-100,4,2,1,35,0,0
75195,-100,4,2,1,25,0,0
75435,-100,4,2,1,35,0,0
75915,-100,4,2,1,40,0,0
76875,-105.263157894737,4,2,2,52,0,0
82635,-105.263157894737,4,2,2,54,0,0
83115,-105.263157894737,4,2,2,58,0,0
83595,-105.263157894737,4,2,1,60,0,0
84075,-105.263157894737,4,2,1,30,0,0
84555,-100,4,2,1,72,0,1
87915,-100,4,2,2,72,0,1
88395,-100,4,2,1,72,0,1
90315,-100,4,2,2,60,0,0
91755,-100,4,2,2,65,0,0
92235,-100,4,2,1,72,0,1
95595,-100,4,2,2,72,0,1
96075,-100,4,2,1,72,0,1
99675,-100,4,2,2,65,0,0
99915,-111.111111111111,4,2,1,65,0,0
100395,-111.111111111111,4,2,1,40,0,0
101835,-111.111111111111,4,2,1,50,0,0
102075,-111.111111111111,4,2,1,20,0,0
102795,-111.111111111111,4,2,3,22,0,0
103395,-111.111111111111,4,2,1,50,0,0
103755,-100,4,2,1,70,0,0
106815,-100,4,2,1,50,0,0
106875,-100,4,2,1,70,0,0
107115,-100,4,2,2,70,0,0
107595,-100,4,2,1,70,0,0
109455,-100,4,2,1,50,0,0
109515,-100,4,2,1,70,0,0
110715,-100,4,2,2,70,0,0
111195,-100,4,2,3,70,0,0
111435,-100,4,2,1,70,0,0
114795,-100,4,2,2,70,0,0
115275,-100,4,2,1,70,0,0
118335,-100,4,2,1,50,0,0
118395,-100,4,2,1,70,0,0
118515,-100,4,2,2,70,0,0
118755,-100,4,2,1,70,0,0
118875,-100,4,2,2,70,0,0
119115,-100,4,2,2,65,0,0
120075,-100,4,2,2,64,0,0
120155,-100,4,2,1,5,0,0
120235,-100,4,2,2,62,0,0
120315,-100,4,2,1,5,0,0
120395,-100,4,2,2,60,0,0
120475,-100,4,2,1,5,0,0
120555,-100,4,2,2,57,0,0
120635,-100,4,2,1,5,0,0
120715,-100,4,2,2,54,0,0
120795,-100,4,2,1,5,0,0
120875,-100,4,2,2,50,0,0
120955,-100,4,2,1,5,0,0
121035,-100,4,2,1,55,0,0
121155,-100,4,2,1,30,0,0
122475,-100,4,2,2,55,0,0
122955,-105.263157894737,4,2,1,50,0,0
123195,-105.263157894737,4,2,1,30,0,0
124635,-105.263157894737,4,2,1,40,0,0
124875,-105.263157894737,4,2,1,52,0,0
125115,-105.263157894737,4,2,1,30,0,0
126195,-105.263157894737,4,2,1,40,0,0
126315,-105.263157894737,4,2,1,48,0,0
126375,-105.263157894737,4,2,1,30,0,0
126675,-105.263157894737,4,2,1,42,0,0
126795,-105.263157894737,4,2,1,62,0,0
130155,-105.263157894737,4,2,2,62,0,0
130635,-105.263157894737,4,2,1,62,0,0
133995,-105.263157894737,4,2,2,62,0,0
134475,-105.263157894737,4,2,1,62,0,0
137835,-105.263157894737,4,2,1,50,0,0
138315,-105.263157894737,4,2,1,64,0,0
141675,-105.263157894737,4,2,2,64,0,0
142155,-105.263157894737,4,2,1,64,0,0
145215,-105.263157894737,4,2,1,46,0,0
145275,-105.263157894737,4,2,2,64,0,0
145755,-105.263157894737,4,2,3,64,0,0
145995,-105.263157894737,4,2,1,64,0,0
149355,-105.263157894737,4,2,2,64,0,0
149835,-105.263157894737,4,2,1,62,0,0
151755,-105.263157894737,4,2,1,67,0,0
152655,-105.263157894737,4,2,1,40,0,0
152715,-111.111111111111,4,2,1,54,0,0
152835,-111.111111111111,4,2,1,20,0,0
153675,-111.111111111111,4,2,3,30,0,0
161355,-105.263157894737,4,2,2,50,0,0
164715,-105.263157894737,4,2,2,52,0,0
165195,-100,4,2,1,55,0,0
167115,-100,4,2,1,60,0,0
168555,-100,4,2,2,60,0,0
170955,-100,4,2,1,35,0,0
171195,-100,4,2,1,25,0,0
171435,-100,4,2,1,35,0,0
172155,-100,4,2,1,25,0,0
172395,-100,4,2,1,35,0,0
173115,-100,4,2,1,25,0,0
173595,-100,4,2,1,35,0,0
175035,-100,4,2,1,25,0,0
175275,-100,4,2,1,35,0,0
176955,-100,4,2,1,25,0,0
177195,-100,4,2,1,35,0,0
177675,-100,4,2,1,40,0,0
178635,-105.263157894737,4,2,2,52,0,0
184395,-105.263157894737,4,2,2,54,0,0
184875,-105.263157894737,4,2,2,58,0,0
185355,-105.263157894737,4,2,1,60,0,0
185835,-105.263157894737,4,2,1,30,0,0
186315,-100,4,2,1,72,0,1
189675,-100,4,2,2,72,0,1
190155,-100,4,2,1,72,0,1
192075,-100,4,2,2,60,0,0
193515,-100,4,2,2,65,0,0
193995,-100,4,2,1,72,0,1
197355,-100,4,2,2,72,0,1
197835,-100,4,2,1,72,0,1
201435,-111.111111111111,4,2,2,65,0,0
201675,-111.111111111111,4,2,1,65,0,0
202155,-111.111111111111,4,2,1,40,0,0
203595,-111.111111111111,4,2,1,50,0,0
203835,-111.111111111111,4,2,1,20,0,0
204555,-111.111111111111,4,2,3,22,0,0
204975,-111.111111111111,4,2,1,50,0,0
205275,-111.111111111111,4,2,1,20,0,0
205395,-111.111111111111,4,2,1,30,0,0
205515,-100,4,2,2,72,0,0
205635,-100,4,2,1,72,0,0
207615,-100,4,2,1,50,0,0
207675,-100,4,2,1,72,0,0
208875,-100,4,2,2,72,0,0
209355,-100,4,2,1,72,0,0
212415,-100,4,2,1,50,0,0
212475,-100,4,2,2,72,0,0
212955,-100,4,2,3,72,0,0
213195,-100,4,2,2,72,0,0
213375,-100,4,2,1,50,0,0
213435,-100,4,2,1,72,0,0
214335,-100,4,2,1,50,0,0
214395,-100,4,2,1,72,0,0
215055,-100,4,2,1,50,0,0
215115,-100,4,2,1,72,0,0
216015,-100,4,2,1,50,0,0
216075,-100,4,2,1,72,0,0
216555,-100,4,2,2,72,0,0
217035,-100,4,2,1,72,0,0
217515,-100,4,2,1,73,0,0
217995,-100,4,2,1,74,0,0
218475,-100,4,2,1,75,0,0
218955,-100,4,2,1,74,0,0
220395,-100,4,2,2,74,0,0
220875,-111.111111111111,4,2,1,60,0,0
220995,-111.111111111111,4,2,1,20,0,0
221595,-111.111111111111,4,2,1,40,0,0
221835,-111.111111111111,4,2,1,50,0,0
221955,-111.111111111111,4,2,1,20,0,0
222795,-111.111111111111,4,2,3,40,0,0
230475,-105.263157894737,4,2,2,40,0,0
230715,-105.263157894737,4,2,2,30,0,0
230955,-105.263157894737,4,2,2,40,0,0
231195,-105.263157894737,4,2,2,30,0,0
231435,-105.263157894737,4,2,2,40,0,0
231675,-105.263157894737,4,2,2,30,0,0
231915,-105.263157894737,4,2,2,40,0,0
232155,-105.263157894737,4,2,2,30,0,0
232395,-105.263157894737,4,2,2,45,0,0
232635,-105.263157894737,4,2,2,30,0,0
232875,-105.263157894737,4,2,2,45,0,0
233115,-105.263157894737,4,2,2,30,0,0
233355,-105.263157894737,4,2,2,45,0,0
233595,-105.263157894737,4,2,2,30,0,0
233835,-105.263157894737,4,2,2,48,0,0
234075,-105.263157894737,4,2,2,52,0,0
234315,-100,4,2,1,58,0,0
236235,-100,4,2,1,62,0,0
237135,-100,4,2,1,30,0,0
237195,-111.111111111111,4,2,1,50,0,0
237315,-111.111111111111,4,2,1,5,0,0
238155,-111.111111111111,4,2,3,14,0,0
241035,-111.111111111111,4,2,1,24,0,0
241275,-111.111111111111,4,2,1,15,0,0
241515,-111.111111111111,4,2,1,30,0,0
241995,-111.111111111111,4,2,3,36,0,0
242475,-100,4,2,1,74,0,1
245355,-100,4,2,2,74,0,1
245835,-100,4,2,1,74,0,1
247755,-100,4,2,2,60,0,0
249195,-100,4,2,2,65,0,0
249675,-100,4,2,1,74,0,1
253035,-100,4,2,2,74,0,1
253515,-100,4,2,1,74,0,1
257115,-100,4,2,2,67,0,0
257355,-111.111111111111,4,2,1,65,0,0
257835,-111.111111111111,4,2,1,40,0,0
259275,-111.111111111111,4,2,1,50,0,0
259515,-111.111111111111,4,2,1,20,0,0
260235,-111.111111111111,4,2,3,22,0,0
261195,-100,4,2,1,67,0,0
264255,-100,4,2,1,50,0,0
264315,-100,4,2,1,67,0,0
264555,-100,4,2,2,67,0,0
265035,-100,4,2,1,67,0,0
268155,-100,4,2,2,67,0,0
268635,-100,4,2,3,67,0,0
268875,-100,4,2,1,68,0,0
272235,-100,4,2,2,68,0,0
272715,-100,4,2,1,68,0,0
274995,265.486725663717,4,2,1,70,1,0
275260,312.5,4,2,1,65,1,0
275416,600,4,2,1,65,1,0
275416,-43.4782608695652,4,2,1,65,0,0
275716,588.235294117647,4,2,1,58,1,0
276304,609.137055837563,4,2,1,46,1,0
276304,-47.6190476190476,4,2,1,46,0,0
276913,600,4,2,3,35,1,0
276988,-100,4,2,3,25,0,0
281113,-100,4,2,3,22,0,0
281413,-100,4,2,3,20,0,0
281713,-100,4,2,3,23,0,0
282913,-100,4,2,3,22,0,0
283213,-100,4,2,3,18,0,0
283513,-100,4,2,3,20,0,0
283813,-100,4,2,3,16,0,0
284113,-100,4,2,3,18,0,0
284713,-100,4,2,3,5,0,0
285013,-100,4,2,3,12,0,0
285313,-100,4,2,3,15,0,0
285913,-100,4,2,3,5,0,0
286513,-100,4,2,3,10,0,0

[Colours]
Combo1 : 240,140,140
Combo2 : 200,180,220
Combo3 : 240,200,155
Combo4 : 150,185,220

[HitObjects]
62,40,1995,6,0,B|59:90|31:122|31:122|36:129|36:129|16:160|39:218,1,180,12|10,1:3|1:2,0:1:0:0:
58,263,2955,2,0,B|108:266|140:294|140:294|147:289|147:289|178:309|236:286,1,180,2|10,1:2|1:2,0:2:0:0:
271,250,3915,2,0,P|248:187|258:157,1,89.9999999999999,6|2,1:2|1:2,2:2:0:0:
299,91,4635,1,10,1:2:0:0:
299,91,4875,2,0,L|425:72,1,120,2|8,1:2|1:3,0:2:0:0:
490,168,5835,6,0,B|477:242|477:242|481:263|481:263|467:350,1,180,6|10,1:2|1:2,0:2:0:0:
412,369,6795,2,0,B|329:356|329:356|317:361|317:361|229:345,1,180,2|10,1:2|1:2,0:2:0:0:
177,363,7755,2,0,B|147:361|147:361|128:372|128:372|78:375,1,89.9999999999999,6|6,1:2|1:2,0:1:0:0:
22,323,8475,1,14,1:2:0:0:
22,323,8715,2,0,P|17:275|59:204,1,120,6|4,1:2|1:3,0:2:0:0:
141,140,9675,6,0,B|163:176|221:175|221:175|236:123|279:102,1,180,12|10,1:3|1:2,0:2:0:0:
322,73,10635,2,0,B|366:88|409:64|409:64|452:87|461:148,1,180,2|8,1:2|1:2,0:2:0:0:
453,195,11595,2,0,B|440:230|454:249|437:289,1,89.9999999999999,6|2,1:2|1:2,0:2:0:0:
388,358,12315,1,10,1:2:0:0:
388,358,12555,2,0,L|262:344,1,120,0|8,1:2|1:3,0:2:0:0:
190,253,13515,6,0,B|219:213|212:169|212:169|171:143|165:85,1,180,6|10,1:2|1:2,2:2:0:0:
177,35,14475,1,2,1:2:0:0:
294,12,14955,1,2,0:2:0:0:
399,69,15435,2,0,P|419:108|410:155,1,89.9999999999999,6|6,1:2|1:2,0:2:0:0:
354,222,16155,1,14,1:2:0:0:
354,222,16395,2,0,L|233:208,1,120,6|8,1:2|0:3,0:2:0:0:
125,157,17355,6,0,B|85:191|85:191|110:293,1,150,8|8,2:2|0:2,0:0:0:0:
177,343,18315,2,0,P|231:329|299:343,2,120,14|10|6,3:2|3:2|1:2,0:2:0:0:
0,292,21195,6,0,L|18:114,1,170.999995433807,12|10,1:3|2:2,0:2:0:0:
112,184,22395,2,0,P|150:194|219:172,1,113.999996955871,10|10,2:2|2:2,0:0:0:0:
263,135,23115,2,0,P|260:103|278:49,1,85.4999977169036,6|2,1:2|1:2,0:2:0:0:
358,21,23835,1,10,0:2:0:0:
358,21,24075,2,0,L|471:29,1,113.999996955871,0|8,1:2|1:3,0:2:0:0:
507,137,25035,6,0,L|329:161,1,170.999995433807,6|10,1:2|0:2,0:2:0:0:
283,178,25995,1,2,1:2:0:0:
189,113,26475,1,2,0:2:0:0:
94,177,26955,2,0,P|75:243|82:269,1,85.4999977169036,6|6,1:2|1:2,0:2:0:0:
125,335,27675,1,14,1:2:0:0:
125,335,27915,2,0,L|244:313,1,113.999996955871,4|8,1:2|1:3,0:2:0:0:
347,342,28875,6,0,B|386:376|469:361|469:361|487:314,1,170.999995433807,12|10,1:3|0:2,0:2:0:0:
494,206,30075,2,0,L|458:88,1,113.999996955871,10|10,0:2|0:2,0:0:0:0:
415,62,30795,2,0,P|392:78|328:71,1,85.4999977169036,6|2,1:2|1:2,0:2:0:0:
255,47,31515,1,10,0:2:0:0:
255,47,31755,2,0,P|224:44|169:100,1,113.999996955871,0|8,1:2|1:3,0:2:0:0:
251,177,32715,6,0,P|319:185|333:283,1,170.999995433807,6|10,1:2|0:2,0:2:0:0:
309,322,33675,2,0,L|133:343,1,170.999995433807,2|10,1:2|0:2,0:2:0:0:
82,334,34635,2,0,P|68:296|77:246,1,85.4999977169036,6|6,1:2|1:2,0:2:0:0:
127,185,35355,1,14,0:2:0:0:
127,185,35595,2,0,P|188:189|230:150,1,113.999996955871,4|14,1:1|0:2,0:0:0:0:
286,60,36555,6,0,B|331:27|331:27|448:63,1,170.999995433807,12|10,1:3|0:2,0:2:0:0:
482,166,37755,2,0,L|468:287,1,113.999996955871,10|10,0:2|2:2,0:0:0:0:
450,333,38475,2,0,P|413:337|365:313,1,85.4999977169036,6|2,1:2|1:2,0:2:0:0:
320,254,39195,1,10,0:2:0:0:
320,254,39435,2,0,L|311:134,1,113.999996955871,2|8,1:2|1:3,0:2:0:0:
241,50,40395,6,0,P|184:38|76:83,1,170.999995433807,6|10,1:2|0:2,0:2:0:0:
44,121,41355,1,2,1:2:0:0:
24,233,41835,1,2,0:2:0:0:
87,327,42315,2,0,B|130:336|130:336|175:318,1,85.4999977169036,6|6,1:2|1:2,0:2:0:0:
231,263,43035,1,14,0:2:0:0:
231,263,43275,2,0,B|238:228|238:228|229:203|229:203|240:143,1,113.999996955871,6|4,1:2|1:3,0:2:0:0:
324,76,44235,6,0,P|374:71|438:165,1,170.999995433807,12|8,0:3|0:2,0:2:0:0:
417,271,45435,2,0,L|295:282,1,113.999996955871,10|10,0:2|0:2,0:0:0:0:
255,250,46155,2,0,L|234:159,1,85.4999977169036,6|2,1:2|1:2,0:2:0:0:
193,98,46875,1,10,0:2:0:0:
193,98,47115,2,0,P|149:77|89:94,1,113.999996955871,2|8,1:2|1:3,0:2:0:0:
11,177,48075,6,0,L|32:352,1,170.999995433807,6|10,1:2|0:2,0:2:0:0:
77,380,49035,1,2,1:2:0:0:
180,333,49515,1,2,0:2:0:0:
288,369,49995,2,0,B|329:377|329:377|369:350,1,85.4999977169036,6|6,1:2|1:2,0:2:0:0:
431,297,50715,1,14,0:2:0:0:
431,297,50955,2,0,P|387:236|391:96,1,215.999993408203,4|4,1:2|0:2,0:2:0:0:
512,67,59595,6,0,L|398:54,1,113.999996955871,6|10,1:2|0:2,0:2:0:0:
290,16,60555,1,2,0:2:0:0:
228,112,61035,1,10,0:2:0:0:
293,205,61515,2,0,P|312:249|293:319,1,113.999996955871,2|10,0:2|0:2,0:2:0:0:
197,365,62475,2,0,L|80:349,1,113.999996955871,2|8,0:2|0:2,0:0:0:0:
7,257,63435,6,0,P|7:198|36:137,1,120,6|0,1:2|1:2,0:2:0:0:
128,73,64395,2,0,P|156:80|217:68,1,89.9999999999999,2|2,1:2|1:2,0:2:0:0:
300,34,65115,1,10,0:2:0:0:
300,34,65355,2,0,B|336:36|366:54|366:54|370:104|336:167,1,180,6|8,1:2|0:2,0:2:0:0:
287,188,66315,2,0,B|261:163|215:172|215:172|170:246|217:328,1,240,2|4,1:2|1:2,0:2:0:0:
472,332,76875,6,0,P|486:310|469:223,1,113.999996955871,6|8,1:2|0:2,0:2:0:0:
420,159,77715,2,0,P|406:169|287:135,1,142.499996194839,0|8,1:2|0:2,0:0:0:0:
224,54,78795,1,2,1:2:0:0:
110,39,79275,1,8,0:2:0:0:
25,115,79755,2,0,P|7:153|20:228,1,113.999996955871,2|8,1:2|0:2,0:0:0:0:
86,312,80715,6,0,L|203:293,1,113.999996955871,6|10,1:2|0:2,0:2:0:0:
302,246,81675,1,2,0:2:0:0:
265,137,82155,1,10,0:2:0:0:
331,44,82635,2,0,P|366:30|392:36,1,56.9999984779357,2|0,1:2|1:2,0:0:0:0:
432,63,83115,2,0,P|457:120|454:180,1,113.999996955871,8|2,2:2|1:2,0:0:0:0:
335,339,84555,6,0,B|271:333|271:333|242:356|242:356|160:348,1,180,12|8,1:3|2:2,0:2:0:0:
110,377,85515,2,0,L|106:280,1,89.9999999999999,2|2,1:2|1:2,0:2:0:0:
53,221,86235,1,8,2:2:0:0:
53,221,86475,2,0,P|36:185|79:57,1,180,6|8,1:2|0:2,0:2:0:0:
129,30,87435,1,2,1:2:0:0:
219,108,87915,1,8,1:3:0:0:
332,67,88395,6,0,P|365:57|428:66,2,89.9999999999999,6|0|8,1:2|1:2|0:2,0:2:0:0:
242,147,89595,2,0,L|230:273,1,120,10|10,0:2|0:2,0:0:0:0:
242,325,90315,2,0,P|291:355|357:339,1,120,6|12,0:2|0:2,0:0:0:0:
449,276,91275,1,4,1:2:0:0:
464,157,91755,1,8,1:2:0:0:
394,59,92235,6,0,P|357:44|278:63,1,120,12|0,1:3|1:0,0:2:0:0:
246,111,92955,1,10,0:2:0:0:
246,111,93195,2,0,L|254:235,1,120,0|2,1:2|0:2,0:2:0:0:
186,330,94155,2,0,P|149:345|70:326,1,120,6|2,1:2|0:2,0:2:0:0:
38,278,94875,1,10,0:2:0:0:
38,278,95115,2,0,L|46:154,1,120,2|8,1:2|1:3,0:2:0:0:
104,53,96075,6,0,B|149:49|149:49|163:59|163:59|222:52,1,120,6|2,1:2|1:2,0:2:0:0:
271,93,96795,1,10,0:2:0:0:
271,93,97035,2,0,B|316:97|316:97|330:87|330:87|389:94,1,120,2|2,1:2|0:2,0:2:0:0:
475,175,97995,2,0,P|488:221|482:269,2,89.9999999999999,6|6|14,1:2|1:2|0:2,0:2:0:0:
435,130,98955,2,0,B|398:121|398:121|370:137|370:137|313:124,1,120,6|12,1:2|0:2,0:0:0:0:
220,86,99915,6,0,P|32:119|143:229,1,431.999986816406,4|6,1:2|1:2,0:0:0:0:
483,349,103755,6,0,B|448:314|459:264|459:264|489:231|474:172,1,180,12|10,1:3|1:2,0:1:0:0:
448,128,104715,2,0,B|413:93|363:104|363:104|330:134|271:119,1,180,2|10,1:2|1:2,0:2:0:0:
226,95,105675,2,0,P|196:80|141:81,1,89.9999999999999,6|2,1:2|1:2,2:2:0:0:
65,128,106395,1,10,1:2:0:0:
65,128,106635,2,0,L|46:259,1,120,2|8,1:2|1:3,0:2:0:0:
98,355,107595,6,0,B|172:348|172:348|193:354|193:354|281:347,1,180,6|10,1:2|1:2,0:2:0:0:
300,293,108555,2,0,B|306:218|306:218|300:197|300:197|307:109,1,180,2|10,1:2|1:2,0:2:0:0:
347,70,109515,2,0,B|392:57|392:57|435:69,1,89.9999999999999,6|6,1:2|1:2,0:1:0:0:
486,148,110235,1,14,1:2:0:0:
486,148,110475,2,0,L|480:274,1,120,6|4,1:2|1:3,0:2:0:0:
394,352,111435,6,0,B|352:337|305:362|305:362|266:338|279:273,1,180,12|10,1:3|1:2,0:2:0:0:
294,227,112395,2,0,B|278:184|301:143|301:143|294:89|249:67,1,180,2|8,1:2|1:2,0:2:0:0:
198,40,113355,2,0,L|101:32,1,89.9999999999999,6|2,1:2|1:2,0:2:0:0:
30,74,114075,1,10,1:2:0:0:
30,74,114315,2,0,P|15:103|25:196,1,120,0|8,1:2|1:3,0:2:0:0:
90,285,115275,6,0,B|134:275|172:312|172:312|216:327|252:283,1,180,6|10,1:2|1:2,2:2:0:0:
262,225,116235,1,2,1:2:0:0:
231,108,116715,1,2,0:2:0:0:
327,36,117195,2,0,P|366:24|422:34,1,89.9999999999999,6|6,1:2|1:2,0:2:0:0:
481,98,117915,1,14,1:2:0:0:
481,98,118155,2,0,L|478:224,1,120,6|8,1:2|0:3,0:2:0:0:
420,324,119115,6,0,B|325:300|325:300|318:328|291:340,1,150,8|8,2:2|0:2,0:0:0:0:
206,364,120075,2,0,P|155:347|86:349,2,120,14|10|6,3:2|3:2|1:2,0:2:0:0:
511,294,122955,5,6,1:2:0:0:
335,37,124875,1,6,1:2:0:0:
0,158,126795,6,0,B|65:150|65:150|86:170|86:170|171:160,1,170.999995433807,12|10,1:3|0:2,0:2:0:0:
215,140,127755,1,2,1:2:0:0:
304,69,128235,1,2,0:2:0:0:
408,114,128715,2,0,P|427:180|420:206,1,85.4999977169036,6|6,1:2|1:2,0:2:0:0:
380,270,129435,1,14,1:2:0:0:
380,270,129675,2,0,B|336:266|336:266|317:274|317:274|259:267,1,113.999996955871,4|8,1:2|1:3,0:2:0:0:
186,187,130635,6,0,P|164:117|70:106,1,170.999995433807,12|10,1:3|0:2,0:2:0:0:
4,190,131835,2,0,L|12:308,1,113.999996955871,10|10,0:2|0:2,0:0:0:0:
39,353,132555,2,0,P|79:360|122:337,1,85.4999977169036,6|2,1:2|1:2,0:2:0:0:
207,355,133275,1,10,0:2:0:0:
207,355,133515,2,0,P|260:336|324:346,1,113.999996955871,0|8,1:2|1:3,0:2:0:0:
425,374,134475,6,0,P|446:338|427:211,1,170.999995433807,6|10,1:2|0:2,0:2:0:0:
396,168,135435,2,0,B|332:162|332:162|294:186|294:186|228:178,1,170.999995433807,2|10,1:2|0:2,0:2:0:0:
181,203,136395,2,0,B|167:245|188:247|172:294,1,85.4999977169036,6|6,1:2|1:2,0:2:0:0:
110,344,137115,1,14,0:2:0:0:
110,344,137355,2,0,B|73:356|60:360|60:360|29:346|21:309,1,113.999996955871,4|14,1:1|0:2,0:0:0:0:
4,201,138315,6,0,B|23:187|29:151|29:151|14:108|14:108|17:76|47:38,1,170.999995433807,12|10,1:3|0:2,0:2:0:0:
126,121,139515,2,0,P|153:129|234:93,1,113.999996955871,10|10,0:2|2:2,0:0:0:0:
277,67,140235,2,0,P|316:47|365:53,1,85.4999977169036,6|2,1:2|1:2,0:2:0:0:
430,103,140955,1,10,0:2:0:0:
430,103,141195,2,0,L|417:222,1,113.999996955871,2|8,1:2|1:3,0:2:0:0:
336,297,142155,6,0,B|309:321|264:314|264:314|271:253|243:222,1,170.999995433807,6|10,1:2|0:0,0:2:0:0:
209,177,143115,1,2,1:2:0:0:
106,126,143595,1,2,0:2:0:0:
24,204,144075,2,0,P|15:236|25:292,1,85.4999977169036,6|6,1:2|1:2,0:2:0:0:
81,355,144795,1,14,0:2:0:0:
81,355,145035,2,0,B|120:347|120:347|141:357|141:357|201:346,1,113.999996955871,6|4,1:2|1:3,0:2:0:0:
262,259,145995,6,0,P|247:219|284:93,1,170.999995433807,12|8,0:3|0:2,0:2:0:0:
371,34,147195,2,0,P|429:35|480:76,1,113.999996955871,10|10,0:2|0:2,0:0:0:0:
494,119,147915,2,0,L|482:215,1,85.4999977169036,6|2,1:2|1:2,0:2:0:0:
433,274,148635,1,10,0:2:0:0:
433,274,148875,2,0,P|380:285|328:257,1,113.999996955871,2|8,1:2|1:3,0:2:0:0:
242,183,149835,6,0,P|249:90|195:38,1,170.999995433807,6|10,1:2|0:2,0:2:0:0:
141,30,150795,1,2,1:2:0:0:
41,85,151275,1,2,0:2:0:0:
19,196,151755,2,0,L|32:289,1,85.4999977169036,6|6,1:2|1:2,0:2:0:0:
76,359,152475,1,14,0:2:0:0:
76,359,152715,2,0,P|160:348|198:225,1,215.999993408203,4|4,1:2|0:2,0:2:0:0:
0,276,161355,6,0,B|59:256|53:292|121:273,1,113.999996955871,6|10,1:2|0:2,0:2:0:0:
216,229,162315,1,2,0:2:0:0:
194,117,162795,1,10,0:2:0:0:
281,44,163275,2,0,P|332:24|399:42,1,113.999996955871,2|10,0:2|0:2,0:2:0:0:
475,109,164235,2,0,L|470:232,1,113.999996955871,2|8,0:2|0:2,0:0:0:0:
409,319,165195,6,0,P|389:328|294:303,1,120,6|0,1:2|1:2,0:2:0:0:
230,207,166155,2,0,L|221:116,1,89.9999999999999,2|2,1:2|1:2,0:2:0:0:
157,62,166875,1,10,0:2:0:0:
157,62,167115,2,0,P|116:70|78:189,1,180,6|8,1:2|0:2,0:2:0:0:
117,231,168075,2,0,P|234:215|360:200,1,240,2|4,1:2|1:2,0:2:0:0:
469,42,178635,6,0,P|483:64|466:152,1,113.999996955871,6|8,1:2|0:2,0:2:0:0:
406,202,179475,2,0,B|355:192|355:192|328:202|328:202|256:185,1,142.499996194839,0|8,1:2|0:2,0:0:0:0:
216,85,180555,1,2,1:2:0:0:
103,65,181035,1,8,0:2:0:0:
21,144,181515,2,0,P|3:182|16:257,1,113.999996955871,2|8,1:2|0:2,0:0:0:0:
84,340,182475,6,0,L|198:328,1,113.999996955871,6|10,1:2|0:2,0:2:0:0:
305,293,183435,1,2,0:2:0:0:
385,373,183915,1,10,0:2:0:0:
473,300,184395,2,0,P|481:272|478:233,1,56.9999984779357,2|0,1:2|1:2,0:0:0:0:
461,190,184875,2,0,B|423:183|423:183|397:194|397:194|339:180,1,113.999996955871,8|2,2:2|1:2,0:0:0:0:
159,38,186315,6,0,P|96:36|55:131,1,180,12|8,1:3|2:2,0:2:0:0:
88,181,187275,2,0,L|185:165,1,89.9999999999999,2|2,1:2|1:2,0:2:0:0:
257,217,187995,1,8,2:2:0:0:
257,217,188235,2,0,P|276:299|360:310,1,180,6|8,1:2|0:2,0:2:0:0:
416,289,189195,1,2,1:2:0:0:
468,180,189675,1,8,1:3:0:0:
403,78,190155,6,0,P|370:68|306:75,2,89.9999999999999,6|0|8,1:2|1:2|0:2,0:2:0:0:
467,179,191355,2,0,L|455:305,1,120,10|10,0:2|0:2,0:0:0:0:
423,349,192075,2,0,B|366:365|366:365|315:333,1,120,6|12,0:2|0:2,0:0:0:0:
223,254,193035,1,4,1:2:0:0:
274,145,193515,1,8,1:2:0:0:
194,55,193995,6,0,P|157:40|78:59,1,120,12|0,1:3|1:0,0:2:0:0:
38,99,194715,1,10,0:2:0:0:
38,99,194955,2,0,L|46:223,1,120,0|2,1:2|0:2,0:2:0:0:
100,325,195915,2,0,P|137:340|216:321,1,120,6|2,1:2|0:2,0:2:0:0:
256,281,196635,1,10,0:2:0:0:
256,281,196875,2,0,L|248:157,1,120,2|8,1:2|1:3,0:2:0:0:
317,63,197835,6,0,B|369:43|369:43|442:56,1,120,6|2,1:2|1:2,0:2:0:0:
479,91,198555,1,10,0:2:0:0:
479,91,198795,2,0,B|470:133|470:133|480:155|480:155|470:208,1,120,2|2,1:2|0:2,0:2:0:0:
359,253,199755,2,0,L|343:161,2,89.9999999999999,6|6|14,1:2|1:2|0:2,0:2:0:0:
333,307,200715,2,0,B|285:338|285:338|220:313,1,120,6|12,1:2|0:2,0:0:0:0:
180,208,201675,6,0,P|36:114|78:276,1,431.999986816406,4|6,1:2|1:2,0:0:0:0:
79,353,205515,6,0,L|203:335,1,120,14|2,1:1|1:1,0:0:0:0:
316,317,206475,1,2,1:1:0:0:
415,384,206955,1,2,1:1:0:0:
509,309,207435,2,2,P|514:267|506:217,1,89.9999999999999,6|2,1:1|1:1,0:1:0:0:
461,148,208155,1,10,0:1:0:0:
461,148,208395,6,2,B|397:137|397:137|347:163|347:163|281:153,1,180,2|4,1:1|1:3,0:1:0:0:
229,141,209355,1,6,1:1:0:0:
154,235,209835,1,2,1:1:0:0:
44,185,210315,2,2,P|23:127|78:27,1,180,2|10,1:1|0:1,0:1:0:0:
129,54,211275,2,0,B|165:78|165:78|223:63,1,89.9999999999999,6|6,1:1|1:1,0:0:0:0:
297,36,211995,1,14,1:1:0:0:
297,36,212235,2,2,B|336:26|336:26|377:37|407:81,1,120,6|4,1:1|1:3,0:1:0:0:
435,185,213195,6,2,B|428:318|428:318|375:345,1,180,14|10,1:1|0:1,0:1:0:0:
333,368,214155,2,0,P|317:346|173:346,1,180,2|10,1:1|0:1,0:2:0:0:
124,365,215115,2,2,B|81:372|81:372|33:343,1,89.9999999999999,6|2,1:1|1:1,0:1:0:0:
11,268,215835,1,10,0:1:0:0:
11,268,216075,2,2,L|33:146,1,120,2|8,1:1|1:3,0:1:0:0:
59,32,217035,5,6,1:1:0:0:
146,114,217515,1,2,1:1:0:0:
265,104,217995,1,2,1:1:0:0:
334,6,218475,1,2,0:1:0:0:
436,67,218955,2,2,P|454:100|444:155,1,89.9999999999999,4|6,1:1|1:1,0:1:0:0:
388,219,219675,1,14,0:1:0:0:
388,219,219915,2,0,P|340:194|265:202,1,120,6|8,1:1|1:3,0:0:0:0:
192,260,220875,6,0,P|155:286|59:187,2,215.999993408203,6|6|4,1:1|1:1|0:2,0:2:0:0:
0,88,230475,6,0,L|234:62,1,227.999993911743,4|0,1:2|1:2,0:2:0:0:
334,24,231915,1,0,1:2:0:0:
431,82,232395,2,0,P|463:144|449:303,1,227.999993911743,4|0,1:2|1:2,0:2:0:0:
369,377,233835,1,8,0:2:0:0:
293,284,234315,6,0,B|281:238|281:238|283:224|283:224|269:164,1,120,12|2,0:3|1:2,0:2:0:0:
208,64,235275,1,2,1:2:0:0:
88,72,235755,1,2,0:2:0:0:
25,174,236235,2,0,B|11:218|11:218|24:267,1,89.9999999999999,6|8,1:2|0:0,0:2:0:0:
74,340,236955,5,10,0:2:0:0:
74,340,237195,2,0,P|126:317|286:321,1,215.999993408203,6|2,1:2|2:3,0:2:0:0:
493,369,241035,2,0,L|478:149,1,215.999993408203,0|2,0:2|2:3,0:2:0:0:
395,58,242475,6,0,B|391:96|353:120|353:120|212:94,1,210,12|2,0:3|1:2,0:0:0:0:
142,70,243675,1,8,2:2:0:0:
142,70,243915,2,0,P|97:87|73:207,1,180,6|8,1:2|0:2,0:2:0:0:
94,260,244875,1,2,1:2:0:0:
205,214,245355,1,8,1:3:0:0:
304,281,245835,6,0,L|295:376,2,89.9999999999999,6|0|8,1:2|1:2|0:2,0:2:0:0:
407,219,247035,2,0,P|428:169|410:98,1,120,10|10,0:2|0:2,0:0:0:0:
379,58,247755,2,0,L|254:65,1,120,6|12,0:2|0:2,0:0:0:0:
193,165,248715,1,4,1:2:0:0:
254,266,249195,1,8,1:2:0:0:
179,360,249675,6,0,P|120:368|60:339,1,120,12|0,1:3|1:0,0:2:0:0:
24,308,250395,1,10,0:2:0:0:
24,308,250635,2,0,L|32:184,1,120,0|2,1:2|0:2,0:2:0:0:
93,85,251595,2,0,P|152:77|212:106,1,120,6|2,1:2|0:2,0:2:0:0:
253,146,252315,1,10,0:2:0:0:
253,146,252555,2,0,L|245:270,1,120,2|8,1:2|1:3,0:2:0:0:
326,353,253515,6,0,P|405:355|427:320,1,120,6|2,1:2|1:2,0:2:0:0:
448,274,254235,1,10,0:2:0:0:
448,274,254475,2,0,B|441:246|441:246|443:223|443:223|424:153,1,120,2|2,1:2|0:2,0:2:0:0:
332,81,255435,2,0,B|301:76|301:76|284:84|284:84|242:75,2,89.9999999999999,6|6|14,1:2|1:2|0:2,0:2:0:0:
384,109,256395,2,0,P|401:135|375:214,1,120,6|12,1:2|0:2,0:0:0:0:
294,287,257355,6,0,B|220:263|150:310|150:310|15:203|103:64,1,431.999986816406,4|6,1:2|1:2,0:0:0:0:
102,64,261195,6,0,P|154:91|214:77,1,120,12|2,1:3|1:2,0:2:0:0:
324,35,262155,1,2,1:2:0:0:
442,55,262635,1,2,0:2:0:0:
484,167,263115,2,0,B|495:225|495:225|476:289,1,120,6|0,1:2|0:0,0:2:0:0:
451,339,263835,1,10,0:2:0:0:
451,339,264075,2,0,B|410:327|410:327|384:339|384:339|329:323,1,120,2|8,1:2|1:3,0:2:0:0:
256,236,265035,6,0,P|267:174|249:116,1,120,4|2,1:2|1:2,0:2:0:0:
170,31,265995,1,2,1:2:0:0:
54,62,266475,1,2,0:2:0:0:
14,175,266955,2,0,L|24:273,1,89.9999999999999,4|4,1:2|1:2,0:2:0:0:
77,342,267675,1,14,0:2:0:0:
77,342,267915,2,0,P|130:356|184:311,1,120,6|4,1:2|1:3,0:2:0:0:
234,212,268875,6,0,P|228:94|330:41,1,240,12|2,1:3|1:2,0:2:0:0:
440,68,270315,1,2,0:2:0:0:
494,175,270795,2,0,L|479:303,1,120,6|2,1:2|0:2,0:2:0:0:
381,363,271755,2,0,P|319:370|271:336,1,120,2|8,1:2|1:3,0:2:0:0:
186,256,272715,5,6,1:2:0:0:
268,169,273195,1,2,1:2:0:0:
210,64,273675,1,2,1:2:0:0:
92,86,274155,1,2,0:2:0:0:
76,205,274635,2,0,L|86:304,1,89.9999999999999,6|6,1:2|1:2,0:2:0:0:
159,356,275416,6,0,P|199:356|232:325,1,69.0000013160705,14|6,0:2|1:2,0:0:0:0:
288,238,276304,6,0,P|278:202|308:104,1,125.999996154785,14|4,0:2|0:2,0:0:0:0:
