osu file format v14

[General]
AudioFilename: audio.mp3
AudioLeadIn: 0
PreviewTime: 84015
Countdown: 0
SampleSet: Soft
StackLeniency: 0.7
Mode: 0
LetterboxInBreaks: 0
WidescreenStoryboard: 0

[Editor]
Bookmarks: 1995,16395,19275,20715,21195,36555,51915,59595,67275,69195,76875,84555,99915,103755,118155,121035,122475,122955,126795,129675,138315,153675,161355,168315,169035,170955,178635,186315,201675,205515,220875,222795,230475,234315,237195,242475,257355,261195,276913,286513
DistanceSpacing: 1.1
BeatDivisor: 4
GridSize: 32
TimelineZoom: 2.1

[Metadata]
Title:Maisery
TitleUnicode:Maisery
Artist:Symholic
ArtistUnicode:Symholic
Creator:Lasse
Version:Compassion
Source:
Tags:Paspal Lalue 葉月ゆら Hatsuki Yura Japanese Doujin Symphonic Rock Metal Misery featured artist fa mappers' guild mpg
BeatmapID:2739658
BeatmapSetID:1322631

[Difficulty]
HPDrainRate:6
CircleSize:4
OverallDifficulty:9
ApproachRate:9.6
SliderMultiplier:1.8
SliderTickRate:1

[Events]
//Background and Video events
0,0,"thiscouldbeus.jpg",0,0
//Break Periods
2,52115,59086
2,153875,160846
2,222995,229966
//Storyboard Layer 0 (Background)
//Storyboard Layer 1 (Fail)
//Storyboard Layer 2 (Pass)
//Storyboard Layer 3 (Foreground)
//Storyboard Layer 4 (Overlay)
//Storyboard Sound Samples

[TimingPoints]
-1845,240,4,2,1,50,1,0
1635,-133.333333333333,4,2,1,50,0,0
1995,-83.3333333333333,4,2,1,70,0,0
5055,-83.3333333333333,4,2,1,50,0,0
5115,-83.3333333333333,4,2,1,70,0,0
5355,-83.3333333333333,4,2,2,70,0,0
5835,-83.3333333333333,4,2,1,70,0,0
7515,-100,4,2,1,70,0,0
7695,-100,4,2,1,50,0,0
7755,-66.6666666666667,4,2,1,70,0,0
8895,-66.6666666666667,4,2,1,50,0,0
8955,-66.6666666666667,4,2,2,70,0,0
9435,-66.6666666666667,4,2,3,70,0,0
9675,-83.3333333333333,4,2,1,70,0,0
13035,-83.3333333333333,4,2,2,70,0,0
13515,-83.3333333333333,4,2,1,70,0,0
15435,-66.6666666666667,4,2,1,70,0,0
16575,-66.6666666666667,4,2,1,50,0,0
16635,-66.6666666666667,4,2,1,70,0,0
16755,-66.6666666666667,4,2,2,70,0,0
16995,-66.6666666666667,4,2,1,70,0,0
17115,-66.6666666666667,4,2,2,70,0,0
17355,-66.6666666666667,4,2,2,65,0,0
18315,-100,4,2,2,64,0,0
18395,-100,4,2,1,5,0,0
18475,-111.111111111111,4,2,2,62,0,0
18555,-100,4,2,1,5,0,0
18635,-125,4,2,2,60,0,0
18715,-100,4,2,1,5,0,0
18795,-142.857142857143,4,2,2,57,0,0
18875,-100,4,2,1,5,0,0
18955,-166.666666666667,4,2,2,54,0,0
19035,-100,4,2,1,5,0,0
19115,-200,4,2,2,50,0,0
19195,-100,4,2,1,5,0,0
19275,-133.333333333333,4,2,1,55,0,0
19395,-133.333333333333,4,2,1,30,0,0
20715,-133.333333333333,4,2,2,55,0,0
21195,-111.111111111111,4,2,1,62,0,0
24555,-111.111111111111,4,2,2,62,0,0
25035,-111.111111111111,4,2,1,62,0,0
26955,-90.9090909090908,4,2,1,62,0,0
28395,-90.9090909090908,4,2,2,62,0,0
28875,-111.111111111111,4,2,1,62,0,0
32235,-111.111111111111,4,2,2,62,0,0
32715,-111.111111111111,4,2,1,62,0,0
34635,-90.9090909090909,4,2,1,62,0,0
35355,-83.3333333333333,4,2,1,62,0,0
36075,-133.333333333333,4,2,1,50,0,0
36555,-100,4,2,1,64,0,0
39915,-100,4,2,2,64,0,0
40395,-100,4,2,1,64,0,0
42315,-76.9230769230769,4,2,1,64,0,0
43455,-76.9230769230769,4,2,1,46,0,0
43515,-76.9230769230769,4,2,2,64,0,0
43995,-76.9230769230769,4,2,3,64,0,0
44235,-100,4,2,1,64,0,0
47595,-100,4,2,2,64,0,0
48075,-100,4,2,1,62,0,0
49995,-76.9230769230769,4,2,1,67,0,0
50895,-76.9230769230769,4,2,1,40,0,0
50955,-166.666666666667,4,2,1,54,0,0
51075,-166.666666666667,4,2,1,20,0,0
51915,-200,4,2,3,30,0,0
59595,-133.333333333333,4,2,2,50,0,0
62955,-133.333333333333,4,2,2,52,0,0
63435,-111.111111111111,4,2,1,55,0,0
65355,-100,4,2,1,60,0,0
66795,-100,4,2,2,60,0,0
69195,-200,4,2,1,35,0,0
69435,-200,4,2,1,25,0,0
69675,-200,4,2,1,35,0,0
70395,-200,4,2,1,25,0,0
70635,-200,4,2,1,35,0,0
71355,-200,4,2,1,25,0,0
71835,-200,4,2,1,35,0,0
73275,-200,4,2,1,25,0,0
73515,-200,4,2,1,35,0,0
75195,-200,4,2,1,25,0,0
75435,-200,4,2,1,35,0,0
75675,-181.818181818182,4,2,1,35,0,0
75915,-166.666666666666,4,2,1,40,0,0
76875,-133.333333333333,4,2,2,52,0,0
82635,-133.333333333333,4,2,2,54,0,0
83115,-133.333333333333,4,2,2,58,0,0
83595,-133.333333333333,4,2,1,60,0,0
84075,-133.333333333333,4,2,1,30,0,0
84555,-83.3333333333333,4,2,1,72,0,1
87915,-83.3333333333333,4,2,2,72,0,1
88395,-83.3333333333333,4,2,1,72,0,1
90315,-83.3333333333333,4,2,2,60,0,0
91755,-83.3333333333333,4,2,2,65,0,0
92235,-83.3333333333333,4,2,1,72,0,1
95595,-83.3333333333333,4,2,2,72,0,1
96075,-83.3333333333333,4,2,1,72,0,1
99675,-83.3333333333333,4,2,2,65,0,0
99915,-200,4,2,1,65,0,0
100395,-200,4,2,1,40,0,0
101835,-172.413793103448,4,2,1,50,0,0
102075,-172.413793103448,4,2,1,20,0,0
102795,-172.413793103448,4,2,3,22,0,0
103395,-133.333333333333,4,2,1,50,0,0
103755,-83.3333333333333,4,2,1,70,0,0
106815,-83.3333333333333,4,2,1,50,0,0
106875,-83.3333333333333,4,2,1,70,0,0
107115,-83.3333333333333,4,2,2,70,0,0
107595,-83.3333333333333,4,2,1,70,0,0
109275,-100,4,2,1,70,0,0
109455,-100,4,2,1,50,0,0
109515,-66.6666666666667,4,2,1,70,0,0
110715,-66.6666666666667,4,2,2,70,0,0
111195,-66.6666666666667,4,2,3,70,0,0
111435,-83.3333333333333,4,2,1,70,0,0
114795,-83.3333333333333,4,2,2,70,0,0
115275,-83.3333333333333,4,2,1,70,0,0
117195,-66.6666666666667,4,2,1,70,0,0
118335,-66.6666666666667,4,2,1,50,0,0
118395,-66.6666666666667,4,2,1,70,0,0
118515,-66.6666666666667,4,2,2,70,0,0
118755,-66.6666666666667,4,2,1,70,0,0
118875,-66.6666666666667,4,2,2,70,0,0
119115,-66.6666666666667,4,2,2,65,0,0
120075,-100,4,2,2,64,0,0
120155,-100,4,2,1,5,0,0
120235,-111.111111111111,4,2,2,62,0,0
120315,-100,4,2,1,5,0,0
120395,-125,4,2,2,60,0,0
120475,-100,4,2,1,5,0,0
120555,-142.857142857143,4,2,2,57,0,0
120635,-100,4,2,1,5,0,0
120715,-166.666666666667,4,2,2,54,0,0
120795,-100,4,2,1,5,0,0
120875,-200,4,2,2,50,0,0
120955,-100,4,2,1,5,0,0
121035,-133.333333333333,4,2,1,55,0,0
121155,-133.333333333333,4,2,1,30,0,0
122475,-133.333333333333,4,2,2,55,0,0
122955,-181.818181818182,4,2,1,50,0,0
123195,-181.818181818182,4,2,1,30,0,0
124635,-181.818181818182,4,2,1,40,0,0
124875,-153.846153846154,4,2,1,52,0,0
125115,-153.846153846154,4,2,1,30,0,0
126195,-153.846153846154,4,2,1,40,0,0
126315,-133.333333333333,4,2,1,48,0,0
126375,-133.333333333333,4,2,1,30,0,0
126675,-133.333333333333,4,2,1,42,0,0
126795,-111.111111111111,4,2,1,62,0,0
128715,-90.9090909090909,4,2,1,62,0,0
130155,-90.9090909090909,4,2,2,62,0,0
130635,-111.111111111111,4,2,1,62,0,0
133995,-111.111111111111,4,2,2,62,0,0
134475,-111.111111111111,4,2,1,62,0,0
136395,-90.9090909090909,4,2,1,62,0,0
137115,-83.3333333333333,4,2,1,62,0,0
137835,-133.333333333333,4,2,1,50,0,0
138315,-100,4,2,1,64,0,0
141675,-100,4,2,2,64,0,0
142155,-100,4,2,1,64,0,0
144075,-76.9230769230769,4,2,1,64,0,0
145215,-76.9230769230769,4,2,1,46,0,0
145275,-76.9230769230769,4,2,2,64,0,0
145755,-76.9230769230769,4,2,3,64,0,0
145995,-100,4,2,1,64,0,0
149355,-100,4,2,2,64,0,0
149835,-100,4,2,1,62,0,0
151755,-76.9230769230769,4,2,1,67,0,0
152655,-76.9230769230769,4,2,1,40,0,0
152715,-166.666666666667,4,2,1,54,0,0
152835,-166.666666666667,4,2,1,20,0,0
153675,-166.666666666667,4,2,3,30,0,0
161355,-133.333333333333,4,2,2,50,0,0
164715,-133.333333333333,4,2,2,52,0,0
165195,-111.111111111111,4,2,1,55,0,0
167115,-100,4,2,1,60,0,0
168555,-100,4,2,2,60,0,0
170955,-200,4,2,1,35,0,0
171195,-200,4,2,1,25,0,0
171435,-200,4,2,1,35,0,0
172155,-200,4,2,1,25,0,0
172395,-200,4,2,1,35,0,0
173115,-200,4,2,1,25,0,0
173595,-200,4,2,1,35,0,0
175035,-200,4,2,1,25,0,0
175275,-200,4,2,1,35,0,0
176955,-200,4,2,1,25,0,0
177195,-200,4,2,1,35,0,0
177435,-181.818181818182,4,2,1,35,0,0
177675,-166.666666666666,4,2,1,40,0,0
178635,-133.333333333333,4,2,2,52,0,0
184395,-133.333333333333,4,2,2,54,0,0
184875,-133.333333333333,4,2,2,58,0,0
185355,-133.333333333333,4,2,1,60,0,0
185835,-133.333333333333,4,2,1,30,0,0
186315,-83.3333333333333,4,2,1,72,0,1
189675,-83.3333333333333,4,2,2,72,0,1
190155,-83.3333333333333,4,2,1,72,0,1
192075,-83.3333333333333,4,2,2,60,0,0
193515,-83.3333333333333,4,2,2,65,0,0
193995,-83.3333333333333,4,2,1,72,0,1
197355,-83.3333333333333,4,2,2,72,0,1
197835,-83.3333333333333,4,2,1,72,0,1
201435,-83.3333333333333,4,2,2,65,0,0
201675,-83.3333333333333,4,2,1,65,0,0
202155,-83.3333333333333,4,2,1,40,0,0
203595,-172.413793103448,4,2,1,50,0,0
203835,-172.413793103448,4,2,1,20,0,0
204555,-172.413793103448,4,2,3,22,0,0
204975,-172.413793103448,4,2,1,50,0,0
205035,-142.857142857143,4,2,1,50,0,0
205275,-142.857142857143,4,2,1,20,0,0
205395,-142.857142857143,4,2,1,30,0,0
205515,-76.9230769230769,4,2,2,72,0,0
205635,-76.9230769230769,4,2,1,72,0,0
207615,-76.9230769230769,4,2,1,50,0,0
207675,-76.9230769230769,4,2,1,72,0,0
208875,-76.9230769230769,4,2,2,72,0,0
209355,-76.9230769230769,4,2,1,72,0,0
212415,-76.9230769230769,4,2,1,50,0,0
212475,-76.9230769230769,4,2,2,72,0,0
212955,-76.9230769230769,4,2,3,72,0,0
213195,-76.9230769230769,4,2,2,72,0,0
213375,-76.9230769230769,4,2,1,50,0,0
213435,-76.9230769230769,4,2,1,72,0,0
214335,-76.9230769230769,4,2,1,50,0,0
214395,-76.9230769230769,4,2,1,72,0,0
215055,-76.9230769230769,4,2,1,50,0,0
215115,-76.9230769230769,4,2,1,72,0,0
216015,-76.9230769230769,4,2,1,50,0,0
216075,-76.9230769230769,4,2,1,72,0,0
216555,-76.9230769230769,4,2,2,72,0,0
217035,-76.9230769230769,4,2,1,72,0,0
217515,-76.9230769230769,4,2,1,73,0,0
217995,-76.9230769230769,4,2,1,74,0,0
218475,-76.9230769230769,4,2,1,75,0,0
218955,-71.4285714285714,4,2,1,74,0,0
220395,-71.4285714285714,4,2,2,74,0,0
220875,-111.111111111111,4,2,1,60,0,0
220995,-111.111111111111,4,2,1,20,0,0
221595,-111.111111111111,4,2,1,40,0,0
221835,-111.111111111111,4,2,1,50,0,0
221955,-111.111111111111,4,2,1,20,0,0
222795,-111.111111111111,4,2,3,40,0,0
230475,-166.666666666667,4,2,2,40,0,0
230715,-166.666666666667,4,2,2,30,0,0
230955,-166.666666666667,4,2,2,40,0,0
231195,-166.666666666667,4,2,2,30,0,0
231435,-166.666666666667,4,2,2,40,0,0
231675,-166.666666666667,4,2,2,30,0,0
231915,-166.666666666667,4,2,2,40,0,0
232155,-166.666666666667,4,2,2,30,0,0
232395,-142.857142857143,4,2,2,45,0,0
232635,-142.857142857143,4,2,2,30,0,0
232875,-142.857142857143,4,2,2,45,0,0
233115,-142.857142857143,4,2,2,30,0,0
233355,-142.857142857143,4,2,2,45,0,0
233595,-142.857142857143,4,2,2,30,0,0
233835,-142.857142857143,4,2,2,48,0,0
234075,-142.857142857143,4,2,2,52,0,0
234315,-111.111111111111,4,2,1,58,0,0
236235,-100,4,2,1,62,0,0
236955,-90.9090909090909,4,2,1,62,0,0
237135,-90.9090909090909,4,2,1,30,0,0
237195,-200,4,2,1,50,0,0
237315,-200,4,2,1,5,0,0
238155,-200,4,2,3,14,0,0
241035,-250,4,2,1,24,0,0
241275,-250,4,2,1,15,0,0
241515,-200,4,2,1,30,0,0
241995,-200,4,2,3,36,0,0
242475,-76.9230769230769,4,2,1,74,0,1
245355,-76.9230769230769,4,2,2,74,0,1
245835,-76.9230769230769,4,2,1,74,0,1
247755,-76.9230769230769,4,2,2,60,0,0
249195,-76.9230769230769,4,2,2,65,0,0
249675,-76.9230769230769,4,2,1,74,0,1
253035,-76.9230769230769,4,2,2,74,0,1
253515,-76.9230769230769,4,2,1,74,0,1
257115,-76.9230769230769,4,2,2,67,0,0
257355,-83.3333333333333,4,2,1,65,0,0
257835,-83.3333333333333,4,2,1,40,0,0
259275,-147.058823529412,4,2,1,50,0,0
259515,-147.058823529412,4,2,1,20,0,0
260235,-147.058823529412,4,2,3,22,0,0
261195,-90.9090909090909,4,2,1,67,0,0
264255,-90.9090909090909,4,2,1,50,0,0
264315,-90.9090909090909,4,2,1,67,0,0
264555,-90.9090909090909,4,2,2,67,0,0
265035,-90.9090909090909,4,2,1,67,0,0
266955,-76.9230769230769,4,2,1,67,0,0
268155,-76.9230769230769,4,2,2,67,0,0
268635,-76.9230769230769,4,2,3,67,0,0
268875,-90.9090909090909,4,2,1,68,0,0
272235,-90.9090909090909,4,2,2,68,0,0
272715,-90.9090909090909,4,2,1,68,0,0
274635,-71.4285714285714,4,2,1,68,0,0
274995,265.486725663717,4,2,1,70,1,0
274995,-71.4285714285714,4,2,1,70,0,0
275260,312.5,4,2,1,65,1,0
275416,600,4,2,1,65,1,0
275716,588.235294117647,4,2,1,58,1,0
276304,609.137055837563,4,2,1,46,1,0
276913,600,4,2,3,35,1,0
276913,-166.666666666667,4,2,3,35,0,0
276988,-166.666666666667,4,2,3,25,0,0
281113,-166.666666666667,4,2,3,22,0,0
281413,-166.666666666667,4,2,3,20,0,0
281713,-166.666666666667,4,2,3,23,0,0
282913,-181.818181818182,4,2,3,22,0,0
283213,-181.818181818182,4,2,3,18,0,0
283513,-200,4,2,3,20,0,0
283813,-200,4,2,3,16,0,0
284113,-222.222222222222,4,2,3,18,0,0
284713,-222.222222222222,4,2,3,5,0,0
285013,-222.222222222222,4,2,3,12,0,0
285313,-250,4,2,3,15,0,0
285913,-250,4,2,3,5,0,0
286513,-250,4,2,3,10,0,0

[Colours]
Combo1 : 240,140,140
Combo2 : 200,180,220
Combo3 : 240,200,155
Combo4 : 150,185,220

[HitObjects]
303,208,1635,6,0,L|294:285,2,67.5000025749208
473,49,1995,6,0,P|508:106|501:256,1,215.999993408203,12|8,1:3|2:0,0:1:0:0:
193,85,2355,2,0,B|329:55|277:129|414:107,1,215.999993408203,2|0,1:2|1:0,0:1:0:0:
155,274,2715,2,0,P|144:206|158:162,1,107.999996704102,10|0,1:2|0:0,0:1:0:0:
68,97,2955,6,0,P|33:154|40:304,1,215.999993408203,2|8,1:2|2:2,0:2:0:0:
408,382,3315,2,0,P|423:277|378:181,1,215.999993408203,2|0,1:2|1:2,0:2:0:0:
192,301,3675,2,0,P|256:304|319:275,1,107.999996704102,10|0,1:2|0:2,0:2:0:0:
335,65,3915,6,0,P|428:44|503:134,1,215.999993408203,6|8,1:2|2:2,2:2:0:0:
178,46,4275,2,0,P|85:25|10:115,1,215.999993408203,2|0,1:2|1:2,0:2:0:0:
278,187,4635,2,0,P|291:212|291:312,1,107.999996704102,10|0,1:2|0:2,0:2:0:0:
118,384,4875,2,0,P|103:352|111:220,1,161.999995056153,2|0,1:2|0:2,0:2:0:0:
44,186,5115,6,0,L|166:163,1,107.999996704102,12|0,1:2|0:2,0:2:0:0:
150,165,5295,1,0,1:2:0:0:
150,165,5355,1,8,1:3:0:0:
297,290,5475,1,8,1:3:0:0:
457,201,5595,1,4,1:3:0:0:
310,76,5715,1,4,1:3:0:0:
472,201,5835,6,0,B|534:271|498:358|498:358|439:398,1,215.999993408203,6|8,1:2|2:2,0:2:0:0:
158,174,6195,2,0,B|96:244|132:331|132:331|170:357,1,215.999993408203,2|0,1:2|1:2,0:2:0:0:
269,160,6555,2,0,P|318:167|379:135,1,107.999996704102,10|0,1:2|0:2,0:2:0:0:
82,49,6795,6,0,P|158:17|308:48,1,215.999993408203,2|8,1:2|2:2,0:2:0:0:
140,336,7155,2,0,P|244:357|345:322,1,215.999993408203,2|0,1:2|1:2,0:2:0:0:
145,178,7515,2,0,P|204:147|270:160,1,135,10|0,1:2|0:2,0:2:0:0:
337,195,7755,6,0,B|417:218|417:218|409:123|409:123|435:34,1,270.000010299683,6|8,1:2|2:2,0:1:0:0:
136,188,8115,2,0,B|56:165|56:165|64:260|64:260|38:349,1,270.000010299683,6|0,1:2|1:2,0:2:0:0:
358,300,8475,2,0,B|410:285|410:285|425:261|425:261|488:241,1,135.000005149842,14|0,1:2|0:2,0:2:0:0:
222,92,8715,2,0,B|148:70|148:70|127:37|127:37|39:8,1,202.500007724762,6|0,1:2|0:2,0:2:0:0:
25,45,8955,5,8,1:3:0:0:
161,24,9075,1,8,1:3:0:0:
28,162,9195,1,4,1:3:0:0:
204,121,9315,1,4,1:3:0:0:
24,275,9435,1,8,1:3:0:0:
244,241,9555,1,8,1:3:0:0:
387,330,9675,6,0,P|467:329|498:203,1,215.999993408203,12|8,1:3|2:2,0:2:0:0:
200,265,10035,2,0,P|217:364|317:380,1,215.999993408203,2|0,1:2|1:2,0:2:0:0:
330,169,10395,2,0,B|319:135|319:135|324:110|324:110|310:50,1,107.999996704102,10|0,1:2|0:2,0:2:0:0:
111,139,10635,6,0,P|128:40|228:24,1,215.999993408203,2|8,1:2|2:2,0:2:0:0:
512,153,10995,2,0,P|495:54|395:38,1,215.999993408203,2|0,1:2|1:2,0:2:0:0:
343,195,11355,2,0,B|332:229|332:229|337:254|337:254|323:314,1,107.999996704102,8|0,1:2|0:2,0:2:0:0:
180,375,11595,6,0,B|54:365|129:280|-12:271,1,215.999993408203,6|8,1:2|2:2,0:2:0:0:
257,209,11955,2,0,B|383:199|308:114|449:105,1,215.999993408203,2|0,1:2|1:2,0:2:0:0:
169,40,12315,6,0,P|213:13|278:10,1,107.999996704102,10|0,1:2|0:2,0:2:0:0:
158,302,12555,2,0,P|112:277|77:222,1,107.999996704102,0|0,1:2|0:2,0:2:0:0:
395,180,12795,2,0,P|396:231|366:289,1,107.999996704102,12|0,1:2|0:2,0:2:0:0:
372,281,12975,1,0,1:2:0:0:
372,281,13035,1,8,1:3:0:0:
225,183,13155,1,8,1:3:0:0:
308,101,13275,1,4,1:3:0:0:
288,373,13395,1,4,1:3:0:0:
131,179,13515,6,0,P|66:191|33:344,1,215.999993408203,6|8,1:2|2:2,2:2:0:0:
492,319,13875,2,0,P|476:217|381:179,1,215.999993408203,2|0,1:2|1:2,0:2:0:0:
204,305,14235,2,0,P|250:292|325:305,1,107.999996704102,10|0,1:2|0:2,0:2:0:0:
93,90,14475,6,0,B|217:55|166:152|313:115,1,215.999993408203,2|8,1:2|2:2,0:2:0:0:
356,63,14835,1,0,1:2:0:0:
458,136,14955,2,0,B|474:189|474:189|458:239,1,107.999996704102,2|0,0:2|1:2,0:2:0:0:
204,201,15195,2,0,B|188:251|188:251|204:304,1,107.999996704102,8|0,1:2|0:2,0:2:0:0:
507,365,15435,6,0,B|430:313|356:380|356:380|289:348|313:282,1,270.000010299683,6|8,1:2|2:2,0:2:0:0:
118,37,15795,2,0,B|195:89|269:22|269:22|336:54|312:120,1,270.000010299683,6|0,1:2|1:2,0:2:0:0:
173,221,16155,2,0,P|110:199|29:216,1,135.000005149842,14|0,1:2|0:2,0:2:0:0:
271,360,16395,2,0,P|334:382|400:268,1,202.500007724762,6|0,1:2|0:2,0:2:0:0:
392,215,16635,5,8,1:2:0:0:
290,148,16755,1,8,1:3:0:0:
322,30,16875,1,8,0:3:0:0:
443,24,16995,1,8,0:2:0:0:
487,138,17115,1,8,0:3:0:0:
290,148,17355,5,8,2:2:0:0:
392,215,17475,1,8,2:2:0:0:
487,138,17595,1,8,2:2:0:0:
443,24,17715,1,8,2:2:0:0:
290,148,17955,5,8,0:2:0:0:
322,30,18075,1,8,0:2:0:0:
443,24,18195,1,8,0:2:0:0:
490,152,18315,6,0,P|495:173|482:216,1,60,14|0,3:2|0:2,0:2:0:0:
383,262,18475,6,0,P|376:282|347:311,1,53.9999983520508,8|0,3:3|0:2,0:2:0:0:
246,315,18635,6,0,P|230:329|182:336,1,48,4|0,3:3|0:2,0:2:0:0:
109,300,18795,6,0,P|88:286|75:266,1,41.9999987182618,10|0,3:2|0:2,0:2:0:0:
13,216,18955,6,0,P|8:191|12:167,1,35.9999989013672,8|0,3:3|0:2,0:2:0:0:
5,106,19115,6,0,P|19:85|34:74,1,30,4|0,3:3|0:2,0:2:0:0:
87,25,19275,6,0,B|155:9|201:76|201:76|183:153|240:210|316:210|372:152|372:152|321:287|422:364|422:364|511:278|465:190,1,810.000030899049,6|8,1:2|1:2,0:2:0:0:
512,195,21195,6,0,B|413:167|455:230|354:202,1,161.999995056153,12|8,1:3|2:2,0:2:0:0:
284,167,21555,1,2,2:2:0:0:
249,238,21675,1,0,1:2:0:0:
320,273,21795,1,0,1:2:0:0:
183,284,21915,2,0,P|118:303|80:393,2,161.999995056153,10|0|10,2:2|1:2|2:2,0:2:0:0:
127,163,22515,1,0,1:2:0:0:
77,224,22635,2,0,P|32:221|-7:203,1,80.9999975280763,2|0,1:2|1:2,0:2:0:0:
95,90,22875,2,0,P|103:49|128:15,1,80.9999975280763,10|0,2:2|0:2,0:2:0:0:
208,160,23115,6,0,B|307:157|256:112|356:107,1,161.999995056153,6|8,1:2|0:2,0:2:0:0:
298,233,23475,2,0,P|317:296|432:299,1,161.999995056153,2|0,1:2|1:2,0:2:0:0:
506,176,23835,2,0,P|510:217|494:260,1,80.9999975280763,10|0,0:2|0:2,0:2:0:0:
355,107,24075,2,0,P|384:97|441:104,1,80.9999975280763,0|0,1:2|0:2,0:2:0:0:
376,240,24315,2,0,P|335:243|297:232,1,80.9999975280763,8|0,0:2|0:2,0:2:0:0:
297,232,24495,1,0,1:2:0:0:
297,232,24555,1,8,1:3:0:0:
219,134,24675,1,8,1:3:0:0:
126,230,24795,1,4,1:3:0:0:
204,328,24915,1,4,1:3:0:0:
113,217,25035,6,0,P|36:229|8:301,1,161.999995056153,6|8,1:2|0:2,0:2:0:0:
127,380,25395,1,2,1:2:0:0:
127,380,25515,2,0,P|87:373|46:374,1,80.9999975280763,0|0,1:2|1:2,0:2:0:0:
249,305,25755,2,0,P|209:298|168:299,1,80.9999975280763,10|0,0:2|0:2,0:2:0:0:
308,229,25995,2,0,B|409:213|375:260|473:242,1,161.999995056153,2|10,1:2|0:2,0:2:0:0:
466,243,26355,1,0,1:2:0:0:
404,147,26475,2,0,P|412:114|394:57,1,80.9999975280763,2|0,0:2|1:2,0:2:0:0:
292,84,26715,2,0,P|282:51|238:11,1,80.9999975280763,10|0,0:2|0:2,0:2:0:0:
127,82,26955,6,0,P|40:119|29:212,1,198.000006042481,6|8,1:2|0:2,0:2:0:0:
315,167,27315,2,0,P|401:204|412:297,1,198.000006042481,6|0,1:2|1:2,0:2:0:0:
130,383,27675,2,0,B|116:335|116:335|133:290,1,99.0000030212403,14|0,1:2|0:2,0:2:0:0:
297,341,27915,2,0,B|311:293|311:293|294:248,1,99.0000030212403,4|0,1:2|0:2,0:2:0:0:
166,122,28155,5,8,1:2:0:0:
140,297,28275,1,0,1:2:0:0:
140,297,28335,1,0,1:2:0:0:
140,297,28395,1,8,1:3:0:0:
235,191,28515,1,8,1:3:0:0:
58,238,28635,1,4,1:3:0:0:
97,53,28755,1,4,1:3:0:0:
247,205,28875,6,0,P|324:201|364:135,1,161.999995056153,12|8,1:3|2:2,0:2:0:0:
362,54,29235,1,2,0:2:0:0:
429,10,29355,1,0,1:2:0:0:
432,90,29475,1,0,1:2:0:0:
289,16,29595,2,0,P|217:16|171:92,2,161.999995056153,10|0|10,0:2|1:2|0:2,0:2:0:0:
364,135,30195,1,0,1:2:0:0:
435,172,30315,2,0,P|440:201|424:267,1,80.9999975280763,2|0,1:2|1:2,0:2:0:0:
347,335,30555,2,0,L|237:312,1,80.9999975280763,10|0,0:2|0:2,0:2:0:0:
152,384,30795,6,0,B|185:300|123:312|162:216,1,161.999995056153,6|8,1:2|0:2,0:2:0:0:
329,201,31155,2,0,P|301:273|221:264,1,161.999995056153,2|0,1:2|1:2,0:2:0:0:
188,149,31515,2,0,P|147:146|109:159,1,80.9999975280763,10|0,0:2|0:2,0:2:0:0:
179,15,31755,2,0,P|196:51|226:77,1,80.9999975280763,0|0,1:2|0:2,0:2:0:0:
68,90,31995,2,0,P|90:56|98:17,1,80.9999975280763,12|0,0:2|0:2,0:2:0:0:
98,17,32175,1,0,1:2:0:0:
98,17,32235,1,8,1:3:0:0:
188,149,32355,1,8,1:3:0:0:
227,78,32475,1,4,1:3:0:0:
68,90,32595,1,4,1:3:0:0:
242,72,32715,6,0,P|320:77|373:136,1,161.999995056153,6|8,1:2|2:2,0:2:0:0:
424,255,33075,1,2,0:2:0:0:
424,255,33195,2,0,P|471:246|537:255,1,80.9999975280763,0|0,1:2|1:2,0:2:0:0:
392,384,33435,2,0,P|439:375|505:384,1,80.9999975280763,10|0,0:2|0:2,0:2:0:0:
322,294,33675,2,0,B|232:295|276:242|170:245,1,161.999995056153,2|8,1:2|0:2,0:2:0:0:
266,144,34035,1,2,1:2:0:0:
266,144,34155,2,0,P|277:109|268:48,1,80.9999975280763,0|0,2:2|1:2,0:2:0:0:
142,9,34395,2,0,P|131:44|140:105,1,80.9999975280763,10|0,0:2|0:2,0:2:0:0:
365,77,34635,6,0,P|422:80|467:222,1,198.000006042481,6|8,1:2|0:2,0:2:0:0:
133,116,34995,2,0,P|76:119|31:261,1,198.000006042481,6|0,1:2|1:2,0:2:0:0:
256,384,35355,6,0,B|277:272|212:297|246:171,1,215.999993408203,14|4,0:2|1:1,0:2:0:0:
246,173,36075,6,0,P|268:236|245:314,1,135.000005149842,14|0,0:2|0:2,0:2:0:0:
169,337,36555,6,0,B|63:333|114:386|0:381,1,180,12|8,1:3|0:2,0:2:0:0:
105,257,36915,1,2,0:2:0:0:
143,175,37035,1,0,1:2:0:0:
114,89,37155,1,0,1:2:0:0:
230,168,37275,2,0,P|284:183|390:104,2,180,10|0|10,0:2|1:2|0:2,0:2:0:0:
114,89,37875,1,0,1:2:0:0:
41,142,37995,2,0,P|28:170|22:243,1,90,2|0,0:2|1:2,0:2:0:0:
143,328,38235,5,10,2:2:0:0:
143,328,38355,1,2,0:2:0:0:
289,284,38475,6,0,P|376:289|431:366,1,180,6|8,1:2|0:2,0:2:0:0:
173,235,38835,2,0,P|86:240|31:317,1,180,2|0,1:2|1:2,2:2:0:0:
256,209,39195,2,0,P|270:156|249:98,1,90,10|0,0:2|0:2,0:2:0:0:
166,24,39435,2,0,P|152:66|158:110,1,90,2|0,1:2|0:2,0:2:0:0:
366,110,39675,2,0,P|372:65|358:23,1,90,12|0,0:2|0:2,0:2:0:0:
358,23,39855,1,0,1:2:0:0:
358,23,39915,1,8,1:3:0:0:
263,122,40035,1,8,1:3:0:0:
396,191,40155,1,4,1:3:0:0:
491,92,40275,1,4,1:3:0:0:
256,135,40395,6,0,B|159:121|204:75|97:60,1,180,6|8,1:2|0:2,0:2:0:0:
177,201,40755,1,2,0:2:0:0:
81,269,40875,2,0,P|77:224|86:180,1,90,0|0,1:2|1:2,0:2:0:0:
220,296,41115,2,0,P|223:340|214:384,1,90,10|0,0:2|0:2,0:2:0:0:
349,305,41355,2,0,B|450:291|401:245|507:230,1,180,2|8,1:2|0:2,0:2:0:0:
507,230,41715,1,0,1:2:0:0:
435,145,41835,2,0,P|444:101|440:56,1,90,2|0,0:2|1:2,0:2:0:0:
326,100,42075,2,0,P|312:57|286:20,1,90,10|0,0:2|0:2,0:2:0:0:
170,92,42315,6,0,P|101:94|65:260,1,233.999989288331,6|8,1:2|0:2,0:2:0:0:
258,146,42675,2,0,P|365:173|385:283,1,233.999989288331,6|0,1:2|1:2,0:2:0:0:
160,351,43035,2,0,P|145:296|160:240,1,116.999994644165,14|0,0:2|0:2,0:2:0:0:
397,295,43275,2,0,P|404:209|349:144,1,175.499991966248,6|0,1:2|0:2,0:2:0:0:
279,111,43515,5,8,1:3:0:0:
397,69,43635,1,8,1:3:0:0:
491,151,43755,1,4,1:3:0:0:
466,274,43875,1,4,1:3:0:0:
348,315,43995,1,8,1:3:0:0:
253,233,44115,1,8,1:3:0:0:
375,154,44235,6,0,P|451:146|479:42,1,180,12|8,0:3|0:2,0:2:0:0:
341,0,44595,1,2,0:2:0:0:
320,87,44715,1,0,1:2:0:0:
234,112,44835,1,0,1:2:0:0:
125,28,44955,2,0,P|49:36|21:140,2,180,8|0|10,0:2|1:2|0:2,0:2:0:0:
234,112,45555,1,0,1:2:0:0:
179,183,45675,2,0,P|139:175|89:175,1,90,2|0,0:2|1:2,0:2:0:0:
0,272,45915,5,10,0:2:0:0:
0,272,46035,1,2,0:2:0:0:
110,368,46155,6,0,B|225:358|155:316|278:312,1,180,6|8,1:2|0:2,0:2:0:0:
512,306,46515,2,0,B|397:296|467:254|344:250,1,180,2|0,1:2|1:2,0:2:0:0:
450,173,46875,2,0,P|454:128|436:86,1,90,10|0,0:2|0:2,0:2:0:0:
275,312,47115,2,0,P|311:338|356:343,1,90,2|0,1:2|0:2,0:2:0:0:
242,90,47355,2,0,P|201:108|173:144,1,90,12|0,0:2|0:2,0:2:0:0:
173,142,47535,1,0,1:2:0:0:
173,142,47595,1,8,1:3:0:0:
287,192,47715,1,8,1:3:0:0:
168,348,47835,1,4,1:3:0:0:
275,312,47955,1,4,1:3:0:0:
73,231,48075,6,0,P|47:146|88:68,1,180,6|8,1:2|0:2,0:2:0:0:
188,232,48435,1,2,0:2:0:0:
188,232,48555,2,0,P|233:235|275:220,1,90,0|0,1:2|1:2,0:2:0:0:
295,22,48795,2,0,P|250:19|208:34,1,90,10|0,0:2|0:2,0:2:0:0:
351,143,49035,2,0,P|409:199|388:300,1,180,2|10,1:2|0:2,0:2:0:0:
395,290,49395,1,0,1:2:0:0:
258,365,49515,2,0,B|295:359|295:359|307:366|307:366|356:360,1,90,2|0,0:2|1:2,0:2:0:0:
175,276,49755,5,10,0:2:0:0:
123,379,49875,1,2,0:2:0:0:
17,260,49995,6,0,P|28:193|156:97,1,233.999989288331,6|8,1:2|0:2,0:2:0:0:
482,206,50355,2,0,P|471:139|343:43,1,233.999989288331,6|0,1:2|1:2,0:2:0:0:
272,215,50715,2,0,P|272:122|232:38,1,175.499991966248,14|0,0:2|0:2,0:2:0:0:
224,26,50955,6,0,B|152:17|126:96|126:96|150:134|147:172|147:172|152:177|152:177|151:206|174:251|174:251|128:323|61:298,1,431.999986816407,4|4,1:2|0:2,0:2:0:0:
271,106,59595,6,0,P|217:104|119:90,1,135.000005149842,6|0,1:2|0:2,0:2:0:0:
241,278,60075,2,0,P|295:280|393:294,1,135.000005149842,10|0,0:2|0:2,0:2:0:0:
436,333,60435,1,0,1:2:0:0:
495,288,60555,1,2,0:2:0:0:
470,218,60675,1,8,0:2:0:0:
395,220,60795,1,0,1:2:0:0:
344,47,61035,2,0,P|398:45|496:31,1,135.000005149842,10|0,0:2|0:2,0:2:0:0:
271,144,61515,6,0,P|269:90|255:-8,1,135.000005149842,2|0,0:2|1:2,0:2:0:0:
241,239,61995,2,0,P|244:307|253:374,1,135.000005149842,10|0,0:2|0:2,0:2:0:0:
319,295,62355,1,0,1:2:0:0:
388,328,62475,1,2,0:2:0:0:
435,266,62595,1,8,0:2:0:0:
366,233,62715,1,0,1:2:0:0:
214,134,62955,5,8,0:2:0:0:
131,173,63075,1,8,0:2:0:0:
74,99,63195,1,8,0:3:0:0:
157,59,63315,1,8,0:3:0:0:
225,144,63435,6,0,P|286:155|386:92,1,161.999995056153,6|8,1:2|2:2,0:2:0:0:
425,52,63795,1,0,0:2:0:0:
403,192,63915,2,0,P|443:180|510:175,1,80.9999975280763,0|0,1:2|0:2,0:2:0:0:
345,35,64155,5,8,0:2:0:0:
345,35,64275,1,0,0:2:0:0:
250,104,64395,2,0,P|189:115|89:52,1,161.999995056153,2|8,1:2|0:2,0:2:0:0:
262,205,64755,2,0,P|323:194|423:257,1,161.999995056153,2|0,1:2|1:2,0:2:0:0:
262,374,65115,2,0,L|238:275,1,80.9999975280763,10|0,0:2|0:2,0:2:0:0:
11,274,65355,6,0,P|78:223|176:236,1,180,6|8,1:2|0:2,0:2:0:0:
401,336,65715,2,0,P|333:285|236:298,1,180,0|0,1:2|1:2,0:2:0:0:
388,162,66075,2,0,P|400:116|389:57,1,90,8|0,0:2|0:2,0:2:0:0:
256,0,66315,2,0,L|256:96,1,90,2|0,1:2|0:2,0:2:0:0:
123,161,66555,2,0,P|112:118|116:74,1,90,12|0,0:2|0:2,0:2:0:0:
116,73,66735,1,0,1:2:0:0:
116,73,66795,1,8,1:3:0:0:
256,192,66915,1,8,1:3:0:0:
103,258,67035,1,4,1:3:0:0:
232,312,67155,1,4,1:3:0:0:
160,384,67275,1,4,1:2:0:0:
377,307,69195,6,0,P|429:321|493:216,1,180,2|0,0:2|0:2,0:2:0:0:
412,188,69915,1,0,0:2:0:0:
325,224,70155,2,0,P|286:268|316:389,1,180,2|0,0:2|0:2,0:2:0:0:
412,188,71115,2,0,B|370:108|296:148|305:126|222:157|192:65,1,270,2|0,0:2|0:2,0:2:0:0:
138,0,72075,5,2,0:2:0:0:
177,70,72315,1,0,0:2:0:0:
153,147,72555,1,0,0:2:0:0:
72,215,72795,5,0,0:2:0:0:
72,215,72915,1,0,0:2:0:0:
131,269,73035,2,0,B|178:308|242:278|242:278|246:245|279:218,1,180,2|0,0:2|0:2,0:2:0:0:
224,336,73755,1,0,0:2:0:0:
271,225,73995,2,0,P|310:202|367:205,1,90,2|0,0:2|0:2,0:2:0:0:
217,354,74475,2,0,P|172:352|134:329,1,90,0|0,0:2|0:2,0:2:0:0:
63,199,74955,2,0,B|91:136|63:112|34:89|69:18,1,180,2|0,0:2|0:2,0:2:0:0:
169,167,75675,2,0,P|201:163|228:142,1,49.5000015106202,0|0,0:2|0:2,0:2:0:0:
300,86,75915,6,0,P|353:88|401:112,1,107.999996704102,2|0,0:2|0:2,0:2:0:0:
269,239,76395,2,0,P|316:263|370:265,1,107.999996704102,2|0,0:2|0:2,0:2:0:0:
441,304,76875,6,0,P|365:310|301:322,1,135.000005149842,6|0,1:2|0:2,0:2:0:0:
71,80,77355,2,0,P|147:74|211:62,1,135.000005149842,8|0,0:2|0:2,0:2:0:0:
273,20,77715,1,0,1:2:0:0:
229,178,77955,1,8,0:2:0:0:
229,178,78075,1,0,1:2:0:0:
307,320,78315,2,0,P|374:315|440:303,1,135.000005149842,8|0,0:2|0:2,0:2:0:0:
400,197,78795,6,0,P|404:132|402:47,1,135.000005149842,2|0,1:2|1:2,0:2:0:0:
112,187,79275,2,0,P|108:252|110:337,1,135.000005149842,8|0,0:2|0:2,0:2:0:0:
165,380,79635,1,0,1:2:0:0:
256,192,79875,5,8,0:2:0:0:
256,192,79995,1,0,1:2:0:0:
185,152,80235,5,8,0:2:0:0:
216,263,80355,1,8,0:2:0:0:
327,232,80475,1,8,0:3:0:0:
296,121,80595,1,8,0:3:0:0:
171,162,80715,6,0,P|106:168|28:128,1,135.000005149842,6|0,1:2|0:2,0:2:0:0:
341,222,81195,2,0,P|406:216|484:256,1,135.000005149842,10|0,0:2|0:2,0:2:0:0:
512,307,81555,1,0,1:2:0:0:
477,377,81675,1,2,0:2:0:0:
398,381,81795,1,8,0:2:0:0:
355,314,81915,1,0,1:2:0:0:
425,168,82155,2,0,P|439:126|410:26,1,135.000005149842,10|0,0:2|0:2,0:2:0:0:
256,0,82635,5,2,1:2:0:0:
255,0,82875,1,0,1:2:0:0:
270,235,83115,5,8,2:2:0:0:
122,52,83235,1,8,2:2:0:0:
348,114,83355,1,8,2:3:0:0:
129,196,83475,1,8,2:2:0:0:
255,0,83595,1,2,1:2:0:0:
9,213,84075,5,0,0:2:0:0:
20,288,84315,1,0,0:2:0:0:
31,362,84555,2,0,B|78:266|6:266|64:151,1,215.999993408203,12|8,1:3|2:2,0:2:0:0:
163,365,84915,2,0,P|215:375|274:344,1,107.999996704102,2|0,1:2|0:2,0:2:0:0:
469,176,85155,5,2,1:2:0:0:
377,259,85275,1,8,2:2:0:0:
495,296,85395,1,0,1:2:0:0:
417,74,85515,2,0,P|371:129|212:87,1,215.999993408203,2|8,1:2|2:2,0:2:0:0:
55,47,85875,2,0,P|104:23|157:23,1,107.999996704102,2|0,1:2|0:2,0:2:0:0:
55,229,86115,5,2,1:2:0:0:
158,258,86235,1,8,2:2:0:0:
253,208,86355,1,0,1:2:0:0:
313,21,86475,2,0,B|293:136|372:120|358:248,1,215.999993408203,6|8,1:2|2:2,0:2:0:0:
406,356,86835,2,0,P|462:364|502:326,1,107.999996704102,2|0,1:2|0:2,0:2:0:0:
253,208,87075,5,2,1:2:0:0:
167,291,87195,1,8,0:2:0:0:
277,336,87315,1,0,1:2:0:0:
362,253,87435,2,0,P|365:202|366:145,1,107.999996704102,2|0,1:2|0:2,0:2:0:0:
134,169,87675,2,0,P|131:118|130:61,1,107.999996704102,10|0,0:2|0:2,0:2:0:0:
129,61,87855,1,0,1:2:0:0:
129,61,87915,1,8,1:3:0:0:
215,14,88035,1,8,1:3:0:0:
253,192,88155,1,4,1:3:0:0:
60,239,88275,1,4,1:3:0:0:
208,313,88395,6,0,P|299:313|408:387,1,215.999993408203,6|8,1:2|0:2,0:2:0:0:
182,141,88755,2,0,P|136:219|17:277,1,215.999993408203,0|0,1:2|1:2,0:2:0:0:
361,203,89115,2,0,P|315:124|325:-7,2,215.999993408203,8|0|10,0:2|1:2|0:2,0:2:0:0:
451,286,89715,1,0,1:2:0:0:
366,384,89835,2,0,P|417:375|492:368,1,107.999996704102,2|0,0:2|1:2,0:2:0:0:
343,215,90075,2,0,P|325:263|293:332,1,107.999996704102,10|0,0:2|0:2,0:2:0:0:
176,378,90315,5,6,0:2:0:0:
145,308,90435,1,0,1:2:0:0:
145,308,90675,5,0,1:2:0:0:
176,233,90795,1,12,0:2:0:0:
149,161,90915,1,0,1:2:0:0:
149,161,91155,5,0,1:2:0:0:
171,83,91275,1,4,1:2:0:0:
138,0,91515,5,0,1:2:0:0:
67,174,91755,5,8,1:2:0:0:
269,247,91875,1,8,1:2:0:0:
421,92,91995,1,8,1:2:0:0:
218,19,92115,1,8,1:2:0:0:
404,191,92235,6,0,P|436:244|368:407,1,215.999993408203,12|8,1:3|0:2,0:2:0:0:
149,161,92595,2,0,P|90:248|112:351,1,215.999993408203,0|0,1:2|1:2,0:2:0:0:
302,163,92955,5,10,0:2:0:0:
396,214,93075,1,2,0:2:0:0:
502,197,93195,2,0,P|503:253|466:305,1,107.999996704102,0|0,1:2|0:2,0:2:0:0:
231,135,93435,5,10,0:2:0:0:
341,91,93555,1,2,1:2:0:0:
458,111,93675,2,0,P|459:57|432:11,1,107.999996704102,2|0,0:2|1:2,0:2:0:0:
158,163,93915,5,10,0:2:0:0:
265,235,94035,1,2,0:2:0:0:
394,230,94155,2,0,P|388:282|355:324,1,107.999996704102,6|0,1:2|0:2,0:2:0:0:
91,125,94395,5,10,0:2:0:0:
222,74,94515,1,2,1:2:0:0:
358,104,94635,2,0,P|352:51|319:9,1,107.999996704102,2|0,0:2|1:2,0:2:0:0:
13,141,94875,5,10,0:2:0:0:
97,107,94995,1,2,0:2:0:0:
139,187,95115,2,0,P|134:242|133:299,1,107.999996704102,2|0,1:2|0:2,0:2:0:0:
378,239,95355,2,0,P|376:292|371:346,1,107.999996704102,14|0,0:2|0:2,0:2:0:0:
371,346,95535,1,0,1:2:0:0:
371,346,95595,1,8,1:3:0:0:
194,375,95715,1,8,1:3:0:0:
272,203,95835,1,4,1:3:0:0:
217,21,95955,1,4,1:3:0:0:
343,69,96075,6,0,P|446:85|504:180,1,215.999993408203,6|10,1:2|0:2,0:2:0:0:
501,282,96435,1,2,0:2:0:0:
414,347,96555,2,0,P|347:333|291:298,1,107.999996704102,2|0,1:2|1:2,0:2:0:0:
96,159,96795,5,10,0:2:0:0:
54,273,96915,1,2,0:2:0:0:
132,366,97035,2,0,P|199:352|255:317,1,107.999996704102,2|0,1:2|0:2,0:2:0:0:
472,169,97275,5,10,0:2:0:0:
508,290,97395,1,2,1:2:0:0:
411,371,97515,2,0,P|344:357|288:322,1,107.999996704102,2|0,0:2|1:2,0:2:0:0:
86,163,97755,5,10,0:2:0:0:
38,287,97875,1,2,0:2:0:0:
137,376,97995,2,0,P|213:366|250:206,1,215.999993408203,6|8,1:2|0:2,0:2:0:0:
86,163,98355,1,6,1:2:0:0:
143,232,98475,2,0,B|95:258|95:258|43:243,1,107.999996704102,2|0,0:2|1:2,0:2:0:0:
29,94,98715,2,0,B|77:68|77:68|128:82,1,107.999996704102,14|0,0:2|0:2,0:2:0:0:
440,191,98955,5,6,1:2:0:0:
293,266,99075,1,8,0:2:0:0:
363,48,99195,1,0,1:2:0:0:
413,374,99435,5,12,0:2:0:0:
173,187,99675,5,8,0:3:0:0:
293,266,99795,1,8,0:3:0:0:
301,122,99915,1,4,1:2:0:0:
73,318,100395,5,0,0:2:0:0:
434,191,100875,5,0,0:2:0:0:
124,90,101355,5,0,0:2:0:0:
256,7,101835,6,0,B|192:55|192:143|248:192|256:192|265:192|321:240|321:328|256:376,1,417.600012744141,6|2,1:2|0:3,0:2:0:0:
76,176,103395,6,0,L|6:192,2,67.5000025749208,0|0|0,0:2|0:2|0:2,0:2:0:0:
217,293,103755,6,0,P|166:360|30:345,1,215.999993408203,12|8,1:3|2:0,0:1:0:0:
178,173,104115,2,0,B|305:147|254:224|395:200,1,215.999993408203,2|0,1:2|1:0,0:1:0:0:
410,365,104475,2,0,P|459:345|512:353,1,107.999996704102,10|0,1:2|0:0,0:1:0:0:
393,179,104715,6,0,P|460:100|432:0,1,215.999993408203,2|8,1:2|2:2,0:2:0:0:
118,180,105075,2,0,P|51:101|79:1,1,215.999993408203,2|0,1:2|1:2,0:2:0:0:
262,145,105435,2,0,P|244:189|244:264,1,107.999996704102,10|0,1:2|0:2,0:2:0:0:
447,383,105675,6,0,P|474:282|407:203,1,215.999993408203,6|8,1:2|2:2,2:2:0:0:
104,203,106035,2,0,P|37:282|65:383,1,215.999993408203,2|0,1:2|1:2,0:2:0:0:
346,348,106395,2,0,P|309:338|226:340,1,107.999996704102,10|0,1:2|0:2,0:2:0:0:
415,157,106635,2,0,P|363:192|255:166,1,161.999995056153,2|0,1:2|0:2,0:2:0:0:
245,189,106875,6,0,L|266:72,1,107.999996704102,12|0,1:2|0:2,0:2:0:0:
264,82,107055,1,0,1:2:0:0:
264,82,107115,1,8,1:3:0:0:
374,241,107235,1,8,1:3:0:0:
201,303,107355,1,4,1:3:0:0:
98,151,107475,1,4,1:3:0:0:
384,260,107595,6,0,P|458:239|458:107,1,215.999993408203,6|8,1:2|2:2,0:2:0:0:
201,170,107955,2,0,P|109:127|118:26,1,215.999993408203,2|0,1:2|1:2,0:2:0:0:
341,115,108315,2,0,P|370:70|370:16,1,107.999996704102,10|0,1:2|0:2,0:2:0:0:
111,188,108555,6,0,B|71:213|71:213|37:279|101:370,1,215.999993408203,2|8,1:2|2:2,0:2:0:0:
401,188,108915,2,0,B|441:213|441:213|475:279|411:370,1,215.999993408203,2|0,1:2|1:2,0:2:0:0:
209,248,109275,2,0,B|201:205|201:205|208:163|208:163|194:90,1,135,10|0,1:2|0:2,0:2:0:0:
151,40,109515,6,0,B|102:20|102:20|72:58|72:58|16:85|16:85|59:203,1,270.000010299683,6|8,1:2|2:2,0:1:0:0:
367,98,109875,2,0,B|416:78|416:78|446:116|446:116|502:143|502:143|465:243,1,270.000010299683,6|0,1:2|1:2,0:2:0:0:
129,308,110235,2,0,B|79:300|79:300|51:316|51:316|-17:309,1,135.000005149842,14|0,1:2|0:2,0:2:0:0:
379,364,110475,2,0,B|428:356|428:356|456:372|456:372|524:365,1,135.000005149842,6|0,1:2|0:2,0:2:0:0:
280,98,110715,5,8,1:3:0:0:
217,285,110835,1,8,1:3:0:0:
364,161,110955,5,4,1:3:0:0:
128,213,111075,1,4,1:3:0:0:
335,286,111195,5,8,1:3:0:0:
156,87,111315,1,8,1:3:0:0:
350,287,111435,6,0,P|435:284|514:390,1,215.999993408203,12|8,1:3|2:2,0:2:0:0:
202,254,111795,2,0,P|117:251|38:357,1,215.999993408203,2|0,1:2|1:2,0:2:0:0:
279,379,112155,2,0,P|228:373|160:389,1,107.999996704102,10|0,1:2|0:2,0:2:0:0:
352,212,112395,6,0,B|391:108|305:111|349:3,1,215.999993408203,2|8,1:2|2:2,0:2:0:0:
220,218,112755,2,0,P|115:217|64:128,1,215.999993408203,2|0,1:2|1:2,0:2:0:0:
252,20,113115,2,0,P|201:31|131:17,1,107.999996704102,8|0,1:2|0:2,0:2:0:0:
405,95,113355,6,0,B|452:76|452:76|537:125|496:225,1,215.999993408203,6|8,1:2|2:2,0:2:0:0:
255,179,113715,2,0,B|208:160|208:160|123:209|164:309,1,215.999993408203,2|0,1:2|1:2,0:2:0:0:
343,371,114075,6,0,L|457:356,1,107.999996704102,10|0,1:2|0:2,0:2:0:0:
196,124,114315,2,0,L|151:230,1,107.999996704102,0|0,1:2|0:2,0:2:0:0:
483,120,114555,2,0,L|413:28,1,107.999996704102,12|0,1:2|0:2,0:2:0:0:
417,34,114735,1,0,1:2:0:0:
417,34,114795,1,8,1:3:0:0:
304,248,114915,1,8,1:3:0:0:
425,287,115035,1,4,1:3:0:0:
300,15,115155,1,4,1:3:0:0:
178,107,115275,6,0,P|110:107|43:235,1,215.999993408203,6|8,1:2|2:2,2:2:0:0:
355,89,115635,2,0,P|456:107|492:204,1,215.999993408203,2|0,1:2|1:2,0:2:0:0:
324,363,115995,2,0,P|370:350|445:363,1,107.999996704102,10|0,1:2|0:2,0:2:0:0:
230,204,116235,6,0,B|107:174|151:276|11:234,1,215.999993408203,2|8,1:2|2:2,0:2:0:0:
133,314,116595,1,0,1:2:0:0:
121,131,116715,2,0,P|75:112|1:120,1,107.999996704102,2|0,0:2|1:2,0:2:0:0:
148,327,116955,2,0,P|194:346|268:338,1,107.999996704102,8|0,1:2|0:2,0:2:0:0:
431,159,117195,6,0,B|508:206|508:206|455:380,1,270.000010299683,6|8,1:2|2:2,0:2:0:0:
81,159,117555,2,0,B|4:206|4:206|56:380,1,270.000010299683,6|0,1:2|1:2,0:2:0:0:
409,248,117915,2,0,B|364:239|364:239|330:256|330:256|267:242,1,135.000005149842,14|0,1:2|0:2,0:2:0:0:
34,67,118155,2,0,B|107:53|107:53|141:78|141:78|231:64,1,202.500007724762,6|0,1:2|0:2,0:2:0:0:
298,26,118395,5,8,1:2:0:0:
267,141,118515,1,8,1:3:0:0:
371,205,118635,1,8,0:3:0:0:
464,127,118755,1,8,0:2:0:0:
417,15,118875,1,8,0:3:0:0:
267,141,119115,5,8,2:2:0:0:
371,205,119235,1,8,2:2:0:0:
342,323,119355,1,8,2:2:0:0:
220,331,119475,1,8,2:2:0:0:
267,141,119715,5,8,0:2:0:0:
371,205,119835,1,8,0:2:0:0:
464,127,119955,1,8,0:2:0:0:
410,5,120075,6,0,P|374:5|338:22,1,60,14|0,3:2|0:2,0:2:0:0:
278,89,120235,6,0,P|268:151|282:184,1,53.9999983520508,8|0,3:3|0:2,0:2:0:0:
292,241,120395,6,0,P|322:277|333:281,1,48,4|0,3:3|0:2,0:2:0:0:
277,365,120555,6,0,P|260:374|225:377,1,41.9999987182618,10|0,3:2|0:2,0:2:0:0:
144,384,120715,6,0,P|127:361|123:348,1,35.9999989013672,8|0,3:3|0:2,0:2:0:0:
57,298,120875,6,0,P|62:275|74:259,1,30,4|0,3:3|0:2,0:2:0:0:
121,209,121035,6,0,B|166:309|318:265|296:156|296:156|356:195|329:233|401:232|401:232|304:182|325:86|373:11|490:-4|560:122|461:171|416:140,1,810.000030899049,6|8,1:2|1:2,0:2:0:0:
274,229,122955,86,0,B|242:216|200:221|164:251|158:301|158:301|144:253|170:212|170:212|197:164|194:87|135:34|61:19|-20:74|-42:122|-20:190|62:209|85:142,1,693.000021148682,6|0,1:2|0:2,0:2:0:0:
213,182,124875,6,0,B|241:144|294:144|294:144|344:144|420:86|370:-37|234:-1|254:111|286:144|286:144|392:194|366:291|294:291|266:261|274:226,1,643.499970542909,6|0,1:2|0:2,0:2:0:0:
274,229,126315,6,0,B|316:220|344:244|344:244|344:319|279:348,1,202.500007724762,10|0,0:2|0:2,0:2:0:0:
161,375,126795,6,0,L|-9:360,1,161.999995056153,12|8,1:3|0:2,0:2:0:0:
146,283,127155,1,2,1:2:0:0:
146,283,127275,2,0,L|61:275,1,80.9999975280763,0|0,1:2|1:2,0:2:0:0:
0,179,127515,2,0,L|80:186,1,80.9999975280763,10|0,0:2|0:2,0:2:0:0:
171,96,127755,2,0,P|194:22|269:15,1,161.999995056153,2|10,1:2|0:2,0:2:0:0:
269,15,128115,1,0,1:2:0:0:
336,120,128235,2,0,L|416:127,1,80.9999975280763,2|0,0:2|1:2,0:2:0:0:
257,204,128475,2,0,L|176:196,1,80.9999975280763,10|0,0:2|0:2,0:2:0:0:
356,263,128715,6,0,P|439:282|480:383,1,198.000006042481,6|8,1:2|0:2,0:2:0:0:
249,317,129075,2,0,B|224:216|279:240|253:123,1,198.000006042481,6|0,1:2|1:2,0:2:0:0:
92,63,129435,2,0,P|137:80|183:65,1,99.0000030212403,14|0,1:2|0:2,0:2:0:0:
420,63,129675,2,0,P|374:80|328:65,1,99.0000030212403,4|0,1:2|0:2,0:2:0:0:
256,0,129915,5,8,1:2:0:0:
159,165,130035,1,0,1:2:0:0:
159,165,130095,1,0,1:2:0:0:
159,165,130155,1,8,1:3:0:0:
328,65,130275,1,8,1:3:0:0:
183,64,130395,1,4,1:3:0:0:
353,165,130515,1,4,1:3:0:0:
433,108,130635,6,0,P|493:157|489:235,1,161.999995056153,12|8,1:3|2:2,0:2:0:0:
452,306,130995,1,2,0:2:0:0:
379,337,131115,1,0,1:2:0:0:
299,330,131235,1,0,1:2:0:0:
209,243,131355,2,0,P|148:292|152:370,2,161.999995056153,10|0|10,0:2|1:2|0:2,0:2:0:0:
337,145,131955,1,0,1:2:0:0:
408,183,132075,2,0,B|417:146|417:146|406:91,1,80.9999975280763,2|0,1:2|1:2,0:2:0:0:
265,105,132315,2,0,B|256:147|256:147|265:184,1,80.9999975280763,10|0,0:2|0:2,0:2:0:0:
148,30,132555,6,0,P|125:82|14:102,1,161.999995056153,6|8,1:2|0:2,0:2:0:0:
178,191,132915,2,0,P|218:258|296:269,1,161.999995056153,2|0,1:2|1:2,0:2:0:0:
451,329,133275,2,0,L|436:233,1,80.9999975280763,10|0,0:2|0:2,0:2:0:0:
309,353,133515,2,0,L|399:388,1,80.9999975280763,0|0,1:2|0:2,0:2:0:0:
359,218,133755,2,0,L|283:278,1,80.9999975280763,12|0,0:2|0:2,0:2:0:0:
295,268,133935,1,0,1:2:0:0:
295,268,133995,1,8,1:3:0:0:
451,329,134115,1,8,1:3:0:0:
438,248,134235,1,4,1:3:0:0:
309,353,134355,1,4,1:3:0:0:
453,233,134475,6,0,P|478:158|446:86,1,161.999995056153,6|8,1:2|2:2,0:2:0:0:
336,144,134835,1,2,0:2:0:0:
336,144,134955,2,0,P|296:149|256:136,1,80.9999975280763,0|0,1:2|1:2,0:2:0:0:
264,17,135195,2,0,P|303:11|342:23,1,80.9999975280763,10|0,0:2|0:2,0:2:0:0:
167,76,135435,2,0,P|123:142|137:220,1,161.999995056153,2|8,1:2|0:2,0:2:0:0:
25,304,135795,1,2,1:2:0:0:
25,304,135915,2,0,P|66:301|110:323,1,80.9999975280763,0|0,2:2|1:2,0:2:0:0:
181,378,136155,2,0,P|222:381|266:359,1,80.9999975280763,10|0,0:2|0:2,0:2:0:0:
402,262,136395,6,0,P|412:165|524:125,1,198.000006042481,6|8,1:2|0:2,0:2:0:0:
120,177,136755,2,0,P|110:80|-2:40,1,198.000006042481,6|0,1:2|1:2,0:2:0:0:
303,193,137115,6,0,B|438:164|379:238|512:206,1,215.999993408203,14|4,0:2|1:1,0:2:0:0:
512,206,137835,6,0,B|462:193|462:193|431:205|431:205|371:187,1,135.000005149842,14|0,0:2|0:2,0:2:0:0:
324,105,138315,6,0,B|223:89|294:24|171:7,1,180,12|8,1:3|0:2,0:2:0:0:
232,162,138675,1,2,0:2:0:0:
154,116,138795,1,0,1:2:0:0:
65,132,138915,1,0,1:2:0:0:
156,219,139035,2,0,P|95:214|29:306,2,180,10|0|10,0:2|1:2|0:2,0:2:0:0:
277,306,139635,1,0,1:2:0:0:
211,368,139755,2,0,P|169:373|118:335,1,90,2|0,0:2|1:2,0:2:0:0:
275,219,139995,5,10,2:2:0:0:
275,219,140115,1,2,0:2:0:0:
358,359,140235,6,0,P|419:364|485:272,1,180,6|8,1:2|0:2,0:2:0:0:
352,175,140595,2,0,P|439:169|480:93,1,180,2|0,1:2|1:2,2:2:0:0:
317,20,140955,2,0,P|359:27|413:10,1,90,10|0,0:2|0:2,0:2:0:0:
194,120,141195,2,0,P|236:127|290:110,1,90,2|0,1:2|0:2,0:2:0:0:
72,28,141435,2,0,P|114:35|168:18,1,90,12|0,0:2|0:2,0:2:0:0:
159,23,141615,1,0,1:2:0:0:
159,23,141675,1,8,1:3:0:0:
48,129,141795,1,8,1:3:0:0:
170,221,141915,1,4,1:3:0:0:
281,115,142035,1,4,1:3:0:0:
384,176,142155,6,0,P|473:191|499:278,1,180,6|8,1:2|0:2,0:2:0:0:
384,359,142515,1,2,0:2:0:0:
384,359,142635,2,0,P|441:357|477:367,1,90,0|0,1:2|1:2,0:2:0:0:
259,259,142875,2,0,P|316:257|352:267,1,90,10|0,0:2|0:2,0:2:0:0:
214,349,143115,2,0,B|100:328|155:395|38:370,1,180,2|8,1:2|0:2,0:2:0:0:
41,370,143475,1,0,1:2:0:0:
98,258,143595,2,0,P|107:214|98:168,1,90,2|0,0:2|1:2,0:2:0:0:
193,30,143835,2,0,P|184:73|192:117,1,90,10|0,0:2|0:2,0:2:0:0:
371,69,144075,6,0,P|479:90|500:199,1,233.999989288331,6|8,1:2|0:2,0:2:0:0:
192,117,144435,2,0,P|83:138|62:247,1,233.999989288331,6|0,1:2|1:2,0:2:0:0:
304,170,144795,2,0,P|368:152|434:170,1,116.999994644165,14|0,0:2|0:2,0:2:0:0:
453,338,145035,2,0,P|375:376|292:352,1,175.499991966248,6|0,1:2|0:2,0:2:0:0:
252,284,145275,5,8,1:3:0:0:
304,170,145395,1,8,1:3:0:0:
233,69,145515,1,4,1:3:0:0:
108,80,145635,1,4,1:3:0:0:
54,193,145755,1,8,1:3:0:0:
126,296,145875,1,8,1:3:0:0:
265,269,145995,6,0,P|343:266|407:354,1,180,12|8,0:3|0:2,0:2:0:0:
406,205,146355,1,2,0:2:0:0:
478,151,146475,1,0,1:2:0:0:
469,61,146595,1,0,1:2:0:0:
343,102,146715,2,0,B|260:117|260:117|163:69,2,180,8|0|10,0:2|1:2|0:2,0:2:0:0:
469,61,147315,1,0,1:2:0:0:
499,145,147435,2,0,P|501:194|478:244,1,90,2|0,0:2|1:2,0:2:0:0:
364,342,147675,5,10,0:2:0:0:
364,342,147795,1,2,0:2:0:0:
268,207,147915,6,0,P|198:236|176:343,1,180,6|8,1:2|0:2,0:2:0:0:
344,256,148275,2,0,B|457:257|394:311|506:321,1,180,2|0,1:2|1:2,0:2:0:0:
349,161,148635,2,0,P|349:115|327:75,1,90,10|0,0:2|0:2,0:2:0:0:
168,281,148875,2,0,P|206:303|251:305,1,90,2|0,1:2|0:2,0:2:0:0:
88,121,149115,2,0,P|113:84|151:62,1,90,12|0,0:2|0:2,0:2:0:0:
151,62,149295,1,0,1:2:0:0:
151,62,149355,1,8,1:3:0:0:
109,211,149475,1,8,1:3:0:0:
248,49,149595,1,4,1:3:0:0:
349,161,149715,1,4,1:3:0:0:
460,114,149835,6,0,B|517:160|494:241|494:241|450:270,1,180,6|8,1:2|0:2,0:2:0:0:
346,341,150195,1,2,0:2:0:0:
346,341,150315,2,0,L|453:354,1,90,0|0,1:2|1:2,0:2:0:0:
259,171,150555,2,0,L|366:158,1,90,10|0,0:2|0:2,0:2:0:0:
231,278,150795,2,0,P|209:343|99:344,1,180,2|10,1:2|0:2,0:2:0:0:
93,226,151155,1,0,1:2:0:0:
13,297,151275,2,0,P|0:330|4:387,1,90,2|0,0:2|1:2,0:2:0:0:
179,175,151515,5,10,0:2:0:0:
39,148,151635,1,2,0:2:0:0:
186,23,151755,6,0,P|219:88|375:87,1,233.999989288331,6|8,1:2|0:2,0:2:0:0:
110,316,152115,2,0,P|143:251|299:252,1,233.999989288331,6|0,1:2|1:2,0:2:0:0:
479,384,152475,2,0,P|510:320|473:214,1,175.499991966248,14|0,0:2|0:2,0:2:0:0:
480,205,152715,6,0,B|438:175|386:179|386:179|368:227|332:240|332:240|341:269|324:276|331:307|331:307|290:325|273:367|273:367|226:376|182:340,1,431.999986816407,4|4,1:2|0:2,0:2:0:0:
170,194,161355,6,0,P|102:199|35:224,1,135.000005149842,6|0,1:2|0:2,0:2:0:0:
342,190,161835,2,0,P|410:185|477:160,1,135.000005149842,10|0,0:2|0:2,0:2:0:0:
509,97,162195,1,0,1:2:0:0:
472,33,162315,1,2,0:2:0:0:
398,33,162435,1,8,0:2:0:0:
375,103,162555,1,0,1:2:0:0:
238,45,162795,2,0,P|174:22|107:17,1,135.000005149842,10|0,0:2|0:2,0:2:0:0:
23,142,163275,6,0,L|34:293,1,135.000005149842,2|0,0:2|1:2,0:2:0:0:
250,384,163755,2,0,L|259:249,1,135.000005149842,10|0,0:2|0:2,0:2:0:0:
336,331,164115,1,0,1:2:0:0:
411,356,164235,1,2,0:2:0:0:
461,294,164355,1,8,0:2:0:0:
386,269,164475,1,0,1:2:0:0:
270,157,164715,5,8,0:2:0:0:
355,185,164835,1,8,0:2:0:0:
411,115,164955,1,8,0:3:0:0:
326,86,165075,1,8,0:3:0:0:
260,172,165195,6,0,P|199:183|129:92,1,161.999995056153,6|8,1:2|2:2,0:2:0:0:
123,40,165555,1,0,0:2:0:0:
82,194,165675,2,0,P|47:181|-25:177,1,80.9999975280763,0|0,1:2|0:2,0:2:0:0:
208,80,165915,5,8,0:2:0:0:
208,80,166035,1,0,0:2:0:0:
230,206,166155,2,0,L|207:378,1,161.999995056153,2|8,1:2|0:2,0:2:0:0:
326,216,166515,2,0,L|349:44,1,161.999995056153,2|0,1:2|1:2,0:2:0:0:
422,226,166875,2,0,L|508:237,1,80.9999975280763,10|0,0:2|0:2,0:2:0:0:
312,326,167115,6,0,B|222:295|233:356|128:317,1,180,6|8,1:2|0:2,0:2:0:0:
307,197,167475,2,0,P|337:136|307:15,1,180,0|0,1:2|1:2,0:2:0:0:
185,83,167835,2,0,P|157:73|89:78,1,90,8|0,0:2|0:2,0:2:0:0:
0,192,168075,2,0,L|96:192,1,90,2|0,1:2|0:2,0:2:0:0:
185,301,168315,2,0,P|157:311|89:306,1,90,12|0,0:2|0:2,0:2:0:0:
97,308,168495,1,0,1:2:0:0:
97,308,168555,1,8,1:3:0:0:
237,190,168675,1,8,1:3:0:0:
286,376,168795,1,4,1:3:0:0:
404,271,168915,1,4,1:3:0:0:
492,328,169035,1,4,1:2:0:0:
130,289,170955,6,0,P|121:350|15:346,1,180,2|0,0:2|0:2,0:2:0:0:
0,251,171675,1,0,0:2:0:0:
93,205,171915,2,0,B|206:182|163:253|286:227,1,180,2|0,0:2|0:2,0:2:0:0:
363,74,172875,2,0,B|368:36|394:18|421:12|421:12|370:46|355:121|414:169,1,270,2|0,0:2|0:2,0:2:0:0:
493,206,173835,5,2,0:2:0:0:
510,284,174075,1,0,0:2:0:0:
491,362,174315,1,0,0:2:0:0:
398,271,174555,5,0,0:2:0:0:
398,271,174675,1,0,0:2:0:0:
360,338,174795,2,0,B|334:368|334:368|249:382|222:308,1,180,2|0,0:2|0:2,0:2:0:0:
339,208,175515,1,0,0:2:0:0:
205,139,175755,2,0,L|305:132,1,90,2|0,0:2|0:2,0:2:0:0:
412,59,176235,2,0,L|312:52,1,90,0|0,0:2|0:2,0:2:0:0:
397,178,176715,2,0,P|387:261|305:271,1,180,2|0,0:2|0:2,0:2:0:0:
153,209,177435,2,0,L|207:199,1,49.5000015106202,0|0,0:2|0:2,0:2:0:0:
254,139,177675,6,0,P|262:103|232:29,1,107.999996704102,2|0,0:2|0:2,0:2:0:0:
63,172,178155,2,0,P|55:208|85:282,1,107.999996704102,2|0,0:2|0:2,0:2:0:0:
233,363,178635,6,0,P|297:349|382:354,1,135.000005149842,6|0,1:2|0:2,0:2:0:0:
279,21,179115,2,0,P|215:35|130:30,1,135.000005149842,8|0,0:2|0:2,0:2:0:0:
68,17,179475,1,0,1:2:0:0:
8,165,179715,1,8,0:2:0:0:
8,165,179835,1,0,1:2:0:0:
143,246,180075,2,0,P|210:248|276:234,1,135.000005149842,8|0,0:2|0:2,0:2:0:0:
369,138,180555,6,0,L|375:-7,1,135.000005149842,2|0,1:2|1:2,0:2:0:0:
143,246,181035,2,0,L|137:391,1,135.000005149842,8|0,0:2|0:2,0:2:0:0:
48,318,181395,1,0,1:2:0:0:
256,192,181635,5,8,0:2:0:0:
256,192,181755,1,0,1:2:0:0:
185,152,181995,5,8,0:2:0:0:
216,263,182115,1,8,0:2:0:0:
327,232,182235,1,8,0:3:0:0:
296,121,182355,1,8,0:3:0:0:
392,52,182475,6,0,P|428:81|437:176,1,135.000005149842,6|0,1:2|0:2,0:2:0:0:
120,52,182955,2,0,P|84:81|75:176,1,135.000005149842,10|0,0:2|0:2,0:2:0:0:
131,215,183315,1,0,1:2:0:0:
204,184,183435,1,2,0:2:0:0:
268,232,183555,1,8,0:2:0:0:
258,311,183675,1,0,1:2:0:0:
392,384,183915,2,0,P|428:355|437:260,1,135.000005149842,10|0,0:2|0:2,0:2:0:0:
333,56,184395,5,2,1:2:0:0:
332,56,184635,1,0,1:2:0:0:
80,166,184875,5,8,2:2:0:0:
324,139,184995,1,8,2:2:0:0:
111,18,185115,1,8,2:3:0:0:
213,241,185235,1,8,2:2:0:0:
264,2,185355,1,2,1:2:0:0:
503,213,185835,5,0,0:2:0:0:
492,288,186075,1,0,0:2:0:0:
478,362,186315,2,0,B|460:290|460:290|472:250|472:250|441:142,1,215.999993408203,12|8,1:3|2:2,0:2:0:0:
316,365,186675,2,0,L|292:242,1,107.999996704102,2|0,1:2|0:2,0:2:0:0:
175,99,186915,5,2,1:2:0:0:
60,159,187035,1,8,2:2:0:0:
16,37,187155,1,0,1:2:0:0:
197,107,187275,2,0,B|325:98|254:29|388:17,1,215.999993408203,2|8,1:2|2:2,0:2:0:0:
404,234,187635,2,0,P|454:242|515:270,1,107.999996704102,2|0,1:2|0:2,0:2:0:0:
291,384,187875,5,2,1:2:0:0:
241,275,187995,1,8,2:2:0:0:
277,161,188115,1,0,1:2:0:0:
178,30,188235,2,0,B|187:101|120:123|120:123|84:85|31:81,1,215.999993408203,6|8,1:2|2:2,0:2:0:0:
113,277,188595,2,0,B|70:283|70:283|54:297|54:297|-5:306,1,107.999996704102,2|0,1:2|0:2,0:2:0:0:
277,161,188835,5,2,1:2:0:0:
328,271,188955,1,8,0:2:0:0:
439,220,189075,1,0,1:2:0:0:
387,109,189195,2,0,B|373:55|373:55|397:0,1,107.999996704102,2|0,1:2|0:2,0:2:0:0:
512,249,189435,2,0,B|526:303|526:303|502:358,1,107.999996704102,10|0,0:2|0:2,0:2:0:0:
505,350,189615,1,0,1:2:0:0:
505,350,189675,1,8,1:3:0:0:
333,356,189795,1,8,1:3:0:0:
299,178,189915,1,4,1:3:0:0:
485,101,190035,1,4,1:3:0:0:
280,28,190155,6,0,B|162:-22|190:73|59:16,1,215.999993408203,6|8,1:2|0:2,0:2:0:0:
273,207,190515,2,0,B|391:157|363:252|494:195,1,215.999993408203,0|0,1:2|1:2,0:2:0:0:
211,363,190875,2,0,B|93:313|121:408|-10:351,2,215.999993408203,8|0|10,0:2|1:2|0:2,0:2:0:0:
352,314,191475,1,0,1:2:0:0:
259,230,191595,2,0,B|241:179|241:179|260:122,1,107.999996704102,2|0,0:2|1:2,0:2:0:0:
483,256,191835,2,0,B|507:208|507:208|497:148,1,107.999996704102,10|0,0:2|0:2,0:2:0:0:
395,10,192075,5,6,0:2:0:0:
375,85,192195,1,0,1:2:0:0:
375,85,192435,5,0,1:2:0:0:
398,156,192555,1,12,0:2:0:0:
378,231,192675,1,0,1:2:0:0:
378,231,192915,5,0,1:2:0:0:
405,302,193035,1,4,1:2:0:0:
389,380,193275,5,0,1:2:0:0:
307,168,193515,5,8,1:2:0:0:
240,384,193635,1,8,1:2:0:0:
24,316,193755,1,8,1:2:0:0:
91,100,193875,1,8,1:2:0:0:
313,263,193995,6,0,P|394:244|421:114,1,215.999993408203,12|8,1:3|0:2,0:2:0:0:
125,248,194355,2,0,P|142:349|239:383,1,215.999993408203,0|0,1:2|1:2,0:2:0:0:
210,159,194715,5,10,0:2:0:0:
105,133,194835,1,2,0:2:0:0:
5,175,194955,2,0,B|-14:138|-14:138|2:62,1,107.999996704102,0|0,1:2|0:2,0:2:0:0:
290,182,195195,5,10,0:2:0:0:
187,241,195315,1,2,1:2:0:0:
69,224,195435,2,0,B|48:261|48:261|66:337,1,107.999996704102,2|0,0:2|1:2,0:2:0:0:
370,162,195675,5,10,0:2:0:0:
253,104,195795,1,2,0:2:0:0:
135,158,195915,2,0,B|114:125|114:125|118:57,1,107.999996704102,6|0,1:2|0:2,0:2:0:0:
420,231,196155,5,10,0:2:0:0:
304,311,196275,1,2,1:2:0:0:
172,254,196395,2,0,B|144:292|144:292|156:365,1,107.999996704102,2|0,0:2|1:2,0:2:0:0:
509,224,196635,5,10,0:2:0:0:
410,244,196755,1,2,0:2:0:0:
370,151,196875,2,0,P|368:102|358:32,1,107.999996704102,2|0,1:2|0:2,0:2:0:0:
145,245,197115,2,0,P|147:294|157:364,1,107.999996704102,14|0,0:2|0:2,0:2:0:0:
154,352,197295,1,0,1:2:0:0:
154,352,197355,1,8,1:3:0:0:
321,291,197475,1,8,1:3:0:0:
150,160,197595,1,4,1:3:0:0:
292,0,197715,1,4,1:3:0:0:
132,67,197835,6,0,P|64:67|2:193,1,215.999993408203,6|10,1:2|0:2,0:2:0:0:
13,291,198195,1,2,0:2:0:0:
86,368,198315,2,0,P|146:369|209:319,1,107.999996704102,2|0,1:2|1:2,0:2:0:0:
458,146,198555,5,10,0:2:0:0:
466,264,198675,1,2,0:2:0:0:
380,346,198795,2,0,P|320:347|257:297,1,107.999996704102,2|0,1:2|0:2,0:2:0:0:
60,151,199035,5,10,0:2:0:0:
0,265,199155,1,2,1:2:0:0:
89,358,199275,2,0,P|142:354|186:324,1,107.999996704102,2|0,0:2|1:2,0:2:0:0:
429,110,199515,5,10,0:2:0:0:
493,234,199635,1,2,0:2:0:0:
397,336,199755,2,0,P|337:337|273:200,1,215.999993408203,6|8,1:2|0:2,0:2:0:0:
115,97,200115,1,6,1:2:0:0:
56,166,200235,2,0,B|104:192|104:192|156:177,1,107.999996704102,2|0,0:2|1:2,0:2:0:0:
173,28,200475,2,0,B|125:2|125:2|74:16,1,107.999996704102,14|0,0:2|0:2,0:2:0:0:
267,214,200715,5,6,1:2:0:0:
422,81,200835,1,8,0:2:0:0:
400,357,200955,1,0,1:2:0:0:
278,28,201195,5,12,0:2:0:0:
165,220,201435,5,8,0:3:0:0:
320,306,201555,1,8,0:3:0:0:
318,127,201675,1,4,1:2:0:0:
180,39,202155,5,0,0:2:0:0:
250,363,202635,5,0,0:2:0:0:
401,92,203115,5,0,0:2:0:0:
512,259,203595,6,0,B|454:203|367:217|328:280|329:287|330:296|292:359|205:373|147:316,1,417.600012744141,6|2,1:2|0:3,0:2:0:0:
0,238,204975,5,2,0:2:0:0:
0,238,205035,2,2,B|60:224|60:224|101:242|101:242|186:220,1,188.999994232178,2|0,0:1|0:2,0:1:0:0:
49,58,205515,5,14,1:1:0:0:
137,89,205635,1,0,0:2:0:0:
213,33,205755,1,10,0:2:0:0:
213,33,205875,1,0,0:2:0:0:
413,177,205995,5,2,1:1:0:0:
301,211,206115,1,0,1:2:0:0:
225,128,206235,1,10,0:2:0:0:
225,128,206355,1,0,0:2:0:0:
17,235,206475,6,2,B|-17:346|82:385|82:385|139:368,1,233.999989288331,2|8,1:1|0:2,0:1:0:0:
301,211,206835,1,2,1:2:0:0:
400,274,206955,2,2,P|415:313|374:404,1,116.999994644165,2|0,0:1|1:2,0:1:0:0:
225,128,207195,2,2,P|210:89|251:-2,1,116.999994644165,10|0,0:1|0:1,0:1:0:0:
496,134,207435,6,2,P|408:54|327:59,1,175.499991966248,6|0,1:1|0:2,0:1:0:0:
285,77,207675,1,8,0:2:0:0:
460,118,207795,2,2,P|503:187|433:320,1,233.999989288331,2|0,1:1|1:2,0:1:0:0:
288,198,208155,2,2,B|234:177|234:177|173:191,1,116.999994644165,10|0,0:1|0:2,0:1:0:0:
174,353,208395,2,2,B|228:374|228:374|285:360,1,116.999994644165,2|0,1:1|0:2,0:1:0:0:
122,270,208635,6,0,B|80:263|80:263|51:274|51:274|-6:263,1,116.999994644165,12|0,0:2|0:2,0:2:0:0:
8,265,208815,1,0,1:2:0:0:
8,265,208875,1,8,1:3:0:0:
4,115,208995,1,8,1:3:0:0:
154,186,209115,5,4,1:3:0:0:
89,352,209235,1,4,1:3:0:0:
259,180,209355,5,6,1:1:0:0:
286,384,209475,1,0,0:2:0:0:
197,291,209595,1,10,0:2:0:0:
346,271,209715,1,0,0:2:0:0:
409,175,209835,6,0,B|429:122|429:122|404:66,1,116.999994644165,2|0,1:1|1:2,0:2:0:0:
48,69,210075,2,0,B|18:120|18:120|33:176,1,116.999994644165,10|0,0:1|0:2,0:2:0:0:
213,281,210315,2,2,B|233:194|233:194|213:155|213:155|231:55,1,233.999989288331,2|8,1:1|0:2,0:1:0:0:
321,348,210675,2,2,P|425:362|489:238,1,233.999989288331,2|0,1:1|1:2,0:1:0:0:
303,132,211035,2,2,B|254:140|254:140|241:153|241:153|192:162,1,116.999994644165,10|0,0:1|0:2,0:1:0:0:
21,197,211275,5,6,1:1:0:0:
14,115,211395,1,0,0:2:0:0:
68,53,211515,1,8,0:2:0:0:
200,56,211635,5,6,1:1:0:0:
286,6,211755,1,0,0:2:0:0:
381,33,211875,1,0,1:2:0:0:
512,170,211995,5,14,1:1:0:0:
512,170,212115,1,0,0:2:0:0:
351,357,212235,6,2,B|290:344|290:344|252:362|252:362|152:339,1,175.499991966248,6|0,1:1|0:2,0:1:0:0:
116,384,212475,1,8,1:3:0:0:
171,268,212595,1,8,1:3:0:0:
154,140,212715,1,4,1:3:0:0:
29,250,212835,1,4,1:3:0:0:
182,346,212955,1,8,1:3:0:0:
307,236,213075,1,8,1:3:0:0:
134,124,213195,6,2,P|138:60|239:23,1,175.499991966248,14|0,1:1|0:2,0:1:0:0:
304,0,213435,1,10,0:2:0:0:
249,189,213555,2,2,B|306:205|306:205|364:166,1,116.999994644165,2|0,0:1|1:2,0:1:0:0:
459,21,213795,5,2,1:2:0:0:
507,152,213915,1,10,0:1:0:0:
451,280,214035,1,0,1:2:0:0:
295,108,214155,6,0,B|195:72|223:149|125:115,1,175.499991966248,2|0,1:1|0:2,0:2:0:0:
60,77,214395,1,10,0:2:0:0:
227,196,214515,2,2,B|294:264|232:355|232:355|139:371,1,233.999989288331,2|0,1:1|1:2,0:1:0:0:
0,216,214875,2,2,P|-3:127|63:77,1,175.499991966248,10|0,0:1|0:2,0:1:0:0:
82,4,215115,6,2,P|165:79|275:54,1,233.999989288331,6|8,1:1|0:2,0:1:0:0:
165,268,215475,2,2,P|248:192|358:217,1,233.999989288331,2|0,1:1|1:2,2:1:0:0:
309,369,215835,2,2,B|395:388|395:388|471:337,1,175.499991966248,10|0,0:1|0:2,0:1:0:0:
503,269,216075,6,2,B|494:232|494:232|503:209|503:209|489:156,1,116.999994644165,2|0,1:1|0:2,0:1:0:0:
249,164,216315,2,0,B|258:127|258:127|249:104|249:104|263:51,1,116.999994644165,12|0,0:2|0:2,0:2:0:0:
262,51,216495,1,0,1:2:0:0:
262,51,216555,1,8,1:3:0:0:
395,7,216675,1,8,1:3:0:0:
348,150,216795,5,4,1:3:0:0:
154,78,216915,1,4,1:3:0:0:
23,178,217035,5,6,1:1:0:0:
98,210,217155,1,0,0:2:0:0:
164,157,217275,1,10,0:2:0:0:
88,124,217395,1,0,0:2:0:0:
345,96,217515,5,2,1:1:0:0:
292,211,217635,1,0,1:2:0:0:
392,187,217755,1,10,0:2:0:0:
245,119,217875,1,0,0:2:0:0:
21,312,217995,5,2,1:1:0:0:
130,359,218115,1,0,0:2:0:0:
213,273,218235,1,10,0:2:0:0:
104,227,218355,1,0,1:2:0:0:
431,194,218475,5,2,0:1:0:0:
355,356,218595,1,0,1:2:0:0:
497,321,218715,1,10,0:2:0:0:
288,226,218835,1,0,0:2:0:0:
434,41,218955,6,2,P|527:103|511:230,1,251.999992309571,4|8,1:1|0:2,0:1:0:0:
139,358,219315,2,2,P|119:239|216:169,1,251.999992309571,6|0,1:1|1:2,0:1:0:0:
434,384,219675,2,2,P|448:320|422:263,1,125.999996154785,14|0,0:1|0:2,0:1:0:0:
258,25,219915,5,6,1:1:0:0:
211,148,220035,1,8,1:2:0:0:
126,47,220155,1,2,1:2:0:0:
343,126,220275,1,8,1:2:0:0:
57,187,220395,1,8,1:3:0:0:
258,25,220515,1,8,1:3:0:0:
306,274,220635,1,4,1:3:0:0:
126,47,220755,1,4,1:3:0:0:
364,133,220875,6,0,P|341:351|165:260,1,485.999985168458,6|0,1:1|0:2,0:2:0:0:
215,183,221715,1,2,0:2:0:0:
140,54,221835,2,0,P|119:337|316:215,1,647.99998022461,6|4,1:1|0:2,0:2:0:0:
356,268,230475,6,0,P|363:217|361:160,1,107.999996704102,4|0,1:2|0:2,0:2:0:0:
156,236,230955,2,0,P|149:287|151:344,1,107.999996704102,0|0,1:2|0:2,0:2:0:0:
445,309,231435,2,0,P|452:258|450:201,1,107.999996704102,0|0,1:2|0:2,0:2:0:0:
67,195,231915,2,0,P|60:246|62:303,1,107.999996704102,0|0,1:2|0:2,0:2:0:0:
302,130,232395,6,0,B|446:106,1,125.999996154785,4|0,1:2|0:2,0:2:0:0:
262,255,232875,2,0,B|285:399,1,125.999996154785,0|0,1:2|0:2,0:2:0:0:
137,215,233355,2,0,B|-7:238,1,125.999996154785,0|0,1:2|0:2,0:2:0:0:
177,90,233835,5,8,0:2:0:0:
266,259,234075,1,8,0:2:0:0:
266,259,234195,1,8,0:2:0:0:
392,206,234315,6,0,P|470:213|513:287,2,161.999995056153,12|8|2,0:3|0:2|1:2,0:2:0:0:
266,259,234915,1,0,1:2:0:0:
201,191,235035,2,0,P|199:150|219:98,1,80.9999975280763,10|0,0:2|0:2,0:2:0:0:
136,20,235275,6,0,P|57:27|14:101,1,161.999995056153,2|10,1:2|0:2,0:2:0:0:
49,176,235635,1,0,1:2:0:0:
214,94,235755,2,0,P|246:86|320:104,1,80.9999975280763,2|0,0:2|1:2,0:2:0:0:
295,220,235995,2,10,P|255:228|215:222,1,80.9999975280763,10|0,0:2|0:2,0:2:0:0:
397,152,236235,6,0,B|446:134|446:134|508:184|468:256,1,180,6|8,1:2|0:2,0:2:0:0:
199,240,236595,2,0,B|150:222|150:222|88:272|128:344,1,180,2|0,1:2|1:2,0:2:0:0:
347,384,236955,6,0,B|332:342|332:342|341:308|341:308|313:218,1,148.50000453186,10|0,0:2|0:2,0:2:0:0:
295,220,237195,6,0,B|232:175|218:64|288:7|288:7|345:58|324:116,1,360,6|2,1:2|2:3,0:2:0:0:
197,211,241035,2,0,L|186:131,1,72,0|0,0:2|0:2,0:2:0:0:
188,140,241515,2,0,B|95:105|111:185|14:152,1,180,2|2,0:2|2:3,0:2:0:0:
441,72,242475,5,12,0:3:0:0:
373,336,242595,1,2,1:2:0:0:
501,228,242715,1,8,2:2:0:0:
312,179,242835,1,0,1:2:0:0:
235,360,242955,2,0,P|125:359|88:256,1,233.999989288331,2|8,1:2|2:2,0:2:0:0:
151,49,243315,2,0,B|101:20|101:20|27:39,1,116.999994644165,2|0,1:2|0:2,0:2:0:0:
233,238,243555,5,2,1:2:0:0:
361,294,243675,1,8,2:2:0:0:
483,224,243795,1,0,1:2:0:0:
297,123,243915,2,0,P|333:19|443:18,1,233.999989288331,6|8,1:2|2:2,0:2:0:0:
381,312,244275,2,0,B|430:341|430:341|494:329,1,116.999994644165,2|0,1:2|0:2,0:2:0:0:
270,104,244515,5,2,1:2:0:0:
241,279,244635,1,8,0:2:0:0:
151,172,244755,1,0,1:2:0:0:
361,212,244875,2,0,P|422:214|490:183,1,116.999994644165,2|0,1:2|0:2,0:2:0:0:
151,172,245115,2,0,P|90:170|22:201,1,116.999994644165,10|0,0:2|0:2,0:2:0:0:
38,189,245295,1,0,1:2:0:0:
38,189,245355,1,8,1:3:0:0:
210,291,245475,1,8,1:3:0:0:
52,384,245595,1,4,1:3:0:0:
151,172,245715,1,4,1:3:0:0:
320,356,245835,6,0,P|417:352|453:236,1,233.999989288331,6|8,1:2|0:2,0:2:0:0:
178,317,246195,2,0,P|81:313|45:197,1,233.999989288331,0|0,1:2|1:2,0:2:0:0:
365,273,246555,2,0,P|462:269|498:153,2,233.999989288331,8|0|10,0:2|1:2|0:2,0:2:0:0:
256,177,247155,1,0,1:2:0:0:
389,109,247275,2,0,B|430:94|430:94|438:82|438:82|508:58,1,116.999994644165,2|0,0:2|1:2,0:2:0:0:
123,109,247515,2,0,B|81:94|81:94|73:82|73:82|3:58,1,116.999994644165,10|0,0:2|0:2,0:2:0:0:
256,0,247755,5,6,0:2:0:0:
227,73,247875,1,0,1:2:0:0:
227,73,248115,5,0,1:2:0:0:
265,140,248235,1,12,0:2:0:0:
242,216,248355,1,0,1:2:0:0:
242,216,248595,5,0,1:2:0:0:
275,285,248715,1,4,1:2:0:0:
256,384,248955,5,0,1:2:0:0:
68,196,249195,5,8,1:2:0:0:
388,338,249315,1,8,1:2:0:0:
124,338,249435,5,8,1:2:0:0:
444,196,249555,1,8,1:2:0:0:
50,185,249675,6,0,P|23:104|123:12,1,233.999989288331,12|8,1:3|0:2,0:2:0:0:
462,184,250035,2,0,P|481:74|391:11,1,233.999989288331,0|0,1:2|1:2,0:2:0:0:
256,192,250395,5,10,0:2:0:0:
309,308,250515,1,2,0:2:0:0:
430,352,250635,2,0,B|506:372|506:372|463:327,1,116.999994644165,0|0,1:2|0:2,0:2:0:0:
256,192,250875,5,10,0:2:0:0:
203,308,250995,1,2,1:2:0:0:
82,352,251115,2,0,B|6:372|6:372|49:327,1,116.999994644165,2|0,0:2|1:2,0:2:0:0:
256,192,251355,5,10,0:2:0:0:
203,76,251475,1,2,0:2:0:0:
82,32,251595,2,0,B|6:12|6:12|49:57,1,116.999994644165,6|0,1:2|0:2,0:2:0:0:
256,192,251835,5,10,0:2:0:0:
309,76,251955,1,2,1:2:0:0:
430,32,252075,2,0,B|506:12|506:12|463:57,1,116.999994644165,2|0,0:2|1:2,0:2:0:0:
256,192,252315,5,10,0:2:0:0:
327,260,252435,1,2,0:2:0:0:
421,229,252555,2,0,P|426:172|426:111,1,116.999994644165,2|0,1:2|0:2,0:2:0:0:
91,155,252795,2,0,P|86:212|86:273,1,116.999994644165,14|0,0:2|0:2,0:2:0:0:
85,271,252975,1,0,1:2:0:0:
85,271,253035,1,8,1:3:0:0:
226,378,253155,1,8,1:3:0:0:
293,184,253275,1,4,1:3:0:0:
141,46,253395,1,4,1:3:0:0:
327,260,253515,6,0,P|438:273|490:152,1,233.999989288331,6|10,1:2|0:2,0:2:0:0:
466,65,253875,1,2,0:2:0:0:
358,18,253995,2,0,L|217:44,1,116.999994644165,2|0,1:2|1:2,0:2:0:0:
57,267,254235,5,10,0:2:0:0:
4,147,254355,1,2,0:2:0:0:
98,59,254475,2,0,L|218:79,1,116.999994644165,2|0,1:2|0:2,0:2:0:0:
423,321,254715,5,10,0:2:0:0:
469,188,254835,1,2,1:2:0:0:
359,101,254955,2,0,L|239:121,1,116.999994644165,2|0,0:2|1:2,0:2:0:0:
63,378,255195,5,10,0:2:0:0:
1,242,255315,1,2,0:2:0:0:
118,150,255435,2,0,L|358:190,1,233.999989288331,6|8,1:2|0:2,0:2:0:0:
121,253,255795,5,6,1:2:0:0:
410,251,255915,2,0,P|435:182|418:126,1,116.999994644165,2|0,0:2|1:2,0:2:0:0:
121,253,256155,2,0,P|97:305|104:362,1,116.999994644165,14|0,0:2|0:2,0:2:0:0:
323,269,256395,5,6,1:2:0:0:
131,131,256515,1,8,0:2:0:0:
398,10,256635,1,0,1:2:0:0:
378,384,256875,5,12,0:2:0:0:
140,229,257115,5,8,0:3:0:0:
346,273,257235,1,8,0:3:0:0:
281,73,257355,1,4,1:2:0:0:
111,241,257835,5,0,0:2:0:0:
411,164,258315,5,0,0:2:0:0:
155,6,258795,5,0,0:2:0:0:
0,227,259275,6,0,B|73:169|172:195|212:269|208:282|205:293|243:370|342:397|416:338,1,489.600002988281,6|2,1:2|0:3,0:2:0:0:
423,22,261195,6,0,B|427:143|504:87|512:208,2,198.000006042481,12|8|2,1:3|0:2|1:2,0:2:0:0:
353,147,261795,1,0,1:2:0:0:
225,56,261915,2,0,L|330:40,1,99.0000030212403,10|0,0:2|0:2,0:2:0:0:
241,207,262155,6,0,P|209:294|115:300,1,198.000006042481,2|8,1:2|0:2,0:2:0:0:
81,167,262515,1,0,1:2:0:0:
20,245,262635,2,0,P|5:295|24:356,1,99.0000030212403,2|0,0:2|1:2,2:2:0:0:
253,290,262875,2,0,P|267:336|258:384,1,99.0000030212403,8|0,0:2|0:2,0:2:0:0:
387,254,263115,6,0,P|480:248|512:160,1,198.000006042481,6|8,1:2|0:2,0:2:0:0:
321,185,263475,2,0,B|212:161|279:104|154:85,1,198.000006042481,2|0,1:2|1:2,0:2:0:0:
112,232,263835,2,0,B|67:255|67:255|13:243,1,99.0000030212403,10|0,0:2|0:2,0:2:0:0:
240,72,264075,6,0,B|292:67|292:67|315:81|315:81|404:70,1,148.50000453186,2|0,1:2|0:2,0:2:0:0:
451,112,264315,2,0,P|461:64|436:11,1,99.0000030212403,12|0,0:2|0:2,0:2:0:0:
443,19,264495,1,0,1:2:0:0:
443,19,264555,1,8,1:3:0:0:
297,184,264675,1,8,1:3:0:0:
490,287,264795,1,4,1:3:0:0:
353,384,264915,1,4,1:3:0:0:
397,265,265035,6,0,P|408:167|383:71,2,198.000006042481,4|8|2,1:2|0:2|1:2,0:2:0:0:
254,172,265635,1,0,1:2:0:0:
212,276,265755,2,0,L|223:383,1,99.0000030212403,10|0,0:2|0:2,0:2:0:0:
26,289,265995,6,0,P|14:191|39:95,1,198.000006042481,2|10,1:2|0:2,0:2:0:0:
9,15,266355,1,0,1:2:0:0:
143,173,266475,2,0,P|194:171|250:136,1,99.0000030212403,2|0,0:2|1:2,0:2:0:0:
336,12,266715,2,0,P|387:14|443:49,1,99.0000030212403,10|0,0:2|0:2,0:2:0:0:
223,134,266955,6,0,P|123:183|128:293,1,233.999989288331,4|8,1:2|0:2,0:2:0:0:
410,225,267315,2,0,P|509:274|504:384,1,233.999989288331,4|0,1:2|1:2,0:2:0:0:
119,308,267675,6,0,B|75:304|75:304|55:313|55:313|-25:304,1,116.999994644165,14|0,0:2|0:2,0:2:0:0:
398,207,267915,2,0,B|441:203|441:203|461:212|461:212|542:203,1,116.999994644165,6|0,1:2|0:2,0:2:0:0:
305,24,268155,5,8,1:3:0:0:
249,226,268275,1,8,1:3:0:0:
387,95,268395,5,4,1:3:0:0:
165,153,268515,1,4,1:3:0:0:
365,214,268635,5,8,1:3:0:0:
188,41,268755,1,8,1:3:0:0:
40,183,268875,6,0,P|8:251|33:384,1,198.000006042481,12|8,1:3|0:2,0:2:0:0:
472,183,269235,2,0,P|507:273|487:369,1,198.000006042481,2|0,1:2|1:2,0:2:0:0:
256,224,269595,1,10,0:2:0:0:
256,224,269715,1,0,0:2:0:0:
385,163,269835,6,0,P|466:165|502:55,1,198.000006042481,2|8,1:2|0:2,0:2:0:0:
507,68,270195,1,0,1:2:0:0:
334,11,270315,2,0,P|383:13|441:1,1,99.0000030212403,2|0,0:2|1:2,0:2:0:0:
203,139,270555,2,0,P|252:141|310:129,1,99.0000030212403,10|0,0:2|0:2,0:2:0:0:
123,30,270795,6,0,P|42:28|6:138,1,198.000006042481,6|8,1:2|0:2,0:2:0:0:
0,124,271155,1,0,1:2:0:0:
107,244,271275,2,0,L|6:235,1,99.0000030212403,2|0,0:2|1:2,0:2:0:0:
300,131,271515,2,0,L|199:122,1,99.0000030212403,8|0,0:2|0:2,0:2:0:0:
314,284,271755,6,0,P|298:330|314:384,1,99.0000030212403,2|0,1:2|0:2,0:2:0:0:
495,320,271995,2,0,P|506:272|491:226,1,99.0000030212403,8|0,0:2|0:2,0:2:0:0:
490,225,272175,1,0,1:2:0:0:
490,225,272235,1,8,1:3:0:0:
300,131,272355,1,8,1:3:0:0:
482,93,272475,1,4,1:3:0:0:
332,269,272595,1,4,1:3:0:0:
178,203,272715,6,0,P|110:189|13:304,2,198.000006042481,6|8|2,1:2|0:2|1:2,0:2:0:0:
332,269,273315,1,0,1:2:0:0:
237,384,273435,2,0,B|221:338|221:338|238:273,1,99.0000030212403,10|0,0:2|0:2,0:2:0:0:
352,142,273675,6,0,P|420:156|517:41,1,198.000006042481,2|10,1:2|0:2,0:2:0:0:
512,78,274035,1,0,1:2:0:0:
308,29,274155,2,0,L|419:18,1,99.0000030212403,2|0,0:2|1:2,0:2:0:0:
317,248,274395,2,0,L|428:259,1,99.0000030212403,10|0,0:2|0:2,0:2:0:0:
199,112,274635,6,0,P|80:127|39:240,1,251.999992309571,6|8,1:2|0:2,0:2:0:0:
468,158,274995,2,0,P|427:45|308:29,1,251.999992309571,6|0,1:2|1:2,0:2:0:0:
147,204,275416,5,14,0:2:0:0:
353,170,275716,5,6,1:2:0:0:
512,307,276304,5,14,0:2:0:0:
380,369,276913,6,0,P|326:360|268:356,2,107.999996704102,4|0|0,0:2|0:2|0:2,0:2:0:0:
471,304,278713,2,0,P|480:271|475:241,1,53.9999983520508,0|0,0:2|0:2,0:2:0:0:
442,184,279313,2,0,P|431:150|436:73,1,107.999996704102,2|0,0:2|0:2,0:2:0:0:
434,78,280513,2,0,P|445:112|440:189,1,107.999996704102,0|0,0:2|0:2,0:2:0:0:
376,246,281413,5,0,0:2:0:0:
369,254,281563,1,0,0:2:0:0:
362,262,281713,2,0,P|329:247|241:240,1,107.999996704102,2|0,0:2|0:2,0:2:0:0:
194,274,282613,1,0,0:2:0:0:
124,235,282913,6,0,P|117:216|121:183,1,49.5000015106202,2|0,0:2|0:2,0:2:0:0:
78,124,283513,6,0,P|96:104|113:93,1,45,2|0,0:2|0:2,0:2:0:0:
180,47,284113,6,0,P|209:69|303:47,1,121.499996292114,2|0,0:3|0:2,0:2:0:0:
289,59,285313,6,0,P|323:48|406:122,1,144,2|4,0:2|0:2,0:2:0:0:
