osu file format v14

[General]
AudioFilename: audio.mp3
AudioLeadIn: 0
PreviewTime: 253261
Countdown: 0
SampleSet: Normal
StackLeniency: 0.7
Mode: 1
LetterboxInBreaks: 0
WidescreenStoryboard: 0

[Editor]
Bookmarks: 47600,95600,287600,288709,290974,293274,295555,297836,300114,302389,304879,306601
DistanceSpacing: 1.1
BeatDivisor: 4
GridSize: 32
TimelineZoom: 1.9

[Metadata]
Title:Kotowari no Saihate ni Saku Hana
TitleUnicode:理の最果てに咲く花
Artist:Symholic
ArtistUnicode:Symholic
Creator:HEAVENLY MOON
Version:The Blossoming Flower
Source:osu!
Tags:6th CD Qualia rock paspal くゆり kuyuri japanese symphonic jrock j-rock featured artist fa mappers' guild mpg mg ginjani
BeatmapID:2968220
BeatmapSetID:1443039

[Difficulty]
HPDrainRate:5
CircleSize:5
OverallDifficulty:5.5
ApproachRate:5
SliderMultiplier:1.4
SliderTickRate:1

[Events]
//Background and Video events
0,0,"the.jpg",0,125
//Break Periods
//Storyboard Layer 0 (Background)
//Storyboard Layer 1 (Fail)
//Storyboard Layer 2 (Pass)
//Storyboard Layer 3 (Foreground)
//Storyboard Layer 4 (Overlay)
//Storyboard Sound Samples

[TimingPoints]
1953,545.454545454546,4,1,0,52,1,0
13407,-100,4,1,0,52,0,0
13680,-101.010101010101,4,1,0,52,0,0
13953,-102.040816326531,4,1,0,52,0,0
14225,-103.092783505155,4,1,0,52,0,0
14498,-104.166666666667,4,1,0,52,0,0
14771,-105.263157894737,4,1,0,52,0,0
15043,600.000000000001,4,1,0,45,1,0
18043,-100,4,1,0,25,0,0
18343,-100,4,1,0,40,0,0
18643,-100,4,1,0,50,0,0
18943,-100,4,1,0,55,0,0
19243,-100,4,1,0,65,0,0
19744,428.571428571429,4,1,0,90,1,8
20172,428.571428571429,4,1,0,90,1,0
33886,-90.9090909090909,4,1,0,90,0,0
46743,-90.0900900900901,4,1,0,90,0,0
46814,-89.2857142857143,4,1,0,90,0,0
46886,-88.4955752212389,4,1,0,90,0,0
46957,-87.719298245614,4,1,0,90,0,0
47029,-86.9565217391304,4,1,0,90,0,0
47100,-86.2068965517241,4,1,0,90,0,0
47172,-85.4700854700855,4,1,0,90,0,0
47600,-95.2380952380952,4,1,0,70,0,0
48243,-100,4,1,0,70,0,0
60029,-99.009900990099,4,1,0,90,0,0
60243,-98.0392156862745,4,1,0,90,0,0
60350,-97.0873786407767,4,1,0,90,0,0
60457,-96.1538461538461,4,1,0,90,0,0
60672,-95.2380952380952,4,1,0,90,0,0
60779,-94.3396226415094,4,1,0,90,0,0
60886,-93.4579439252336,4,1,0,90,0,0
60993,-92.5925925925926,4,1,0,90,0,0
61207,-91.743119266055,4,1,0,90,0,0
61314,-90.9090909090909,4,1,0,90,0,0
74600,-95.2380952380952,4,1,0,90,0,0
75029,-100,4,1,0,90,0,0
94743,-95.2380952380952,4,1,0,90,0,0
95172,-90.9090909090909,4,1,0,90,0,0
95600,-86.9565217391304,4,1,0,90,0,1
108886,-87.719298245614,4,1,0,90,0,1
108993,-88.4955752212389,4,1,0,90,0,1
109100,-89.2857142857143,4,1,0,90,0,1
109207,-90.0900900900901,4,1,0,90,0,1
109314,-90.9090909090909,4,1,0,90,0,1
128172,-92.5925925925926,4,1,0,90,0,1
128386,-94.3396226415094,4,1,0,90,0,1
128600,-96.1538461538461,4,1,0,90,0,1
128707,-98.0392156862745,4,1,0,90,0,1
128814,-100,4,1,0,90,0,1
129029,-105.263157894737,4,1,0,90,0,0
129457,-98.0392156862745,4,1,0,90,0,0
129564,-96.1538461538461,4,1,0,90,0,0
129672,-94.3396226415094,4,1,0,90,0,0
129779,-92.5925925925926,4,1,0,90,0,0
129886,-90.9090909090909,4,1,0,90,0,0
142743,-90.0900900900901,4,1,0,90,0,0
142814,-89.2857142857143,4,1,0,90,0,0
142886,-88.4955752212389,4,1,0,90,0,0
142957,-87.719298245614,4,1,0,90,0,0
143029,-86.9565217391304,4,1,0,90,0,0
143100,-86.2068965517241,4,1,0,90,0,0
143172,-85.4700854700855,4,1,0,90,0,0
143600,-95.2380952380952,4,1,0,70,0,0
144136,-100,4,1,0,70,0,0
156243,-95.2380952380952,4,1,0,80,0,0
156886,-94.3396226415094,4,1,0,80,0,0
156993,-93.4579439252336,4,1,0,90,0,0
157100,-92.5925925925926,4,1,0,90,0,0
157207,-91.743119266055,4,1,0,90,0,0
157314,-90.9090909090909,4,1,0,90,0,0
188600,-91.743119266055,4,1,0,90,0,0
188814,-92.5925925925926,4,1,0,90,0,0
189029,-93.4579439252336,4,1,0,90,0,0
189243,-94.3396226415094,4,1,0,90,0,0
189350,-95.2380952380952,4,1,0,90,0,0
189457,-96.1538461538461,4,1,0,90,0,0
189564,-97.0873786407767,4,1,0,90,0,0
189672,-98.0392156862745,4,1,0,90,0,0
189779,-99.009900990099,4,1,0,90,0,0
189886,-100,4,1,0,90,0,0
190743,-95.2380952380952,4,1,0,90,0,0
191172,-90.9090909090909,4,1,0,90,0,0
191600,-86.9565217391304,4,1,0,90,0,1
204886,-87.719298245614,4,1,0,90,0,1
204993,-88.4955752212389,4,1,0,90,0,1
205100,-89.2857142857143,4,1,0,90,0,1
205207,-90.0900900900901,4,1,0,90,0,1
205314,-90.9090909090909,4,1,0,90,0,1
225029,-90.9090909090909,4,1,0,90,0,0
225457,-92.5925925925926,4,1,0,90,0,0
225564,-94.3396226415094,4,1,0,90,0,0
225672,-96.1538461538461,4,1,0,90,0,0
225779,-98.0392156862745,4,1,0,90,0,0
225886,-100,4,1,0,90,0,0
238743,-99.009900990099,4,1,0,90,0,0
238850,-98.0392156862745,4,1,0,90,0,0
238957,-97.0873786407767,4,1,0,90,0,0
239064,-96.1538461538461,4,1,0,90,0,0
239172,-95.2380952380952,4,1,0,90,0,0
239600,-90.9090909090909,4,1,0,90,0,0
252886,-89.2857142857143,4,1,0,90,0,0
252993,-87.719298245614,4,1,0,90,0,0
253100,-86.2068965517241,4,1,0,90,0,0
253207,-84.7457627118644,4,1,0,90,0,0
253314,-83.3333333333333,4,1,0,90,0,1
267029,-86.9565217391304,4,1,0,90,0,1
280314,-87.719298245614,4,1,0,90,0,1
280422,-88.4955752212389,4,1,0,90,0,1
280529,-89.2857142857143,4,1,0,90,0,1
280636,-90.0900900900901,4,1,0,90,0,1
280743,-90.9090909090909,4,1,0,90,0,0
281386,-92.5925925925926,4,1,0,90,0,0
282029,-94.3396226415094,4,1,0,90,0,0
282457,-96.1538461538461,4,1,0,90,0,0
283314,-98.0392156862745,4,1,0,90,0,0
284064,-100,4,1,0,90,0,0
284279,-100,4,1,0,60,0,0
285993,-100,4,1,0,70,0,0
286743,-100,4,1,0,60,0,0
287172,-100,4,1,0,50,0,0
287600,428.571428571429,4,1,0,35,1,8
287600,-100,4,1,0,35,0,0
288173,485.829959514171,4,1,0,40,1,8
288173,-88.2142857140053,4,1,0,40,0,0
288415,588.235294117647,4,1,0,40,1,8
288415,-72.8571428570284,4,1,0,40,0,0
288709,546.697038724373,4,1,0,40,1,0
288709,-78.3928571428697,4,1,0,40,0,0
289256,572.792362768496,4,1,0,40,1,8
289256,-74.8214285712322,4,1,0,40,0,0
289828,581.113801452784,4,1,0,40,1,8
289828,-73.7499999999908,4,1,0,40,0,0
290409,564.705882352941,4,1,0,40,1,8
290409,-75.8928571430604,4,1,0,40,0,0
290974,573.339703774486,4,1,0,40,1,0
290974,-74.7500000000262,4,1,0,40,0,0
292120,588.235294117647,4,1,0,40,1,8
292120,-72.8571428570284,4,1,0,40,0,0
292708,566.037735849057,4,1,0,40,1,8
292708,-75.7142857143506,4,1,0,40,0,0
293274,566.037735849057,4,1,0,40,1,0
293274,-75.7142857143506,4,1,0,40,0,0
293840,588.235294117647,4,1,0,40,1,8
293840,-72.8571428570284,4,1,0,40,0,0
294428,563.90977443609,4,1,0,40,1,8
294428,-76.0000000002432,4,1,0,40,0,0
294992,563.38028169014,4,1,0,40,1,8
294992,-76.0714285714476,4,1,0,40,0,0
295555,563.38028169014,4,1,0,40,1,0
295555,-76.0714285714476,4,1,0,40,0,0
296400,631.57894736842,4,1,0,40,1,8
296400,-67.8571428569732,4,1,0,40,0,0
296715,560.747663551401,4,1,0,40,1,8
296715,-76.4285714287625,4,1,0,40,0,0
297836,588.235294117647,4,1,0,40,1,0
297836,-72.8571428570284,4,1,0,40,0,0
298424,491.803278688524,4,1,0,40,1,8
298424,-87.1428571425957,4,1,0,40,0,0
298669,629.921259842519,4,1,0,40,1,8
298669,-68.0357142855235,4,1,0,40,0,0
298984,559.440559440559,4,1,0,40,1,8
298984,-76.6071428572195,4,1,0,40,0,0
299543,571.428571428571,4,1,0,40,1,8
299543,-75.0000000001875,4,1,0,40,0,0
300114,579.710144927536,4,1,0,40,1,0
300114,-73.9285714286216,4,1,0,40,0,0
300983,545.454545454545,4,1,0,40,1,8
300983,-78.5714285712602,4,1,0,40,0,0
301255,579.710144927536,4,1,0,40,1,8
301255,-73.9285714286216,4,1,0,40,0,0
301834,555.555555555555,4,1,0,40,1,8
301834,-77.1428571426367,4,1,0,40,0,0
302389,591.133004926108,4,1,0,40,1,0
302389,-72.4999999998731,4,1,0,40,0,0
302980,521.739130434782,4,1,0,40,1,8
302980,-82.1428571427105,4,1,0,40,0,0
303240,600,4,1,0,40,1,8
303240,-71.4285714285714,4,1,0,40,0,0
303540,610.066090493137,4,1,0,40,1,8
303540,-70.2500000001967,4,1,0,40,0,0
304150,579.710144927536,4,1,0,40,1,8
304150,-73.9285714286216,4,1,0,40,0,0
304440,879.120879120878,4,1,0,40,1,8
304440,-48.7500000000488,4,1,0,40,0,0
304879,854.09252669039,4,1,0,40,1,0
304879,-50.1785714285105,4,1,0,40,0,0
306160,882.352941176469,4,1,0,40,1,8
306160,-48.5714285714702,4,1,0,40,0,0
306601,625.978090766823,4,1,0,40,1,0
306601,-68.464285714407,4,1,0,40,0,0
307227,714.285714285714,4,1,0,40,1,8
307227,-59.99999999988,4,1,0,40,0,0
307941,659.34065934066,4,1,0,40,1,8
307941,-65.000000000065,4,1,0,40,0,0

[HitObjects]
256,192,1680,5,0,0:0:0:0:
256,192,1816,1,0,0:0:0:0:
256,192,1953,1,8,0:0:0:0:
256,192,2498,1,0,0:0:0:0:
256,192,3043,1,0,0:0:0:0:
256,192,3589,1,8,0:0:0:0:
256,192,3862,1,0,0:0:0:0:
256,192,4134,1,8,0:0:0:0:
256,192,4407,1,8,0:0:0:0:
256,192,4680,1,8,0:0:0:0:
256,192,4953,1,0,0:0:0:0:
256,192,5225,1,8,0:0:0:0:
256,192,5771,1,8,0:0:0:0:
256,192,6043,1,0,0:0:0:0:
256,192,6316,1,8,0:0:0:0:
256,192,6589,1,8,0:0:0:0:
256,192,6862,1,0,0:0:0:0:
256,192,7134,1,0,0:0:0:0:
256,192,7407,1,8,0:0:0:0:
256,192,7680,1,0,0:0:0:0:
256,192,7953,1,8,0:0:0:0:
256,192,8498,1,8,0:0:0:0:
256,192,8771,1,8,0:0:0:0:
256,192,9043,1,8,0:0:0:0:
256,192,9316,1,0,0:0:0:0:
256,192,9589,1,8,0:0:0:0:
256,192,10134,1,8,0:0:0:0:
256,192,10407,1,0,0:0:0:0:
256,192,10680,1,8,0:0:0:0:
256,192,10953,1,0,0:0:0:0:
256,192,11225,1,8,0:0:0:0:
256,192,11498,1,8,0:0:0:0:
256,192,12043,1,0,0:0:0:0:
256,192,12316,1,8,0:0:0:0:
256,192,12589,1,0,0:0:0:0:
256,192,12862,1,8,0:0:0:0:
256,192,13407,1,0,0:0:0:0:
256,192,13680,1,0,0:0:0:0:
256,192,13953,1,8,0:0:0:0:
256,192,14225,1,8,0:0:0:0:
256,192,14498,1,8,0:0:0:0:
256,192,14771,1,0,0:0:0:0:
256,192,15043,1,8,0:0:0:0:
256,192,17143,1,0,0:0:0:0:
256,192,17443,1,8,0:0:0:0:
256,192,18043,12,0,19543,0:0:0:0:
256,192,19744,5,8,0:0:0:0:
256,192,19958,5,0,0:0:0:0:
256,192,20172,1,12,0:0:0:0:
256,192,20600,1,0,0:0:0:0:
256,192,20814,1,8,0:0:0:0:
256,192,21457,1,8,0:0:0:0:
256,192,21672,1,0,0:0:0:0:
256,192,21886,1,12,0:0:0:0:
256,192,22529,1,8,0:0:0:0:
256,192,23172,1,0,0:0:0:0:
256,192,23386,1,0,0:0:0:0:
256,192,23600,1,12,0:0:0:0:
256,192,24243,1,8,0:0:0:0:
256,192,24672,1,8,0:0:0:0:
256,192,24886,1,0,0:0:0:0:
256,192,25100,1,0,0:0:0:0:
256,192,25314,1,12,0:0:0:0:
256,192,25957,1,0,0:0:0:0:
256,192,26600,1,0,0:0:0:0:
256,192,27029,1,12,0:0:0:0:
256,192,27672,1,0,0:0:0:0:
256,192,28314,1,8,0:0:0:0:
256,192,28529,1,0,0:0:0:0:
256,192,28743,1,12,0:0:0:0:
256,192,29386,1,8,0:0:0:0:
256,192,29814,1,8,0:0:0:0:
256,192,29922,1,8,0:0:0:0:
256,192,30029,1,0,0:0:0:0:
256,192,30136,1,8,0:0:0:0:
256,192,30243,1,0,0:0:0:0:
256,192,30350,1,0,0:0:0:0:
256,192,30457,1,12,0:0:0:0:
256,192,30886,1,8,0:0:0:0:
256,192,31100,1,0,0:0:0:0:
256,192,31207,1,0,0:0:0:0:
256,192,31314,1,8,0:0:0:0:
256,192,31743,1,8,0:0:0:0:
256,192,31957,1,0,0:0:0:0:
256,192,32172,1,8,0:0:0:0:
256,192,32600,1,8,0:0:0:0:
256,192,32707,1,0,0:0:0:0:
256,192,32922,1,0,0:0:0:0:
256,192,33029,1,8,0:0:0:0:
256,192,33136,1,8,0:0:0:0:
256,192,33243,1,0,0:0:0:0:
256,192,33350,1,0,0:0:0:0:
256,192,33457,1,8,0:0:0:0:
256,192,33886,1,4,0:0:0:0:
256,192,34100,1,8,0:0:0:0:
256,192,34207,1,8,0:0:0:0:
256,192,34314,1,0,0:0:0:0:
256,192,34422,5,0,0:0:0:0:
256,192,34529,1,8,0:0:0:0:
256,192,34743,1,0,0:0:0:0:
256,192,34957,1,8,0:0:0:0:
256,192,35064,1,0,0:0:0:0:
256,192,35172,1,8,0:0:0:0:
256,192,35279,1,8,0:0:0:0:
256,192,35386,1,8,0:0:0:0:
256,192,35493,1,0,0:0:0:0:
256,192,35600,1,8,0:0:0:0:
256,192,35814,1,8,0:0:0:0:
256,192,35922,1,0,0:0:0:0:
256,192,36029,1,0,0:0:0:0:
256,192,36136,1,0,0:0:0:0:
256,192,36243,1,8,0:0:0:0:
256,192,36457,1,0,0:0:0:0:
256,192,36672,1,8,0:0:0:0:
256,192,36725,1,8,0:0:0:0:
256,192,36779,1,8,0:0:0:0:
256,192,36886,1,0,0:0:0:0:
256,192,36993,1,0,0:0:0:0:
256,192,37100,1,8,0:0:0:0:
256,192,37314,1,0,0:0:0:0:
256,192,37529,1,8,0:0:0:0:
256,192,37636,1,8,0:0:0:0:
256,192,37743,1,0,0:0:0:0:
256,192,37850,1,0,0:0:0:0:
256,192,37957,1,8,0:0:0:0:
256,192,38172,1,0,0:0:0:0:
256,192,38386,1,8,0:0:0:0:
256,192,38493,1,0,0:0:0:0:
256,192,38600,1,8,0:0:0:0:
256,192,38707,1,8,0:0:0:0:
256,192,38814,1,0,0:0:0:0:
256,192,39029,1,0,0:0:0:0:
256,192,39243,1,8,0:0:0:0:
256,192,39457,1,0,0:0:0:0:
256,192,39564,1,0,0:0:0:0:
256,192,39672,1,8,0:0:0:0:
256,192,39886,1,0,0:0:0:0:
256,192,40100,1,8,0:0:0:0:
256,192,40314,1,8,0:0:0:0:
256,192,40529,1,8,0:0:0:0:
256,192,40636,1,0,0:0:0:0:
256,192,40743,1,12,0:0:0:0:
256,192,40957,1,8,0:0:0:0:
256,192,41064,1,0,0:0:0:0:
256,192,41172,1,8,0:0:0:0:
256,192,41279,1,8,0:0:0:0:
256,192,41386,1,0,0:0:0:0:
256,192,41600,1,8,0:0:0:0:
256,192,41814,1,0,0:0:0:0:
256,192,41922,1,8,0:0:0:0:
256,192,42029,1,8,0:0:0:0:
256,192,42136,1,0,0:0:0:0:
256,192,42243,1,0,0:0:0:0:
256,192,42457,1,8,0:0:0:0:
256,192,42672,1,8,0:0:0:0:
256,192,42779,1,8,0:0:0:0:
256,192,42886,1,0,0:0:0:0:
256,192,43100,1,8,0:0:0:0:
256,192,43314,1,0,0:0:0:0:
256,192,43529,1,8,0:0:0:0:
256,192,43636,1,8,0:0:0:0:
256,192,43743,1,0,0:0:0:0:
256,192,43850,1,0,0:0:0:0:
256,192,43957,1,8,0:0:0:0:
256,192,44064,1,0,0:0:0:0:
256,192,44172,1,8,0:0:0:0:
256,192,44386,1,0,0:0:0:0:
256,192,44600,1,8,0:0:0:0:
256,192,44707,1,0,0:0:0:0:
256,192,44814,1,8,0:0:0:0:
256,192,45029,1,0,0:0:0:0:
256,192,45243,1,8,0:0:0:0:
256,192,45457,1,8,0:0:0:0:
256,192,45564,1,8,0:0:0:0:
256,192,45672,1,0,0:0:0:0:
256,192,45886,1,12,0:0:0:0:
256,192,46100,1,0,0:0:0:0:
256,192,46207,1,12,0:0:0:0:
256,192,46422,1,0,0:0:0:0:
256,192,46529,1,12,0:0:0:0:
256,192,46743,1,8,0:0:0:0:
256,192,46814,1,8,0:0:0:0:
256,192,46886,1,8,0:0:0:0:
256,192,46957,1,0,0:0:0:0:
256,192,47172,1,12,0:0:0:0:
256,192,47600,1,4,0:0:0:0:
256,192,48243,1,8,0:0:0:0:
256,192,48672,1,0,0:0:0:0:
256,192,48886,1,0,0:0:0:0:
256,192,49100,1,8,0:0:0:0:
256,192,50172,1,8,0:0:0:0:
256,192,50600,1,0,0:0:0:0:
256,192,51029,1,8,0:0:0:0:
256,192,51672,1,0,0:0:0:0:
256,192,52100,1,0,0:0:0:0:
256,192,52314,1,8,0:0:0:0:
256,192,52529,1,8,0:0:0:0:
256,192,53600,1,8,0:0:0:0:
256,192,54029,1,0,0:0:0:0:
256,192,54457,1,8,0:0:0:0:
256,192,55100,1,0,0:0:0:0:
256,192,55529,1,0,0:0:0:0:
256,192,55743,1,8,0:0:0:0:
256,192,55957,1,0,0:0:0:0:
256,192,57029,1,8,0:0:0:0:
256,192,57457,1,0,0:0:0:0:
256,192,57672,1,0,0:0:0:0:
256,192,57886,1,8,0:0:0:0:
256,192,59172,1,8,0:0:0:0:
256,192,59600,1,0,0:0:0:0:
256,192,60029,1,0,0:0:0:0:
256,192,60243,1,8,0:0:0:0:
256,192,60350,1,0,0:0:0:0:
256,192,60457,1,8,0:0:0:0:
256,192,60672,1,0,0:0:0:0:
256,192,60779,1,8,0:0:0:0:
256,192,60886,1,8,0:0:0:0:
256,192,60993,1,0,0:0:0:0:
256,192,61207,1,0,0:0:0:0:
256,192,61314,1,12,0:0:0:0:
256,192,61529,1,0,0:0:0:0:
256,192,61743,1,8,0:0:0:0:
256,192,61957,1,0,0:0:0:0:
256,192,62064,1,8,0:0:0:0:
256,192,62279,1,8,0:0:0:0:
256,192,62386,1,0,0:0:0:0:
256,192,62600,1,8,0:0:0:0:
256,192,62814,1,0,0:0:0:0:
256,192,62922,1,8,0:0:0:0:
256,192,63029,1,0,0:0:0:0:
256,192,63243,1,0,0:0:0:0:
256,192,63457,1,8,0:0:0:0:
256,192,63672,1,0,0:0:0:0:
256,192,63779,1,8,0:0:0:0:
256,192,63993,1,8,0:0:0:0:
256,192,64100,1,0,0:0:0:0:
256,192,64314,1,8,0:0:0:0:
256,192,64529,1,0,0:0:0:0:
256,192,64636,1,0,0:0:0:0:
256,192,64743,1,12,0:0:0:0:
256,192,64957,1,0,0:0:0:0:
256,192,65172,1,8,0:0:0:0:
256,192,65386,1,0,0:0:0:0:
256,192,65493,1,8,0:0:0:0:
256,192,65707,1,0,0:0:0:0:
256,192,65814,1,8,0:0:0:0:
256,192,66029,1,8,0:0:0:0:
256,192,66243,1,0,0:0:0:0:
256,192,66350,1,8,0:0:0:0:
256,192,66457,1,0,0:0:0:0:
256,192,66672,1,0,0:0:0:0:
256,192,66886,1,8,0:0:0:0:
256,192,67100,1,0,0:0:0:0:
256,192,67207,1,8,0:0:0:0:
256,192,67314,1,0,0:0:0:0:
256,192,67422,1,8,0:0:0:0:
256,192,67529,1,0,0:0:0:0:
256,192,67743,1,8,0:0:0:0:
256,192,67850,1,0,0:0:0:0:
256,192,68064,1,0,0:0:0:0:
256,192,68172,1,12,0:0:0:0:
256,192,68386,1,0,0:0:0:0:
256,192,68600,1,8,0:0:0:0:
256,192,68814,1,0,0:0:0:0:
256,192,68922,1,8,0:0:0:0:
256,192,69136,1,8,0:0:0:0:
256,192,69243,1,0,0:0:0:0:
256,192,69457,1,8,0:0:0:0:
256,192,69672,1,0,0:0:0:0:
256,192,69779,1,8,0:0:0:0:
256,192,69886,1,0,0:0:0:0:
256,192,70100,1,0,0:0:0:0:
256,192,70314,1,8,0:0:0:0:
256,192,70529,1,8,0:0:0:0:
256,192,70636,1,0,0:0:0:0:
256,192,70850,1,8,0:0:0:0:
256,192,70957,1,8,0:0:0:0:
256,192,71172,1,8,0:0:0:0:
256,192,71386,1,0,0:0:0:0:
256,192,71493,1,0,0:0:0:0:
256,192,71600,1,12,0:0:0:0:
256,192,71814,1,0,0:0:0:0:
256,192,72029,1,8,0:0:0:0:
256,192,72243,1,0,0:0:0:0:
256,192,72350,1,8,0:0:0:0:
256,192,72564,1,8,0:0:0:0:
256,192,72672,1,0,0:0:0:0:
256,192,72886,1,8,0:0:0:0:
256,192,73100,1,0,0:0:0:0:
256,192,73207,1,8,0:0:0:0:
256,192,73314,1,0,0:0:0:0:
256,192,73529,1,0,0:0:0:0:
256,192,73743,1,8,0:0:0:0:
256,192,73957,1,8,0:0:0:0:
256,192,74064,1,8,0:0:0:0:
256,192,74172,1,0,0:0:0:0:
256,192,74600,1,0,0:0:0:0:
256,192,75029,1,12,0:0:0:0:
256,192,75457,1,0,0:0:0:0:
256,192,75672,1,0,0:0:0:0:
256,192,75886,1,12,0:0:0:0:
256,192,76314,1,8,0:0:0:0:
256,192,76529,1,0,0:0:0:0:
256,192,77172,1,0,0:0:0:0:
256,192,77600,1,8,0:0:0:0:
256,192,78029,1,0,0:0:0:0:
256,192,78457,1,8,0:0:0:0:
256,192,78886,1,0,0:0:0:0:
256,192,79100,1,0,0:0:0:0:
256,192,79314,1,8,0:0:0:0:
256,192,79743,1,8,0:0:0:0:
256,192,79957,1,0,0:0:0:0:
256,192,80172,1,8,0:0:0:0:
256,192,80600,1,0,0:0:0:0:
256,192,81029,1,8,0:0:0:0:
256,192,81243,1,0,0:0:0:0:
256,192,81672,1,0,0:0:0:0:
256,192,81886,1,12,0:0:0:0:
256,192,82529,1,0,0:0:0:0:
256,192,82743,1,12,0:0:0:0:
256,192,83386,1,0,0:0:0:0:
256,192,83814,1,8,0:0:0:0:
256,192,84029,1,0,0:0:0:0:
256,192,84243,1,0,0:0:0:0:
256,192,84457,1,8,0:0:0:0:
256,192,84672,1,0,0:0:0:0:
256,192,85100,1,8,0:0:0:0:
256,192,85314,1,12,0:0:0:0:
256,192,85957,1,0,0:0:0:0:
256,192,86172,1,8,0:0:0:0:
256,192,86600,1,0,0:0:0:0:
256,192,87029,1,8,0:0:0:0:
256,192,87457,1,8,0:0:0:0:
256,192,87886,1,0,0:0:0:0:
256,192,87993,1,8,0:0:0:0:
256,192,88207,1,8,0:0:0:0:
256,192,88314,1,0,0:0:0:0:
256,192,88422,1,8,0:0:0:0:
256,192,88529,1,8,0:0:0:0:
256,192,88636,1,0,0:0:0:0:
256,192,88743,1,12,0:0:0:0:
256,192,88957,1,0,0:0:0:0:
256,192,89172,1,8,0:0:0:0:
256,192,89600,1,0,0:0:0:0:
256,192,89814,1,0,0:0:0:0:
256,192,90029,1,8,0:0:0:0:
256,192,90243,1,8,0:0:0:0:
256,192,90457,1,0,0:0:0:0:
256,192,90672,1,0,0:0:0:0:
256,192,90886,1,8,0:0:0:0:
256,192,91314,1,8,0:0:0:0:
256,192,91529,1,0,0:0:0:0:
256,192,91743,1,8,0:0:0:0:
256,192,92172,1,8,0:0:0:0:
256,192,92386,1,0,0:0:0:0:
256,192,92600,1,12,0:0:0:0:
256,192,92814,1,0,0:0:0:0:
256,192,93029,1,12,0:0:0:0:
256,192,93243,1,0,0:0:0:0:
256,192,93457,1,8,0:0:0:0:
256,192,93564,1,8,0:0:0:0:
256,192,93672,1,0,0:0:0:0:
256,192,93779,1,0,0:0:0:0:
256,192,93886,1,12,0:0:0:0:
256,192,94743,1,8,0:0:0:0:
256,192,95172,1,0,0:0:0:0:
256,192,95600,1,12,0:0:0:0:
256,192,95814,1,0,0:0:0:0:
256,192,95922,1,0,0:0:0:0:
256,192,96029,1,8,0:0:0:0:
256,192,96243,1,0,0:0:0:0:
256,192,96350,1,8,0:0:0:0:
256,192,96457,1,8,0:0:0:0:
256,192,96564,1,0,0:0:0:0:
256,192,96672,1,0,0:0:0:0:
256,192,96779,1,8,0:0:0:0:
256,192,96886,1,0,0:0:0:0:
256,192,96993,1,8,0:0:0:0:
256,192,97100,1,8,0:0:0:0:
256,192,97314,1,4,0:0:0:0:
256,192,97529,1,0,0:0:0:0:
256,192,97636,1,8,0:0:0:0:
256,192,97743,1,8,0:0:0:0:
256,192,97850,1,8,0:0:0:0:
256,192,97957,1,0,0:0:0:0:
256,192,98064,1,8,0:0:0:0:
256,192,98172,1,0,0:0:0:0:
256,192,98386,1,0,0:0:0:0:
256,192,98493,1,8,0:0:0:0:
256,192,98600,1,8,0:0:0:0:
256,192,98707,1,0,0:0:0:0:
256,192,98922,1,8,0:0:0:0:
256,192,99029,1,4,0:0:0:0:
256,192,99243,1,0,0:0:0:0:
256,192,99350,1,8,0:0:0:0:
256,192,99457,1,8,0:0:0:0:
256,192,99672,1,0,0:0:0:0:
256,192,99779,1,0,0:0:0:0:
256,192,99886,1,8,0:0:0:0:
256,192,100100,1,8,0:0:0:0:
256,192,100207,1,0,0:0:0:0:
256,192,100314,1,8,0:0:0:0:
256,192,100422,1,8,0:0:0:0:
256,192,100529,1,0,0:0:0:0:
256,192,100636,1,8,0:0:0:0:
256,192,100743,1,4,0:0:0:0:
256,192,100957,1,0,0:0:0:0:
256,192,101064,1,8,0:0:0:0:
256,192,101172,1,0,0:0:0:0:
256,192,101279,1,0,0:0:0:0:
256,192,101386,1,8,0:0:0:0:
256,192,101600,1,8,0:0:0:0:
256,192,101814,1,0,0:0:0:0:
256,192,101922,1,8,0:0:0:0:
256,192,102029,1,8,0:0:0:0:
256,192,102136,1,0,0:0:0:0:
256,192,102243,1,0,0:0:0:0:
256,192,102350,1,0,0:0:0:0:
256,192,102457,1,12,0:0:0:0:
256,192,102672,1,0,0:0:0:0:
256,192,102886,1,0,0:0:0:0:
256,192,103100,1,12,0:0:0:0:
256,192,103314,1,0,0:0:0:0:
256,192,103529,1,12,0:0:0:0:
256,192,103743,1,8,0:0:0:0:
256,192,103850,1,8,0:0:0:0:
256,192,103957,1,0,0:0:0:0:
256,192,104172,1,12,0:0:0:0:
256,192,104386,1,0,0:0:0:0:
256,192,104600,1,0,0:0:0:0:
256,192,104814,1,12,0:0:0:0:
256,192,105029,1,0,0:0:0:0:
256,192,105243,1,12,0:0:0:0:
256,192,105457,1,0,0:0:0:0:
256,192,105564,1,8,0:0:0:0:
256,192,105672,1,0,0:0:0:0:
256,192,105886,1,12,0:0:0:0:
256,192,106100,1,0,0:0:0:0:
256,192,106314,1,0,0:0:0:0:
256,192,106529,1,12,0:0:0:0:
256,192,106743,1,0,0:0:0:0:
256,192,106957,1,12,0:0:0:0:
256,192,107172,1,0,0:0:0:0:
256,192,107279,1,8,0:0:0:0:
256,192,107386,1,8,0:0:0:0:
256,192,107493,1,0,0:0:0:0:
256,192,107600,1,12,0:0:0:0:
256,192,107814,1,0,0:0:0:0:
256,192,108029,1,12,0:0:0:0:
256,192,108243,1,0,0:0:0:0:
256,192,108457,1,8,0:0:0:0:
256,192,108564,1,8,0:0:0:0:
256,192,108672,1,8,0:0:0:0:
256,192,108779,1,8,0:0:0:0:
256,192,108886,1,0,0:0:0:0:
256,192,108993,1,0,0:0:0:0:
256,192,109100,1,0,0:0:0:0:
256,192,109207,1,0,0:0:0:0:
256,192,109314,1,12,0:0:0:0:
256,192,109529,1,0,0:0:0:0:
256,192,109743,1,8,0:0:0:0:
256,192,109957,1,0,0:0:0:0:
256,192,110064,1,8,0:0:0:0:
256,192,110279,1,8,0:0:0:0:
256,192,110386,1,0,0:0:0:0:
256,192,110600,1,8,0:0:0:0:
256,192,110814,1,8,0:0:0:0:
256,192,110922,1,8,0:0:0:0:
256,192,111029,1,0,0:0:0:0:
256,192,111243,1,0,0:0:0:0:
256,192,111457,1,8,0:0:0:0:
256,192,111672,1,8,0:0:0:0:
256,192,111779,1,8,0:0:0:0:
256,192,111886,1,0,0:0:0:0:
256,192,111993,1,8,0:0:0:0:
256,192,112100,1,0,0:0:0:0:
256,192,112314,1,8,0:0:0:0:
256,192,112422,1,8,0:0:0:0:
256,192,112529,1,0,0:0:0:0:
256,192,112636,1,0,0:0:0:0:
256,192,112743,1,12,0:0:0:0:
256,192,112957,1,0,0:0:0:0:
256,192,113172,1,8,0:0:0:0:
256,192,113386,1,0,0:0:0:0:
256,192,113493,1,8,0:0:0:0:
256,192,113707,1,8,0:0:0:0:
256,192,113814,1,0,0:0:0:0:
256,192,114029,1,8,0:0:0:0:
256,192,114243,1,0,0:0:0:0:
256,192,114350,1,0,0:0:0:0:
256,192,114457,1,8,0:0:0:0:
256,192,114672,1,0,0:0:0:0:
256,192,114886,1,8,0:0:0:0:
256,192,115100,1,0,0:0:0:0:
256,192,115207,1,8,0:0:0:0:
256,192,115314,1,0,0:0:0:0:
256,192,115422,1,8,0:0:0:0:
256,192,115529,1,8,0:0:0:0:
256,192,115743,1,8,0:0:0:0:
256,192,115850,1,8,0:0:0:0:
256,192,115957,1,8,0:0:0:0:
256,192,116064,1,0,0:0:0:0:
256,192,116172,1,12,0:0:0:0:
256,192,116386,1,0,0:0:0:0:
256,192,116600,1,8,0:0:0:0:
256,192,116814,1,0,0:0:0:0:
256,192,116922,1,8,0:0:0:0:
256,192,117029,1,8,0:0:0:0:
256,192,117136,1,8,0:0:0:0:
256,192,117243,1,0,0:0:0:0:
256,192,117457,1,8,0:0:0:0:
256,192,117672,1,0,0:0:0:0:
256,192,117779,1,8,0:0:0:0:
256,192,117886,1,0,0:0:0:0:
256,192,118100,1,0,0:0:0:0:
256,192,118314,1,8,0:0:0:0:
256,192,118529,1,0,0:0:0:0:
256,192,118636,1,8,0:0:0:0:
256,192,118850,1,0,0:0:0:0:
256,192,118957,1,8,0:0:0:0:
256,192,119172,1,8,0:0:0:0:
256,192,119386,1,0,0:0:0:0:
256,192,119493,1,0,0:0:0:0:
256,192,119600,1,12,0:0:0:0:
256,192,119814,1,0,0:0:0:0:
256,192,120029,1,8,0:0:0:0:
256,192,120243,1,0,0:0:0:0:
256,192,120350,1,8,0:0:0:0:
256,192,120564,1,8,0:0:0:0:
256,192,120672,1,0,0:0:0:0:
256,192,120886,1,8,0:0:0:0:
256,192,121100,1,0,0:0:0:0:
256,192,121207,1,0,0:0:0:0:
256,192,121314,1,12,0:0:0:0:
256,192,121529,1,0,0:0:0:0:
256,192,121636,1,8,0:0:0:0:
256,192,121743,1,8,0:0:0:0:
256,192,121850,1,0,0:0:0:0:
256,192,121957,1,8,0:0:0:0:
256,192,122172,1,12,0:0:0:0:
256,192,122386,1,0,0:0:0:0:
256,192,122493,1,0,0:0:0:0:
256,192,122600,1,8,0:0:0:0:
256,192,122707,1,0,0:0:0:0:
256,192,122922,1,0,0:0:0:0:
256,192,123029,1,12,0:0:0:0:
256,192,123243,1,0,0:0:0:0:
256,192,123457,1,12,0:0:0:0:
256,192,123672,1,0,0:0:0:0:
256,192,123779,1,8,0:0:0:0:
256,192,123886,1,8,0:0:0:0:
256,192,123993,1,0,0:0:0:0:
256,192,124100,1,0,0:0:0:0:
256,192,124314,1,8,0:0:0:0:
256,192,124529,1,0,0:0:0:0:
256,192,124636,1,8,0:0:0:0:
256,192,124743,1,8,0:0:0:0:
256,192,124957,1,0,0:0:0:0:
256,192,125172,1,8,0:0:0:0:
256,192,125386,1,0,0:0:0:0:
256,192,125493,1,8,0:0:0:0:
256,192,125707,1,8,0:0:0:0:
256,192,125814,1,0,0:0:0:0:
256,192,126029,1,8,0:0:0:0:
256,192,126243,1,0,0:0:0:0:
256,192,126350,1,0,0:0:0:0:
256,192,126457,1,12,0:0:0:0:
256,192,126672,1,0,0:0:0:0:
256,192,126886,1,8,0:0:0:0:
256,192,127100,1,0,0:0:0:0:
256,192,127207,1,8,0:0:0:0:
256,192,127314,1,8,0:0:0:0:
256,192,127422,1,8,0:0:0:0:
256,192,127529,1,0,0:0:0:0:
256,192,127743,1,8,0:0:0:0:
256,192,127957,1,0,0:0:0:0:
256,192,128172,1,0,0:0:0:0:
256,192,128386,1,8,0:0:0:0:
256,192,128600,1,8,0:0:0:0:
256,192,128707,1,8,0:0:0:0:
256,192,128814,1,0,0:0:0:0:
256,192,129029,1,8,0:0:0:0:
256,192,129457,1,0,0:0:0:0:
256,192,129672,1,8,0:0:0:0:
256,192,129779,1,8,0:0:0:0:
256,192,129886,1,4,0:0:0:0:
256,192,130100,1,8,0:0:0:0:
256,192,130207,1,0,0:0:0:0:
256,192,130314,1,8,0:0:0:0:
256,192,130422,1,0,0:0:0:0:
256,192,130529,1,8,0:0:0:0:
256,192,130743,1,0,0:0:0:0:
256,192,130957,1,8,0:0:0:0:
256,192,131064,1,0,0:0:0:0:
256,192,131172,1,8,0:0:0:0:
256,192,131279,1,8,0:0:0:0:
256,192,131386,1,0,0:0:0:0:
256,192,131493,1,8,0:0:0:0:
256,192,131600,1,0,0:0:0:0:
256,192,131814,1,8,0:0:0:0:
256,192,131922,1,0,0:0:0:0:
256,192,132029,1,0,0:0:0:0:
256,192,132136,1,8,0:0:0:0:
256,192,132243,1,8,0:0:0:0:
256,192,132457,1,0,0:0:0:0:
256,192,132672,1,8,0:0:0:0:
256,192,132725,1,8,0:0:0:0:
256,192,132779,1,8,0:0:0:0:
256,192,132886,1,0,0:0:0:0:
256,192,132993,1,0,0:0:0:0:
256,192,133100,1,8,0:0:0:0:
256,192,133314,1,0,0:0:0:0:
256,192,133529,1,0,0:0:0:0:
256,192,133636,1,8,0:0:0:0:
256,192,133743,1,0,0:0:0:0:
256,192,133850,1,8,0:0:0:0:
256,192,133957,1,8,0:0:0:0:
256,192,134172,1,0,0:0:0:0:
256,192,134386,1,8,0:0:0:0:
256,192,134493,1,0,0:0:0:0:
256,192,134600,1,8,0:0:0:0:
256,192,134707,1,8,0:0:0:0:
256,192,134814,1,8,0:0:0:0:
256,192,135029,1,0,0:0:0:0:
256,192,135243,1,8,0:0:0:0:
256,192,135457,1,0,0:0:0:0:
256,192,135564,1,0,0:0:0:0:
256,192,135672,1,8,0:0:0:0:
256,192,135886,1,0,0:0:0:0:
256,192,136100,1,8,0:0:0:0:
256,192,136314,1,8,0:0:0:0:
256,192,136529,1,8,0:0:0:0:
256,192,136636,1,0,0:0:0:0:
256,192,136743,1,12,0:0:0:0:
256,192,136957,1,8,0:0:0:0:
256,192,137064,1,0,0:0:0:0:
256,192,137172,1,0,0:0:0:0:
256,192,137279,1,8,0:0:0:0:
256,192,137386,1,0,0:0:0:0:
256,192,137600,1,8,0:0:0:0:
256,192,137814,1,0,0:0:0:0:
256,192,137922,1,8,0:0:0:0:
256,192,138029,1,8,0:0:0:0:
256,192,138136,1,8,0:0:0:0:
256,192,138243,1,0,0:0:0:0:
256,192,138457,1,8,0:0:0:0:
256,192,138672,1,8,0:0:0:0:
256,192,138779,1,8,0:0:0:0:
256,192,138886,1,0,0:0:0:0:
256,192,138993,1,0,0:0:0:0:
256,192,139100,1,8,0:0:0:0:
256,192,139314,1,0,0:0:0:0:
256,192,139529,1,8,0:0:0:0:
256,192,139636,1,8,0:0:0:0:
256,192,139743,1,0,0:0:0:0:
256,192,139850,1,8,0:0:0:0:
256,192,139957,1,8,0:0:0:0:
256,192,140064,1,0,0:0:0:0:
256,192,140172,1,8,0:0:0:0:
256,192,140386,1,0,0:0:0:0:
256,192,140600,1,8,0:0:0:0:
256,192,140707,1,0,0:0:0:0:
256,192,140814,1,8,0:0:0:0:
256,192,141029,1,0,0:0:0:0:
256,192,141243,1,8,0:0:0:0:
256,192,141457,1,8,0:0:0:0:
256,192,141564,1,8,0:0:0:0:
256,192,141672,1,0,0:0:0:0:
256,192,141886,1,12,0:0:0:0:
256,192,142100,1,0,0:0:0:0:
256,192,142207,1,12,0:0:0:0:
256,192,142422,1,0,0:0:0:0:
256,192,142529,1,12,0:0:0:0:
256,192,142743,1,8,0:0:0:0:
256,192,142814,1,8,0:0:0:0:
256,192,142886,1,8,0:0:0:0:
256,192,142957,1,0,0:0:0:0:
256,192,143172,1,12,0:0:0:0:
256,192,143600,1,4,0:0:0:0:
256,192,144243,1,8,0:0:0:0:
256,192,144672,1,0,0:0:0:0:
256,192,144886,1,0,0:0:0:0:
256,192,145100,1,8,0:0:0:0:
256,192,146172,1,8,0:0:0:0:
256,192,146600,1,0,0:0:0:0:
256,192,147029,1,8,0:0:0:0:
256,192,147672,1,0,0:0:0:0:
256,192,148100,1,8,0:0:0:0:
256,192,148314,1,8,0:0:0:0:
256,192,148529,1,0,0:0:0:0:
256,192,149600,1,8,0:0:0:0:
256,192,150029,1,0,0:0:0:0:
256,192,150457,1,8,0:0:0:0:
256,192,151100,1,0,0:0:0:0:
256,192,151529,1,8,0:0:0:0:
256,192,151743,1,8,0:0:0:0:
256,192,151957,1,0,0:0:0:0:
256,192,153029,1,8,0:0:0:0:
256,192,153457,1,0,0:0:0:0:
256,192,153672,1,0,0:0:0:0:
256,192,153886,1,8,0:0:0:0:
256,192,155172,1,0,0:0:0:0:
256,192,155600,1,8,0:0:0:0:
256,192,156243,1,8,0:0:0:0:
256,192,156350,1,8,0:0:0:0:
256,192,156457,1,0,0:0:0:0:
256,192,156993,1,8,0:0:0:0:
256,192,157100,1,0,0:0:0:0:
256,192,157207,1,0,0:0:0:0:
256,192,157314,1,12,0:0:0:0:
256,192,157529,1,0,0:0:0:0:
256,192,157743,1,12,0:0:0:0:
256,192,157957,1,0,0:0:0:0:
256,192,158064,1,8,0:0:0:0:
256,192,158279,1,8,0:0:0:0:
256,192,158386,1,0,0:0:0:0:
256,192,158600,1,8,0:0:0:0:
256,192,158814,1,0,0:0:0:0:
256,192,158922,1,8,0:0:0:0:
256,192,159029,1,0,0:0:0:0:
256,192,159243,1,0,0:0:0:0:
256,192,159457,1,8,0:0:0:0:
256,192,159672,1,0,0:0:0:0:
256,192,159779,1,8,0:0:0:0:
256,192,159993,1,8,0:0:0:0:
256,192,160100,1,0,0:0:0:0:
256,192,160314,1,8,0:0:0:0:
256,192,160529,1,0,0:0:0:0:
256,192,160636,1,0,0:0:0:0:
256,192,160743,1,12,0:0:0:0:
256,192,160957,1,0,0:0:0:0:
256,192,161172,1,8,0:0:0:0:
256,192,161386,1,0,0:0:0:0:
256,192,161493,1,8,0:0:0:0:
256,192,161707,1,0,0:0:0:0:
256,192,161814,1,8,0:0:0:0:
256,192,162029,1,8,0:0:0:0:
256,192,162243,1,0,0:0:0:0:
256,192,162350,1,8,0:0:0:0:
256,192,162457,1,0,0:0:0:0:
256,192,162672,1,0,0:0:0:0:
256,192,162886,1,8,0:0:0:0:
256,192,163100,1,0,0:0:0:0:
256,192,163207,1,8,0:0:0:0:
256,192,163314,1,0,0:0:0:0:
256,192,163422,1,8,0:0:0:0:
256,192,163529,1,8,0:0:0:0:
256,192,163743,1,8,0:0:0:0:
256,192,163850,1,0,0:0:0:0:
256,192,164064,1,0,0:0:0:0:
256,192,164172,1,12,0:0:0:0:
256,192,164386,1,0,0:0:0:0:
256,192,164600,1,8,0:0:0:0:
256,192,164814,1,0,0:0:0:0:
256,192,164922,1,8,0:0:0:0:
256,192,165136,1,8,0:0:0:0:
256,192,165243,1,0,0:0:0:0:
256,192,165457,1,8,0:0:0:0:
256,192,165672,1,0,0:0:0:0:
256,192,165779,1,8,0:0:0:0:
256,192,165886,1,0,0:0:0:0:
256,192,166100,1,0,0:0:0:0:
256,192,166314,1,8,0:0:0:0:
256,192,166529,1,8,0:0:0:0:
256,192,166636,1,0,0:0:0:0:
256,192,166850,1,8,0:0:0:0:
256,192,166957,1,8,0:0:0:0:
256,192,167172,1,8,0:0:0:0:
256,192,167386,1,0,0:0:0:0:
256,192,167493,1,0,0:0:0:0:
256,192,167600,1,12,0:0:0:0:
256,192,167814,1,0,0:0:0:0:
256,192,168029,1,8,0:0:0:0:
256,192,168243,1,0,0:0:0:0:
256,192,168350,1,8,0:0:0:0:
256,192,168564,1,8,0:0:0:0:
256,192,168672,1,0,0:0:0:0:
256,192,168886,1,8,0:0:0:0:
256,192,169100,1,0,0:0:0:0:
256,192,169207,1,8,0:0:0:0:
256,192,169314,1,8,0:0:0:0:
256,192,169422,1,0,0:0:0:0:
256,192,169529,1,0,0:0:0:0:
256,192,169743,1,8,0:0:0:0:
256,192,169850,1,8,0:0:0:0:
256,192,169957,1,8,0:0:0:0:
256,192,170064,1,0,0:0:0:0:
256,192,170172,1,8,0:0:0:0:
256,192,170386,1,0,0:0:0:0:
256,192,170457,1,0,0:0:0:0:
256,192,170529,1,0,0:0:0:0:
256,192,170600,1,8,0:0:0:0:
256,192,170814,1,0,0:0:0:0:
256,192,171029,1,12,0:0:0:0:
256,192,171457,1,0,0:0:0:0:
256,192,171672,1,0,0:0:0:0:
256,192,171886,1,12,0:0:0:0:
256,192,172314,1,0,0:0:0:0:
256,192,172529,1,8,0:0:0:0:
256,192,172743,1,0,0:0:0:0:
256,192,173172,1,0,0:0:0:0:
256,192,173600,1,8,0:0:0:0:
256,192,174029,1,0,0:0:0:0:
256,192,174457,1,8,0:0:0:0:
256,192,174886,1,0,0:0:0:0:
256,192,175100,1,0,0:0:0:0:
256,192,175314,1,8,0:0:0:0:
256,192,175529,1,8,0:0:0:0:
256,192,175743,1,0,0:0:0:0:
256,192,175957,1,8,0:0:0:0:
256,192,176172,1,0,0:0:0:0:
256,192,176600,1,8,0:0:0:0:
256,192,177029,1,8,0:0:0:0:
256,192,177243,1,0,0:0:0:0:
256,192,177672,1,0,0:0:0:0:
256,192,177886,1,12,0:0:0:0:
256,192,178529,1,0,0:0:0:0:
256,192,178743,1,12,0:0:0:0:
256,192,179386,1,0,0:0:0:0:
256,192,179814,1,8,0:0:0:0:
256,192,180029,1,0,0:0:0:0:
256,192,180243,1,0,0:0:0:0:
256,192,180457,1,8,0:0:0:0:
256,192,180672,1,0,0:0:0:0:
256,192,181100,1,8,0:0:0:0:
256,192,181314,1,12,0:0:0:0:
256,192,181957,1,0,0:0:0:0:
256,192,182172,1,8,0:0:0:0:
256,192,182600,1,0,0:0:0:0:
256,192,183029,1,8,0:0:0:0:
256,192,183457,1,8,0:0:0:0:
256,192,183886,1,0,0:0:0:0:
256,192,183993,1,8,0:0:0:0:
256,192,184100,1,8,0:0:0:0:
256,192,184207,1,0,0:0:0:0:
256,192,184314,1,8,0:0:0:0:
256,192,184422,1,0,0:0:0:0:
256,192,184529,1,8,0:0:0:0:
256,192,184636,1,8,0:0:0:0:
256,192,184743,1,4,0:0:0:0:
256,192,184957,1,0,0:0:0:0:
256,192,185172,1,8,0:0:0:0:
256,192,185600,1,0,0:0:0:0:
256,192,185814,1,0,0:0:0:0:
256,192,186029,1,8,0:0:0:0:
256,192,186243,1,0,0:0:0:0:
256,192,186457,1,0,0:0:0:0:
256,192,186672,1,0,0:0:0:0:
256,192,186886,1,8,0:0:0:0:
256,192,187314,1,8,0:0:0:0:
256,192,187529,1,0,0:0:0:0:
256,192,187743,1,8,0:0:0:0:
256,192,188172,1,0,0:0:0:0:
256,192,188386,1,0,0:0:0:0:
256,192,188600,1,12,0:0:0:0:
256,192,188814,1,0,0:0:0:0:
256,192,189029,1,12,0:0:0:0:
256,192,189243,1,0,0:0:0:0:
256,192,189350,1,0,0:0:0:0:
256,192,189457,1,8,0:0:0:0:
256,192,189564,1,8,0:0:0:0:
256,192,189672,1,8,0:0:0:0:
256,192,189779,1,0,0:0:0:0:
256,192,189886,1,8,0:0:0:0:
256,192,190743,1,8,0:0:0:0:
256,192,191172,1,0,0:0:0:0:
256,192,191600,1,12,0:0:0:0:
256,192,191814,1,8,0:0:0:0:
256,192,191922,1,0,0:0:0:0:
256,192,192029,1,8,0:0:0:0:
256,192,192136,1,8,0:0:0:0:
256,192,192243,1,0,0:0:0:0:
256,192,192350,1,8,0:0:0:0:
256,192,192457,1,8,0:0:0:0:
256,192,192672,1,0,0:0:0:0:
256,192,192779,1,8,0:0:0:0:
256,192,192886,1,0,0:0:0:0:
256,192,192993,1,8,0:0:0:0:
256,192,193100,1,8,0:0:0:0:
256,192,193314,1,4,0:0:0:0:
256,192,193529,1,0,0:0:0:0:
256,192,193636,1,8,0:0:0:0:
256,192,193743,1,8,0:0:0:0:
256,192,193850,1,8,0:0:0:0:
256,192,193957,1,0,0:0:0:0:
256,192,194064,1,8,0:0:0:0:
256,192,194172,1,0,0:0:0:0:
256,192,194386,1,0,0:0:0:0:
256,192,194493,1,8,0:0:0:0:
256,192,194600,1,8,0:0:0:0:
256,192,194707,1,0,0:0:0:0:
256,192,194922,1,8,0:0:0:0:
256,192,195029,1,4,0:0:0:0:
256,192,195243,1,0,0:0:0:0:
256,192,195350,1,8,0:0:0:0:
256,192,195457,1,8,0:0:0:0:
256,192,195672,1,0,0:0:0:0:
256,192,195779,1,0,0:0:0:0:
256,192,195886,1,8,0:0:0:0:
256,192,196100,1,8,0:0:0:0:
256,192,196207,1,0,0:0:0:0:
256,192,196314,1,8,0:0:0:0:
256,192,196422,1,0,0:0:0:0:
256,192,196529,1,8,0:0:0:0:
256,192,196636,1,8,0:0:0:0:
256,192,196743,1,4,0:0:0:0:
256,192,196957,1,0,0:0:0:0:
256,192,197064,1,8,0:0:0:0:
256,192,197172,1,0,0:0:0:0:
256,192,197279,1,0,0:0:0:0:
256,192,197386,1,8,0:0:0:0:
256,192,197600,1,8,0:0:0:0:
256,192,197814,1,0,0:0:0:0:
256,192,197922,1,8,0:0:0:0:
256,192,198029,1,8,0:0:0:0:
256,192,198136,1,0,0:0:0:0:
256,192,198243,1,0,0:0:0:0:
256,192,198350,1,0,0:0:0:0:
256,192,198457,1,12,0:0:0:0:
256,192,198672,1,0,0:0:0:0:
256,192,198886,1,0,0:0:0:0:
256,192,199100,1,12,0:0:0:0:
256,192,199314,1,0,0:0:0:0:
256,192,199529,1,12,0:0:0:0:
256,192,199743,1,8,0:0:0:0:
256,192,199850,1,8,0:0:0:0:
256,192,199957,1,0,0:0:0:0:
256,192,200172,1,12,0:0:0:0:
256,192,200386,1,0,0:0:0:0:
256,192,200600,1,0,0:0:0:0:
256,192,200814,1,12,0:0:0:0:
256,192,201029,1,0,0:0:0:0:
256,192,201243,1,12,0:0:0:0:
256,192,201457,1,0,0:0:0:0:
256,192,201564,1,8,0:0:0:0:
256,192,201672,1,0,0:0:0:0:
256,192,201886,1,12,0:0:0:0:
256,192,202100,1,0,0:0:0:0:
256,192,202314,1,0,0:0:0:0:
256,192,202529,1,12,0:0:0:0:
256,192,202743,1,0,0:0:0:0:
256,192,202957,1,12,0:0:0:0:
256,192,203172,1,0,0:0:0:0:
256,192,203279,1,8,0:0:0:0:
256,192,203386,1,8,0:0:0:0:
256,192,203493,1,0,0:0:0:0:
256,192,203600,1,12,0:0:0:0:
256,192,203814,1,0,0:0:0:0:
256,192,204029,1,12,0:0:0:0:
256,192,204243,1,0,0:0:0:0:
256,192,204457,1,8,0:0:0:0:
256,192,204564,1,8,0:0:0:0:
256,192,204672,1,0,0:0:0:0:
256,192,204779,1,0,0:0:0:0:
256,192,204886,1,8,0:0:0:0:
256,192,204993,1,8,0:0:0:0:
256,192,205100,1,0,0:0:0:0:
256,192,205207,1,0,0:0:0:0:
256,192,205314,1,12,0:0:0:0:
256,192,205529,1,0,0:0:0:0:
256,192,205743,1,8,0:0:0:0:
256,192,205957,1,0,0:0:0:0:
256,192,206064,1,8,0:0:0:0:
256,192,206279,1,8,0:0:0:0:
256,192,206386,1,0,0:0:0:0:
256,192,206600,1,8,0:0:0:0:
256,192,206814,1,8,0:0:0:0:
256,192,206922,1,8,0:0:0:0:
256,192,207029,1,0,0:0:0:0:
256,192,207243,1,0,0:0:0:0:
256,192,207457,1,8,0:0:0:0:
256,192,207672,1,8,0:0:0:0:
256,192,207779,1,0,0:0:0:0:
256,192,207993,1,8,0:0:0:0:
256,192,208100,1,8,0:0:0:0:
256,192,208314,1,8,0:0:0:0:
256,192,208422,1,8,0:0:0:0:
256,192,208529,1,0,0:0:0:0:
256,192,208636,1,0,0:0:0:0:
256,192,208743,1,12,0:0:0:0:
256,192,208957,1,0,0:0:0:0:
256,192,209172,1,8,0:0:0:0:
256,192,209386,1,0,0:0:0:0:
256,192,209493,1,8,0:0:0:0:
256,192,209707,1,8,0:0:0:0:
256,192,209814,1,0,0:0:0:0:
256,192,210029,1,8,0:0:0:0:
256,192,210243,1,0,0:0:0:0:
256,192,210350,1,0,0:0:0:0:
256,192,210457,1,8,0:0:0:0:
256,192,210672,1,0,0:0:0:0:
256,192,210886,1,8,0:0:0:0:
256,192,211100,1,0,0:0:0:0:
256,192,211207,1,8,0:0:0:0:
256,192,211422,1,8,0:0:0:0:
256,192,211529,1,8,0:0:0:0:
256,192,211743,1,8,0:0:0:0:
256,192,211850,1,8,0:0:0:0:
256,192,211957,1,8,0:0:0:0:
256,192,212064,1,0,0:0:0:0:
256,192,212172,1,12,0:0:0:0:
256,192,212386,1,0,0:0:0:0:
256,192,212600,1,8,0:0:0:0:
256,192,212814,1,0,0:0:0:0:
256,192,212922,1,8,0:0:0:0:
256,192,213029,1,8,0:0:0:0:
256,192,213136,1,8,0:0:0:0:
256,192,213243,1,0,0:0:0:0:
256,192,213457,1,8,0:0:0:0:
256,192,213672,1,0,0:0:0:0:
256,192,213779,1,8,0:0:0:0:
256,192,213886,1,0,0:0:0:0:
256,192,214100,1,0,0:0:0:0:
256,192,214314,1,8,0:0:0:0:
256,192,214529,1,0,0:0:0:0:
256,192,214636,1,8,0:0:0:0:
256,192,214850,1,0,0:0:0:0:
256,192,214957,1,8,0:0:0:0:
256,192,215172,1,8,0:0:0:0:
256,192,215386,1,0,0:0:0:0:
256,192,215493,1,0,0:0:0:0:
256,192,215600,1,12,0:0:0:0:
256,192,215814,1,0,0:0:0:0:
256,192,216029,1,8,0:0:0:0:
256,192,216243,1,0,0:0:0:0:
256,192,216350,1,8,0:0:0:0:
256,192,216564,1,8,0:0:0:0:
256,192,216672,1,0,0:0:0:0:
256,192,216886,1,8,0:0:0:0:
256,192,217100,1,0,0:0:0:0:
256,192,217207,1,0,0:0:0:0:
256,192,217314,1,12,0:0:0:0:
256,192,217529,1,0,0:0:0:0:
256,192,217636,1,8,0:0:0:0:
256,192,217743,1,8,0:0:0:0:
256,192,217850,1,0,0:0:0:0:
256,192,217957,1,8,0:0:0:0:
256,192,218172,1,12,0:0:0:0:
256,192,218386,1,0,0:0:0:0:
256,192,218493,1,0,0:0:0:0:
256,192,218600,1,8,0:0:0:0:
256,192,218707,1,0,0:0:0:0:
256,192,218922,1,0,0:0:0:0:
256,192,219029,1,12,0:0:0:0:
256,192,219243,1,0,0:0:0:0:
256,192,219457,1,12,0:0:0:0:
256,192,219672,1,0,0:0:0:0:
256,192,219779,1,8,0:0:0:0:
256,192,219886,1,8,0:0:0:0:
256,192,219993,1,0,0:0:0:0:
256,192,220100,1,0,0:0:0:0:
256,192,220314,1,8,0:0:0:0:
256,192,220529,1,0,0:0:0:0:
256,192,220636,1,8,0:0:0:0:
256,192,220743,1,8,0:0:0:0:
256,192,220957,1,0,0:0:0:0:
256,192,221172,1,8,0:0:0:0:
256,192,221386,1,0,0:0:0:0:
256,192,221493,1,8,0:0:0:0:
256,192,221707,1,8,0:0:0:0:
256,192,221814,1,0,0:0:0:0:
256,192,222029,1,8,0:0:0:0:
256,192,222243,1,0,0:0:0:0:
256,192,222350,1,0,0:0:0:0:
256,192,222457,1,12,0:0:0:0:
256,192,222672,1,0,0:0:0:0:
256,192,222886,1,8,0:0:0:0:
256,192,223100,1,0,0:0:0:0:
256,192,223207,1,8,0:0:0:0:
256,192,223314,1,8,0:0:0:0:
256,192,223422,1,8,0:0:0:0:
256,192,223529,1,0,0:0:0:0:
256,192,223743,1,8,0:0:0:0:
256,192,223957,1,0,0:0:0:0:
256,192,224172,1,0,0:0:0:0:
256,192,224386,1,8,0:0:0:0:
256,192,224600,1,8,0:0:0:0:
256,192,224707,1,8,0:0:0:0:
256,192,224814,1,0,0:0:0:0:
256,192,225029,1,8,0:0:0:0:
256,192,225457,1,0,0:0:0:0:
256,192,225564,1,0,0:0:0:0:
256,192,225672,1,8,0:0:0:0:
256,192,225779,1,8,0:0:0:0:
256,192,225886,1,4,0:0:0:0:
256,192,226529,1,0,0:0:0:0:
256,192,227172,1,8,0:0:0:0:
256,192,227386,1,0,0:0:0:0:
256,192,227600,1,12,0:0:0:0:
256,192,228243,1,8,0:0:0:0:
256,192,228886,1,0,0:0:0:0:
256,192,229100,1,0,0:0:0:0:
256,192,229314,1,12,0:0:0:0:
256,192,229957,1,0,0:0:0:0:
256,192,230386,1,8,0:0:0:0:
256,192,230600,1,0,0:0:0:0:
256,192,230814,1,0,0:0:0:0:
256,192,231029,1,12,0:0:0:0:
256,192,231672,1,0,0:0:0:0:
256,192,232314,1,8,0:0:0:0:
256,192,232743,1,12,0:0:0:0:
256,192,233386,1,0,0:0:0:0:
256,192,234029,1,8,0:0:0:0:
256,192,234243,1,0,0:0:0:0:
256,192,234457,1,12,0:0:0:0:
256,192,235100,1,0,0:0:0:0:
256,192,235529,1,8,0:0:0:0:
256,192,235636,1,0,0:0:0:0:
256,192,235743,1,8,0:0:0:0:
256,192,235850,1,8,0:0:0:0:
256,192,235957,1,8,0:0:0:0:
256,192,236064,1,0,0:0:0:0:
256,192,236172,1,12,0:0:0:0:
256,192,236600,1,8,0:0:0:0:
256,192,236814,1,8,0:0:0:0:
256,192,236922,1,0,0:0:0:0:
256,192,237029,1,8,0:0:0:0:
256,192,237457,1,8,0:0:0:0:
256,192,237672,1,0,0:0:0:0:
256,192,237886,1,8,0:0:0:0:
256,192,238314,1,8,0:0:0:0:
256,192,238422,1,0,0:0:0:0:
256,192,238636,1,0,0:0:0:0:
256,192,238743,1,8,0:0:0:0:
256,192,238850,1,8,0:0:0:0:
256,192,238957,1,0,0:0:0:0:
256,192,239064,1,0,0:0:0:0:
256,192,239172,1,8,0:0:0:0:
256,192,239600,1,4,0:0:0:0:
256,192,239814,1,8,0:0:0:0:
256,192,239921,1,8,0:0:0:0:
256,192,240028,1,0,0:0:0:0:
256,192,240136,1,0,0:0:0:0:
256,192,240243,1,8,0:0:0:0:
256,192,240457,1,0,0:0:0:0:
256,192,240671,1,8,0:0:0:0:
256,192,240778,1,0,0:0:0:0:
256,192,240886,1,8,0:0:0:0:
256,192,240993,1,8,0:0:0:0:
256,192,241100,1,8,0:0:0:0:
256,192,241207,1,0,0:0:0:0:
256,192,241314,1,8,0:0:0:0:
256,192,241528,1,8,0:0:0:0:
256,192,241636,1,0,0:0:0:0:
256,192,241743,1,0,0:0:0:0:
256,192,241850,1,0,0:0:0:0:
256,192,241957,1,8,0:0:0:0:
256,192,242171,1,0,0:0:0:0:
256,192,242386,1,8,0:0:0:0:
256,192,242439,1,8,0:0:0:0:
256,192,242493,1,8,0:0:0:0:
256,192,242600,1,0,0:0:0:0:
256,192,242707,1,0,0:0:0:0:
256,192,242814,1,8,0:0:0:0:
256,192,243028,1,0,0:0:0:0:
256,192,243243,1,0,0:0:0:0:
256,192,243350,1,8,0:0:0:0:
256,192,243457,1,8,0:0:0:0:
256,192,243564,1,0,0:0:0:0:
256,192,243671,1,8,0:0:0:0:
256,192,243886,1,0,0:0:0:0:
256,192,244100,1,8,0:0:0:0:
256,192,244207,1,0,0:0:0:0:
256,192,244314,1,8,0:0:0:0:
256,192,244421,1,8,0:0:0:0:
256,192,244528,1,0,0:0:0:0:
256,192,244743,1,0,0:0:0:0:
256,192,244957,1,8,0:0:0:0:
256,192,245171,1,0,0:0:0:0:
256,192,245278,1,0,0:0:0:0:
256,192,245386,1,8,0:0:0:0:
256,192,245600,1,0,0:0:0:0:
256,192,245814,1,8,0:0:0:0:
256,192,246028,1,8,0:0:0:0:
256,192,246243,1,8,0:0:0:0:
256,192,246350,1,0,0:0:0:0:
256,192,246457,1,12,0:0:0:0:
256,192,246671,1,8,0:0:0:0:
256,192,246778,1,0,0:0:0:0:
256,192,246886,1,8,0:0:0:0:
256,192,246993,1,8,0:0:0:0:
256,192,247100,1,0,0:0:0:0:
256,192,247314,1,8,0:0:0:0:
256,192,247528,1,0,0:0:0:0:
256,192,247636,1,8,0:0:0:0:
256,192,247743,1,8,0:0:0:0:
256,192,247850,1,0,0:0:0:0:
256,192,247957,1,0,0:0:0:0:
256,192,248171,1,8,0:0:0:0:
256,192,248386,1,8,0:0:0:0:
256,192,248493,1,8,0:0:0:0:
256,192,248600,1,0,0:0:0:0:
256,192,248707,1,0,0:0:0:0:
256,192,248814,1,8,0:0:0:0:
256,192,248922,1,0,0:0:0:0:
256,192,249028,1,8,0:0:0:0:
256,192,249243,1,8,0:0:0:0:
256,192,249350,1,8,0:0:0:0:
256,192,249457,1,0,0:0:0:0:
256,192,249564,1,8,0:0:0:0:
256,192,249671,1,8,0:0:0:0:
256,192,249778,1,0,0:0:0:0:
256,192,249886,1,8,0:0:0:0:
256,192,250100,1,0,0:0:0:0:
256,192,250314,1,8,0:0:0:0:
256,192,250421,1,0,0:0:0:0:
256,192,250528,1,8,0:0:0:0:
256,192,250743,1,0,0:0:0:0:
256,192,250957,1,8,0:0:0:0:
256,192,251171,1,8,0:0:0:0:
256,192,251278,1,8,0:0:0:0:
256,192,251386,1,0,0:0:0:0:
256,192,251600,1,12,0:0:0:0:
256,192,251814,1,0,0:0:0:0:
256,192,251921,1,12,0:0:0:0:
256,192,252136,1,0,0:0:0:0:
256,192,252243,1,8,0:0:0:0:
256,192,252350,1,0,0:0:0:0:
256,192,252457,1,8,0:0:0:0:
256,192,252564,1,8,0:0:0:0:
256,192,252672,1,0,0:0:0:0:
256,192,252886,1,8,0:0:0:0:
256,192,252993,1,0,0:0:0:0:
256,192,253100,1,8,0:0:0:0:
256,192,253207,1,0,0:0:0:0:
256,192,253314,1,12,0:0:0:0:
256,192,253529,1,8,0:0:0:0:
256,192,253636,1,0,0:0:0:0:
256,192,253743,1,0,0:0:0:0:
256,192,253850,1,0,0:0:0:0:
256,192,253957,1,8,0:0:0:0:
256,192,254172,1,0,0:0:0:0:
256,192,254386,1,8,0:0:0:0:
256,192,254493,1,8,0:0:0:0:
256,192,254600,1,0,0:0:0:0:
256,192,254707,1,8,0:0:0:0:
256,192,254814,1,8,0:0:0:0:
256,192,254922,1,0,0:0:0:0:
256,192,255029,1,8,0:0:0:0:
256,192,255243,1,0,0:0:0:0:
256,192,255350,1,8,0:0:0:0:
256,192,255457,1,8,0:0:0:0:
256,192,255564,1,0,0:0:0:0:
256,192,255672,1,8,0:0:0:0:
256,192,255886,1,0,0:0:0:0:
256,192,256100,1,8,0:0:0:0:
256,192,256154,1,8,0:0:0:0:
256,192,256207,1,8,0:0:0:0:
256,192,256314,1,0,0:0:0:0:
256,192,256422,1,0,0:0:0:0:
256,192,256529,1,8,0:0:0:0:
256,192,256743,1,0,0:0:0:0:
256,192,256957,1,8,0:0:0:0:
256,192,257064,1,8,0:0:0:0:
256,192,257172,1,8,0:0:0:0:
256,192,257279,1,0,0:0:0:0:
256,192,257386,1,8,0:0:0:0:
256,192,257600,1,0,0:0:0:0:
256,192,257814,1,8,0:0:0:0:
256,192,257922,1,0,0:0:0:0:
256,192,258029,1,8,0:0:0:0:
256,192,258136,1,0,0:0:0:0:
256,192,258243,1,8,0:0:0:0:
256,192,258350,1,8,0:0:0:0:
256,192,258457,1,0,0:0:0:0:
256,192,258672,1,8,0:0:0:0:
256,192,258779,1,0,0:0:0:0:
256,192,258886,1,0,0:0:0:0:
256,192,258993,1,0,0:0:0:0:
256,192,259100,1,8,0:0:0:0:
256,192,259314,1,0,0:0:0:0:
256,192,259529,1,8,0:0:0:0:
256,192,259636,1,0,0:0:0:0:
256,192,259743,1,8,0:0:0:0:
256,192,259850,1,8,0:0:0:0:
256,192,259957,1,8,0:0:0:0:
256,192,260064,1,0,0:0:0:0:
256,192,260172,1,12,0:0:0:0:
256,192,260386,1,8,0:0:0:0:
256,192,260493,1,0,0:0:0:0:
256,192,260600,1,8,0:0:0:0:
256,192,260707,1,8,0:0:0:0:
256,192,260814,1,0,0:0:0:0:
256,192,261029,1,8,0:0:0:0:
256,192,261243,1,0,0:0:0:0:
256,192,261350,1,8,0:0:0:0:
256,192,261457,1,8,0:0:0:0:
256,192,261564,1,8,0:0:0:0:
256,192,261672,1,0,0:0:0:0:
256,192,261886,1,8,0:0:0:0:
256,192,262100,1,8,0:0:0:0:
256,192,262207,1,0,0:0:0:0:
256,192,262314,1,8,0:0:0:0:
256,192,262422,1,8,0:0:0:0:
256,192,262529,1,0,0:0:0:0:
256,192,262636,1,0,0:0:0:0:
256,192,262743,1,8,0:0:0:0:
256,192,262957,1,8,0:0:0:0:
256,192,263064,1,8,0:0:0:0:
256,192,263172,1,8,0:0:0:0:
256,192,263279,1,0,0:0:0:0:
256,192,263386,1,8,0:0:0:0:
256,192,263600,1,0,0:0:0:0:
256,192,263814,1,8,0:0:0:0:
256,192,263922,1,0,0:0:0:0:
256,192,264029,1,0,0:0:0:0:
256,192,264136,1,0,0:0:0:0:
256,192,264243,1,8,0:0:0:0:
256,192,264457,1,0,0:0:0:0:
256,192,264672,1,8,0:0:0:0:
256,192,264779,1,0,0:0:0:0:
256,192,264886,1,8,0:0:0:0:
256,192,264993,1,8,0:0:0:0:
256,192,265100,1,0,0:0:0:0:
256,192,265207,1,0,0:0:0:0:
256,192,265314,1,12,0:0:0:0:
256,192,265529,1,0,0:0:0:0:
256,192,265636,1,0,0:0:0:0:
256,192,265743,1,12,0:0:0:0:
256,192,265957,1,0,0:0:0:0:
256,192,266064,1,8,0:0:0:0:
256,192,266172,1,8,0:0:0:0:
256,192,266279,1,0,0:0:0:0:
256,192,266386,1,8,0:0:0:0:
256,192,266493,1,0,0:0:0:0:
256,192,266600,1,8,0:0:0:0:
256,192,266672,1,8,0:0:0:0:
256,192,266743,1,8,0:0:0:0:
256,192,266814,1,0,0:0:0:0:
256,192,267029,1,12,0:0:0:0:
256,192,267243,1,0,0:0:0:0:
256,192,267350,1,0,0:0:0:0:
256,192,267457,1,8,0:0:0:0:
256,192,267672,1,0,0:0:0:0:
256,192,267886,1,8,0:0:0:0:
256,192,267993,1,0,0:0:0:0:
256,192,268207,1,0,0:0:0:0:
256,192,268314,1,8,0:0:0:0:
256,192,268529,1,0,0:0:0:0:
256,192,268743,1,8,0:0:0:0:
256,192,268957,1,0,0:0:0:0:
256,192,269064,1,0,0:0:0:0:
256,192,269172,1,8,0:0:0:0:
256,192,269386,1,0,0:0:0:0:
256,192,269600,1,8,0:0:0:0:
256,192,269707,1,0,0:0:0:0:
256,192,269922,1,0,0:0:0:0:
256,192,270029,1,8,0:0:0:0:
256,192,270136,1,8,0:0:0:0:
256,192,270243,1,8,0:0:0:0:
256,192,270350,1,0,0:0:0:0:
256,192,270457,1,8,0:0:0:0:
256,192,270672,1,0,0:0:0:0:
256,192,270779,1,0,0:0:0:0:
256,192,270886,1,8,0:0:0:0:
256,192,271100,1,0,0:0:0:0:
256,192,271314,1,8,0:0:0:0:
256,192,271422,1,0,0:0:0:0:
256,192,271636,1,8,0:0:0:0:
256,192,271743,1,8,0:0:0:0:
256,192,271850,1,0,0:0:0:0:
256,192,271957,1,8,0:0:0:0:
256,192,272064,1,0,0:0:0:0:
256,192,272172,1,8,0:0:0:0:
256,192,272386,1,0,0:0:0:0:
256,192,272493,1,0,0:0:0:0:
256,192,272600,1,8,0:0:0:0:
256,192,272814,1,0,0:0:0:0:
256,192,273029,1,8,0:0:0:0:
256,192,273243,1,8,0:0:0:0:
256,192,273457,1,8,0:0:0:0:
256,192,273564,1,8,0:0:0:0:
256,192,273672,1,0,0:0:0:0:
256,192,273779,1,0,0:0:0:0:
256,192,273886,1,12,0:0:0:0:
256,192,274100,1,0,0:0:0:0:
256,192,274207,1,0,0:0:0:0:
256,192,274314,1,8,0:0:0:0:
256,192,274529,1,0,0:0:0:0:
256,192,274743,1,8,0:0:0:0:
256,192,274850,1,0,0:0:0:0:
256,192,275064,1,0,0:0:0:0:
256,192,275172,1,8,0:0:0:0:
256,192,275386,1,0,0:0:0:0:
256,192,275600,1,8,0:0:0:0:
256,192,275814,1,0,0:0:0:0:
256,192,275922,1,0,0:0:0:0:
256,192,276029,1,8,0:0:0:0:
256,192,276243,1,0,0:0:0:0:
256,192,276457,1,8,0:0:0:0:
256,192,276564,1,0,0:0:0:0:
256,192,276779,1,8,0:0:0:0:
256,192,276886,1,8,0:0:0:0:
256,192,277100,1,0,0:0:0:0:
256,192,277314,1,8,0:0:0:0:
256,192,277529,1,0,0:0:0:0:
256,192,277636,1,0,0:0:0:0:
256,192,277743,1,8,0:0:0:0:
256,192,277957,1,0,0:0:0:0:
256,192,278172,1,8,0:0:0:0:
256,192,278279,1,0,0:0:0:0:
256,192,278493,1,8,0:0:0:0:
256,192,278600,1,0,0:0:0:0:
256,192,278814,1,8,0:0:0:0:
256,192,279029,1,0,0:0:0:0:
256,192,279136,1,0,0:0:0:0:
256,192,279243,1,12,0:0:0:0:
256,192,279457,1,8,0:0:0:0:
256,192,279564,1,8,0:0:0:0:
256,192,279672,1,0,0:0:0:0:
256,192,279779,1,0,0:0:0:0:
256,192,279886,1,8,0:0:0:0:
256,192,279993,1,0,0:0:0:0:
256,192,280100,1,8,0:0:0:0:
256,192,280207,1,0,0:0:0:0:
256,192,280314,1,8,0:0:0:0:
256,192,280422,1,8,0:0:0:0:
256,192,280529,1,8,0:0:0:0:
256,192,280636,1,0,0:0:0:0:
256,192,280743,1,12,0:0:0:0:
256,192,281386,1,8,0:0:0:0:
256,192,282029,1,0,0:0:0:0:
256,192,282457,1,12,0:0:0:0:
256,192,283314,1,0,0:0:0:0:
256,192,284172,1,12,0:0:0:0:
256,192,284386,12,0,285886,0:0:0:0:
256,192,286100,12,0,287600,0:0:0:0:
256,192,288173,5,8,0:0:0:0:
256,192,288415,1,0,0:0:0:0:
256,192,288709,1,8,0:0:0:0:
256,192,289256,1,0,0:0:0:0:
256,192,289542,1,8,0:0:0:0:
256,192,289828,1,0,0:0:0:0:
256,192,290409,1,8,0:0:0:0:
256,192,290691,1,8,0:0:0:0:
256,192,290974,1,0,0:0:0:0:
256,192,291547,1,0,0:0:0:0:
256,192,291834,1,8,0:0:0:0:
256,192,292120,1,0,0:0:0:0:
256,192,292708,1,8,0:0:0:0:
256,192,292991,1,0,0:0:0:0:
256,192,293274,1,8,0:0:0:0:
256,192,293840,1,0,0:0:0:0:
256,192,294134,1,8,0:0:0:0:
256,192,294428,1,8,0:0:0:0:
256,192,294992,1,0,0:0:0:0:
256,192,295273,1,0,0:0:0:0:
256,192,295555,1,8,0:0:0:0:
256,192,296118,1,0,0:0:0:0:
256,192,296400,1,8,0:0:0:0:
256,192,296715,1,0,0:0:0:0:
256,192,297275,1,8,0:0:0:0:
256,192,297836,1,0,0:0:0:0:
256,192,298424,1,0,0:0:0:0:
256,192,298669,1,8,0:0:0:0:
256,192,298984,1,0,0:0:0:0:
256,192,299543,1,8,0:0:0:0:
256,192,299828,1,0,0:0:0:0:
256,192,300114,1,8,0:0:0:0:
256,192,300693,1,0,0:0:0:0:
256,192,300983,1,8,0:0:0:0:
256,192,301255,1,0,0:0:0:0:
256,192,301834,1,8,0:0:0:0:
256,192,301972,1,0,0:0:0:0:
256,192,302111,1,8,0:0:0:0:
256,192,302250,1,0,0:0:0:0:
256,192,302389,1,8,0:0:0:0:
256,192,302980,1,0,0:0:0:0:
256,192,303240,1,8,0:0:0:0:
256,192,303540,1,0,0:0:0:0:
256,192,304150,1,8,0:0:0:0:
256,192,304440,1,0,0:0:0:0:
256,192,304879,1,8,0:0:0:0:
256,192,305306,1,8,0:0:0:0:
256,192,305733,1,0,0:0:0:0:
256,192,306160,1,0,0:0:0:0:
256,192,306601,1,8,0:0:0:0:
256,192,307227,1,0,0:0:0:0:
256,192,307941,1,8,0:0:0:0:
256,192,308600,1,8,0:0:0:0:
