osu file format v14

[General]
AudioFilename: audio.mp3
AudioLeadIn: 0
PreviewTime: 93773
Countdown: 0
SampleSet: None
StackLeniency: 0.7
Mode: 0
LetterboxInBreaks: 0
WidescreenStoryboard: 0

[Editor]
DistanceSpacing: 1.5
BeatDivisor: 4
GridSize: 32
TimelineZoom: 1.5

[Metadata]
Title:Futari dake no Sekai
TitleUnicode:二人だけの世界
Artist:Symholic
ArtistUnicode:Symholic
Creator:Mordred
Version:Normal
Source:
Tags:paspal lalue 狛茉璃奈 komatsu rina vengel rock japanese fa featured artist
BeatmapID:2771332
BeatmapSetID:1336619

[Difficulty]
HPDrainRate:4
CircleSize:2.8
OverallDifficulty:4
ApproachRate:6
SliderMultiplier:1.1
SliderTickRate:1

[Events]
//Background and Video events
0,0,"c6b2d346-337b-4410-ab63-f45943255179.jpg",0,0
//Break Periods
2,29677,77677
2,129369,179215
2,243831,282600
//Storyboard Layer 0 (Background)
//Storyboard Layer 1 (Fail)
//Storyboard Layer 2 (Pass)
//Storyboard Layer 3 (Foreground)
//Storyboard Layer 4 (Overlay)
//Storyboard Sound Samples

[TimingPoints]
149,461.538461538462,4,2,1,60,1,0
14918,-111.111111111111,4,2,1,60,0,0
20456,-100,4,2,1,70,0,0
22302,-100,4,2,1,70,0,0
28764,-100,4,2,1,70,0,0
29687,-100,4,2,1,50,0,0
33379,-100,4,2,1,50,0,0
44341,-100,4,2,1,5,0,0
44456,-100,4,2,1,50,0,0
79533,-111.111111111111,4,2,1,60,0,0
85995,-100,4,2,1,60,0,0
86918,-100,4,2,1,60,0,0
94302,-90.9090909090909,4,2,1,70,0,1
96322,-90.9090909090909,4,2,1,5,0,1
96379,-90.9090909090909,4,2,1,70,0,1
105552,-90.9090909090909,4,2,1,5,0,1
105610,-90.9090909090909,4,2,1,70,0,1
106475,-90.9090909090909,4,2,1,5,0,1
106533,-90.9090909090909,4,2,1,70,0,1
110918,-100,4,2,1,70,0,0
111841,-100,4,2,1,60,0,0
114610,-111.111111111111,4,2,1,70,0,0
120149,-100,4,2,1,70,0,0
121995,-100,4,2,1,70,0,0
128456,-100,4,2,1,70,0,0
129379,-100,4,2,1,50,0,0
144033,-100,4,2,1,5,0,0
144149,-100,4,2,1,50,0,0
181072,-111.111111111111,4,2,1,60,0,0
187533,-100,4,2,1,60,0,0
195841,-100,4,2,1,70,0,0
196245,-100,4,2,1,5,0,0
196302,-90.9090909090909,4,2,1,70,0,1
197860,-90.9090909090909,4,2,1,5,0,1
197918,-90.9090909090909,4,2,1,70,0,1
207091,-90.9090909090909,4,2,1,5,0,1
207149,-90.9090909090909,4,2,1,70,0,1
208014,-90.9090909090909,4,2,1,5,0,1
208072,-90.9090909090909,4,2,1,70,0,1
212456,-100,4,2,1,70,0,0
213379,-100,4,2,1,50,0,0
213841,-100,4,2,1,30,0,0
213956,-100,4,2,1,35,0,0
214072,-100,4,2,1,40,0,0
214187,-100,4,2,1,50,0,0
214302,-90.9090909090909,4,2,1,70,0,1
236629,-90.9090909090909,4,2,1,5,0,1
236687,-90.9090909090909,4,2,1,70,0,1
240322,-90.9090909090909,4,2,1,5,0,1
240379,-90.9090909090909,4,2,1,70,0,1
241072,-90.9090909090909,4,2,1,70,0,1
241995,-100,4,2,1,70,0,0
242918,-100,4,2,99,5,0,0
284168,-100,4,2,1,60,0,0
284399,-100,4,2,1,5,0,0
284456,-90.9090909090909,4,2,1,70,0,1
286475,-90.9090909090909,4,2,1,5,0,1
286533,-90.9090909090909,4,2,1,70,0,1
295706,-90.9090909090909,4,2,1,5,0,1
295764,-90.9090909090909,4,2,1,70,0,1
296629,-90.9090909090909,4,2,1,5,0,1
296687,-90.9090909090909,4,2,1,70,0,1
301072,-100,4,2,1,70,0,0
301995,-100,4,2,1,60,0,0
304764,-100,4,2,1,70,0,0
318610,-100,4,2,1,70,0,0

[Colours]
Combo1 : 250,180,240
Combo2 : 110,190,225
Combo3 : 255,230,130
Combo4 : 150,230,140

[HitObjects]
64,266,14225,6,0,B|60:293,2,27.5,8|8|4,0:3|0:3|0:3,0:0:0:0:
25,150,14918,6,0,P|155:162|210:52,1,247.499992446899,6|6,1:1|1:1,0:0:0:0:
397,10,16764,2,0,B|466:59|466:59|414:276,1,296.999990936279,6|6,1:1|1:1,0:0:0:0:
343,347,18610,2,0,B|230:330|230:330|155:253|224:167,1,296.999990936279,6|0,1:1|0:0,0:0:0:0:
270,8,20456,6,0,L|324:-1,1,55,6|6,1:2|1:2,0:0:0:0:
398,36,20918,2,0,L|452:44,1,54.9999999999999,8|0,0:2|1:2,0:0:0:0:
487,118,21379,2,0,L|508:284,1,165,2|10,1:2|0:2,0:0:0:0:
474,357,22302,6,0,L|420:345,1,54.9999999999999,6|10,1:2|0:2,0:0:0:0:
372,277,22764,2,0,L|318:265,1,54.9999999999999,2|10,1:2|0:2,0:0:0:0:
241,294,23225,1,2,1:2:0:0:
274,174,23572,1,2,1:2:0:0:
218,63,23918,1,10,0:2:0:0:
218,63,24149,2,0,L|342:44,2,110,6|2|2,1:2|1:2|1:2,0:0:0:0:
59,16,25533,2,0,B|32:50|32:50|41:98,1,82.5,10|6,0:2|0:3,0:0:0:0:
67,118,25995,6,0,P|75:173|76:228,1,110,6|2,1:2|1:2,0:0:0:0:
30,296,26687,1,8,0:2:0:0:
86,356,26918,2,0,P|140:348|195:347,1,110,6|2,1:2|0:2,0:0:0:0:
272,375,27610,1,8,0:2:0:0:
334,321,27841,2,0,B|346:242|346:242|388:211|388:211|403:102,1,220,2|6,1:2|1:1,0:0:0:0:
0,96,79533,6,0,B|33:57|80:46|80:46|118:136|73:241,1,296.99999093628,6|0,1:1|0:2,0:0:0:0:
170,354,81379,2,0,B|243:332|316:365|316:365|358:301|453:286,1,296.99999093628,6|0,1:1|0:2,0:0:0:0:
506,157,83225,2,0,P|457:172|397:54,2,197.99999395752,6|6|6,1:1|1:1|1:1,0:0:0:0:
489,304,85533,1,8,0:3:0:0:
337,368,85995,2,0,L|275:356,1,55,4|0,1:1|1:2,0:0:0:0:
202,376,86456,1,14,0:2:0:0:
51,307,86918,6,0,L|42:252,1,55,4|2,1:1|0:2,0:0:0:0:
84,181,87379,2,0,L|75:126,1,55,0|2,1:2|0:2,0:0:0:0:
115,54,87841,2,0,L|169:45,1,55,0|2,1:2|0:2,0:0:0:0:
241,86,88302,2,0,L|295:77,1,55,0|2,1:2|0:2,0:0:0:0:
366,120,88764,2,0,P|377:176|340:231,1,110,0|0,1:2|1:2,0:0:0:0:
191,255,89687,2,0,L|182:309,1,55,0|2,1:2|0:2,0:0:0:0:
240,368,90149,2,0,L|294:376,1,55,0|2,1:2|0:2,0:0:0:0:
357,323,90610,6,0,P|390:311|471:349,2,110,4|0|4,1:1|1:2|1:1,0:0:0:0:
204,258,91995,1,8,0:2:0:0:
351,184,92456,2,0,B|390:193,2,27.5,8|8|8,0:2|0:2|0:2,0:0:0:0:
339,101,92918,2,0,L|279:94,1,55,8|0,0:2|1:2,0:0:0:0:
249,71,93264,2,0,L|189:64,1,55,8|8,0:2|0:2,0:0:0:0:
164,36,93610,1,0,1:2:0:0:
79,31,93841,2,0,P|60:68|49:108,1,82.5,10|10,0:2|0:2,0:0:0:0:
68,144,94302,5,6,1:2:0:0:
25,224,94533,1,10,0:2:0:0:
62,306,94764,1,2,1:2:0:0:
62,306,94879,2,0,L|43:367,2,60.5000018463135,2|2|0,1:2|1:2|1:2,0:0:0:0:
106,297,95456,1,8,0:2:0:0:
192,325,95687,2,0,B|242:330|242:330|260:350|260:350|320:359,1,121.000003692627,2|2,1:2|1:2,0:0:0:0:
368,292,96379,1,10,0:2:0:0:
458,325,96610,1,2,1:2:0:0:
458,325,96725,2,0,L|475:403,2,60.5000018463135,2|2|0,1:2|1:2|1:2,0:0:0:0:
485,288,97302,1,8,0:2:0:0:
441,208,97533,2,0,B|431:181|431:181|449:143,1,60.5000018463135,2|10,1:2|0:2,0:0:0:0:
500,80,97995,6,0,P|474:62|447:49,1,60.5000018463135,6|10,1:2|0:2,0:0:0:0:
416,23,98341,2,0,P|388:27|355:36,1,60.5000018463135,2|2,1:2|1:2,0:0:0:0:
330,72,98687,1,10,0:2:0:0:
359,157,98918,1,6,1:2:0:0:
319,238,99149,1,10,0:2:0:0:
367,314,99379,1,10,0:2:0:0:
302,377,99610,1,10,0:3:0:0:
235,314,99841,6,0,P|174:305|114:307,1,121.000003692627,6|0,1:2|1:2,0:0:0:0:
44,365,100533,1,8,0:2:0:0:
15,280,100764,2,0,L|13:216,1,60.5000018463135,2|14,1:2|0:2,0:0:0:0:
82,160,101225,2,0,L|76:98,1,60.5000018463135,10|6,0:3|0:3,0:0:0:0:
134,29,101687,6,0,P|211:12|276:93,1,181.500005538941,6|8,1:2|0:2,0:0:0:0:
205,140,102610,2,0,P|197:167|189:204,1,60.5000018463135,2|8,1:2|0:2,0:0:0:0:
143,276,103072,2,0,P|148:305|156:334,1,60.5000018463135,2|8,1:2|0:2,0:0:0:0:
239,371,103533,2,0,P|292:380|360:377,2,121.000003692627,2|2|2,1:2|1:2|0:2,0:0:0:0:
399,212,105149,1,10,0:2:0:0:
487,193,105379,2,0,L|493:132,1,60.5000018463135,6|8,1:2|0:2,0:0:0:0:
455,49,105841,2,0,L|392:43,1,60.5000018463135,2|8,1:2|0:2,0:0:0:0:
334,110,106302,1,6,1:2:0:0:
181,11,106764,1,2,1:2:0:0:
0,24,107225,5,12,0:2:0:0:
2,114,107456,1,12,0:2:0:0:
76,165,107687,2,0,P|82:194|87:224,1,60.5000018463135,8|8,0:3|0:3,0:0:0:0:
75,268,108033,2,0,P|80:297|86:327,1,60.5000018463135,12|0,0:2|1:2,0:0:0:0:
118,367,108379,1,12,0:0:0:0:
209,378,108610,2,0,L|288:364,1,60.5000018463135,10|6,0:2|1:2,0:0:0:0:
359,375,109072,6,0,B|388:324|388:324|346:206,1,181.500005538941,6|8,1:2|0:2,0:0:0:0:
382,124,109995,1,2,1:2:0:0:
323,54,110225,1,10,0:2:0:0:
238,88,110456,1,2,1:2:0:0:
156,47,110687,1,10,0:2:0:0:
74,93,110918,2,0,P|59:151|27:315,2,220,6|0|2,1:1|0:2|0:2,0:0:0:0:
400,32,113918,2,0,L|434:28,2,27.5,8|8|4,0:3|0:3|0:3,0:0:0:0:
301,143,114610,6,0,P|400:207|385:323,1,247.4999924469,6|6,1:1|1:1,0:0:0:0:
167,368,116456,2,0,L|144:62,1,296.99999093628,6|6,1:1|1:1,0:0:0:0:
7,14,118302,2,0,L|29:310,1,296.99999093628,6|0,1:1|0:0,0:0:0:0:
178,380,120149,6,0,L|232:375,1,55,6|2,1:2|1:2,0:0:0:0:
281,309,120610,2,0,L|335:304,1,55,8|0,0:2|1:2,0:0:0:0:
405,350,121072,2,0,P|479:321|500:244,1,165,2|10,1:2|0:2,0:0:0:0:
449,179,121995,6,0,L|395:167,1,54.9999999999999,6|10,1:2|0:2,0:0:0:0:
325,121,122457,2,0,L|313:67,1,54.9999999999999,2|10,1:2|0:2,0:0:0:0:
246,18,122918,1,2,1:2:0:0:
173,118,123265,1,2,1:2:0:0:
54,103,123611,1,10,0:2:0:0:
54,103,123841,2,0,P|39:51|60:-9,2,110,6|2|2,1:2|1:2|1:2,0:0:0:0:
218,121,125226,2,0,B|245:155|245:155|236:203,1,82.5,10|6,0:2|0:3,0:0:0:0:
242,234,125687,6,0,P|187:242|132:243,1,110,6|2,1:2|1:2,0:0:0:0:
67,294,126380,1,8,0:2:0:0:
15,229,126611,2,0,P|7:175|5:120,1,110,6|2,1:2|0:2,0:0:0:0:
59,56,127303,1,8,0:2:0:0:
134,88,127533,2,0,B|213:100|213:100|244:142|244:142|353:157,1,220,2|6,1:2|1:1,0:0:0:0:
497,76,181072,6,0,B|464:37|417:26|417:26|379:116|424:221,1,296.99999093628,6|0,1:1|0:2,0:0:0:0:
498,350,182918,2,0,B|425:328|352:361|352:361|310:297|215:282,1,296.99999093628,6|0,1:1|0:2,0:0:0:0:
100,212,184764,2,0,B|39:291|39:291|69:383,2,197.99999395752,6|6|6,1:1|1:1|1:1,0:0:0:0:
49,72,187072,1,10,0:3:0:0:
203,13,187534,2,0,L|265:25,1,55,6|0,1:1|1:2,0:0:0:0:
308,87,187995,1,14,0:2:0:0:
190,203,188457,6,0,L|181:258,1,55,4|2,1:1|0:2,0:0:0:0:
205,336,188918,2,0,L|260:345,1,55,0|2,1:2|0:2,0:0:0:0:
333,381,189380,2,0,L|387:372,1,55,0|2,1:2|0:2,0:0:0:0:
440,309,189841,2,0,L|449:255,1,55,0|2,1:2|0:2,0:0:0:0:
500,190,190302,2,0,L|479:65,1,110,0|0,1:2|1:2,0:0:0:0:
331,13,191225,2,0,L|276:22,1,55,0|2,1:2|0:2,0:0:0:0:
250,100,191687,2,0,L|259:154,1,55,0|2,1:2|0:2,0:0:0:0:
319,211,192149,6,0,L|427:192,2,110,4|0|4,1:1|1:2|1:1,0:0:0:0:
260,365,193534,1,8,0:2:0:0:
95,354,193995,2,0,L|60:366,2,27.5,8|8|8,0:2|0:2|0:2,0:0:0:0:
144,288,194456,2,0,P|146:260|140:234,1,55,8|0,0:2|1:2,0:0:0:0:
105,210,194802,2,0,P|98:183|100:156,1,55,8|8,0:2|0:2,0:0:0:0:
127,125,195149,1,0,1:2:0:0:
134,43,195379,2,0,L|248:28,1,110,10|2,0:2|0:2,0:0:0:0:
426,57,196302,5,6,1:2:0:0:
426,57,196418,2,0,L|445:-4,2,60.5000018463135,2|2|0,1:2|1:2|1:2,0:0:0:0:
447,97,196994,1,8,0:2:0:0:
496,172,197225,2,0,B|491:222|491:222|471:240|471:240|462:300,1,121.000003692627,2|2,1:2|1:2,0:0:0:0:
417,361,197917,1,10,0:2:0:0:
348,311,198148,1,2,1:2:0:0:
348,311,198264,2,0,L|331:233,2,60.5000018463135,2|2|0,1:2|1:2|1:2,0:0:0:0:
313,340,198841,1,8,0:2:0:0:
235,293,199072,2,0,B|208:283|208:283|169:301,1,60.5000018463135,2|10,1:2|0:2,0:0:0:0:
98,337,199533,6,0,P|88:308|78:279,1,60.5000018463135,6|10,1:2|0:2,0:0:0:0:
43,250,199879,2,0,P|52:221|62:192,1,60.5000018463135,2|2,1:2|1:2,0:0:0:0:
66,147,200225,1,10,0:2:0:0:
150,114,200456,1,6,1:2:0:0:
183,29,200687,1,10,0:2:0:0:
268,58,200917,1,10,0:2:0:0:
354,29,201148,1,10,0:3:0:0:
436,67,201379,6,0,P|458:127|479:189,1,121.000003692627,6|0,1:2|1:2,0:0:0:0:
488,271,202072,1,8,0:2:0:0:
432,342,202302,2,0,L|354:350,1,60.5000018463135,2|10,1:2|0:2,0:0:0:0:
294,300,202764,2,0,L|288:238,1,60.5000018463135,10|6,0:3|0:3,0:0:0:0:
346,170,203225,6,0,P|369:93|295:22,1,181.500005538941,6|8,1:2|0:2,0:0:0:0:
218,2,204148,2,0,P|188:8|159:17,1,60.5000018463135,2|8,1:2|0:2,0:0:0:0:
82,65,204610,2,0,P|89:91|96:127,1,60.5000018463135,2|8,1:2|0:2,0:0:0:0:
169,176,205071,2,0,P|222:165|290:165,2,121.000003692627,2|2|2,1:2|1:2|0:2,0:0:0:0:
0,297,206687,1,10,0:2:0:0:
43,377,206918,2,0,L|103:383,1,60.5000018463135,6|8,1:2|0:2,0:0:0:0:
182,338,207379,2,0,L|242:344,1,60.5000018463135,2|8,1:2|0:2,0:0:0:0:
328,373,207840,1,6,1:2:0:0:
224,223,208302,1,2,1:2:0:0:
165,51,208763,5,12,0:2:0:0:
257,47,208994,1,12,0:2:0:0:
327,104,209225,2,0,P|356:110|386:113,1,60.5000018463135,8|8,0:3|0:3,0:0:0:0:
428,132,209572,2,0,P|431:162|437:191,1,60.5000018463135,12|0,0:2|1:2,0:0:0:0:
477,214,209918,1,12,0:0:0:0:
467,303,210148,2,0,L|407:313,1,60.5000018463135,10|6,0:2|1:2,0:0:0:0:
349,383,210610,6,0,B|378:332|378:332|336:214,1,181.500005538941,6|8,1:2|0:2,0:0:0:0:
260,167,211533,1,2,1:2:0:0:
196,231,211763,1,10,0:2:0:0:
116,190,211995,1,2,1:2:0:0:
131,102,212225,1,8,0:2:0:0:
220,90,212456,2,0,P|317:132|411:84,1,220,6|0,1:1|0:2,0:0:0:0:
496,251,214302,6,0,P|470:262|436:269,1,60.5000018463135,6|10,1:1|0:2,0:0:0:0:
371,331,214764,2,0,L|293:320,1,60.5000018463135,2|10,1:2|0:2,0:0:0:0:
285,284,215110,2,0,L|275:193,1,90.7500027694703,2|10,1:2|0:2,0:0:0:0:
326,117,215687,2,0,P|317:59|272:20,1,121.000003692627,2|2,1:2|1:2,0:0:0:0:
183,41,216379,1,10,0:2:0:0:
183,41,216495,2,0,L|123:29,2,60.5000018463135,2|2|2,0:2|1:2|1:2,0:0:0:0:
238,165,217302,2,0,L|119:141,1,121.000003692627,10|8,0:2|0:2,0:0:0:0:
37,102,217995,5,6,1:2:0:0:
19,191,218225,2,0,P|16:242|129:318,1,181.500005538941,10|4,0:2|1:2,0:0:0:0:
184,369,219149,2,0,P|197:294|224:190,1,181.500005538941,10|6,0:2|1:2,0:0:0:0:
207,102,220072,1,10,0:2:0:0:
207,102,220187,2,0,L|147:91,2,60.5000018463135,2|2|2,0:2|1:2|0:2,0:0:0:0:
274,41,220879,1,2,1:0:0:0:
274,41,220995,1,10,0:2:0:0:
357,76,221225,2,0,P|376:133|386:192,1,121.000003692627,10|6,0:3|1:2,0:0:0:0:
325,260,221918,5,10,0:2:0:0:
325,260,222033,2,0,L|263:266,2,60.5000018463135,2|2|2,0:2|1:2|0:2,0:0:0:0:
445,324,222841,1,10,0:2:0:0:
373,380,223072,2,0,L|249:367,1,121.000003692627,2|2,1:2|1:2,0:0:0:0:
181,320,223764,1,10,0:2:0:0:
181,320,223879,2,0,L|119:326,2,60.5000018463135,2|2|2,0:2|1:2|1:2,0:0:0:0:
280,226,224687,1,8,0:2:0:0:
233,147,224918,2,0,L|226:85,1,60.5000018463135,2|10,1:2|0:2,0:0:0:0:
159,25,225379,5,6,1:2:0:0:
75,59,225610,2,0,P|56:116|44:175,1,121.000003692627,10|10,0:2|0:2,0:0:0:0:
98,248,226302,1,6,1:2:0:0:
55,328,226533,1,10,0:2:0:0:
127,383,226764,1,2,1:2:0:0:
199,327,226995,1,10,0:2:0:0:
273,378,227225,2,0,L|344:381,1,60.5000018463135,14|12,0:2|0:2,0:2:0:0:
507,337,227918,2,0,P|533:232|485:106,1,242.000007385254,2|2,1:2|1:2,0:0:0:0:
420,52,229072,6,0,L|339:32,1,60.5000018463135,6|10,1:2|0:2,0:0:0:0:
275,8,229533,2,0,L|215:22,1,60.5000018463135,2|10,1:2|0:2,0:0:0:0:
189,109,229995,2,0,L|203:169,1,60.5000018463135,2|10,0:2|0:2,0:0:0:0:
278,217,230456,2,0,L|292:277,1,60.5000018463135,2|10,1:2|0:2,0:0:0:0:
260,361,230918,2,0,P|207:373|127:363,1,121.000003692627,2|2,1:2|1:2,0:0:0:0:
51,381,231610,1,10,0:2:0:0:
9,299,231841,2,0,L|3:238,1,60.5000018463135,2|10,0:2|0:2,0:0:0:0:
67,173,232302,2,0,L|61:112,1,60.5000018463135,2|10,1:2|0:2,0:0:0:0:
115,38,232764,5,6,1:2:0:0:
197,76,232995,1,10,0:2:0:0:
281,39,233225,1,2,0:2:0:0:
281,39,233341,1,2,1:2:0:0:
367,65,233572,1,10,0:2:0:0:
324,194,233918,2,0,L|204:214,1,121.000003692627,10|10,0:2|0:3,0:0:0:0:
118,185,234610,5,6,1:2:0:0:
56,252,234841,1,10,0:2:0:0:
97,338,235072,1,2,1:2:0:0:
97,338,235187,1,2,1:2:0:0:
187,337,235418,2,0,L|303:326,1,110.916670051575,2|2,0:2|0:2,0:0:0:0:
354,345,235995,2,0,P|348:364|346:384,2,40.333334564209,10|6|6,0:3|0:3|0:3,0:0:0:0:
406,314,236456,6,0,P|426:257|436:187,1,121.000003692627,6|0,1:2|1:2,0:0:0:0:
421,107,237149,2,0,P|364:87|294:77,1,121.000003692627,10|8,0:2|0:2,0:0:0:0:
229,129,237841,1,2,1:2:0:0:
321,284,238302,1,2,1:2:0:0:
234,311,238533,1,10,0:2:0:0:
234,311,238649,2,0,L|220:375,2,60.5000018463135,2|2|2,0:2|1:2|1:2,0:0:0:0:
99,333,239456,1,8,0:2:0:0:
46,258,239687,2,0,P|27:200|25:140,1,121.000003692627,2|6,1:2|1:2,0:0:0:0:
69,60,240379,5,8,0:2:0:0:
152,96,240610,2,0,L|221:98,1,60.5000018463135,2|8,1:2|0:2,0:0:0:0:
291,52,241072,1,6,1:2:0:0:
220,219,241533,1,6,1:2:0:0:
321,349,241995,2,0,B|398:318|398:318|448:334|448:334|527:305,1,220,6|0,1:1|0:0,0:0:0:0:
27,93,284456,5,6,1:2:0:0:
112,63,284687,1,10,0:2:0:0:
171,139,284918,1,2,1:2:0:0:
171,139,285033,2,0,L|152:200,2,60.5000018463135,2|2|0,1:2|1:2|1:2,0:0:0:0:
211,117,285610,1,8,0:2:0:0:
284,63,285841,2,0,B|334:68|334:68|352:88|352:88|412:97,1,121.000003692627,2|2,1:2|1:2,0:0:0:0:
486,89,286533,1,10,0:2:0:0:
500,183,286764,1,2,1:2:0:0:
500,183,286879,2,0,L|517:261,2,60.5000018463135,2|2|0,1:2|1:2|1:2,0:0:0:0:
454,175,287456,1,8,0:2:0:0:
398,246,287687,2,0,B|384:274|384:274|394:301,1,60.5000018463135,2|10,1:2|0:2,0:0:0:0:
337,372,288149,6,0,P|306:371|277:366,1,60.5000018463135,6|10,1:2|0:2,0:0:0:0:
250,329,288495,2,0,P|220:323|190:323,1,60.5000018463135,2|2,1:2|1:2,0:0:0:0:
155,353,288841,1,10,0:2:0:0:
79,302,289072,1,6,1:2:0:0:
122,222,289303,1,10,0:2:0:0:
70,147,289533,1,10,0:2:0:0:
90,58,289764,1,10,0:3:0:0:
172,20,289995,6,0,P|233:29|293:27,1,121.000003692627,6|0,1:2|1:2,0:0:0:0:
358,89,290687,1,8,0:2:0:0:
292,151,290918,2,0,L|288:211,1,60.5000018463135,2|10,1:2|0:2,0:0:0:0:
223,275,291379,2,0,L|226:335,1,60.5000018463135,10|6,0:3|0:3,0:0:0:0:
307,376,291841,6,0,P|396:367|454:300,1,181.500005538941,6|8,1:2|0:2,0:0:0:0:
492,218,292764,2,0,L|481:158,1,60.5000018463135,2|8,1:2|0:2,0:0:0:0:
440,77,293225,2,0,L|380:66,1,60.5000018463135,2|8,1:2|0:2,0:0:0:0:
304,116,293687,2,0,P|289:57|269:0,2,121.000003692627,2|2|2,1:2|1:2|0:2,0:0:0:0:
488,264,295303,1,10,0:2:0:0:
416,320,295533,2,0,L|355:314,1,60.5000018463135,6|8,1:2|0:2,0:0:0:0:
284,370,295995,2,0,L|221:364,1,60.5000018463135,2|8,1:2|0:2,0:0:0:0:
133,376,296456,1,6,1:2:0:0:
222,217,296918,1,2,1:2:0:0:
185,39,297379,5,12,0:2:0:0:
106,84,297610,1,12,0:2:0:0:
41,148,297841,2,0,P|34:177|31:207,1,60.5000018463135,8|8,0:3|0:3,0:0:0:0:
18,251,298187,2,0,P|21:281|27:310,1,60.5000018463135,12|0,0:2|1:2,0:0:0:0:
54,347,298533,1,12,0:0:0:0:
140,374,298764,2,0,L|154:295,1,60.5000018463135,10|6,0:2|1:2,0:0:0:0:
198,237,299225,6,0,B|249:208|249:208|367:250,1,181.500005538941,6|8,1:2|0:2,0:0:0:0:
430,312,300149,1,2,1:2:0:0:
501,256,300379,1,10,0:2:0:0:
461,174,300610,1,2,1:2:0:0:
493,89,300841,1,10,0:2:0:0:
430,27,301072,2,0,P|321:46|214:72,2,220,6|0|2,1:1|0:2|0:2,0:0:0:0:
449,264,304072,2,0,L|483:271,2,27.5,8|8|4,0:3|0:3|0:3,0:0:0:0:
284,280,304764,6,0,P|274:320|267:360,2,82.5,6|2|10,1:2|0:2|0:2,0:0:0:0:
239,210,305687,1,2,0:2:0:0:
348,152,306033,1,2,0:2:0:0:
254,79,306379,1,10,0:2:0:0:
254,79,306610,2,0,P|244:38|237:-2,2,82.5,2|2|10,1:2|0:2|0:2,0:0:0:0:
198,140,307533,2,0,P|148:165|95:177,1,110,2|0,0:2|1:2,0:0:0:0:
34,232,308225,1,10,0:2:0:0:
82,301,308456,6,0,P|85:342|86:383,2,82.5,6|2|10,1:2|0:2|0:2,0:0:0:0:
155,264,309379,1,2,0:2:0:0:
251,341,309725,1,2,0:2:0:0:
372,317,310072,1,10,0:2:0:0:
372,317,310302,2,0,L|389:208,1,110,2|0,1:2|1:2,0:0:0:0:
459,164,310995,1,8,0:2:0:0:
419,91,311225,2,0,B|384:97|350:94|350:94|332:107|322:124|322:124|283:114|233:128,1,192.5,2|2,0:2|1:2,0:0:0:0:
200,116,312149,6,0,P|184:93|174:67,1,55,6|10,1:2|0:2,0:0:0:0:
97,37,312610,2,0,P|71:47|48:62,1,55,2|10,1:2|0:2,0:0:0:0:
15,138,313072,1,2,1:2:0:0:
123,198,313418,1,2,1:2:0:0:
102,323,313764,1,10,0:2:0:0:
102,323,313995,2,0,P|53:347|0:344,2,110,6|2|2,1:2|1:2|1:2,0:0:0:0:
219,207,315379,2,0,P|262:214|307:228,1,82.5,10|6,0:2|0:3,0:0:0:0:
326,255,315841,6,0,P|349:204|379:158,1,110,6|2,1:2|1:2,0:0:0:0:
460,140,316533,1,8,0:2:0:0:
495,214,316764,2,0,P|472:264|442:310,1,110,6|2,1:2|0:2,0:0:0:0:
362,330,317456,1,8,0:2:0:0:
326,255,317687,2,0,P|284:244|155:227,1,165,2|4,1:2|0:3,0:0:0:0:
84,250,318610,6,0,B|24:205|24:205|61:55,1,220,14|0,0:0|0:0,0:0:0:0:
