osu file format v14

[General]
AudioFilename: audio.mp3
AudioLeadIn: 0
PreviewTime: 64945
Countdown: 0
SampleSet: Soft
StackLeniency: 0.7
Mode: 0
LetterboxInBreaks: 0
WidescreenStoryboard: 1

[Editor]
Bookmarks: 1528,22861,44195,65528,86861,108195,113528,129528,140028,150861,172195,193528,221528,238861,260195
DistanceSpacing: 1.25
BeatDivisor: 2
GridSize: 4
TimelineZoom: 1.3

[Metadata]
Title:Chiriyuku Kazahana (feat. nayuta)
TitleUnicode:散りゆく風花 (feat. nayuta)
Artist:Symholic
ArtistUnicode:Symholic
Creator:Hinsvar
Version:Normal
Source:
Tags:Paspal なゆた Japanese Rock J-Rock JRock 神楽へ宿す白雪巫女の魔瞳 Vexilla Symholic 1 to 6 Complete Best symphonic gothic Featured Artist FA Mappers' Guild MG MPG
BeatmapID:4065004
BeatmapSetID:1959822

[Difficulty]
HPDrainRate:3
CircleSize:2.7
OverallDifficulty:4.5
ApproachRate:5.7
SliderMultiplier:1.12
SliderTickRate:1

[Events]
//Background and Video events
0,0,"BG.jpg",0,0
//Break Periods
2,108395,112433
2,132395,138933
2,175228,192100
//Storyboard Layer 0 (Background)
//Storyboard Layer 1 (Fail)
//Storyboard Layer 2 (Pass)
//Storyboard Layer 3 (Foreground)
//Storyboard Layer 4 (Overlay)
//Storyboard Sound Samples

[TimingPoints]
-3638,333.333333333333,4,2,1,75,1,0
22028,-125,4,2,1,70,0,0
22861,-125,4,2,1,60,0,0
44195,-111.111111111111,4,2,1,65,0,0
54861,-100,4,2,1,70,0,0
65528,-90.9090909090909,4,2,1,80,0,1
75695,-90.9090909090909,4,2,1,80,0,0
76195,-90.9090909090909,4,2,1,80,0,1
84195,-90.9090909090909,4,2,1,80,0,0
86861,-100,4,2,1,75,0,1
86945,-100,4,2,1,75,0,0
107361,-125,4,2,1,70,0,0
114028,-125,4,2,1,60,0,0
140028,-100,4,2,1,70,0,0
150861,-90.9090909090909,4,2,1,80,0,1
161028,-90.9090909090909,4,2,1,80,0,0
161528,-90.9090909090909,4,2,1,80,0,1
169528,-90.9090909090909,4,2,1,80,0,0
193195,-125,4,2,1,50,0,0
193528,-125,4,2,1,60,0,0
195695,-125,4,2,1,50,0,0
204361,-111.111111111111,4,2,1,60,0,0
209695,-100,4,2,1,65,0,0
212195,-100,4,2,1,70,0,0
221528,-90.9090909090909,4,2,1,80,0,1
226361,-90.9090909090909,4,2,1,80,0,0
226861,-90.9090909090909,4,2,1,80,0,1
234861,-90.9090909090909,4,2,1,80,0,0
238861,-100,4,2,1,75,0,1
238945,-100,4,2,1,75,0,0
259361,-125,4,2,1,70,0,0

[Colours]
Combo1 : 236,218,193
Combo2 : 171,172,186
Combo3 : 142,125,117
Combo4 : 173,139,146

[HitObjects]
449,55,1528,6,0,P|396:58|326:104,1,112,6|0,3:2|0:0,0:0:0:0:
310,129,2028,1,10,0:0:0:0:
211,75,2361,2,0,L|204:16,2,56,2|2|8,3:2|0:0|0:0,0:0:0:0:
155,82,2861,1,6,3:2:0:0:
81,167,3195,1,0,0:0:0:0:
81,167,3361,2,0,P|120:198|191:178,1,112,10|2,0:0|3:2,0:0:0:0:
226,217,3861,2,0,L|218:290,1,56,0|8,3:0|0:0,0:0:0:0:
213,328,4195,1,6,3:2:0:0:
325,326,4528,6,0,L|333:399,2,56,0|8|2,0:0|0:0|0:0,0:0:0:0:
384,323,5028,1,0,3:0:0:0:
384,323,5195,1,2,3:2:0:0:
462,237,5528,2,0,P|496:165|457:84,1,168,6|8,3:2|0:0,0:0:0:0:
362,52,6361,1,10,0:0:0:0:
362,52,6528,2,0,L|299:69,1,56,10|10,0:0|0:0,0:0:0:0:
280,115,6861,6,0,L|401:152,1,112,6|0,3:2|3:0,0:0:0:0:
389,203,7361,1,10,0:0:0:0:
331,299,7695,2,0,P|322:330|319:359,2,56,2|2|8,3:2|0:0|0:0,0:0:0:0:
289,261,8195,1,6,3:2:0:0:
200,192,8528,1,0,0:0:0:0:
200,192,8695,2,0,P|205:129|178:75,1,112,10|2,0:0|3:2,0:0:0:0:
139,53,9195,2,0,L|81:40,1,56,0|8,0:0|0:0,0:0:0:0:
29,29,9528,1,6,3:2:0:0:
40,144,9861,5,0,0:0:0:0:
40,144,10028,2,0,P|37:173|27:218,1,56,8|0,0:0|0:0,0:0:0:0:
55,250,10361,2,0,P|84:252|129:263,2,56,2|0|10,3:2|3:0|0:0,0:0:0:0:
20,294,10861,1,2,3:2:0:0:
114,364,11195,1,0,0:0:0:0:
114,364,11361,1,14,0:0:0:0:
220,329,11695,2,0,P|227:294|224:268,1,56,2|0,3:2|3:0,0:0:0:0:
223,217,12028,1,10,0:0:0:0:
223,217,12195,6,0,P|190:171|186:97,1,112,6|0,3:2|0:0,0:0:0:0:
200,64,12695,1,10,0:0:0:0:
310,45,13028,2,0,P|337:40|359:24,2,56,2|2|8,3:2|0:0|0:0,0:0:0:0:
324,99,13528,1,6,3:2:0:0:
374,205,13861,1,0,0:0:0:0:
374,205,14028,2,0,L|439:213,1,56,8|2,0:0|0:0,0:0:0:0:
456,261,14361,2,0,L|521:269,2,56,2|0|8,3:2|3:0|0:0,0:0:0:0:
451,316,14861,1,6,3:2:0:0:
338,312,15195,6,0,P|320:340|316:368,2,56,0|8|2,0:0|0:0|0:0,0:0:0:0:
318,265,15695,1,0,3:0:0:0:
318,265,15861,1,2,3:2:0:0:
249,176,16195,2,0,P|196:133|80:134,1,168,6|8,3:2|0:0,0:0:0:0:
15,200,17028,2,0,L|11:319,1,112,2|10,3:2|0:0,0:0:0:0:
52,349,17528,6,0,P|102:352|149:306,1,112,6|0,3:2|3:0,0:0:0:0:
153,257,18028,1,10,0:0:0:0:
260,208,18361,1,2,3:2:0:0:
260,208,18528,2,0,L|245:147,1,56,2|8,0:0|0:0,0:0:0:0:
232,97,18861,1,6,3:2:0:0:
335,30,19195,2,0,P|363:31|394:41,1,56,0|10,0:0|0:0,0:0:0:0:
444,49,19528,2,0,P|443:77|433:108,1,56,0|2,3:0|3:2,0:0:0:0:
425,158,19861,2,0,P|397:157|366:147,1,56,2|8,0:0|0:0,0:0:0:0:
316,139,20195,1,6,3:2:0:0:
182,266,20695,6,0,P|190:294|194:343,1,56,8|0,0:0|3:0,0:0:0:0:
149,363,21028,2,0,P|103:351|31:317,1,112,2|0,3:2|3:0,0:0:0:0:
44,263,21528,1,6,3:2:0:0:
152,117,22028,6,0,P|167:72|172:28,1,89.6,2|0,0:0|0:0,0:0:0:0:
227,36,22528,2,0,P|249:43|271:46,1,44.8,2|0,0:0|0:0,0:0:0:0:
326,46,22861,6,0,L|461:38,1,134.4,6|8,3:2|0:0,0:0:0:0:
510,144,23695,1,2,0:0:0:0:
510,144,23861,1,0,3:0:0:0:
482,252,24195,2,0,L|347:260,1,134.4,2|8,3:2|0:0,0:0:0:0:
298,154,25029,1,2,0:0:0:0:
298,154,25195,1,0,0:0:0:0:
203,214,25528,2,0,P|180:277|180:346,1,134.4,2|8,3:2|0:0,0:0:0:0:
68,356,26361,1,2,0:0:0:0:
68,356,26528,2,0,P|67:333|60:312,1,44.8,0|8,3:0|0:0,0:0:0:0:
32,263,26861,2,0,P|85:237|101:165,1,134.4,2|8,3:2|0:0,0:0:0:0:
229,41,27861,2,0,P|250:45|260:64,1,44.8,2|8,0:0|0:0,0:0:0:0:
267,120,28195,6,0,L|418:128,1,134.4,6|8,3:2|0:0,0:0:0:0:
458,230,29029,1,2,0:0:0:0:
458,230,29195,2,0,L|407:232,1,44.8,0|8,3:0|0:0,0:0:0:0:
383,279,29528,2,0,P|337:294|282:227,1,134.4,2|8,3:2|0:0,0:0:0:0:
205,164,30361,1,2,0:0:0:0:
205,164,30528,1,0,0:0:0:0:
129,81,30861,2,0,P|90:29|27:40,1,134.4,2|8,3:2|0:0,0:0:0:0:
30,222,31861,2,0,L|39:279,1,44.8,0|8,3:0|0:0,0:0:0:0:
44,322,32195,2,0,L|197:297,1,134.4,2|8,3:2|0:0,0:0:0:0:
278,360,33028,1,2,0:0:0:0:
278,360,33195,2,0,P|286:339|289:310,1,44.8,0|8,3:0|0:0,0:0:0:0:
285,263,33528,6,0,P|270:195|273:112,1,134.4,6|8,3:2|0:0,0:0:0:0:
423,32,34528,2,0,L|468:49,1,44.8,0|8,3:0|0:0,0:0:0:0:
483,100,34861,2,0,P|498:168|495:251,1,134.4,2|8,3:2|0:0,0:0:0:0:
390,267,35695,1,2,0:0:0:0:
301,198,36028,1,8,0:0:0:0:
301,198,36195,2,0,P|237:201|162:178,1,134.4,2|8,3:2|0:0,0:0:0:0:
124,85,37028,1,2,0:0:0:0:
124,85,37195,2,0,L|176:78,1,44.8,0|8,3:0|0:0,0:0:0:0:
203,35,37528,2,0,P|267:16|334:18,1,134.4,2|8,3:2|0:0,0:0:0:0:
485,121,38528,2,0,P|491:141|487:167,1,44.8,2|8,0:0|0:0,0:0:0:0:
463,215,38861,6,0,L|451:361,1,134.4,6|8,3:2|0:0,0:0:0:0:
342,322,39695,1,2,0:0:0:0:
235,357,40028,1,8,0:0:0:0:
235,357,40195,2,0,L|223:223,1,134.4,2|8,3:2|0:0,0:0:0:0:
212,111,41028,1,2,0:0:0:0:
118,49,41361,1,8,0:0:0:0:
118,49,41528,2,0,P|64:59|22:127,1,134.4,2|8,3:2|0:0,0:0:0:0:
27,233,42361,2,0,L|91:240,1,44.8,8|8,0:0|0:0,0:0:0:0:
117,270,42695,2,0,L|181:277,1,44.8,8|8,0:0|0:0,0:0:0:0:
207,307,43028,5,2,3:2:0:0:
323,300,43361,1,0,0:0:0:0:
439,294,43695,1,2,0:0:0:0:
433,178,44028,1,0,0:0:0:0:
433,178,44195,6,0,P|433:93|446:18,1,151.199995385742,6|0,3:2|3:0,0:0:0:0:
334,46,45028,1,10,0:0:0:0:
230,24,45361,1,8,0:0:0:0:
230,24,45528,2,0,P|179:75|103:54,1,151.199995385742,6|2,3:2|0:0,0:0:0:0:
48,153,46361,1,10,0:0:0:0:
48,153,46528,2,0,L|59:206,1,50.3999984619141,0|0,3:0|3:0,0:0:0:0:
71,256,46861,6,0,P|122:205|198:226,1,151.199995385742,6|0,3:2|3:0,0:0:0:0:
227,327,47695,1,10,0:0:0:0:
337,361,48028,1,8,0:0:0:0:
337,361,48195,2,0,P|410:364|490:332,1,151.199995385742,6|2,3:2|3:2,0:0:0:0:
463,233,49028,1,8,0:0:0:0:
463,233,49195,1,10,0:0:0:0:
353,249,49528,6,0,P|291:210|266:136,1,151.199995385742,6|0,3:2|3:0,0:0:0:0:
294,31,50361,1,8,0:0:0:0:
406,12,50695,1,8,0:0:0:0:
406,12,50861,2,0,P|468:51|493:125,1,151.199995385742,2|2,3:2|3:2,0:0:0:0:
463,233,51695,1,0,3:0:0:0:
463,233,51861,2,0,P|464:264|472:297,1,50.3999984619141,0|8,3:0|0:0,0:0:0:0:
414,300,52195,6,0,P|344:274|262:277,1,151.199995385742,6|0,3:2|3:0,0:0:0:0:
171,328,53028,1,10,0:0:0:0:
171,328,53195,2,0,P|144:330|106:343,1,50.3999984619141,8|8,0:0|0:0,0:0:0:0:
66,333,53528,2,0,P|90:258|46:208,1,151.199995385742,6|0,3:2|3:0,0:0:0:0:
32,98,54361,2,0,P|29:75|39:38,1,50.3999984619141,10|2,0:0|0:0,0:0:0:0:
88,28,54695,1,8,0:0:0:0:
88,28,54861,6,0,P|160:61|261:64,1,168,6|10,3:2|0:0,0:0:0:0:
224,176,55695,2,0,P|196:180|159:196,2,56,2|0|8,3:2|3:0|0:0,0:0:0:0:
275,198,56195,1,6,3:2:0:0:
311,309,56528,1,0,3:0:0:0:
311,309,56695,2,0,P|334:326|368:326,1,56,10|0,0:0|3:0,0:0:0:0:
416,320,57028,2,0,P|442:308|460:279,1,56,10|0,0:0|3:0,0:0:0:0:
477,234,57361,1,8,0:0:0:0:
477,234,57528,6,0,P|469:183|515:69,1,168,6|10,3:2|0:0,0:0:0:0:
405,36,58361,2,0,L|341:33,1,56,2|0,3:2|3:0,0:0:0:0:
297,33,58695,1,8,0:0:0:0:
297,33,58861,1,6,3:2:0:0:
195,80,59195,1,0,3:0:0:0:
195,80,59361,2,0,L|183:18,2,56,8|0|2,0:0|3:0|3:2,0:0:0:0:
224,127,59861,2,0,L|213:181,1,56,10|8,0:0|0:0,0:0:0:0:
205,236,60195,1,2,3:2:0:0:
70,362,60695,6,0,P|48:350|31:316,1,56,14|0,0:0|3:0,0:0:0:0:
36,268,61028,2,0,P|80:244|114:176,1,112,10|10,0:0|0:0,0:0:0:0:
103,136,61528,1,6,3:2:0:0:
258,32,62028,2,0,L|250:90,1,56,10|0,0:0|3:0,0:0:0:0:
244,143,62361,2,0,L|360:159,1,112,10|10,0:0|0:0,0:0:0:0:
364,103,62861,1,6,3:2:0:0:
472,65,63195,5,0,3:0:0:0:
472,65,63361,2,0,P|499:85|515:117,1,56,10|0,0:0|3:0,0:0:0:0:
506,160,63695,2,0,P|491:214|491:277,1,112,10|0,0:0|3:0,0:0:0:0:
500,324,64195,1,10,0:0:0:0:
399,367,64528,1,10,0:0:0:0:
399,367,64695,1,10,0:0:0:0:
63,321,65528,6,0,P|52:263|59:180,1,123.200003759766,6|0,3:2|3:0,0:0:0:0:
114,214,66028,1,10,0:0:0:0:
238,233,66361,1,2,3:2:0:0:
238,233,66528,2,0,P|267:219|286:195,1,61.6000018798829,0|8,3:0|0:0,0:0:0:0:
304,137,66861,2,0,P|276:79|228:41,1,123.200003759766,6|0,3:2|3:0,0:0:0:0:
169,34,67361,2,0,L|99:28,2,61.6000018798829,8|0|2,0:0|0:0|3:2,0:0:0:0:
126,152,68028,1,8,0:0:0:0:
126,152,68195,6,0,L|18:242,1,123.200003759766,6|0,3:2|0:0,0:0:0:0:
23,292,68695,2,0,L|68:345,1,61.6000018798829,10|0,0:0|0:0,0:0:0:0:
127,353,69028,1,2,3:2:0:0:
127,353,69195,1,0,3:0:0:0:
207,259,69528,2,0,P|260:238|325:256,1,123.200003759766,6|8,3:2|0:0,0:0:0:0:
339,313,70028,1,6,3:2:0:0:
450,365,70361,2,0,P|476:375|509:366,2,61.6000018798829,10|0|0,0:0|3:0|3:0,0:0:0:0:
447,303,70861,6,0,P|461:248|434:120,1,184.800005639649,6|10,3:2|0:0,0:0:0:0:
323,167,71695,1,0,3:0:0:0:
323,167,71861,2,0,P|295:166|260:146,1,61.6000018798829,2|8,3:2|0:0,0:0:0:0:
252,97,72195,2,0,P|281:49|351:8,1,123.200003759766,6|0,3:2|3:0,0:0:0:0:
397,35,72695,1,8,0:0:0:0:
479,125,73028,2,0,L|486:189,1,61.6000018798829,10|0,0:0|3:0,0:0:0:0:
484,251,73361,1,8,0:0:0:0:
484,251,73528,6,0,P|424:253|406:313,1,123.200003759766,6|0,3:2|3:0,0:0:0:0:
351,337,74028,2,0,P|321:336|312:306,1,61.6000018798829,2|0,3:2|3:0,0:0:0:0:
306,252,74361,1,2,3:2:0:0:
306,252,74528,1,0,3:0:0:0:
308,128,74861,2,0,P|272:79|203:46,1,123.200003759766,6|0,3:2|3:0,0:0:0:0:
156,51,75361,2,0,L|89:64,1,61.6000018798829,2|0,3:2|3:0,0:0:0:0:
63,116,75695,2,0,L|2:104,2,61.6000018798829,10|0|0,0:0|3:0|3:0,0:0:0:0:
102,163,76195,6,0,P|105:226|96:293,1,123.200003759766,6|0,3:2|3:0,0:0:0:0:
90,346,76695,1,10,0:0:0:0:
217,352,77028,1,0,3:0:0:0:
217,352,77195,2,0,P|245:342|280:340,1,61.6000018798829,2|8,3:2|0:0,0:0:0:0:
303,284,77528,2,0,P|242:265|172:228,1,123.200003759766,6|0,3:2|3:0,0:0:0:0:
165,181,78028,1,10,0:0:0:0:
243,86,78361,1,10,0:0:0:0:
243,86,78528,2,0,P|263:58|269:22,1,61.6000018798829,8|8,0:0|0:0,0:0:0:0:
330,26,78861,6,0,P|370:84|472:132,1,184.800005639649,6|8,3:2|0:0,0:0:0:0:
496,257,79695,1,2,0:0:0:0:
496,257,79861,2,0,L|421:264,1,61.6000018798829,2|8,3:2|0:0,0:0:0:0:
375,242,80195,2,0,L|389:392,1,123.200003759766,6|0,3:2|3:0,0:0:0:0:
325,373,80695,1,8,0:0:0:0:
218,323,81028,1,10,0:0:0:0:
218,323,81195,2,0,L|159:289,1,61.6000018798829,2|8,3:2|0:0,0:0:0:0:
127,241,81528,6,0,P|209:233|295:156,1,184.800005639649,6|10,3:2|0:0,0:0:0:0:
304,51,82361,1,2,0:0:0:0:
304,51,82528,2,0,L|236:39,1,61.6000018798829,2|8,3:2|0:0,0:0:0:0:
181,36,82861,2,0,L|45:60,1,123.200003759766,6|0,3:2|3:0,0:0:0:0:
30,111,83361,1,10,0:0:0:0:
52,237,83695,1,0,3:0:0:0:
52,237,83861,2,0,L|64:305,1,61.6000018798829,2|8,3:2|0:0,0:0:0:0:
74,358,84195,5,6,3:2:0:0:
256,192,84361,12,0,85528,0:0:0:0:
19,127,86861,6,0,P|67:145|137:142,1,112,6|0,3:2|0:0,0:0:0:0:
158,98,87361,1,10,0:0:0:0:
267,72,87695,2,0,L|275:13,2,56,2|2|8,3:2|0:0|0:0,0:0:0:0:
303,114,88195,1,6,3:2:0:0:
399,55,88528,1,0,0:0:0:0:
399,55,88695,2,0,P|449:84|470:155,1,112,10|2,0:0|3:2,0:0:0:0:
468,187,89195,2,0,L|459:257,1,56,0|8,3:0|0:0,0:0:0:0:
456,298,89528,1,6,3:2:0:0:
344,305,89861,6,0,P|343:319|373:359,2,56,0|8|2,0:0|0:0|0:0,0:0:0:0:
351,253,90361,1,0,3:0:0:0:
351,253,90528,1,2,3:2:0:0:
241,275,90861,2,0,P|160:282|69:268,1,168,6|8,3:2|0:0,0:0:0:0:
36,169,91695,1,10,0:0:0:0:
36,169,91861,2,0,P|33:142|38:111,1,56,10|10,0:0|0:0,0:0:0:0:
54,59,92195,6,0,P|119:56|163:118,1,112,6|0,3:2|3:0,0:0:0:0:
155,140,92695,1,10,0:0:0:0:
265,157,93028,2,0,P|298:154|330:131,2,56,2|2|8,3:2|0:0|0:0,0:0:0:0:
271,212,93528,1,6,3:2:0:0:
184,281,93861,1,0,0:0:0:0:
184,281,94028,2,0,P|193:335|249:358,1,112,10|2,0:0|3:2,0:0:0:0:
296,361,94528,2,0,P|320:348|324:322,1,56,0|8,0:0|0:0,0:0:0:0:
328,266,94861,1,6,3:2:0:0:
287,161,95195,5,0,0:0:0:0:
287,161,95361,2,0,L|352:151,1,56,8|0,0:0|0:0,0:0:0:0:
369,103,95695,2,0,L|359:38,2,56,2|0|8,3:2|3:0|0:0,0:0:0:0:
425,100,96195,1,2,3:2:0:0:
506,168,96528,1,0,0:0:0:0:
506,168,96695,1,14,0:0:0:0:
479,265,97028,2,0,P|474:294|474:338,1,56,2|0,3:2|3:0,0:0:0:0:
434,351,97361,1,10,0:0:0:0:
434,351,97528,6,0,P|396:309|353:273,1,112,6|0,3:2|0:0,0:0:0:0:
306,243,98028,1,10,0:0:0:0:
212,303,98361,2,0,P|205:332|205:370,2,56,2|2|8,3:2|0:0|0:0,0:0:0:0:
170,265,98861,1,6,3:2:0:0:
63,284,99195,1,0,0:0:0:0:
63,284,99361,2,0,P|43:254|42:218,1,56,8|2,0:0|0:0,0:0:0:0:
67,185,99695,2,0,P|94:179|116:162,2,56,2|0|8,3:2|3:0|0:0,0:0:0:0:
17,158,100195,1,6,3:2:0:0:
70,59,100528,6,0,L|26:25,2,56,0|8|2,0:0|0:0|0:0,0:0:0:0:
127,47,101028,1,0,3:0:0:0:
127,47,101195,1,2,3:2:0:0:
236,26,101528,2,0,P|239:110|228:201,1,168,6|8,3:2|0:0,0:0:0:0:
294,284,102361,2,0,L|398:345,1,112,2|10,3:2|0:0,0:0:0:0:
446,349,102861,6,0,P|476:309|476:238,1,112,6|0,3:2|3:0,0:0:0:0:
467,193,103361,1,10,0:0:0:0:
382,128,103695,1,2,3:2:0:0:
382,128,103861,2,0,P|397:108|397:72,1,56,2|8,0:0|0:0,0:0:0:0:
383,23,104195,1,6,3:2:0:0:
271,22,104528,2,0,L|215:34,1,56,0|10,0:0|0:0,0:0:0:0:
170,66,104861,2,0,L|182:122,1,56,0|2,3:0|3:2,0:0:0:0:
211,168,105195,2,0,L|267:180,1,56,2|8,0:0|0:0,0:0:0:0:
312,212,105528,1,6,3:2:0:0:
190,351,106028,6,0,P|161:361|127:359,1,56,8|0,0:0|3:0,0:0:0:0:
93,324,106361,2,0,P|104:263|142:206,1,112,2|0,3:2|3:0,0:0:0:0:
172,183,106861,1,6,3:2:0:0:
340,183,107361,6,0,P|377:198|443:202,1,89.6,2|0,0:0|0:0,0:0:0:0:
462,246,107861,2,0,P|454:264|452:297,1,44.8,2|0,0:0|0:0,0:0:0:0:
443,344,108195,1,6,3:2:0:0:
31,343,113528,5,4,3:2:0:0:
209,352,114028,2,0,P|234:322|240:261,1,89.6,4|8,0:0|0:0,0:0:0:0:
209,227,114528,2,0,L|156:208,1,44.8,8|8,0:0|0:0,0:0:0:0:
139,162,114861,2,0,P|148:96|189:43,1,134.4,6|2,3:2|3:2,0:0:0:0:
304,37,115695,1,2,3:2:0:0:
304,37,115861,2,0,L|370:41,1,44.8,2|0,3:2|3:0,0:0:0:0:
404,44,116195,2,0,L|395:192,1,134.4,6|6,3:2|3:2,0:0:0:0:
294,146,117028,1,8,0:0:0:0:
294,146,117195,1,8,0:0:0:0:
225,234,117528,6,0,P|258:319|316:337,1,134.4,6|0,3:2|3:0,0:0:0:0:
353,337,118195,1,8,0:0:0:0:
353,337,118361,1,0,3:0:0:0:
468,358,118695,1,2,0:0:0:0:
468,358,118861,2,0,P|492:318|495:264,1,89.6,14|0,0:0|3:0,0:0:0:0:
489,220,119361,1,6,3:2:0:0:
308,202,119861,6,0,L|253:197,1,44.8,0|8,3:0|0:0,0:0:0:0:
221,235,120195,2,0,P|242:304|238:366,1,134.4,2|8,3:2|0:0,0:0:0:0:
133,326,121028,1,2,0:0:0:0:
62,248,121361,1,8,0:0:0:0:
62,248,121528,2,0,P|41:179|45:117,1,134.4,2|8,3:2|0:0,0:0:0:0:
114,32,122361,1,2,0:0:0:0:
114,32,122528,2,0,L|168:53,1,44.8,0|8,3:0|0:0,0:0:0:0:
211,41,122861,2,0,L|282:156,1,134.4,2|8,3:2|0:0,0:0:0:0:
413,280,123861,2,0,L|445:242,1,44.8,2|8,0:0|0:0,0:0:0:0:
480,204,124195,6,0,P|486:146|455:61,1,134.4,6|8,3:2|0:0,0:0:0:0:
359,33,125028,1,2,0:0:0:0:
293,124,125361,1,8,0:0:0:0:
293,124,125528,2,0,P|271:187|276:253,1,134.4,2|8,3:2|0:0,0:0:0:0:
216,348,126361,1,2,0:0:0:0:
131,283,126695,1,8,0:0:0:0:
131,283,126861,2,0,P|65:301|16:257,1,134.4,2|8,3:2|0:0,0:0:0:0:
15,149,127695,6,0,L|69:140,1,44.8,8|0,0:0|3:0,0:0:0:0:
111,162,128028,2,0,L|165:153,1,44.8,0|0,3:0|3:0,0:0:0:0:
207,175,128361,2,0,P|285:203|314:289,1,179.2,2|0,3:2|3:0,0:0:0:0:
484,355,129528,5,6,3:2:0:0:
256,192,129695,12,0,132195,0:0:0:0:
488,267,140028,5,8,0:0:0:0:
488,267,140195,2,0,P|419:263|355:181,1,168,6|8,3:2|0:0,0:0:0:0:
365,79,141028,2,0,L|418:59,2,56,2|0|8,3:2|3:0|0:0,0:0:0:0:
327,37,141528,1,6,3:2:0:0:
220,25,141861,1,0,3:0:0:0:
220,25,142028,2,0,P|212:59|214:84,1,56,10|0,0:0|3:0,0:0:0:0:
165,108,142361,2,0,P|131:100|106:102,1,56,10|0,0:0|3:0,0:0:0:0:
58,114,142695,1,8,0:0:0:0:
58,114,142861,6,0,P|32:173|72:274,1,168,6|10,3:2|0:0,0:0:0:0:
173,290,143695,2,0,P|183:264|175:239,1,56,2|0,3:2|3:0,0:0:0:0:
154,192,144028,1,8,0:0:0:0:
154,192,144195,1,6,3:2:0:0:
175,85,144528,1,0,3:0:0:0:
175,85,144695,1,8,0:0:0:0:
282,106,145028,2,0,L|342:97,1,56,2|10,3:2|0:0,0:0:0:0:
393,90,145361,2,0,L|384:30,2,56,8|0|2,0:0|3:0|0:0,0:0:0:0:
445,122,145861,1,0,3:0:0:0:
445,122,146028,1,6,3:2:0:0:
457,233,146361,6,0,P|490:230|525:241,2,56,10|0|10,0:0|3:0|0:0,0:0:0:0:
422,277,146861,1,6,3:2:0:0:
422,277,147028,2,0,P|367:287|311:281,1,112,2|10,0:0|0:0,0:0:0:0:
222,348,147695,1,10,0:0:0:0:
136,275,148028,1,10,0:0:0:0:
136,275,148195,1,6,3:2:0:0:
225,208,148528,5,0,3:0:0:0:
225,208,148695,2,0,L|234:150,1,56,10|0,0:0|3:0,0:0:0:0:
240,97,149028,2,0,L|124:79,1,112,10|0,0:0|3:0,0:0:0:0:
104,29,149528,1,10,0:0:0:0:
7,81,149861,1,10,0:0:0:0:
7,81,150028,1,10,0:0:0:0:
188,361,150861,6,0,P|208:314|218:232,1,123.200003759766,6|0,3:2|3:0,0:0:0:0:
217,181,151361,1,10,0:0:0:0:
266,70,151695,1,2,3:2:0:0:
266,70,151861,2,0,P|303:70|337:57,1,61.6000018798829,0|8,3:0|0:0,0:0:0:0:
379,31,152195,2,0,P|412:83|485:98,1,123.200003759766,6|0,3:2|3:0,0:0:0:0:
459,161,152695,2,0,P|487:170|503:195,2,61.6000018798829,8|0|2,0:0|0:0|3:2,0:0:0:0:
342,199,153361,1,8,0:0:0:0:
342,199,153528,6,0,P|283:215|199:217,1,123.200003759766,6|0,3:2|0:0,0:0:0:0:
211,157,154028,2,0,P|213:125|205:90,1,61.6000018798829,10|0,0:0|0:0,0:0:0:0:
205,38,154361,1,2,3:2:0:0:
205,38,154528,1,0,3:0:0:0:
82,32,154861,2,0,P|51:79|64:152,1,123.200003759766,6|8,3:2|0:0,0:0:0:0:
75,202,155361,1,6,3:2:0:0:
147,301,155695,2,0,P|151:330|135:356,2,61.6000018798829,10|0|0,0:0|3:0|3:0,0:0:0:0:
201,272,156195,6,0,P|310:271|386:250,1,184.800005639649,6|10,3:2|0:0,0:0:0:0:
299,169,157028,1,0,3:0:0:0:
299,169,157195,2,0,P|281:134|272:86,1,61.6000018798829,2|8,3:2|0:0,0:0:0:0:
289,52,157528,2,0,P|345:22|402:56,1,123.200003759766,6|0,3:2|3:0,0:0:0:0:
411,105,158028,1,8,0:0:0:0:
509,178,158361,2,0,P|499:207|485:234,1,61.6000018798829,10|0,0:0|3:0,0:0:0:0:
455,289,158695,1,8,0:0:0:0:
455,289,158861,6,0,P|398:301|353:369,1,123.200003759766,6|0,3:2|3:0,0:0:0:0:
298,365,159361,2,0,L|234:351,1,61.6000018798829,2|0,3:2|3:0,0:0:0:0:
193,317,159695,1,2,3:2:0:0:
193,317,159861,1,0,3:0:0:0:
79,364,160195,2,0,P|59:319|49:240,1,123.200003759766,6|0,3:2|3:0,0:0:0:0:
56,184,160695,2,0,L|68:121,1,61.6000018798829,2|0,3:2|3:0,0:0:0:0:
82,63,161028,2,0,L|19:51,2,61.6000018798829,10|0|0,0:0|3:0|3:0,0:0:0:0:
131,26,161528,6,0,P|192:39|212:95,1,123.200003759766,6|0,3:2|3:0,0:0:0:0:
203,152,162028,1,10,0:0:0:0:
259,267,162361,1,0,3:0:0:0:
259,267,162528,2,0,L|327:276,1,61.6000018798829,2|8,3:2|0:0,0:0:0:0:
347,330,162861,2,0,L|483:312,1,123.200003759766,6|0,3:2|3:0,0:0:0:0:
499,259,163361,1,10,0:0:0:0:
491,140,163695,1,10,0:0:0:0:
491,140,163861,2,0,P|469:110|458:77,1,61.6000018798829,8|8,0:0|0:0,0:0:0:0:
443,27,164195,6,0,P|386:87|277:85,1,184.800005639649,6|8,3:2|0:0,0:0:0:0:
180,44,165028,1,2,0:0:0:0:
180,44,165195,2,0,L|107:27,1,61.6000018798829,2|8,3:2|0:0,0:0:0:0:
62,52,165528,2,0,L|28:198,1,123.200003759766,6|0,3:2|3:0,0:0:0:0:
22,232,166028,1,8,0:0:0:0:
72,350,166361,1,10,0:0:0:0:
72,350,166528,2,0,P|102:336|117:305,1,61.6000018798829,2|8,3:2|0:0,0:0:0:0:
162,271,166861,6,0,P|246:281|298:370,1,184.800005639649,6|10,3:2|0:0,0:0:0:0:
415,322,167695,1,2,0:0:0:0:
415,322,167861,2,0,P|434:292|473:277,1,61.6000018798829,2|8,3:2|0:0,0:0:0:0:
466,218,168195,2,0,P|409:220|338:185,1,123.200003759766,6|0,3:2|3:0,0:0:0:0:
332,135,168695,1,10,0:0:0:0:
406,38,169028,1,0,3:0:0:0:
406,38,169195,2,0,P|434:37|470:54,1,61.6000018798829,2|8,3:2|0:0,0:0:0:0:
509,91,169528,5,6,3:2:0:0:
256,192,169695,12,0,170861,0:0:0:0:
2,291,172195,5,6,3:2:0:0:
256,192,172361,12,0,175028,0:0:0:0:
411,356,193195,6,0,P|438:351|459:337,1,44.8,2|0,0:0|0:0,0:0:0:0:
479,293,193528,2,0,P|390:241|342:118,1,224,6|0,3:2|0:0,0:0:0:0:
362,26,194695,1,2,0:0:0:0:
362,26,194861,2,0,P|421:60|453:142,1,134.4,2|0,0:0|0:0,0:0:0:0:
400,218,195695,2,0,P|386:256|378:319,1,89.6,2|0,0:0|0:0,0:0:0:0:
273,265,196361,2,0,P|266:220|251:178,2,89.6,2|0|0,0:0|0:0|0:0,0:0:0:0:
197,341,197361,1,2,0:0:0:0:
197,341,197528,2,0,P|108:319|65:236,1,179.2,2|0,0:0|0:0,0:0:0:0:
57,140,198528,2,0,P|79:126|118:126,1,44.8,2|0,0:0|0:0,0:0:0:0:
146,144,198861,6,0,P|224:181|303:140,1,179.2,2|0,0:0|0:0,0:0:0:0:
411,161,199861,2,0,P|420:142|410:122,1,44.8,2|2,0:0|0:0,0:0:0:0:
440,74,200195,2,0,P|393:41|315:40,1,134.4,2|0,0:0|0:0,0:0:0:0:
210,70,201028,1,2,0:0:0:0:
109,35,201361,1,0,0:0:0:0:
109,35,201528,2,0,B|62:75|63:196|138:187|160:287|124:331,1,313.6,2|0,0:0|0:0,0:0:0:0:
228,375,203028,2,0,P|273:361|330:363,2,89.6,2|0|0,0:0|0:0|0:0,0:0:0:0:
243,263,204028,2,0,P|265:262|286:255,1,44.8,2|0,0:0|0:0,0:0:0:0:
323,213,204361,6,0,P|309:119|345:16,1,201.599993847656,0|0,3:0|3:0,0:0:0:0:
450,44,205361,2,0,P|453:67|444:93,1,50.3999984619141,2|0,0:0|0:0,0:0:0:0:
441,148,205695,2,0,L|468:261,1,100.799996923828,0|0,3:0|0:0,0:0:0:0:
407,341,206361,2,0,L|294:368,1,100.799996923828,0|0,3:0|0:0,0:0:0:0:
259,354,206861,1,2,0:0:0:0:
259,354,207028,2,0,L|146:327,1,100.799996923828,0|0,3:0|0:0,0:0:0:0:
56,368,207695,2,0,P|42:325|64:258,1,100.799996923828,0|0,3:0|0:0,0:0:0:0:
71,222,208195,1,2,0:0:0:0:
71,222,208361,2,0,P|114:208|181:230,1,100.799996923828,0|0,3:0|0:0,0:0:0:0:
275,244,209028,2,0,L|312:149,1,100.799996923828,0|0,3:0|0:0,0:0:0:0:
302,100,209528,1,2,0:0:0:0:
302,100,209695,5,0,3:0:0:0:
391,33,210028,1,0,3:0:0:0:
483,95,210361,2,0,P|494:145|495:224,1,112,0|0,3:0|3:0,0:0:0:0:
464,253,210861,1,2,0:0:0:0:
464,253,211028,2,0,P|465:308|477:363,2,112,0|0|0,3:0|3:0|3:0,0:0:0:0:
374,185,212028,1,8,0:0:0:0:
374,185,212195,6,0,P|313:221|205:217,1,168,6|8,3:2|0:0,0:0:0:0:
142,138,213028,2,0,L|152:79,2,56,0|0|8,3:0|3:0|0:0,0:0:0:0:
86,130,213528,1,2,3:2:0:0:
256,192,216695,12,0,218361,0:0:0:0:
67,358,220195,6,0,P|115:343|142:275,1,112,2|8,3:2|0:0,0:0:0:0:
132,235,220695,1,6,3:2:0:0:
226,174,221028,2,0,P|218:150|184:136,2,56,10|0|0,0:0|3:0|3:0,0:0:0:0:
268,218,221528,6,0,P|364:231|464:226,1,184.800005639649,6|10,3:2|0:0,0:0:0:0:
478,110,222361,1,0,3:0:0:0:
478,110,222528,2,0,P|473:78|452:46,1,61.6000018798829,2|8,3:2|0:0,0:0:0:0:
401,29,222861,2,0,P|351:42|316:114,1,123.200003759766,6|0,3:2|3:0,0:0:0:0:
314,162,223361,1,8,0:0:0:0:
194,191,223695,2,0,P|194:162|183:123,1,61.6000018798829,10|0,0:0|3:0,0:0:0:0:
168,71,224028,1,8,0:0:0:0:
168,71,224195,6,0,L|34:92,1,123.200003759766,6|0,3:2|3:0,0:0:0:0:
13,142,224695,2,0,L|49:191,1,61.6000018798829,2|0,3:2|3:0,0:0:0:0:
87,247,225028,1,2,3:2:0:0:
87,247,225195,1,0,3:0:0:0:
209,219,225528,2,0,P|222:278|214:346,1,123.200003759766,6|0,3:2|3:0,0:0:0:0:
158,363,226028,2,0,P|128:369|94:365,1,61.6000018798829,2|0,3:2|3:0,0:0:0:0:
45,332,226361,2,0,P|19:348|-1:375,2,61.6000018798829,10|0|0,0:2|3:0|3:0,0:0:0:0:
27,272,226861,6,0,P|24:201|59:159,1,123.200003759766,6|0,3:2|3:0,0:0:0:0:
114,146,227361,1,10,0:0:0:0:
183,43,227695,1,0,3:0:0:0:
183,43,227861,2,0,P|209:36|245:33,1,61.6000018798829,2|8,3:2|0:0,0:0:0:0:
305,24,228195,2,0,P|361:34|374:101,1,123.200003759766,6|0,3:2|3:0,0:0:0:0:
368,152,228695,1,10,0:0:0:0:
296,236,229028,1,10,0:0:0:0:
296,236,229195,2,0,L|292:303,1,61.6000018798829,8|8,0:0|0:0,0:0:0:0:
322,342,229528,6,0,P|405:351|507:315,1,184.800005639649,6|8,3:2|0:0,0:0:0:0:
498,200,230361,1,2,0:0:0:0:
498,200,230528,2,0,P|470:180|451:157,1,61.6000018798829,2|8,3:2|0:0,0:0:0:0:
400,193,230861,2,0,P|379:149|378:64,1,123.200003759766,6|0,3:2|3:0,0:0:0:0:
393,16,231361,1,8,0:0:0:0:
274,34,231695,1,10,0:0:0:0:
274,34,231861,2,0,L|213:44,1,61.6000018798829,2|8,3:2|0:0,0:0:0:0:
169,87,232195,6,0,P|272:160|287:223,1,184.800005639649,6|10,3:2|0:0,0:0:0:0:
279,337,233028,1,2,0:0:0:0:
279,337,233195,2,0,P|244:342|206:307,1,61.6000018798829,2|8,3:2|0:0,0:0:0:0:
194,274,233528,2,0,P|133:271|60:297,1,123.200003759766,6|0,3:2|3:0,0:0:0:0:
16,310,234028,1,10,0:0:0:0:
33,191,234361,1,0,3:0:0:0:
33,191,234528,2,0,L|39:128,1,61.6000018798829,2|8,3:2|0:0,0:0:0:0:
46,68,234861,5,6,3:2:0:0:
256,192,235028,12,0,236195,0:0:0:0:
456,41,238861,6,0,P|405:33|339:72,1,112,6|0,3:2|0:0,0:0:0:0:
325,107,239361,1,10,0:0:0:0:
220,148,239695,2,0,L|160:132,2,56,2|2|8,3:2|0:0|0:0,0:0:0:0:
250,201,240195,1,6,3:2:0:0:
371,219,240528,1,0,0:0:0:0:
371,219,240695,2,0,P|414:243|440:318,1,112,10|2,0:0|3:2,0:0:0:0:
420,356,241195,2,0,P|398:368|359:361,1,56,0|8,3:0|0:0,0:0:0:0:
330,317,241528,1,6,3:2:0:0:
206,315,241861,6,0,P|196:341|190:368,2,56,0|8|2,0:0|0:0|0:0,0:0:0:0:
185,262,242361,1,0,3:0:0:0:
185,262,242528,1,2,3:2:0:0:
267,171,242861,2,0,P|270:113|177:24,1,168,6|8,3:2|0:0,0:0:0:0:
84,34,243695,1,10,0:0:0:0:
84,34,243861,2,0,P|55:32|10:79,1,56,10|10,0:0|0:0,0:0:0:0:
15,103,244195,6,0,L|90:193,1,112,6|0,3:2|3:0,0:0:0:0:
91,250,244695,1,10,0:0:0:0:
188,324,245028,2,0,P|195:361|193:396,2,56,2|2|8,3:2|0:0|0:0,0:0:0:0:
243,297,245528,1,6,3:2:0:0:
280,194,245861,1,0,0:0:0:0:
280,194,246028,2,0,P|226:197|153:175,1,112,10|2,0:0|3:2,0:0:0:0:
142,134,246528,2,0,P|140:107|151:70,1,56,0|8,0:0|0:0,0:0:0:0:
154,23,246861,1,6,3:2:0:0:
268,50,247195,5,0,0:0:0:0:
268,50,247361,2,0,L|346:36,1,56,8|0,0:0|0:0,0:0:0:0:
359,83,247695,2,0,L|414:92,2,56,2|0|10,3:2|3:0|0:0,0:0:0:0:
349,138,248195,1,2,3:2:0:0:
262,207,248528,1,0,0:0:0:0:
262,207,248695,1,14,0:0:0:0:
300,311,249028,1,2,3:2:0:0:
300,311,249195,2,0,L|360:308,1,56,0|10,3:0|0:0,0:0:0:0:
410,306,249528,6,0,P|464:318|508:285,1,112,6|0,3:2|0:0,0:0:0:0:
501,230,250028,1,10,0:0:0:0:
425,147,250361,2,0,P|426:119|437:80,2,56,2|2|8,3:2|0:0|0:0,0:0:0:0:
378,179,250861,1,6,3:2:0:0:
274,214,251195,1,0,0:0:0:0:
274,214,251361,2,0,P|273:186|262:147,1,56,8|2,0:0|0:0,0:0:0:0:
217,130,251695,2,0,L|224:72,2,56,2|0|8,3:2|3:0|0:0,0:0:0:0:
162,144,252195,1,6,3:2:0:0:
78,69,252528,6,0,P|46:51|12:50,2,56,0|8|2,0:0|0:0|0:0,0:0:0:0:
64,126,253028,1,0,3:0:0:0:
64,126,253195,1,2,3:2:0:0:
50,237,253528,2,0,P|121:253|217:212,1,168,6|8,3:2|0:0,0:0:0:0:
272,129,254361,2,0,L|395:141,1,112,2|10,3:2|0:0,0:0:0:0:
427,104,254861,6,0,P|483:132|497:186,1,112,6|0,3:2|3:0,0:0:0:0:
489,231,255361,1,10,0:0:0:0:
425,325,255695,1,2,3:2:0:0:
425,325,255861,2,0,L|362:336,1,56,2|8,0:0|0:0,0:0:0:0:
313,341,256195,1,6,3:2:0:0:
199,341,256528,2,0,L|193:279,1,56,0|10,0:0|0:0,0:0:0:0:
157,242,256861,2,0,L|96:228,1,56,0|2,3:0|3:2,0:0:0:0:
57,195,257195,2,0,L|63:133,1,56,2|8,0:0|0:0,0:0:0:0:
99,96,257528,1,6,3:2:0:0:
271,29,258028,6,0,P|304:37|324:56,1,56,8|0,0:0|3:0,0:0:0:0:
350,98,258361,2,0,P|399:74|460:95,1,112,2|0,3:2|3:0,0:0:0:0:
494,125,258861,1,6,3:2:0:0:
472,305,259361,6,0,P|432:324|384:307,1,89.6,2|0,0:0|0:0,0:0:0:0:
344,279,259861,1,2,0:0:0:0:
421,198,260195,5,6,3:2:0:0:
