osu file format v14

[General]
AudioFilename: audio.mp3
AudioLeadIn: 0
PreviewTime: 64945
Countdown: 0
SampleSet: Soft
StackLeniency: 0.7
Mode: 0
LetterboxInBreaks: 0
WidescreenStoryboard: 1

[Editor]
Bookmarks: 1528,22861,44195,65528,86861,108195,113528,129528,140028,150861,172195,193528,221528,238861,260195
DistanceSpacing: 1.6
BeatDivisor: 2
GridSize: 4
TimelineZoom: 0.8999999

[Metadata]
Title:Chiriyuku Kazahana (feat. nayuta)
TitleUnicode:散りゆく風花 (feat. nayuta)
Artist:Symholic
ArtistUnicode:Symholic
Creator:Hinsvar
Version:Hard
Source:
Tags:Paspal なゆた Japanese Rock J-Rock JRock 神楽へ宿す白雪巫女の魔瞳 Vexilla Symholic 1 to 6 Complete Best symphonic gothic Featured Artist FA Mappers' Guild MG MPG
BeatmapID:4063651
BeatmapSetID:1959822

[Difficulty]
HPDrainRate:4
CircleSize:3.3
OverallDifficulty:6.5
ApproachRate:8
SliderMultiplier:1.44
SliderTickRate:1

[Events]
//Background and Video events
0,0,"BG.jpg",0,0
//Break Periods
2,108395,112778
2,132395,139278
2,175228,192445
//Storyboard Layer 0 (Background)
//Storyboard Layer 1 (Fail)
//Storyboard Layer 2 (Pass)
//Storyboard Layer 3 (Foreground)
//Storyboard Layer 4 (Overlay)
//Storyboard Sound Samples

[TimingPoints]
-3638,333.333333333333,4,2,1,75,1,0
22028,-125,4,2,1,70,0,0
22861,-125,4,2,1,60,0,0
44195,-111.111111111111,4,2,1,65,0,0
54861,-100,4,2,1,70,0,0
65528,-90.9090909090909,4,2,1,80,0,1
75695,-90.9090909090909,4,2,1,80,0,0
76195,-90.9090909090909,4,2,1,80,0,1
84195,-90.9090909090909,4,2,1,80,0,0
86861,-100,4,2,1,75,0,1
86945,-100,4,2,1,75,0,0
107361,-125,4,2,1,70,0,0
114028,-125,4,2,1,60,0,0
140028,-100,4,2,1,70,0,0
150861,-90.9090909090909,4,2,1,80,0,1
161028,-90.9090909090909,4,2,1,80,0,0
161528,-90.9090909090909,4,2,1,80,0,1
169528,-90.9090909090909,4,2,1,80,0,0
193195,-125,4,2,1,50,0,0
193528,-125,4,2,1,60,0,0
195695,-125,4,2,1,50,0,0
204361,-111.111111111111,4,2,1,60,0,0
209695,-100,4,2,1,65,0,0
212195,-100,4,2,1,70,0,0
221528,-90.9090909090909,4,2,1,80,0,1
226361,-90.9090909090909,4,2,1,80,0,0
226861,-90.9090909090909,4,2,1,80,0,1
234861,-90.9090909090909,4,2,1,80,0,0
238861,-100,4,2,1,75,0,1
238945,-100,4,2,1,75,0,0
259361,-125,4,2,1,70,0,0

[Colours]
Combo1 : 236,218,193
Combo2 : 171,172,186
Combo3 : 142,125,117
Combo4 : 173,139,146

[HitObjects]
465,46,1528,6,0,P|439:86|407:181,1,144,6|0,3:2|0:0,0:0:0:0:
399,262,2028,1,10,0:0:0:0:
247,346,2361,2,0,P|211:344|171:344,2,72,2|2|8,3:2|0:0|0:0,0:0:0:0:
279,257,2861,6,0,P|214:224|152:188,1,144,6|0,3:2|0:0,0:0:0:0:
75,134,3361,2,0,P|114:72|150:10,1,144,10|2,0:0|3:2,0:0:0:0:
246,49,3861,1,0,3:0:0:0:
246,49,3945,1,0,3:0:0:0:
246,49,4028,1,8,0:0:0:0:
338,33,4195,6,0,P|424:41|445:100,1,144,6|0,3:2|0:0,0:0:0:0:
446,179,4695,2,0,L|352:189,1,72,8|2,0:0|0:0,0:0:0:0:
308,251,5028,1,0,3:0:0:0:
308,251,5111,1,0,3:0:0:0:
308,251,5195,2,0,L|214:241,1,72,2|8,3:2|0:0,0:0:0:0:
199,156,5528,1,6,3:2:0:0:
35,245,5861,6,0,P|63:266|78:310,1,72,0|8,0:0|0:0,0:0:0:0:
164,336,6195,2,0,L|164:385,2,36,0|0|10,3:0|3:0|0:0,0:0:0:0:
245,290,6528,1,10,0:0:0:0:
267,205,6695,5,10,0:0:0:0:
267,205,6778,1,0,3:0:0:0:
267,205,6861,2,0,P|343:201|411:160,1,144,6|0,3:2|3:0,0:0:0:0:
487,207,7361,2,0,L|481:278,1,72,10|0,0:0|0:0,0:0:0:0:
436,361,7695,1,2,3:2:0:0:
354,315,7861,1,2,0:0:0:0:
261,327,8028,1,8,0:0:0:0:
179,280,8195,6,0,P|201:218|186:122,1,144,6|0,3:2|0:0,0:0:0:0:
150,58,8695,1,10,0:0:0:0:
87,127,8861,1,0,3:0:0:0:
87,127,8945,1,0,3:0:0:0:
87,127,9028,2,0,L|12:140,1,72,2|0,3:2|0:0,0:0:0:0:
25,232,9361,1,8,0:0:0:0:
88,301,9528,6,0,P|154:279|192:349,1,144,6|0,3:2|0:0,0:0:0:0:
262,267,10028,2,0,L|268:188,1,72,8|0,0:0|0:0,0:0:0:0:
220,114,10361,1,2,3:2:0:0:
310,90,10528,2,0,L|316:11,1,72,0|10,3:0|0:0,0:0:0:0:
409,18,10861,6,0,P|449:77|526:98,1,144,2|0,3:2|0:0,0:0:0:0:
509,192,11361,1,14,0:0:0:0:
322,215,11695,2,0,L|309:173,2,36,2|0|0,3:2|3:0|3:0,0:0:0:0:
257,283,12028,1,10,0:0:0:0:
323,348,12195,6,0,P|389:367|462:324,1,144,6|0,3:2|0:0,0:0:0:0:
432,243,12695,1,10,0:0:0:0:
310,101,13028,2,0,P|313:63|319:21,2,72,2|2|8,3:2|0:0|0:0,0:0:0:0:
234,160,13528,6,0,P|193:98|127:26,1,144,6|0,3:2|0:0,0:0:0:0:
55,26,14028,2,0,P|31:53|11:83,1,72,8|2,0:0|0:0,0:0:0:0:
37,173,14361,1,2,3:2:0:0:
132,215,14528,1,0,3:0:0:0:
132,215,14611,1,0,3:0:0:0:
132,215,14695,1,8,0:0:0:0:
223,231,14861,6,0,P|240:157|240:75,1,144,6|0,3:2|0:0,0:0:0:0:
313,29,15361,2,0,P|348:29|383:38,1,72,8|2,0:0|0:0,0:0:0:0:
462,108,15695,1,0,3:0:0:0:
462,108,15778,1,0,3:0:0:0:
462,108,15861,2,0,P|462:143|471:178,1,72,2|8,3:2|0:0,0:0:0:0:
484,272,16195,1,6,3:2:0:0:
316,354,16528,6,0,P|292:335|240:338,1,72,0|8,0:0|0:0,0:0:0:0:
165,369,16861,1,0,3:0:0:0:
82,323,17028,2,0,L|73:268,3,36,2|0|0|0,3:2|3:0|3:0|3:0,0:0:0:0:
69,252,17361,1,10,0:0:0:0:
170,250,17528,6,0,P|244:242|280:182,1,144,6|0,3:2|3:0,0:0:0:0:
280,188,17945,1,0,3:0:0:0:
279,187,18028,2,0,L|268:111,1,72,10|0,0:0|0:0,0:0:0:0:
214,39,18361,1,2,3:2:0:0:
123,62,18528,1,2,0:0:0:0:
108,154,18695,1,8,0:0:0:0:
153,237,18861,6,0,P|82:254|12:283,1,144,6|0,3:2|0:0,0:0:0:0:
71,356,19361,1,10,0:0:0:0:
169,338,19528,1,0,3:0:0:0:
169,338,19611,1,0,3:0:0:0:
169,338,19695,2,0,P|204:329|239:315,1,72,2|2,3:2|0:0,0:0:0:0:
296,243,20028,1,8,0:0:0:0:
260,156,20195,6,0,P|241:98|279:22,1,144,6|0,3:2|0:0,0:0:0:0:
367,17,20695,2,0,P|376:46|357:84,1,72,8|0,0:0|3:0,0:0:0:0:
408,161,21028,1,2,3:2:0:0:
453,242,21195,2,0,L|494:249,3,36,0|0|0|0,3:0|3:0|3:0|3:0,0:0:0:0:
505,275,21528,1,6,3:2:0:0:
505,275,22028,6,0,P|464:310|427:368,1,115.2,2|0,0:0|0:0,0:0:0:0:
353,308,22528,2,0,P|337:283|315:265,1,57.6,2|0,0:0|0:0,0:0:0:0:
240,211,22861,6,0,P|168:227|52:220,1,172.8,6|8,3:2|0:0,0:0:0:0:
29,43,23695,1,2,0:0:0:0:
119,59,23861,2,0,L|124:18,2,28.8,0|0|8,3:0|3:0|0:0,0:0:0:0:
208,83,24195,2,0,P|282:34|357:76,1,172.8,2|8,3:2|0:0,0:0:0:0:
460,215,25028,2,0,P|502:214|518:197,1,57.6,2|0,0:0|0:0,0:0:0:0:
464,124,25361,1,8,0:0:0:0:
378,159,25528,2,0,P|343:240|337:338,1,172.8,2|8,3:2|0:0,0:0:0:0:
154,359,26361,1,2,0:0:0:0:
108,278,26528,2,0,L|79:273,3,28.8,0|0|8|8,3:0|3:0|0:0|0:0,0:0:0:0:
75,244,26861,2,0,P|141:240|226:175,1,172.8,2|8,3:2|0:0,0:0:0:0:
497,63,27861,2,0,P|471:40|427:40,1,57.6,2|8,0:0|0:0,0:0:0:0:
380,97,28195,6,0,P|397:186|395:276,1,172.8,6|8,3:2|0:0,0:0:0:0:
225,197,29028,1,2,0:0:0:0:
234,105,29195,2,0,P|247:95|279:96,2,28.8,0|0|8,3:0|3:0|0:0,0:0:0:0:
148,139,29528,2,0,P|73:132|15:45,1,172.8,2|8,3:2|0:0,0:0:0:0:
204,23,30361,2,0,L|271:33,1,57.6,2|0,0:0|0:0,0:0:0:0:
286,120,30695,1,8,0:0:0:0:
356,179,30861,2,0,L|330:353,1,172.8,2|8,3:2|0:0,0:0:0:0:
492,105,31861,2,0,L|487:73,3,28.8,0|0|8|8,3:0|3:0|0:0|0:0,0:0:0:0:
475,49,32195,2,0,P|401:56|304:114,1,172.8,2|8,3:2|0:0,0:0:0:0:
133,126,33028,1,2,0:0:0:0:
76,198,33195,2,0,L|37:187,2,28.8,0|0|8,3:0|3:0|0:0,0:0:0:0:
166,213,33528,6,0,P|245:262|273:346,1,172.8,6|8,3:2|0:0,0:0:0:0:
456,108,34528,2,0,L|487:99,2,28.8,0|0|8,3:0|3:0|0:0,0:0:0:0:
494,191,34861,2,0,P|497:263|440:348,1,172.8,2|8,3:2|0:0,0:0:0:0:
269,285,35695,1,2,0:0:0:0:
87,317,36028,1,8,0:0:0:0:
28,245,36195,2,0,P|60:170|148:178,1,172.8,2|8,3:2|0:0,0:0:0:0:
274,44,37028,1,2,0:0:0:0:
288,135,37195,2,0,L|263:153,3,28.8,0|0|8|8,3:0|3:0|0:0|0:0,0:0:0:0:
260,180,37528,2,0,L|280:354,1,172.8,2|8,3:2|0:0,0:0:0:0:
402,84,38528,2,0,L|408:44,2,28.8,2|0|8,0:0|0:0|0:0,0:0:0:0:
356,164,38861,6,0,P|433:240|511:240,1,172.8,6|8,3:2|0:0,0:0:0:0:
345,357,39695,1,2,0:0:0:0:
300,276,39861,2,0,L|272:256,2,28.8,0|0|8,3:0|3:0|0:0,0:0:0:0:
253,356,40195,2,0,L|83:324,1,172.8,2|8,3:2|0:0,0:0:0:0:
40,144,41028,1,2,0:0:0:0:
221,172,41361,1,8,0:0:0:0:
180,87,41528,2,0,P|221:30|325:34,1,172.8,2|8,3:2|0:0,0:0:0:0:
476,120,42361,5,8,0:0:0:0:
386,137,42527,1,8,0:0:0:0:
404,228,42694,1,8,0:0:0:0:
494,210,42861,1,8,0:0:0:0:
512,300,43028,6,0,P|483:350|422:346,1,115.2,2|0,3:2|0:0,0:0:0:0:
247,371,43695,2,0,P|197:342|201:281,1,115.2,2|0,0:0|0:0,0:0:0:0:
231,206,44195,6,0,B|254:156|224:117|189:125|153:82|177:33,1,194.399994067383,6|0,3:2|3:0,0:0:0:0:
356,16,45028,1,10,0:0:0:0:
492,135,45361,1,8,0:0:0:0:
454,217,45528,2,0,P|395:223|328:181,1,129.599996044922,6|0,3:2|3:0,0:0:0:0:
273,123,46028,2,0,P|243:120|210:141,1,64.799998022461,2|0,0:0|3:0,0:0:0:0:
160,210,46361,1,10,0:0:0:0:
75,177,46528,2,0,L|68:212,3,32.3999990112305,0|0|0|0,3:0|3:0|3:0|3:0,0:0:0:0:
62,240,46861,6,0,P|82:332|184:354,1,194.399994067383,6|0,3:2|3:0,0:0:0:0:
350,340,47695,1,10,0:0:0:0:
251,188,48028,1,8,0:0:0:0:
331,145,48195,2,0,B|354:124|348:86|329:83|319:49|348:17,1,129.599996044922,6|0,3:2|3:0,0:0:0:0:
434,24,48695,2,0,B|458:50|448:83|428:86|423:124|446:145,1,129.599996044922,2|8,3:2|0:0,0:0:0:0:
486,225,49195,1,10,0:0:0:0:
370,364,49528,6,0,P|341:311|272:265,1,129.599996044922,6|0,3:2|3:0,0:0:0:0:
286,270,49945,1,0,3:0:0:0:
286,270,50028,2,0,L|136:251,1,129.599996044922,0|8,3:0|0:0,0:0:0:0:
26,128,50695,1,8,0:0:0:0:
113,151,50861,2,0,P|184:114|233:12,1,194.399994067383,2|2,3:2|3:2,0:0:0:0:
414,22,51695,1,0,3:0:0:0:
475,88,51861,2,0,P|477:113|487:137,2,32.3999990112305,0|0|8,3:0|3:0|0:0,0:0:0:0:
387,113,52195,6,0,P|329:148|313:223,1,129.599996044922,6|0,3:2|3:0,0:0:0:0:
326,293,52695,1,0,3:0:0:0:
154,351,53028,1,10,0:0:0:0:
177,263,53195,1,8,0:0:0:0:
89,240,53361,1,8,0:0:0:0:
35,164,53528,2,0,P|22:106|37:29,1,129.599996044922,6|0,3:2|3:0,0:0:0:0:
123,28,54028,1,0,3:0:0:0:
247,160,54361,1,10,0:0:0:0:
329,220,54528,2,0,L|402:210,1,64.799998022461,2|8,0:0|0:0,0:0:0:0:
393,211,54778,1,8,0:0:0:0:
393,211,54861,6,0,P|451:192|474:104,1,144,6|0,3:2|3:0,0:0:0:0:
452,28,55361,1,10,0:0:0:0:
264,21,55695,2,0,L|262:92,1,72,2|0,3:2|3:0,0:0:0:0:
214,173,56028,1,8,0:0:0:0:
300,208,56195,6,0,P|323:289|307:358,1,144,6|0,3:2|3:0,0:0:0:0:
216,362,56695,2,0,L|144:348,1,72,10|0,0:0|3:0,0:0:0:0:
74,286,57028,1,10,0:0:0:0:
73,192,57195,2,0,L|72:138,2,36,0|0|8,3:0|3:0|0:0,0:0:0:0:
166,197,57528,6,0,P|224:160|297:189,1,144,6|0,3:2|3:0,0:0:0:0:
333,265,58028,1,10,0:0:0:0:
495,172,58361,2,0,L|497:128,2,36,2|0|0,3:2|3:0|3:0,0:0:0:0:
491,266,58695,1,8,0:0:0:0:
448,348,58861,6,0,P|394:360|295:341,1,144,6|0,3:2|3:0,0:0:0:0:
269,260,59361,1,8,0:0:0:0:
338,196,59528,1,0,3:0:0:0:
338,196,59611,1,0,3:0:0:0:
338,196,59695,2,0,P|348:185|357:166,2,36,2|0|10,3:2|0:0|0:0,0:0:0:0:
276,125,60028,1,8,0:0:0:0:
276,125,60111,1,8,0:0:0:0:
276,125,60195,2,0,P|249:56|163:10,1,144,2|0,3:2|3:0,0:0:0:0:
99,18,60695,6,0,L|39:64,1,72,14|0,0:0|3:0,0:0:0:0:
93,143,61028,1,10,0:0:0:0:
60,230,61194,1,0,3:0:0:0:
60,230,61278,1,0,3:0:0:0:
60,230,61361,1,10,0:0:0:0:
150,254,61528,6,0,P|201:277|192:360,1,144,6|0,3:2|3:0,0:0:0:0:
288,372,62028,2,0,L|371:362,1,72,10|0,0:0|3:0,0:0:0:0:
424,295,62361,1,10,0:0:0:0:
340,282,62528,1,0,3:0:0:0:
340,282,62611,1,0,3:0:0:0:
340,282,62695,1,10,0:0:0:0:
315,192,62861,6,0,P|396:178|459:145,1,144,6|0,3:2|3:0,0:0:0:0:
441,57,63361,2,0,L|377:20,1,72,10|0,0:0|3:0,0:0:0:0:
284,10,63695,1,10,0:0:0:0:
192,29,63861,1,0,3:0:0:0:
219,129,64028,1,0,3:0:0:0:
219,129,64111,1,0,3:0:0:0:
219,129,64195,1,10,0:0:0:0:
72,245,64528,1,10,0:0:0:0:
45,145,64695,1,10,0:0:0:0:
53,153,65528,6,0,L|238:176,1,158.400004833985,6|0,3:2|3:0,0:0:0:0:
210,172,65945,1,0,3:0:0:0:
210,172,66028,2,0,L|201:86,2,79.2000024169923,10|0|2,0:0|3:0|3:2,0:0:0:0:
305,211,66528,1,0,3:0:0:0:
220,270,66695,1,8,0:0:0:0:
286,348,66861,6,0,P|355:348|446:298,1,158.400004833985,6|0,3:2|3:0,0:0:0:0:
494,225,67361,2,0,P|494:190|469:145,1,79.2000024169923,8|0,0:0|0:0,0:0:0:0:
416,64,67695,1,2,3:2:0:0:
315,86,67861,1,0,3:0:0:0:
315,86,67945,1,0,3:0:0:0:
315,86,68028,1,8,0:0:0:0:
302,188,68195,6,0,P|245:201|208:116,1,158.400004833985,6|0,3:2|0:0,0:0:0:0:
107,157,68695,2,0,P|95:191|58:189,1,79.2000024169923,10|0,0:0|0:0,0:0:0:0:
24,101,69028,1,2,3:2:0:0:
24,101,69111,1,0,3:0:0:0:
24,101,69195,1,0,3:0:0:0:
216,27,69528,6,0,L|389:56,1,158.400004833985,6|8,3:2|0:0,0:0:0:0:
472,75,70028,1,6,3:2:0:0:
313,203,70361,1,10,0:0:0:0:
313,203,70445,1,0,3:0:0:0:
313,203,70528,2,0,P|309:226|315:248,2,39.6000012084961,0|0|0,3:0|3:0|3:0,0:0:0:0:
412,176,70861,6,0,P|484:229|486:296,1,158.400004833985,6|0,3:2|3:0,0:0:0:0:
404,354,71361,2,0,P|368:346|313:350,1,79.2000024169923,10|0,0:0|3:0,0:0:0:0:
245,282,71695,1,0,3:0:0:0:
212,184,71861,2,0,P|176:192|121:188,1,79.2000024169923,2|8,3:2|0:0,0:0:0:0:
46,247,72195,6,0,P|104:307|143:375,1,158.400004833985,6|0,3:2|3:0,0:0:0:0:
244,369,72695,2,0,L|250:290,1,79.2000024169923,8|0,0:0|0:0,0:0:0:0:
351,253,73028,1,10,0:0:0:0:
351,253,73111,1,0,3:0:0:0:
351,253,73195,1,0,3:0:0:0:
400,163,73361,1,8,0:0:0:0:
421,61,73528,6,0,P|355:24|281:69,1,158.400004833985,6|0,3:2|3:0,0:0:0:0:
192,77,74028,1,2,3:2:0:0:
192,77,74111,1,0,3:0:0:0:
192,77,74195,2,0,P|175:67|158:53,2,39.6000012084961,0|0|2,3:0|3:0|3:2,0:0:0:0:
254,158,74528,1,0,3:0:0:0:
456,119,74861,6,0,P|488:199|486:287,1,158.400004833985,6|0,3:2|3:0,0:0:0:0:
409,336,75361,2,0,L|401:392,2,39.6000012084961,2|0|0,3:2|3:0|3:0,0:0:0:0:
346,253,75695,1,10,0:0:0:0:
244,236,75861,1,0,3:0:0:0:
261,134,76028,5,0,3:0:0:0:
261,134,76111,1,0,3:0:0:0:
261,134,76195,2,0,P|346:126|395:68,1,158.400004833985,6|0,3:2|3:0,0:0:0:0:
300,27,76695,2,0,L|216:29,1,79.2000024169923,10|0,0:0|3:0,0:0:0:0:
221,29,76945,1,0,3:0:0:0:
221,29,77028,1,0,3:0:0:0:
133,84,77195,2,0,L|135:168,1,79.2000024169923,2|8,3:2|0:0,0:0:0:0:
209,234,77528,6,0,L|84:359,1,158.400004833985,6|0,3:2|3:0,0:0:0:0:
96,346,77945,1,0,3:0:0:0:
96,346,78028,1,10,0:0:0:0:
302,338,78361,2,0,L|343:353,3,39.6000012084961,10|8|8|8,0:0|0:0|0:0|0:0,0:0:0:0:
376,364,78695,1,8,0:0:0:0:
460,306,78861,6,0,P|423:261|424:159,1,158.400004833985,6|0,3:2|3:0,0:0:0:0:
340,100,79361,2,0,P|295:137|193:136,1,158.400004833985,8|2,0:0|0:0,0:0:0:0:
130,60,79861,2,0,P|107:41|56:42,1,79.2000024169923,2|8,3:2|0:0,0:0:0:0:
23,138,80195,6,0,L|57:294,1,158.400004833985,6|0,3:2|3:0,0:0:0:0:
150,336,80695,2,0,L|162:258,1,79.2000024169923,8|0,0:0|3:0,0:0:0:0:
242,193,81028,2,0,L|292:185,2,39.6000012084961,10|0|2,0:0|3:0|3:2,0:0:0:0:
166,122,81361,5,8,0:0:0:0:
166,122,81445,1,0,3:0:0:0:
166,122,81528,2,0,P|226:81|313:99,1,158.400004833985,6|0,3:2|3:0,0:0:0:0:
396,43,82028,2,0,P|430:66|484:66,1,79.2000024169923,10|0,0:0|0:0,0:0:0:0:
499,167,82361,1,2,0:0:0:0:
509,269,82528,1,2,3:2:0:0:
407,279,82695,1,8,0:0:0:0:
317,229,82861,6,0,L|158:205,1,158.400004833985,6|0,3:2|3:0,0:0:0:0:
58,190,83361,1,10,0:0:0:0:
73,292,83528,1,0,3:0:0:0:
185,322,83695,1,0,3:0:0:0:
185,322,83778,1,0,3:0:0:0:
185,322,83861,2,0,P|192:345|193:370,2,39.6000012084961,2|0|8,3:2|3:0|0:0,0:0:0:0:
99,381,84195,5,6,3:2:0:0:
256,192,84361,12,0,85528,0:0:0:0:
497,219,86861,6,0,P|433:207|379:123,1,144,6|0,3:2|0:0,0:0:0:0:
367,56,87361,1,10,0:0:0:0:
180,38,87695,2,0,P|142:37|103:41,2,72,2|2|8,3:2|0:0|0:0,0:0:0:0:
238,110,88195,6,0,P|212:166|189:252,1,144,6|0,3:2|0:0,0:0:0:0:
102,278,88695,2,0,P|83:208|54:142,1,144,10|2,0:0|3:2,0:0:0:0:
24,64,89195,1,0,3:0:0:0:
24,64,89278,1,0,3:0:0:0:
24,64,89361,1,8,0:0:0:0:
117,64,89528,6,0,P|200:64|248:9,1,144,6|0,3:2|0:0,0:0:0:0:
306,91,90028,2,0,P|293:122|290:166,1,72,8|2,0:0|0:0,0:0:0:0:
384,203,90361,1,0,3:0:0:0:
384,203,90445,1,0,3:0:0:0:
384,203,90528,2,0,P|397:172|400:128,1,72,2|8,3:2|0:0,0:0:0:0:
389,40,90861,1,6,3:2:0:0:
500,191,91195,6,0,L|509:266,1,72,0|8,0:0|0:0,0:0:0:0:
452,337,91528,2,0,L|411:358,2,36,0|0|10,0:0|3:0|0:0,0:0:0:0:
413,251,91861,1,10,0:0:0:0:
333,201,92028,5,10,0:0:0:0:
333,201,92111,1,0,3:0:0:0:
333,201,92195,2,0,P|346:140|313:48,1,144,6|0,3:2|3:0,0:0:0:0:
239,22,92695,2,0,L|141:29,1,72,10|0,0:0|0:0,0:0:0:0:
89,79,93028,1,2,3:2:0:0:
174,117,93195,1,2,0:0:0:0:
182,209,93361,1,8,0:0:0:0:
99,252,93528,6,0,P|85:341|126:384,1,144,6|0,3:2|0:0,0:0:0:0:
204,346,94028,1,10,0:0:0:0:
304,369,94195,1,0,3:0:0:0:
304,369,94278,1,0,3:0:0:0:
304,369,94361,2,0,P|314:334|304:297,1,72,2|0,3:2|0:0,0:0:0:0:
268,213,94695,1,8,0:0:0:0:
223,131,94861,6,0,P|282:85|360:78,1,144,6|0,3:2|0:0,0:0:0:0:
420,16,95361,2,0,L|483:68,1,72,8|0,0:0|0:0,0:0:0:0:
504,151,95695,1,2,3:2:0:0:
428,205,95861,2,0,L|365:257,1,72,0|8,3:0|0:0,0:0:0:0:
350,342,96195,6,0,P|290:318|201:298,1,144,2|0,3:2|0:0,0:0:0:0:
134,350,96695,1,14,0:0:0:0:
84,169,97028,2,0,P|70:155|52:149,2,36,2|0|0,3:2|3:0|3:0,0:0:0:0:
171,203,97361,1,10,0:0:0:0:
264,200,97528,6,0,P|342:192|405:169,1,144,6|0,3:2|0:0,0:0:0:0:
454,91,98028,1,10,0:0:0:0:
270,54,98361,2,0,P|233:32|214:1,2,72,2|2|8,3:2|0:0|0:0,0:0:0:0:
286,146,98861,6,0,P|285:231|250:295,1,144,6|0,3:2|0:0,0:0:0:0:
183,337,99361,2,0,L|110:346,1,72,8|2,0:0|0:0,0:0:0:0:
32,294,99695,1,2,3:2:0:0:
111,242,99861,1,0,3:0:0:0:
111,242,99945,1,0,3:0:0:0:
111,242,100028,1,8,0:0:0:0:
56,165,100195,6,0,P|28:99|30:27,1,144,6|0,3:2|0:0,0:0:0:0:
123,40,100695,2,0,P|136:72|135:108,1,72,8|2,0:0|0:0,0:0:0:0:
229,154,101028,1,0,3:0:0:0:
229,154,101111,1,0,3:0:0:0:
229,154,101195,2,0,P|261:140|297:141,1,72,2|8,3:2|0:0,0:0:0:0:
312,233,101528,1,6,3:2:0:0:
458,349,101861,6,0,P|486:322|509:289,1,72,0|8,0:0|0:0,0:0:0:0:
511,200,102195,1,0,3:0:0:0:
500,107,102361,2,0,P|485:96|464:96,3,36,2|0|0|0,3:2|3:0|3:0|3:0,0:0:0:0:
431,93,102695,1,10,0:0:0:0:
379,29,102861,6,0,P|320:24|256:74,1,144,6|0,3:2|3:0,0:0:0:0:
255,74,103278,1,0,3:0:0:0:
255,74,103361,2,0,L|170:91,1,72,10|0,0:0|0:0,0:0:0:0:
104,38,103695,1,2,3:2:0:0:
35,101,103861,1,2,0:0:0:0:
39,194,104028,1,8,0:0:0:0:
95,268,104195,6,0,P|177:289|185:358,1,144,6|0,3:2|0:0,0:0:0:0:
283,350,104695,1,10,0:0:0:0:
282,265,104861,1,0,3:0:0:0:
282,265,104945,1,0,3:0:0:0:
282,265,105028,2,0,P|295:233|329:229,1,72,2|2,3:2|0:0,0:0:0:0:
421,251,105361,1,8,0:0:0:0:
475,175,105528,6,0,P|443:130|468:36,1,144,6|0,3:2|0:0,0:0:0:0:
368,21,106028,2,0,P|345:36|298:24,1,72,8|0,0:0|3:0,0:0:0:0:
221,62,106361,1,2,3:2:0:0:
132,30,106528,2,0,P|120:22|97:28,3,36,0|0|0|0,3:0|3:0|3:0|3:0,0:0:0:0:
71,46,106861,1,6,3:2:0:0:
71,46,107361,6,0,P|64:98|74:177,1,115.2,2|0,0:0|0:0,0:0:0:0:
160,176,107861,2,0,P|163:150|158:110,1,57.6,2|0,0:0|0:0,0:0:0:0:
159,25,108195,5,6,3:2:0:0:
469,40,113528,5,4,3:2:0:0:
469,40,114028,2,0,P|430:81|399:155,1,115.2,4|8,0:0|0:0,0:0:0:0:
337,196,114528,1,8,0:0:0:0:
244,162,114695,1,8,0:0:0:0:
150,189,114861,2,0,P|109:86|40:55,1,172.8,6|2,3:2|3:2,0:0:0:0:
26,241,115695,1,2,3:2:0:0:
26,241,115778,1,0,3:0:0:0:
26,241,115861,2,0,L|37:282,3,28.8,2|0|0|0,3:2|3:0|3:0|3:0,0:0:0:0:
39,297,116195,2,0,P|119:305|223:334,1,172.8,6|6,3:2|3:2,0:0:0:0:
388,366,117028,1,8,0:0:0:0:
477,342,117195,1,8,0:0:0:0:
498,159,117528,6,0,P|468:81|389:51,1,172.8,6|0,3:2|3:0,0:0:0:0:
319,112,118195,1,8,0:0:0:0:
240,89,118361,1,0,3:0:0:0:
240,89,118445,1,0,3:0:0:0:
240,89,118528,2,0,L|234:17,1,57.6,0|2,3:0|0:0,0:0:0:0:
143,26,118861,2,0,L|132:155,1,115.2,14|0,0:0|3:0,0:0:0:0:
42,156,119361,1,6,3:2:0:0:
263,349,119861,6,0,L|312:353,2,28.8,0|0|8,3:0|3:0|0:0,0:0:0:0:
180,305,120195,2,0,B|147:287|95:310|100:334|52:367|5:350,1,172.8,2|8,3:2|0:0,0:0:0:0:
9,170,121028,1,2,0:0:0:0:
154,57,121361,1,8,0:0:0:0:
139,148,121528,2,0,P|223:189|319:192,1,172.8,2|8,3:2|0:0,0:0:0:0:
403,41,122361,1,2,0:0:0:0:
463,111,122528,2,0,L|452:155,3,28.8,0|0|8|8,3:0|3:0|0:0|0:0,0:0:0:0:
458,167,122861,2,0,L|494:339,1,172.8,2|8,3:2|0:0,0:0:0:0:
210,256,123861,2,0,L|170:254,2,28.8,2|0|8,0:0|0:0|0:0,0:0:0:0:
285,310,124195,6,0,P|309:264|297:140,1,172.8,6|8,3:2|0:0,0:0:0:0:
154,33,125028,1,2,0:0:0:0:
74,79,125195,2,0,P|52:87|37:82,2,28.8,0|0|8,3:0|3:0|0:0,0:0:0:0:
152,127,125528,2,0,P|170:183|181:311,1,172.8,2|8,3:2|0:0,0:0:0:0:
13,371,126361,1,2,0:0:0:0:
16,186,126695,1,8,0:0:0:0:
101,219,126861,2,0,B|147:241|185:210|175:187|210:156|264:176,1,172.8,2|8,3:2|0:0,0:0:0:0:
408,275,127695,6,0,L|450:273,3,28.8,8|8|0|0,0:0|0:0|3:0|3:0,0:0:0:0:
456,252,128028,2,0,L|454:210,3,28.8,0|0|0|0,3:0|3:0|3:0|3:0,0:0:0:0:
433,204,128361,2,0,P|386:166|404:11,1,230.4,2|0,3:2|3:0,0:0:0:0:
109,12,129528,5,6,3:2:0:0:
256,192,129695,12,0,132195,0:0:0:0:
17,96,140028,5,8,0:0:0:0:
101,55,140195,2,0,P|187:59|207:121,1,144,6|0,3:2|3:0,0:0:0:0:
194,196,140695,1,8,0:0:0:0:
308,343,141028,2,0,L|381:353,1,72,2|0,3:2|3:0,0:0:0:0:
456,300,141361,1,8,0:0:0:0:
494,214,141528,6,0,P|459:163|446:72,1,144,6|0,3:2|3:0,0:0:0:0:
375,20,142028,2,0,L|294:32,1,72,10|0,0:0|3:0,0:0:0:0:
217,67,142361,1,10,0:0:0:0:
124,80,142528,2,0,L|88:74,2,36,0|0|8,3:0|3:0|0:0,0:0:0:0:
92,168,142861,6,0,L|74:321,1,144,6|0,3:2|3:0,0:0:0:0:
157,355,143361,1,10,0:0:0:0:
271,206,143695,2,0,L|305:176,2,36,2|0|0,3:2|3:0|3:0,0:0:0:0:
310,291,144028,1,8,0:0:0:0:
387,343,144195,6,0,P|449:323|459:252,1,144,6|0,3:2|3:0,0:0:0:0:
388,190,144695,1,8,0:0:0:0:
363,105,144861,1,0,3:0:0:0:
363,105,144945,1,0,3:0:0:0:
363,105,145028,2,0,L|348:63,2,36,2|0|10,3:2|0:0|0:0,0:0:0:0:
452,70,145361,2,0,L|466:28,2,36,8|8|0,0:0|0:0|3:0,0:0:0:0:
503,148,145695,1,2,0:0:0:0:
475,242,145861,5,0,3:0:0:0:
475,242,145945,1,0,3:0:0:0:
475,242,146028,2,0,L|323:262,1,144,6|10,3:2|0:0,0:0:0:0:
270,190,146528,2,0,L|234:185,2,36,0|0|10,3:0|3:0|0:0,0:0:0:0:
238,278,146861,5,6,3:2:0:0:
172,345,147028,2,0,P|142:331|113:295,1,72,2|0,0:0|3:0,0:0:0:0:
44,253,147361,2,0,P|21:190|31:98,1,144,10|10,0:0|0:0,0:0:0:0:
72,37,147861,1,0,3:0:0:0:
72,37,147945,1,0,3:0:0:0:
72,37,148028,1,10,0:0:0:0:
165,25,148195,6,0,P|219:32|255:108,1,144,6|0,3:2|3:0,0:0:0:0:
198,181,148695,2,0,L|215:259,1,72,10|0,0:0|3:0,0:0:0:0:
305,269,149028,1,10,0:0:0:0:
292,362,149195,1,0,3:0:0:0:
393,383,149361,1,0,3:0:0:0:
393,383,149445,1,0,3:0:0:0:
393,383,149528,1,10,0:0:0:0:
465,210,149861,1,10,0:0:0:0:
372,197,150027,1,10,0:0:0:0:
380,205,150861,6,0,P|382:121|368:45,1,158.400004833985,6|0,3:2|3:0,0:0:0:0:
368,48,151278,1,0,3:0:0:0:
368,48,151361,2,0,P|406:45|455:32,2,79.2000024169923,10|0|2,0:0|3:0|3:2,0:0:0:0:
266,31,151861,1,0,3:0:0:0:
192,103,152028,1,8,0:0:0:0:
116,33,152195,6,0,P|70:35|22:136,1,158.400004833985,6|0,3:2|3:0,0:0:0:0:
93,195,152695,2,0,P|106:229|113:279,1,79.2000024169923,8|0,0:0|0:0,0:0:0:0:
178,350,153028,1,2,3:2:0:0:
223,262,153195,1,0,3:0:0:0:
223,262,153278,1,0,3:0:0:0:
223,262,153361,1,8,0:0:0:0:
196,162,153528,6,0,P|274:161|369:130,1,158.400004833985,6|0,3:2|0:0,0:0:0:0:
448,105,154028,2,0,P|448:144|464:191,1,79.2000024169923,10|0,0:0|0:0,0:0:0:0:
492,290,154361,1,2,3:2:0:0:
492,290,154445,1,0,3:0:0:0:
492,290,154528,1,0,3:0:0:0:
298,359,154861,6,0,L|135:319,1,158.400004833985,6|8,3:2|0:0,0:0:0:0:
121,220,155361,1,6,3:2:0:0:
325,164,155695,1,10,0:0:0:0:
325,164,155778,1,0,3:0:0:0:
325,164,155861,2,0,L|327:110,2,39.6000012084961,0|0|0,3:0|3:0|3:0,0:0:0:0:
371,256,156195,6,0,P|445:264|475:191,1,158.400004833985,6|0,3:2|3:0,0:0:0:0:
449,97,156695,2,0,P|442:51|439:9,1,79.2000024169923,10|0,0:0|3:0,0:0:0:0:
336,27,157028,1,0,3:0:0:0:
276,111,157195,2,0,P|283:157|286:199,1,79.2000024169923,2|8,3:2|0:0,0:0:0:0:
231,277,157528,6,0,P|183:288|116:379,1,158.400004833985,6|0,3:2|3:0,0:0:0:0:
43,296,158028,2,0,P|48:258|31:214,1,79.2000024169923,8|0,0:0|3:0,0:0:0:0:
60,126,158361,1,10,0:0:0:0:
60,126,158445,1,0,3:0:0:0:
60,126,158528,1,0,3:0:0:0:
138,192,158695,1,8,0:0:0:0:
237,168,158861,6,0,L|394:153,1,158.400004833985,6|0,3:2|3:0,0:0:0:0:
482,96,159361,1,2,3:2:0:0:
482,96,159445,1,0,3:0:0:0:
482,96,159528,2,0,L|492:42,2,39.6000012084961,0|0|2,3:0|3:0|3:2,0:0:0:0:
491,198,159861,1,0,3:0:0:0:
368,364,160195,6,0,P|336:306|327:198,1,158.400004833985,6|0,3:2|3:0,0:0:0:0:
338,113,160695,2,0,L|377:103,2,39.6000012084961,2|0|0,3:2|3:0|3:0,0:0:0:0:
253,53,161028,1,10,0:0:0:0:
172,117,161195,1,0,3:0:0:0:
108,36,161361,5,0,3:0:0:0:
108,36,161445,1,0,3:0:0:0:
108,36,161528,2,0,P|50:53|27:151,1,158.400004833985,6|0,3:2|3:0,0:0:0:0:
28,242,162028,2,0,L|118:257,1,79.2000024169923,10|0,0:0|0:0,0:0:0:0:
106,255,162278,1,0,3:0:0:0:
106,255,162361,1,0,3:0:0:0:
149,361,162528,2,0,P|184:361|232:323,1,79.2000024169923,2|8,3:2|0:0,0:0:0:0:
253,240,162861,6,0,P|253:170|177:74,1,158.400004833985,6|0,3:2|3:0,0:0:0:0:
208,95,163278,1,0,3:0:0:0:
208,95,163361,1,10,0:0:0:0:
413,34,163695,2,0,L|466:43,3,39.6000012084961,10|8|8|8,0:0|0:0|0:0|0:0,0:0:0:0:
490,49,164028,1,8,0:0:0:0:
441,139,164195,6,0,P|372:177|293:247,1,158.400004833985,6|0,3:2|3:0,0:0:0:0:
211,202,164695,2,0,P|210:281|230:384,1,158.400004833985,8|2,0:0|0:0,0:0:0:0:
120,366,165195,2,0,P|120:326|110:275,1,79.2000024169923,2|8,3:2|0:0,0:0:0:0:
51,205,165528,6,0,L|153:64,1,158.400004833985,6|0,3:2|3:0,0:0:0:0:
232,23,166028,2,0,L|278:87,1,79.2000024169923,8|0,0:0|3:0,0:0:0:0:
381,87,166361,2,0,P|393:76|430:69,2,39.6000012084961,10|0|2,0:0|3:0|3:2,0:0:0:0:
333,182,166695,5,8,0:0:0:0:
333,182,166778,1,0,3:0:0:0:
333,182,166861,2,0,P|318:260|339:343,1,158.400004833985,6|0,3:2|3:0,0:0:0:0:
429,292,167361,2,0,P|468:299|509:289,1,79.2000024169923,10|0,0:0|0:0,0:0:0:0:
484,188,167695,1,2,0:0:0:0:
501,87,167861,1,2,3:2:0:0:
420,25,168028,1,8,0:0:0:0:
403,126,168195,6,0,P|326:104|253:146,1,158.400004833985,6|0,3:2|3:0,0:0:0:0:
263,241,168695,1,10,0:0:0:0:
172,192,168861,1,0,3:0:0:0:
166,302,169028,1,0,3:0:0:0:
166,302,169111,1,0,3:0:0:0:
166,302,169195,2,0,L|159:352,2,39.6000012084961,2|0|8,3:2|3:0|0:0,0:0:0:0:
85,237,169528,5,6,3:2:0:0:
256,192,169695,12,0,170861,0:0:0:0:
427,237,172195,5,6,3:2:0:0:
256,192,172361,12,0,175028,0:0:0:0:
47,343,193195,6,0,P|80:342|91:318,1,57.6,2|0,0:0|0:0,0:0:0:0:
174,284,193528,2,0,B|219:267|302:287|312:351|398:370|447:340,1,288,6|0,3:2|0:0,0:0:0:0:
485,161,194695,1,2,0:0:0:0:
485,161,194861,2,0,P|434:122|403:16,1,172.8,2|0,0:0|0:0,0:0:0:0:
217,27,195695,2,0,P|204:82|162:119,1,115.2,2|0,0:0|0:0,0:0:0:0:
123,300,196361,2,0,P|71:323|13:359,2,115.2,2|0|0,0:0|0:0|0:0,0:0:0:0:
259,175,197361,1,2,0:0:0:0:
259,175,197528,2,0,B|304:162|368:180|361:234|417:265|480:252,1,230.4,2|0,0:0|0:0,0:0:0:0:
316,363,198528,2,0,P|292:362|258:343,1,57.6,2|0,0:0|0:0,0:0:0:0:
219,263,198861,6,0,P|220:201|195:26,1,230.4,2|0,0:0|0:0,0:0:0:0:
18,81,199861,1,2,0:0:0:0:
1,171,200028,1,2,0:0:0:0:
48,250,200195,2,0,P|115:272|165:365,1,172.8,2|0,0:0|0:0,0:0:0:0:
340,303,201028,2,0,P|395:289|467:284,1,115.2,2|0,0:0|0:0,0:0:0:0:
491,200,201528,2,0,B|466:100|337:72|303:210|186:196|161:87,1,403.2,2|0,0:0|0:0,0:0:0:0:
48,239,203028,2,0,P|66:291|72:368,2,115.2,2|0|0,0:0|0:0|0:0,0:0:0:0:
232,241,204028,2,0,P|235:269|244:296,1,57.6,2|0,0:0|0:0,0:0:0:0:
313,355,204361,6,0,P|403:356|450:203,1,259.199992089844,0|0,3:0|3:0,0:0:0:0:
275,200,205361,2,0,P|246:195|209:177,1,64.799998022461,2|0,0:0|0:0,0:0:0:0:
128,213,205695,2,0,P|67:212|24:152,1,129.599996044922,0|0,3:0|0:0,0:0:0:0:
145,25,206361,2,0,P|206:26|249:86,1,129.599996044922,0|0,3:0|0:0,0:0:0:0:
334,50,206861,1,2,0:0:0:0:
421,25,207028,2,0,P|433:55|443:171,1,129.599996044922,0|0,3:0|0:0,0:0:0:0:
331,291,207695,2,0,P|309:229|306:165,1,129.599996044922,0|0,3:0|0:0,0:0:0:0:
226,121,208195,1,2,0:0:0:0:
135,122,208361,2,0,L|7:173,1,129.599996044922,0|0,3:0|0:0,0:0:0:0:
124,315,209028,2,0,L|252:366,1,129.599996044922,0|0,3:0|0:0,0:0:0:0:
327,325,209528,1,2,0:0:0:0:
290,242,209695,5,0,3:0:0:0:
298,55,210028,1,0,3:0:0:0:
485,63,210361,2,0,P|505:91|505:206,1,144,0|0,3:0|3:0,0:0:0:0:
476,284,210861,1,2,0:0:0:0:
385,259,211028,2,0,P|365:231|365:116,2,144,0|0|0,3:0|3:0|3:0,0:0:0:0:
225,358,212028,1,8,0:0:0:0:
176,277,212195,6,0,P|115:305|22:306,1,144,6|0,3:2|0:0,0:0:0:0:
27,216,212695,1,8,0:0:0:0:
91,40,213028,2,0,P|121:26|168:25,1,72,0|0,3:0|3:0,0:0:0:0:
209,103,213361,1,8,0:0:0:0:
301,115,213528,1,2,3:2:0:0:
256,192,216695,12,0,218361,0:0:0:0:
57,40,220195,6,0,P|61:111|88:177,1,144,2|8,3:2|0:0,0:0:0:0:
176,211,220695,1,6,3:2:0:0:
327,99,221028,1,10,0:0:0:0:
327,99,221111,1,0,3:0:0:0:
327,99,221195,2,0,P|341:83|370:73,2,36,0|0|0,3:0|3:0|3:0,0:0:0:0:
331,202,221528,6,0,P|404:187|514:180,1,158.400004833985,6|0,3:2|3:0,0:0:0:0:
488,283,222028,2,0,L|443:356,1,79.2000024169923,10|0,0:0|3:0,0:0:0:0:
344,332,222361,1,0,3:0:0:0:
246,365,222528,2,0,L|204:297,1,79.2000024169923,2|8,3:2|0:0,0:0:0:0:
163,203,222861,6,0,P|76:215|6:153,1,158.400004833985,6|0,3:2|3:0,0:0:0:0:
28,74,223361,2,0,P|71:68|106:99,1,79.2000024169923,8|0,0:0|0:0,0:0:0:0:
193,37,223695,1,10,0:0:0:0:
193,37,223778,1,0,3:0:0:0:
193,37,223861,1,0,3:0:0:0:
244,126,224028,1,8,0:0:0:0:
345,144,224195,6,0,P|346:215|338:316,1,158.400004833985,6|0,3:2|3:0,0:0:0:0:
444,345,224695,1,2,3:2:0:0:
444,345,224778,1,0,3:0:0:0:
444,345,224861,2,0,P|453:363|475:379,2,39.6000012084961,0|0|2,3:0|3:0|3:2,0:0:0:0:
485,250,225195,1,0,3:0:0:0:
469,44,225528,6,0,P|408:24|325:76,1,158.400004833985,6|0,3:2|3:0,0:0:0:0:
227,78,226028,2,0,L|232:26,2,39.6000012084961,2|0|0,3:2|3:0|3:0,0:0:0:0:
145,141,226361,1,10,0:2:0:0:
117,41,226528,1,0,3:0:0:0:
17,69,226695,5,0,3:0:0:0:
17,69,226778,1,0,3:0:0:0:
17,69,226861,2,0,P|36:157|68:216,1,158.400004833985,6|0,3:2|3:0,0:0:0:0:
44,316,227361,2,0,P|73:341|119:333,1,79.2000024169923,10|0,0:0|3:0,0:0:0:0:
112,338,227611,1,0,3:0:0:0:
112,338,227695,1,0,3:0:0:0:
212,317,227861,2,0,L|211:237,1,79.2000024169923,2|8,3:2|0:0,0:0:0:0:
300,185,228195,6,0,L|298:25,1,158.400004833985,6|0,3:2|3:0,0:0:0:0:
298,26,228611,1,0,3:0:0:0:
298,26,228695,1,10,0:0:0:0:
470,139,229028,2,0,L|461:185,3,39.6000012084961,10|8|8|8,0:0|0:0|0:0|0:0,0:0:0:0:
455,216,229361,1,8,0:0:0:0:
444,318,229528,6,0,P|365:316|294:374,1,158.400004833985,6|0,3:2|3:0,0:0:0:0:
230,286,230028,2,0,P|271:218|256:128,1,158.400004833985,8|2,0:0|0:0,0:0:0:0:
163,116,230528,2,0,P|151:77|150:29,1,79.2000024169923,2|8,3:2|0:0,0:0:0:0:
46,29,230861,6,0,P|41:107|18:183,1,158.400004833985,6|0,3:2|3:0,0:0:0:0:
118,208,231361,2,0,L|201:197,1,79.2000024169923,8|0,0:0|3:0,0:0:0:0:
270,270,231695,2,0,L|264:309,2,39.6000012084961,10|0|2,0:0|3:0|3:2,0:0:0:0:
359,215,232028,5,8,0:0:0:0:
359,215,232111,1,0,3:0:0:0:
359,215,232195,2,0,P|453:218|482:155,1,158.400004833985,6|0,3:2|3:0,0:0:0:0:
469,66,232695,2,0,L|406:6,1,79.2000024169923,10|0,0:0|0:0,0:0:0:0:
309,22,233028,1,2,0:0:0:0:
296,124,233195,1,2,3:2:0:0:
194,111,233361,1,8,0:0:0:0:
181,213,233528,6,0,P|240:269|236:356,1,158.400004833985,6|0,3:2|3:0,0:0:0:0:
145,377,234028,1,10,0:0:0:0:
49,338,234195,1,0,3:0:0:0:
70,244,234361,1,0,3:0:0:0:
70,244,234445,1,0,3:0:0:0:
70,244,234528,2,0,L|2:236,2,39.6000012084961,2|0|8,3:2|3:0|0:0,0:0:0:0:
167,278,234861,5,6,3:2:0:0:
256,192,235028,12,0,236195,0:0:0:0:
286,357,238861,6,0,P|263:288|222:230,1,144,6|0,3:2|0:0,0:0:0:0:
134,196,239361,1,10,0:0:0:0:
45,30,239695,2,0,P|16:57|4:93,2,72,2|2|8,3:2|0:0|0:0,0:0:0:0:
134,59,240195,6,0,P|210:45|285:44,1,144,6|0,3:2|0:0,0:0:0:0:
368,26,240695,2,0,P|418:84|456:149,1,144,10|2,0:0|3:2,0:0:0:0:
488,239,241195,1,0,3:0:0:0:
488,239,241278,1,0,3:0:0:0:
488,239,241361,1,8,0:0:0:0:
459,328,241528,6,0,P|390:329|346:268,1,144,6|0,3:2|0:0,0:0:0:0:
264,228,242028,2,0,P|229:227|207:258,1,72,8|2,0:0|0:0,0:0:0:0:
168,343,242361,1,0,3:0:0:0:
168,343,242445,1,0,3:0:0:0:
168,343,242528,2,0,L|83:337,1,72,2|8,3:2|0:0,0:0:0:0:
46,258,242861,1,6,3:2:0:0:
219,187,243195,6,0,L|304:193,1,72,0|8,0:0|0:0,0:0:0:0:
326,105,243528,2,0,L|311:63,2,36,0|0|10,3:0|3:0|0:0,0:0:0:0:
418,90,243861,1,10,0:0:0:0:
496,159,244028,5,10,0:0:0:0:
496,159,244111,1,0,3:0:0:0:
496,159,244195,2,0,P|499:191|488:311,1,144,6|0,3:2|3:0,0:0:0:0:
415,359,244695,2,0,L|352:297,1,72,10|0,0:0|0:0,0:0:0:0:
281,263,245028,1,2,3:2:0:0:
187,274,245195,1,2,0:0:0:0:
151,359,245361,1,8,0:0:0:0:
65,319,245528,6,0,P|45:279|106:197,1,144,6|0,3:2|0:0,0:0:0:0:
68,109,246028,1,10,0:0:0:0:
140,49,246195,1,0,3:0:0:0:
140,49,246278,1,0,3:0:0:0:
140,49,246361,2,0,L|219:59,1,72,2|0,3:2|0:0,0:0:0:0:
301,29,246695,1,8,0:0:0:0:
314,121,246861,6,0,P|372:142|432:96,1,144,6|0,3:2|0:0,0:0:0:0:
499,160,247361,2,0,P|503:198|497:233,1,72,8|0,0:0|0:0,0:0:0:0:
403,229,247695,1,2,3:2:0:0:
324,279,247861,2,0,P|286:283|251:277,1,72,0|10,3:0|0:0,0:0:0:0:
192,204,248195,6,0,P|216:126|155:76,1,144,2|0,3:2|0:0,0:0:0:0:
98,38,248695,1,14,0:0:0:0:
40,215,249028,2,0,L|29:250,2,36,2|0|0,3:2|3:0|3:0,0:0:0:0:
121,261,249361,1,10,0:0:0:0:
211,237,249528,6,0,P|278:247|319:313,1,144,6|0,3:2|0:0,0:0:0:0:
389,368,250028,1,10,0:0:0:0:
494,213,250361,2,0,P|491:174|499:132,2,72,2|2|8,3:2|0:0|0:0,0:0:0:0:
404,240,250861,6,0,P|343:225|268:179,1,144,6|0,3:2|0:0,0:0:0:0:
218,108,251361,2,0,P|225:77|248:40,1,72,8|2,0:0|0:0,0:0:0:0:
335,13,251695,1,2,3:2:0:0:
418,75,251861,1,0,3:0:0:0:
418,75,251945,1,0,3:0:0:0:
418,75,252028,1,8,0:0:0:0:
389,164,252195,6,0,P|427:233|506:227,1,144,6|0,3:2|0:0,0:0:0:0:
502,329,252695,2,0,L|416:345,1,72,8|2,0:0|0:0,0:0:0:0:
353,294,253028,1,0,3:0:0:0:
353,294,253111,1,0,3:0:0:0:
353,294,253195,2,0,L|280:244,1,72,2|8,3:2|0:0,0:0:0:0:
220,194,253528,1,6,3:2:0:0:
43,132,253861,6,0,P|82:122|106:98,1,72,0|8,0:0|0:0,0:0:0:0:
169,33,254195,1,0,3:0:0:0:
262,33,254361,2,0,L|266:74,3,36,2|0|0|0,3:2|3:0|3:0|3:0,0:0:0:0:
267,105,254695,1,10,0:0:0:0:
303,201,254861,6,0,P|259:264|228:337,1,144,6|0,3:2|3:0,0:0:0:0:
232,325,255278,1,0,3:0:0:0:
232,325,255361,2,0,P|267:330|310:347,1,72,10|0,0:0|0:0,0:0:0:0:
391,371,255695,1,2,3:2:0:0:
482,351,255861,1,2,0:0:0:0:
462,260,256028,1,8,0:0:0:0:
392,197,256195,6,0,P|331:207|253:167,1,144,6|0,3:2|0:0,0:0:0:0:
248,79,256695,1,10,0:0:0:0:
324,23,256861,1,0,3:0:0:0:
324,23,256945,1,0,3:0:0:0:
324,23,257028,2,0,P|354:18|393:38,1,72,2|2,3:2|0:0,0:0:0:0:
461,96,257361,1,8,0:0:0:0:
494,183,257528,6,0,P|482:214|465:341,1,144,6|0,3:2|0:0,0:0:0:0:
378,360,258028,2,0,P|362:354|298:345,1,72,8|0,0:0|3:0,0:0:0:0:
242,278,258361,1,2,3:2:0:0:
152,306,258528,2,0,P|137:316|125:329,3,36,0|0|0|0,3:0|3:0|3:0|3:0,0:0:0:0:
103,358,258861,1,6,3:2:0:0:
103,358,259361,6,0,P|104:283|85:227,1,115.2,2|0,0:0|0:0,0:0:0:0:
33,174,259861,2,0,P|26:146|28:117,1,57.6,2|0,0:0|0:0,0:0:0:0:
67,33,260195,5,6,3:2:0:0:
