osu file format v14

[General]
AudioFilename: audio.mp3
AudioLeadIn: 0
PreviewTime: 115478
Countdown: 0
SampleSet: Soft
StackLeniency: 0.4
Mode: 0
LetterboxInBreaks: 0
WidescreenStoryboard: 0

[Editor]
Bookmarks: 48821,59102,73090,83877,94664,104102,162079,170843,183652,193090,202529,203877,252416,263203,272641,276686,305843,319242,321855,322697
DistanceSpacing: 1.7
BeatDivisor: 4
GridSize: 4
TimelineZoom: 1.5

[Metadata]
Title:Angelology
TitleUnicode:Angelology
Artist:Symholic
ArtistUnicode:Symholic
Creator:gazimal
Version:Angelic Howl
Source:
Tags:Vengel rock japanese fa featured artist paspal lalue komatsu rina 狛茉璃奈
BeatmapID:3130082
BeatmapSetID:1530294

[Difficulty]
HPDrainRate:5
CircleSize:4
OverallDifficulty:8.8
ApproachRate:9.4
SliderMultiplier:1.8
SliderTickRate:1

[Events]
//Background and Video events
0,0,"DjRdBUhVAAAzL2v.jpg",0,0
//Break Periods
2,162279,170169
2,273989,276146
//Storyboard Layer 0 (Background)
//Storyboard Layer 1 (Fail)
//Storyboard Layer 2 (Pass)
//Storyboard Layer 3 (Foreground)
//Storyboard Layer 4 (Overlay)
//Storyboard Sound Samples

[TimingPoints]
282,337.078651685393,4,2,1,40,1,0
282,-250,4,2,1,30,0,0
11068,-250,4,2,1,40,0,0
12922,-250,4,2,1,5,0,0
13090,-250,4,2,1,40,0,0
14270,-250,4,2,1,5,0,0
14439,-250,4,2,1,40,0,0
14944,-250,4,2,1,5,0,0
15113,-166.666666666667,4,2,1,40,0,0
15956,-166.666666666667,4,2,1,5,0,0
16124,-250.000000000001,4,2,1,40,0,0
16461,-166.666666666667,4,2,1,40,0,0
18147,-250.000000000001,4,2,1,40,0,0
19158,-166.666666666667,4,2,1,40,0,0
27248,-111.111111111111,4,2,2,60,0,0
28596,-111.111111111111,4,2,1,60,0,0
33989,-111.111111111111,4,2,2,60,0,0
35338,-111.111111111111,4,2,1,60,0,0
36686,-100,4,2,1,60,0,0
36939,-100,4,2,1,5,0,0
37023,-100,4,2,1,60,0,0
37444,-100,4,2,1,5,0,0
37529,-100,4,2,1,60,0,0
37697,-100,4,2,5,60,0,0
37950,-100,4,2,5,5,0,0
38034,-90.9090909090909,4,2,2,60,0,0
38287,-90.9090909090909,4,2,2,5,0,0
38371,-90.9090909090909,4,2,2,60,0,0
38540,-90.9090909090909,4,2,1,60,0,0
38793,-90.9090909090909,4,2,1,5,0,0
38877,-90.9090909090909,4,2,1,60,0,0
39298,-90.9090909090909,4,2,1,5,0,0
39382,-90.9090909090909,4,2,1,60,0,0
39635,-90.9090909090909,4,2,1,5,0,0
39719,-90.9090909090909,4,2,1,60,0,0
40394,-90.9090909090909,4,2,2,60,0,0
40647,-90.9090909090909,4,2,2,5,0,0
40731,-90.9090909090909,4,2,1,60,0,0
40984,-90.9090909090909,4,2,1,5,0,0
41068,-90.9090909090909,4,2,1,60,0,0
41489,-90.9090909090909,4,2,1,5,0,0
41573,-90.9090909090909,4,2,1,60,0,0
42079,-90.9090909090909,4,2,2,60,0,0
42248,-90.9090909090909,4,2,1,60,0,0
42501,-90.9090909090909,4,2,4,60,0,0
42669,-90.9090909090909,4,2,5,60,0,0
42753,-90.9090909090909,4,2,1,60,0,0
43090,-90.9090909090909,4,2,2,60,0,0
45956,-90.9090909090909,4,2,1,60,0,0
46124,-90.9090909090909,4,2,2,60,0,0
48484,-250,4,2,3,60,0,0
48737,-250,4,2,3,5,0,0
48821,-250,4,2,2,70,0,0
50843,-83.3333333333333,4,2,2,70,0,0
53877,-125,4,2,2,70,0,0
54130,-83.3333333333333,4,2,1,5,0,0
54214,-71.4285714285714,4,2,2,70,0,0
54888,-83.3333333333333,4,2,2,70,0,0
57164,-90.9090909090909,4,2,2,5,0,0
57248,-83.3333333333333,4,2,2,70,0,0
58596,-83.3333333333333,4,2,4,70,0,0
58765,-83.3333333333333,4,2,5,70,0,0
59102,-83.3333333333333,4,2,1,70,0,0
59270,-71.4285714285714,4,2,1,70,0,0
59523,-71.4285714285714,4,2,1,5,0,0
59607,-71.4285714285714,4,2,2,70,0,0
61630,-83.3333333333333,4,2,2,70,0,0
64664,-125,4,2,2,70,0,0
64916,-125,4,2,2,5,0,0
65001,-71.4285714285714,4,2,2,70,0,0
65253,-71.4285714285714,4,2,2,5,0,0
65338,-71.4285714285714,4,2,2,70,0,0
65590,-71.4285714285714,4,2,2,5,0,0
65675,-71.4285714285714,4,2,2,70,0,0
66012,-83.3333333333333,4,2,2,70,0,0
67613,-71.4285714285714,4,2,2,5,0,0
67697,-83.3333333333333,4,2,2,70,0,0
67950,-71.4285714285714,4,2,2,5,0,0
68034,-83.3333333333333,4,2,2,70,0,0
69046,-83.3333333333333,4,2,1,70,0,0
69298,-71.4285714285714,4,2,1,5,0,0
69383,-83.3333333333333,4,2,1,70,0,0
69804,-83.3333333333333,4,2,1,5,0,0
69888,-83.3333333333333,4,2,1,70,0,0
69973,-83.3333333333333,4,2,1,5,0,0
70057,-83.3333333333333,4,2,1,70,0,0
70310,-71.4285714285714,4,2,1,5,0,0
70394,-83.3333333333333,4,2,1,70,0,0
70647,-71.4285714285714,4,2,1,5,0,0
70731,-83.3333333333333,4,2,1,70,0,0
72416,-500,4,2,1,70,0,0
73006,-1000,4,2,1,5,0,0
73090,-166.666666666667,4,2,6,60,0,0
83877,-100,4,2,1,60,0,0
84130,-100,4,2,1,5,0,0
84214,-100,4,2,1,60,0,0
85478,-100,4,2,1,5,0,0
85562,-100,4,2,1,60,0,0
86826,-100,4,2,1,5,0,0
86910,-100,4,2,1,60,0,0
88175,-100,4,2,1,5,0,0
88259,-100,4,2,1,60,0,0
89523,-100,4,2,1,5,0,0
89607,-100,4,2,1,60,0,0
90871,-100,4,2,1,5,0,0
90955,-100,4,2,1,60,0,0
91967,-83.3333333333333,4,2,1,60,0,0
92220,-83.3333333333333,4,2,1,5,0,0
92304,-100,4,2,1,60,0,0
92388,-100,4,2,1,5,0,0
92473,-100,4,2,1,60,0,0
94664,-166.666666666667,4,2,1,60,0,0
95843,-166.666666666667,4,2,1,5,0,0
96012,-166.666666666667,4,2,1,50,0,0
97192,-166.666666666667,4,2,1,5,0,0
97360,-166.666666666667,4,2,1,50,0,0
98540,-166.666666666667,4,2,1,5,0,0
98708,-166.666666666667,4,2,1,50,0,0
99214,-166.666666666667,4,2,1,5,0,0
99383,-166.666666666667,4,2,1,50,0,0
101911,-166.666666666667,4,2,1,5,0,0
102079,-166.666666666667,4,2,1,50,0,0
102585,-166.666666666667,4,2,1,5,0,0
102753,-166.666666666667,4,2,1,50,0,0
103006,-166.666666666667,4,2,1,5,0,0
103090,-166.666666666667,4,2,1,50,0,0
105450,-166.666666666667,4,2,2,50,0,0
106208,-166.666666666667,4,2,1,5,0,0
106293,-166.666666666667,4,2,1,50,0,0
107641,-166.666666666667,4,2,1,5,0,0
107810,-166.666666666667,4,2,1,50,0,0
108399,-166.666666666667,4,2,1,5,0,0
108484,-166.666666666667,4,2,1,50,0,0
110001,-166.666666666667,4,2,1,5,0,0
110169,-166.666666666667,4,2,1,50,0,0
113540,-156.25,4,2,1,50,0,0
116237,-76.9230769230769,4,2,2,80,0,1
116489,-76.9230769230769,4,2,2,5,0,1
116574,-76.9230769230769,4,2,2,80,0,1
117838,-76.9230769230769,4,2,2,5,0,1
117922,-76.9230769230769,4,2,2,80,0,1
119186,-76.9230769230769,4,2,2,5,0,1
119270,-76.9230769230769,4,2,2,80,0,1
119439,-66.6666666666667,4,2,2,80,0,1
119692,-76.9230769230769,4,2,2,5,0,1
119776,-66.6666666666667,4,2,2,80,0,1
120029,-76.9230769230769,4,2,2,5,0,1
120113,-66.6666666666667,4,2,2,80,0,1
120956,-66.6666666666667,4,2,1,80,0,1
121293,-66.6666666666667,4,2,4,80,0,1
121461,-66.6666666666667,4,2,5,80,0,1
121630,-76.9230769230769,4,2,2,80,0,1
121883,-76.9230769230769,4,2,2,5,0,1
121967,-76.9230769230769,4,2,2,80,0,1
123231,-76.9230769230769,4,2,2,5,0,1
123315,-76.9230769230769,4,2,2,80,0,1
126939,-76.9230769230769,4,2,2,5,0,1
127023,-76.9230769230769,4,2,2,80,0,1
127276,-76.9230769230769,4,2,2,5,0,1
127360,-76.9230769230769,4,2,2,80,0,1
127529,-76.9230769230769,4,2,1,80,0,1
127781,-76.9230769230769,4,2,1,5,0,1
127865,-76.9230769230769,4,2,1,80,0,1
128371,-76.9230769230769,4,2,2,80,0,1
128624,-76.9230769230769,4,2,2,5,0,1
128708,-76.9230769230769,4,2,2,80,0,1
128877,-76.9230769230769,4,2,1,80,0,1
129720,-76.9230769230769,4,2,2,80,0,1
129973,-76.9230769230769,4,2,2,5,0,1
130057,-76.9230769230769,4,2,2,80,0,1
130225,-76.9230769230769,4,2,1,80,0,1
130478,-76.9230769230769,4,2,1,5,0,1
130562,-76.9230769230769,4,2,1,80,0,1
131068,-76.9230769230769,4,2,2,80,0,1
131152,-76.9230769230769,4,2,4,80,0,1
131237,-76.9230769230769,4,2,5,80,0,1
131405,-76.9230769230769,4,2,2,80,0,1
131489,-76.9230769230769,4,2,4,80,0,1
131574,-76.9230769230769,4,2,5,80,0,1
131742,-76.9230769230769,4,2,2,80,0,1
132079,-76.9230769230769,4,2,1,80,0,1
132332,-76.9230769230769,4,2,1,5,0,1
132416,-76.9230769230769,4,2,2,80,0,1
134944,-76.9230769230769,4,2,1,80,0,1
135113,-76.9230769230769,4,2,2,80,0,1
136377,-76.9230769230769,4,2,2,80,0,1
137473,-250,4,2,3,80,0,1
137725,-250,4,2,3,5,0,1
137810,-250,4,2,1,70,0,0
139832,-83.3333333333333,4,2,1,70,0,0
142866,-125,4,2,1,70,0,0
143119,-125,4,2,1,5,0,0
143203,-71.4285714285714,4,2,1,70,0,0
143708,-83.3333333333333,4,2,1,70,0,0
146152,-83.3333333333333,4,2,1,5,0,0
146237,-83.3333333333333,4,2,1,70,0,0
147585,-83.3333333333333,4,2,4,70,0,0
147754,-83.3333333333333,4,2,5,70,0,0
148091,-83.3333333333333,4,2,1,70,0,0
148259,-71.4285714285714,4,2,1,70,0,0
148512,-83.3333333333333,4,2,1,5,0,0
148597,-83.3333333333333,4,2,2,70,0,0
150619,-83.3333333333333,4,2,2,70,0,0
153652,-125,4,2,2,70,0,0
153905,-125,4,2,2,5,0,0
153989,-71.4285714285714,4,2,2,70,0,0
154242,-83.3333333333333,4,2,2,5,0,0
154326,-71.4285714285714,4,2,2,70,0,0
154579,-83.3333333333333,4,2,2,5,0,0
154664,-83.3333333333333,4,2,2,70,0,0
155001,-83.3333333333333,4,2,2,70,0,0
156602,-83.3333333333333,4,2,2,5,0,0
156687,-83.3333333333333,4,2,2,70,0,0
156939,-83.3333333333333,4,2,2,5,0,0
157024,-83.3333333333333,4,2,2,70,0,0
158034,-83.3333333333333,4,2,1,70,0,0
158287,-83.3333333333333,4,2,1,5,0,0
158372,-83.3333333333333,4,2,1,70,0,0
158793,-83.3333333333333,4,2,1,5,0,0
158877,-83.3333333333333,4,2,1,70,0,0
158961,-83.3333333333333,4,2,1,5,0,0
159046,-83.3333333333333,4,2,1,70,0,0
159298,-83.3333333333333,4,2,1,5,0,0
159383,-83.3333333333333,4,2,1,70,0,0
159635,-83.3333333333333,4,2,1,5,0,0
159720,-83.3333333333333,4,2,1,70,0,0
161405,-500,4,2,1,70,0,0
162079,-500,4,2,2,50,0,0
170843,-166.666666666667,4,2,3,50,0,0
171096,-166.666666666667,4,2,1,50,0,0
171138,-166.666666666667,4,2,1,50,0,0
171349,-166.666666666667,4,2,4,50,0,0
171686,-166.666666666667,4,2,5,50,0,0
172023,-166.666666666667,4,2,1,50,0,0
172192,-250.000000000001,4,2,5,50,0,0
172697,-250.000000000001,4,2,1,50,0,0
172866,-99.9999999999999,4,2,1,60,0,0
173119,-99.9999999999999,4,2,1,5,0,0
173203,-99.9999999999999,4,2,1,60,0,0
174467,-99.9999999999999,4,2,1,5,0,0
174551,-99.9999999999999,4,2,1,60,0,0
175815,-99.9999999999999,4,2,1,5,0,0
175899,-99.9999999999999,4,2,1,60,0,0
177164,-99.9999999999999,4,2,1,5,0,0
177248,-99.9999999999999,4,2,1,60,0,0
178512,-99.9999999999999,4,2,1,5,0,0
178596,-99.9999999999999,4,2,1,60,0,0
179860,-99.9999999999999,4,2,1,5,0,0
179944,-99.9999999999999,4,2,1,60,0,0
180956,-83.3333333333333,4,2,1,60,0,0
181208,-83.3333333333333,4,2,1,5,0,0
181293,-100,4,2,1,60,0,0
181377,-99.9999999999999,4,2,1,5,0,0
181461,-99.9999999999999,4,2,1,60,0,0
183652,-166.666666666667,4,2,1,60,0,0
185001,-166.666666666667,4,2,1,50,0,0
188203,-166.666666666667,4,2,1,5,0,0
188371,-166.666666666667,4,2,1,50,0,0
190899,-166.666666666667,4,2,1,5,0,0
191068,-166.666666666667,4,2,1,50,0,0
191574,-166.666666666667,4,2,1,5,0,0
191742,-166.666666666667,4,2,1,50,0,0
191995,-166.666666666667,4,2,1,5,0,0
192079,-166.666666666667,4,2,1,50,0,0
194439,-166.666666666667,4,2,2,50,0,0
195197,-166.666666666667,4,2,1,5,0,0
195281,-166.666666666667,4,2,1,50,0,0
196630,-166.666666666667,4,2,1,5,0,0
196798,-166.666666666667,4,2,1,50,0,0
197388,-166.666666666667,4,2,1,5,0,0
197473,-166.666666666667,4,2,1,50,0,0
198989,-166.666666666667,4,2,1,5,0,0
199158,-166.666666666667,4,2,1,50,0,0
201686,-166.666666666667,4,2,1,5,0,0
201855,-166.666666666667,4,2,1,50,0,0
202360,-166.666666666667,4,2,1,5,0,0
202529,-166.666666666667,4,2,1,50,0,0
205225,-76.9230769230769,4,2,2,80,0,1
205478,-76.9230769230769,4,2,2,5,0,1
205562,-76.9230769230769,4,2,2,80,0,1
206826,-76.9230769230769,4,2,2,5,0,1
206910,-76.9230769230769,4,2,2,80,0,1
208175,-76.9230769230769,4,2,2,5,0,1
208259,-76.9230769230769,4,2,2,80,0,1
208428,-66.6666666666667,4,2,2,80,0,1
208680,-66.6666666666667,4,2,2,5,0,1
208765,-66.6666666666667,4,2,2,80,0,1
209017,-66.6666666666667,4,2,2,5,0,1
209102,-66.6666666666667,4,2,2,80,0,1
209944,-66.6666666666667,4,2,1,80,0,1
210281,-66.6666666666667,4,2,4,80,0,1
210449,-66.6666666666667,4,2,5,80,0,1
210619,-76.9230769230769,4,2,2,80,0,1
210871,-76.9230769230769,4,2,2,5,0,1
210955,-76.9230769230769,4,2,2,80,0,1
212220,-76.9230769230769,4,2,2,5,0,1
212304,-76.9230769230769,4,2,2,80,0,1
215928,-76.9230769230769,4,2,2,5,0,1
216012,-76.9230769230769,4,2,2,80,0,1
216265,-76.9230769230769,4,2,2,5,0,1
216349,-76.9230769230769,4,2,2,80,0,1
216517,-76.9230769230769,4,2,1,80,0,1
216770,-76.9230769230769,4,2,1,5,0,1
216854,-76.9230769230769,4,2,1,80,0,1
217359,-76.9230769230769,4,2,2,80,0,1
217613,-76.9230769230769,4,2,2,5,0,1
217697,-76.9230769230769,4,2,2,80,0,1
217865,-76.9230769230769,4,2,1,80,0,1
218708,-76.9230769230769,4,2,2,80,0,1
218961,-76.9230769230769,4,2,2,5,0,1
219045,-76.9230769230769,4,2,2,80,0,1
219213,-76.9230769230769,4,2,1,80,0,1
219467,-76.9230769230769,4,2,1,5,0,1
219551,-76.9230769230769,4,2,1,80,0,1
220056,-76.9230769230769,4,2,2,80,0,1
220141,-76.9230769230769,4,2,4,80,0,1
220226,-76.9230769230769,4,2,5,80,0,1
220394,-76.9230769230769,4,2,2,80,0,1
220478,-76.9230769230769,4,2,4,80,0,1
220563,-76.9230769230769,4,2,5,80,0,1
220731,-76.9230769230769,4,2,2,80,0,1
221067,-76.9230769230769,4,2,1,80,0,1
221321,-76.9230769230769,4,2,1,5,0,1
221405,-76.9230769230769,4,2,2,80,0,1
223932,-76.9230769230769,4,2,1,80,0,1
224101,-76.9230769230769,4,2,2,80,0,1
225366,-76.9230769230769,4,2,2,80,0,0
226293,-76.9230769230769,4,2,2,80,0,0
226461,-250.000000000001,4,2,3,80,0,0
226714,-250.000000000001,4,2,3,5,0,0
226798,-71.4285714285714,4,2,2,75,0,0
227051,-71.4285714285714,4,2,2,5,0,0
227135,-71.4285714285714,4,2,2,75,0,0
227304,-83.3333333333333,4,2,2,75,0,0
229411,-83.3333333333333,4,2,2,5,0,0
229495,-83.3333333333333,4,2,2,75,0,0
229748,-83.3333333333333,4,2,2,5,0,0
229832,-83.3333333333333,4,2,2,75,0,0
232444,-83.3333333333333,4,2,2,5,0,0
232528,-83.3333333333333,4,2,2,75,0,0
233793,-83.3333333333333,4,2,2,5,0,0
233877,-83.3333333333333,4,2,2,75,0,0
234804,-83.3333333333333,4,2,2,5,0,0
234888,-71.4285714285714,4,2,2,75,0,0
235141,-83.3333333333333,4,2,2,5,0,0
235225,-83.3333333333333,4,2,2,75,0,0
235394,-83.3333333333333,4,2,2,75,0,0
236152,-83.3333333333333,4,2,2,5,0,0
236237,-83.3333333333333,4,2,2,75,0,0
236574,-83.3333333333333,4,2,4,75,0,0
236742,-83.3333333333333,4,2,5,75,0,0
237079,-83.3333333333333,4,2,1,75,0,0
237248,-83.3333333333333,4,2,2,75,0,0
238933,-83.3333333333333,4,2,1,75,0,0
239692,-83.3333333333333,4,2,1,5,0,0
239776,-83.3333333333333,4,2,1,75,0,0
239860,-83.3333333333333,4,2,1,5,0,0
239944,-83.3333333333333,4,2,1,75,0,0
240028,-83.3333333333333,4,2,1,5,0,0
240113,-83.3333333333333,4,2,1,75,0,0
240197,-83.3333333333333,4,2,1,5,0,0
240281,-66.6666666666667,4,2,1,75,0,0
240534,-66.6666666666667,4,2,1,5,0,0
240619,-66.6666666666667,4,2,1,75,0,0
240956,-83.3333333333333,4,2,1,75,0,0
242894,-83.3333333333333,4,2,1,5,0,0
242978,-83.3333333333333,4,2,1,75,0,0
243231,-83.3333333333333,4,2,1,5,0,0
243315,-83.3333333333333,4,2,1,75,0,0
243905,-83.3333333333333,4,2,1,5,0,0
243989,-83.3333333333333,4,2,1,75,0,0
245253,-83.3333333333333,4,2,1,5,0,0
245338,-83.3333333333333,4,2,1,75,0,0
245422,-83.3333333333333,4,2,1,5,0,0
245506,-83.3333333333333,4,2,1,75,0,0
245590,-83.3333333333333,4,2,1,5,0,0
245675,-83.3333333333333,4,2,1,75,0,0
245928,-83.3333333333333,4,2,1,5,0,0
246012,-83.3333333333333,4,2,1,75,0,0
247276,-83.3333333333333,4,2,1,5,0,0
247360,-83.3333333333333,4,2,4,75,0,0
247529,-83.3333333333333,4,2,5,75,0,0
248034,-83.3333333333333,4,2,1,75,0,0
248371,-83.3333333333333,4,2,2,75,0,0
248624,-83.3333333333333,4,2,2,5,0,0
248708,-83.3333333333333,4,2,2,75,0,0
250394,-500,4,2,1,75,0,0
251068,-500,4,2,1,5,0,0
252416,-166.666666666667,4,2,1,60,0,0
253596,-166.666666666667,4,2,1,5,0,0
253765,-166.666666666667,4,2,1,50,0,0
254944,-166.666666666667,4,2,1,5,0,0
255113,-166.666666666667,4,2,1,50,0,0
256293,-166.666666666667,4,2,1,5,0,0
256461,-166.666666666667,4,2,1,50,0,0
256967,-166.666666666667,4,2,1,5,0,0
257135,-166.666666666667,4,2,1,50,0,0
259664,-166.666666666667,4,2,1,5,0,0
259832,-166.666666666667,4,2,1,50,0,0
260338,-166.666666666667,4,2,1,5,0,0
260506,-166.666666666667,4,2,1,50,0,0
260759,-166.666666666667,4,2,1,5,0,0
260843,-166.666666666667,4,2,1,50,0,0
263961,-166.666666666667,4,2,1,5,0,0
264046,-166.666666666667,4,2,1,50,0,0
265394,-166.666666666667,4,2,1,5,0,0
265562,-166.666666666667,4,2,1,50,0,0
266152,-166.666666666667,4,2,1,5,0,0
266237,-166.666666666667,4,2,1,50,0,0
267753,-166.666666666667,4,2,1,5,0,0
267922,-166.666666666667,4,2,1,50,0,0
270450,-166.666666666667,4,2,1,5,0,0
270619,-166.666666666667,4,2,1,50,0,0
271124,-166.666666666667,4,2,1,5,0,0
271293,-166.666666666667,4,2,1,50,0,0
272641,-166.666666666667,4,2,1,5,0,0
276686,-71.4285714285714,4,2,1,80,0,1
276770,-71.4285714285714,4,2,1,80,0,0
276939,-71.4285714285714,4,2,1,5,0,0
277023,-71.4285714285714,4,2,1,80,0,0
277192,-62.5,4,2,1,80,0,0
277444,-62.5,4,2,1,5,0,0
277529,-62.5,4,2,1,80,0,0
277781,-62.5,4,2,1,5,0,0
277866,-62.5,4,2,1,80,0,0
279045,-62.5,4,2,4,80,0,0
279213,-62.5,4,2,5,80,0,0
279383,-66.6666666666667,4,2,2,80,0,1
279635,-66.6666666666667,4,2,2,5,0,1
279720,-66.6666666666667,4,2,2,80,0,1
280562,-71.4285714285714,4,2,2,80,0,1
280984,-71.4285714285714,4,2,2,5,0,1
281068,-71.4285714285714,4,2,2,80,0,1
284692,-71.4285714285714,4,2,2,5,0,1
284776,-71.4285714285714,4,2,2,80,0,1
285029,-71.4285714285714,4,2,2,5,0,1
285113,-71.4285714285714,4,2,2,80,0,1
285281,-71.4285714285714,4,2,1,80,0,1
285534,-71.4285714285714,4,2,1,5,0,1
285618,-71.4285714285714,4,2,1,80,0,1
286123,-71.4285714285714,4,2,2,80,0,1
286377,-71.4285714285714,4,2,2,5,0,1
286461,-71.4285714285714,4,2,2,80,0,1
286629,-71.4285714285714,4,2,1,80,0,1
287472,-71.4285714285714,4,2,2,80,0,1
287725,-71.4285714285714,4,2,2,5,0,1
287809,-71.4285714285714,4,2,2,80,0,1
287977,-71.4285714285714,4,2,1,80,0,1
288231,-71.4285714285714,4,2,1,5,0,1
288315,-71.4285714285714,4,2,1,80,0,1
288820,-71.4285714285714,4,2,2,80,0,1
288905,-76.9230769230769,4,2,4,80,0,1
288989,-76.9230769230769,4,2,5,80,0,1
289158,-71.4285714285714,4,2,2,80,0,1
289242,-76.9230769230769,4,2,4,80,0,1
289326,-76.9230769230769,4,2,5,80,0,1
289495,-71.4285714285714,4,2,2,80,0,1
289832,-58.8235294117647,4,2,1,80,0,1
290085,-71.4285714285714,4,2,1,5,0,1
290169,-71.4285714285714,4,2,2,80,0,1
292696,-71.4285714285714,4,2,1,80,0,1
292865,-71.4285714285714,4,2,2,80,0,1
294130,-58.8235294117647,4,2,2,80,0,0
295225,-250,4,2,3,80,0,0
295478,-250,4,2,3,5,0,0
295562,-71.4285714285714,4,2,2,80,0,0
295815,-71.4285714285714,4,2,2,5,0,0
295899,-71.4285714285714,4,2,2,80,0,0
296911,-71.4285714285714,4,2,1,80,0,0
298512,-71.4285714285714,4,2,1,5,0,0
298596,-71.4285714285714,4,2,1,80,0,0
300619,-166.666666666667,4,2,1,80,0,0
300871,-166.666666666667,4,2,1,5,0,0
300956,-62.5,4,2,1,80,0,0
301208,-71.4285714285714,4,2,1,5,0,0
301292,-71.4285714285714,4,2,1,80,0,0
301967,-71.4285714285714,4,2,1,80,0,0
303905,-71.4285714285714,4,2,1,5,0,0
303989,-71.4285714285714,4,2,1,80,0,0
305001,-71.4285714285714,4,2,2,80,0,0
305338,-71.4285714285714,4,2,4,80,0,0
305506,-71.4285714285714,4,2,5,80,0,0
305843,-71.4285714285714,4,2,1,80,0,0
306012,-200,4,2,4,80,0,0
306265,-200,4,2,3,5,0,0
306349,-71.4285714285714,4,2,1,85,0,0
308708,-71.4285714285714,4,2,4,85,0,0
308877,-71.4285714285714,4,2,5,85,0,0
309046,-71.4285714285714,4,2,1,85,0,0
310815,-71.4285714285714,4,2,4,85,0,0
310899,-71.4285714285714,4,2,5,85,0,0
311068,-71.4285714285714,4,2,1,85,0,0
311405,-71.4285714285714,4,2,3,85,0,0
311658,-71.4285714285714,4,2,3,5,0,0
311742,-71.4285714285714,4,2,2,85,0,0
314102,-71.4285714285714,4,2,3,85,0,0
314355,-71.4285714285714,4,2,3,5,0,0
314439,-71.4285714285714,4,2,2,65,0,0
315113,-71.4285714285714,4,2,2,75,0,0
315787,-71.4285714285714,4,2,2,85,0,0
316461,-71.4285714285714,4,2,2,90,0,0
317473,-125,4,2,1,30,0,0
319158,-125,4,2,2,5,0,0
319242,-125,4,2,1,30,0,0
321770,-125,4,2,2,5,0,0
321855,-333.333333333333,4,2,2,30,0,0
321939,-333.333333333333,4,2,2,15,0,0

[Colours]
Combo1 : 0,255,255
Combo2 : 192,192,192

[HitObjects]
149,264,282,6,0,P|113:269|77:293,2,72,2|0|2,0:0|0:0|0:0,0:0:0:0:
203,174,1293,1,2,0:0:0:0:
203,174,1630,6,0,P|216:140|213:97,2,72,2|0|2,0:0|0:0|0:0,0:0:0:0:
253,265,2641,1,2,0:0:0:0:
253,265,2978,6,0,P|275:293|314:312,2,72,2|0|2,0:0|0:0|0:0,0:0:0:0:
149,264,3989,1,2,0:0:0:0:
149,264,4326,5,2,0:0:0:0:
149,264,4832,5,2,0:0:0:0:
76,264,5001,1,2,0:0:0:0:
30,209,5169,1,2,0:0:0:0:
45,138,5338,1,2,0:0:0:0:
109,106,5506,1,2,0:0:0:0:
149,264,5675,6,0,L|234:250,2,72,2|0|2,0:0|0:0|0:0,0:0:0:0:
278,146,6686,1,2,0:0:0:0:
278,146,7023,6,0,L|363:159,2,72,2|0|2,0:0|0:0|0:0,0:0:0:0:
407,264,8034,1,2,0:0:0:0:
407,264,8371,5,2,0:0:0:0:
407,264,8878,5,2,0:0:0:0:
464,144,9046,1,2,0:0:0:0:
464,144,9720,5,2,0:0:0:0:
464,144,10225,1,2,0:0:0:0:
332,163,10394,1,2,0:0:0:0:
332,163,10731,6,0,P|340:147|345:119,1,36,2|2,0:0|0:0,0:0:0:0:
298,54,11068,6,0,B|281:16|231:0|174:37|181:78|181:78|185:102|143:163|77:126|77:126|130:135|164:83,1,396,2|0,0:0|0:0,0:0:0:0:
30,29,13090,2,0,P|69:31|94:58,1,72,2|0,0:0|0:0,0:0:0:0:
45,316,13765,6,0,P|66:273|121:272,1,108,2|0,0:0|0:0,0:0:0:0:
248,295,14439,2,0,P|222:343|172:339,1,108,2|0,0:0|0:0,0:0:0:0:
229,191,15113,6,0,B|242:165|279:147|319:183|319:215|319:215|327:208|327:208|329:243|359:279|406:273|425:230,1,269.999991760254,2|0,0:0|0:0,0:0:0:0:
434,167,16124,2,0,P|462:176|471:189,1,36,2|0,0:0|0:0,0:0:0:0:
505,348,16461,6,0,B|465:363|414:327|420:238|420:238|399:323|366:351|284:345|269:277|301:232|349:229|371:256|371:285,1,431.999986816407,2|0,0:0|0:0,0:0:0:0:
226,375,18147,2,0,P|193:359|149:357,2,72,2|2|2,0:0|0:0|0:0,0:0:0:0:
14,372,19158,6,0,B|140:360|209:138|18:75|-51:210|-18:271|26:283,1,431.999986816407,2|0,0:0|0:0,0:0:0:0:
256,192,22866,12,0,27079,0:0:0:0:
191,375,27248,6,0,B|123:302|14:330|14:330|117:289|155:192|155:192|138:246|165:284,1,485.999985168458,4|0,3:2|0:0,0:0:0:0:
426,197,28596,6,0,B|524:146|483:29|483:29|373:-20|311:93|311:93|351:138|402:118,1,485.999985168458,4|0,3:2|0:0,0:0:0:0:
155,192,29944,2,0,B|67:170|16:231|16:231|-9:63|151:40|151:40|126:60|117:122,1,485.999985168458,4|0,3:2|0:0,0:0:0:0:
464,246,31293,6,0,B|489:293|455:357|384:361|347:316|347:316|369:305|374:266,1,242.999992584229,4|0,3:2|0:0,0:0:0:0:
275,146,31967,2,0,B|303:100|375:98|414:157|394:212|394:212|373:198|337:213,1,242.999992584229,4|0,3:2|0:0,0:0:0:0:
283,360,32641,6,0,B|229:358|191:296|223:233|280:223|280:223|279:248|310:272,1,242.999992584229,4|2,3:2|0:0,0:0:0:0:
375,287,33231,1,2,0:0:0:0:
375,287,33315,2,0,P|260:306|144:356,1,242.999992584229,2|0,0:0|0:0,0:0:0:0:
122,133,33989,6,0,B|97:96|165:40|239:98|214:196|138:212,1,242.999992584229,4|2,3:2|0:0,0:0:0:0:
68,191,34580,1,2,0:0:0:0:
68,191,34664,2,0,P|183:210|299:260,1,242.999992584229,2|0,0:0|0:0,0:0:0:0:
459,372,35338,6,0,B|527:341|524:261|480:220|480:220|418:223|389:182|387:136|412:105,1,323.999990112305,4|0,3:2|0:0,0:0:0:0:
398,131,36349,1,0,0:0:0:0:
293,270,36517,1,0,0:0:0:0:
201,71,36686,6,0,P|250:122|267:194,1,135,12|0,0:0|0:0,0:0:0:0:
266,182,37023,1,0,3:2:0:0:
464,20,37192,2,0,P|415:71|398:143,1,135,12|0,0:0|0:0,0:0:0:0:
398,131,37529,1,0,3:2:0:0:
356,326,37697,2,0,B|385:302|382:265|382:265|409:294|449:287,1,135,8|0,3:3|0:0,0:0:0:0:
441,288,38034,6,0,P|374:278|288:270,1,148.50000453186,12|0,2:2|0:0,0:0:0:0:
293,270,38371,1,0,3:2:0:0:
136,364,38540,2,0,P|201:333|193:249,1,148.50000453186,12|0,0:0|0:0,0:0:0:0:
203,263,38877,1,0,3:0:0:0:
386,217,39046,2,0,P|330:180|330:100,1,148.50000453186,12|0,0:0|0:0,0:0:0:0:
387,58,39383,6,0,P|321:71|223:80,1,148.50000453186,12|0,0:0|0:0,0:0:0:0:
240,79,39720,1,0,3:0:0:0:
106,245,39888,2,0,P|154:252|203:263,1,99.0000030212403,12|0,0:0|0:0,0:0:0:0:
441,296,40225,1,0,3:0:0:0:
441,296,40310,1,0,3:0:0:0:
441,296,40394,2,0,B|406:324|358:296|353:250|353:250|378:248|390:234,1,148.50000453186,12|0,0:0|0:0,0:0:0:0:
448,216,40731,6,0,P|433:285|421:390,1,148.50000453186,12|0,2:2|0:0,0:0:0:0:
433,384,41068,1,0,3:2:0:0:
258,158,41237,2,0,P|273:227|284:332,1,148.50000453186,12|0,0:0|0:0,0:0:0:0:
273,326,41574,1,0,3:0:0:0:
459,130,41742,2,0,P|410:128|375:161,1,99.0000030212403,12|0,0:0|3:2,0:0:0:0:
273,326,42079,5,12,0:0:0:0:
93,265,42248,1,0,3:2:0:0:
81,243,42332,1,0,3:2:0:0:
82,220,42416,1,8,0:0:0:0:
93,202,42501,1,8,0:3:0:0:
117,188,42585,1,8,0:3:0:0:
146,176,42669,1,8,0:3:0:0:
170,154,42753,5,8,0:0:0:0:
184,107,42838,1,8,0:0:0:0:
165,55,42922,1,8,0:0:0:0:
110,32,43006,1,8,0:0:0:0:
56,61,43090,2,0,P|65:113|74:179,1,99.0000030212403,4|0,3:2|0:0,0:0:0:0:
25,353,43428,5,8,0:0:0:0:
39,319,43512,1,8,0:0:0:0:
67,295,43596,1,8,0:0:0:0:
103,287,43680,1,8,0:0:0:0:
139,296,43765,1,8,0:0:0:0:
284,384,43933,5,8,0:0:0:0:
248,363,44017,1,8,0:0:0:0:
231,326,44101,1,8,0:0:0:0:
236,286,44185,1,8,0:0:0:0:
262,255,44270,1,8,0:0:0:0:
301,243,44354,1,8,0:0:0:0:
340,255,44438,1,8,0:0:0:0:
428,346,44607,1,8,0:0:0:0:
512,211,44776,5,8,0:0:0:0:
363,178,44944,1,8,0:0:0:0:
363,178,45029,1,8,0:0:0:0:
363,178,45113,1,8,0:0:0:0:
500,297,45281,1,8,0:0:0:0:
500,297,45366,1,8,0:0:0:0:
500,297,45450,1,8,0:0:0:0:
451,80,45619,1,8,0:0:0:0:
348,263,45787,1,8,0:0:0:0:
348,263,45871,1,8,0:0:0:0:
348,263,45956,1,4,3:2:0:0:
293,38,46124,5,12,3:2:0:0:
210,213,46293,1,8,0:0:0:0:
192,180,46377,1,8,0:0:0:0:
160,162,46461,1,8,0:0:0:0:
123,162,46545,1,8,0:0:0:0:
92,180,46630,1,8,0:0:0:0:
0,19,46798,5,8,0:0:0:0:
0,58,46882,1,8,0:0:0:0:
21,90,46966,1,8,0:0:0:0:
57,104,47050,1,8,0:0:0:0:
95,95,47135,1,8,0:0:0:0:
121,66,47220,5,8,0:0:0:0:
12,176,47388,1,8,0:0:0:0:
256,192,47473,12,0,48315,0:0:0:0:
451,228,48484,6,0,P|445:198|440:162,1,54,4|0,0:0|0:0,0:0:0:0:
438,102,48821,5,14,0:0:0:0:
290,183,48989,1,2,0:0:0:0:
146,116,49158,1,10,0:0:0:0:
13,165,49326,1,2,0:0:0:0:
113,338,49495,5,10,0:0:0:0:
60,246,49664,1,2,3:2:0:0:
150,193,49832,1,10,0:0:0:0:
206,279,50001,1,2,3:2:0:0:
13,347,50169,5,10,0:0:0:0:
130,265,50338,1,2,0:0:0:0:
300,370,50506,1,10,0:2:0:0:
462,240,50675,1,2,3:2:0:0:
276,176,50843,2,0,L|293:289,1,107.999996704102,10|0,0:0|3:2,0:0:0:0:
392,180,51180,1,10,0:0:0:0:
374,308,51349,1,2,3:2:0:0:
110,208,51517,5,14,0:0:0:0:
257,81,51686,1,2,0:0:0:0:
204,241,51855,1,10,0:0:0:0:
276,176,52023,1,2,3:2:0:0:
110,208,52192,5,10,0:0:0:0:
257,81,52360,1,2,3:2:0:0:
92,112,52529,1,10,0:0:0:0:
166,48,52697,1,2,3:2:0:0:
0,77,52866,5,10,0:0:0:0:
187,147,53034,1,2,0:0:0:0:
0,271,53203,2,0,L|17:158,1,107.999996704102,10|0,0:0|3:2,0:0:0:0:
50,361,53540,1,10,0:0:0:0:
50,361,53624,2,0,P|77:315|130:306,1,107.999996704102,8|0,0:0|3:2,0:0:0:0:
230,301,53877,2,0,B|223:261|194:252|194:252|210:271|205:292,1,108,10|0,0:0|0:0,0:0:0:0:
128,306,54214,6,0,P|224:288|388:270,1,251.999992309571,14|8,0:0|0:0,0:0:0:0:
486,369,54720,1,2,0:0:0:0:
486,369,54804,1,2,0:0:0:0:
486,369,54888,2,0,L|465:238,1,107.999996704102,10|0,0:0|3:2,0:0:0:0:
444,101,55225,1,8,0:0:0:0:
342,271,55394,5,2,3:2:0:0:
342,271,55478,1,2,0:0:0:0:
342,271,55562,2,0,L|321:140,1,107.999996704102,10|0,0:0|0:0,0:0:0:0:
298,3,55899,1,8,0:0:0:0:
208,172,56068,1,2,3:2:0:0:
208,172,56152,1,2,0:0:0:0:
208,172,56237,2,0,P|174:127|115:125,1,107.999996704102,10|0,0:0|3:2,0:0:0:0:
9,277,56574,2,0,L|124:258,1,107.999996704102,8|0,0:0|3:2,0:0:0:0:
239,372,56911,6,0,B|258:328|225:287|184:285|184:285|179:308|154:322,1,161.999995056153,14|0,0:0|0:0,0:0:0:0:
100,367,57248,2,0,P|108:317|117:253,1,107.999996704102,8|0,0:0|0:0,0:0:0:0:
248,110,57585,2,0,P|256:160|265:223,1,107.999996704102,8|0,0:0|3:2,0:0:0:0:
131,154,57922,1,10,0:0:0:0:
352,70,58090,1,2,3:2:0:0:
361,313,58259,5,14,0:0:0:0:
320,358,58343,1,0,3:2:0:0:
262,373,58428,1,10,0:0:0:0:
205,353,58512,1,8,0:0:0:0:
174,301,58596,1,10,0:3:0:0:
148,257,58680,1,8,0:3:0:0:
105,243,58765,1,10,0:3:0:0:
67,251,58849,1,8,0:3:0:0:
40,280,58933,1,10,3:3:0:0:
38,307,59017,1,8,3:3:0:0:
46,327,59102,6,0,P|81:324|105:308,1,53.9999983520508,12|0,0:0|0:0,0:0:0:0:
208,172,59270,2,0,B|243:144|296:173|296:173|314:235|381:230,1,188.999994232178,12|0,0:0|0:0,0:0:0:0:
433,195,59607,5,14,0:0:0:0:
467,116,59776,1,2,0:0:0:0:
242,93,59944,1,10,0:0:0:0:
208,172,60113,1,2,0:0:0:0:
447,38,60281,5,10,0:0:0:0:
292,164,60450,1,2,3:2:0:0:
429,272,60619,1,10,0:0:0:0:
311,365,60787,1,2,3:2:0:0:
433,195,60956,5,10,0:0:0:0:
351,262,61124,1,2,0:0:0:0:
423,351,61292,1,10,0:2:0:0:
504,279,61461,1,2,3:2:0:0:
311,365,61630,2,0,L|178:344,1,107.999996704102,10|0,0:0|3:2,0:0:0:0:
292,164,61967,1,10,0:0:0:0:
128,177,62135,1,2,3:2:0:0:
204,348,62304,5,14,0:0:0:0:
221,125,62473,1,2,0:0:0:0:
42,312,62641,1,10,0:0:0:0:
35,226,62810,1,2,3:2:0:0:
210,233,62978,5,10,0:0:0:0:
227,10,63147,1,2,3:2:0:0:
27,144,63315,1,10,0:0:0:0:
20,58,63484,1,2,3:2:0:0:
128,177,63652,5,10,0:0:0:0:
303,79,63821,1,2,0:0:0:0:
147,0,63989,2,0,P|157:60|167:126,1,107.999996704102,10|0,0:0|3:2,0:0:0:0:
291,262,64326,1,10,0:0:0:0:
291,262,64411,2,0,P|299:208|308:155,1,107.999996704102,8|0,0:0|3:2,0:0:0:0:
303,79,64664,2,0,P|352:105|396:81,1,108,10|0,0:0|0:0,0:0:0:0:
464,58,65001,6,0,B|412:78|430:138|430:138|471:179|448:233,1,188.999994232178,14|0,0:0|0:0,0:0:0:0:
385,269,65338,2,0,B|405:231|459:221|494:264|494:264|490:297|452:305,1,188.999994232178,8|0,0:0|0:0,0:0:0:0:
391,351,65675,1,10,0:0:0:0:
307,155,65843,1,2,3:2:0:0:
201,337,66012,2,0,L|328:316,1,107.999996704102,10|0,0:0|3:2,0:0:0:0:
12,226,66349,6,0,P|54:275|61:331,1,107.999996704102,10|0,0:0|0:0,0:0:0:0:
229,132,66686,2,0,P|187:181|180:237,1,107.999996704102,10|0,0:0|3:2,0:0:0:0:
14,23,67023,2,0,P|56:72|63:128,1,107.999996704102,10|0,0:0|3:2,0:0:0:0:
62,316,67360,2,0,B|104:296|106:250|106:250|121:291|182:303,1,161.999995056153,10|0,0:0|0:0,0:0:0:0:
154,382,67697,6,0,P|166:291|181:208,1,161.999995056153,14|0,0:0|0:0,0:0:0:0:
150,154,68034,2,0,P|111:112|56:116,1,107.999996704102,8|0,0:0|0:0,0:0:0:0:
326,269,68371,2,0,P|287:311|232:307,1,107.999996704102,8|0,0:0|3:2,0:0:0:0:
307,152,68708,1,10,0:0:0:0:
343,363,68877,1,2,3:2:0:0:
466,197,69046,6,0,B|473:155|429:117|382:129|382:129|389:160|374:182,1,161.999995056153,14|0,0:0|0:0,0:0:0:0:
307,152,69383,1,10,0:0:0:0:
316,209,69467,1,8,0:0:0:0:
326,269,69551,1,10,3:2:0:0:
336,322,69635,1,8,3:2:0:0:
343,363,69720,6,0,L|278:352,1,53.9999983520508,2|0,3:2|0:0,0:0:0:0:
91,265,69888,2,0,L|155:254,1,53.9999983520508,2|0,3:2|0:0,0:0:0:0:
366,381,70057,2,0,L|194:353,1,161.999995056153,14|0,0:0|0:0,0:0:0:0:
120,328,70394,6,0,B|168:307|171:244|119:209|77:244|94:273,1,161.999995056153,6|0,3:2|0:0,0:0:0:0:
90,264,70731,2,0,L|204:246,1,107.999996704102,8|0,0:0|0:0,0:0:0:0:
234,245,70984,1,8,0:0:0:0:
234,245,71068,1,2,0:0:0:0:
78,183,71237,1,2,3:2:0:0:
269,95,71405,1,10,0:0:0:0:
57,8,71574,1,2,0:0:0:0:
90,264,71742,5,12,0:0:0:0:
139,20,71911,1,0,3:2:0:0:
234,245,72079,1,12,0:0:0:0:
0,138,72248,1,0,3:2:0:0:
213,104,72416,6,0,B|222:102|222:102|226:105|226:105|241:97|241:97|244:100|244:100|261:95|261:95|263:98|263:98|271:93,1,63,12|0,0:0|0:0,0:0:0:0:
339,47,73090,5,4,0:0:0:0:
400,108,73765,1,0,0:0:0:0:
422,192,74439,1,0,0:0:0:0:
400,275,75113,1,0,0:0:0:0:
339,336,75787,1,0,0:0:0:0:
256,358,76461,1,0,0:0:0:0:
172,336,77135,1,0,0:0:0:0:
111,275,77809,1,0,0:0:0:0:
89,191,78484,1,0,0:0:0:0:
111,108,79158,1,0,0:0:0:0:
172,47,79832,1,0,0:0:0:0:
256,25,80506,1,0,0:0:0:0:
422,192,81180,1,0,0:0:0:0:
256,358,81855,1,0,0:0:0:0:
89,191,82529,1,0,0:0:0:0:
256,25,83203,1,0,0:0:0:0:
256,25,83877,6,0,L|233:169,1,135,6|0,3:2|0:0,0:0:0:0:
221,233,84214,1,10,0:0:0:0:
99,93,84383,1,2,0:0:0:0:
99,93,84720,5,2,3:2:0:0:
297,204,84888,1,8,0:0:0:0:
256,25,85057,1,2,0:0:0:0:
116,172,85225,6,0,P|125:233|138:314,1,135,0|0,3:2|0:0,0:0:0:0:
154,375,85562,2,0,P|214:314|300:328,1,180,8|2,0:0|0:0,0:0:0:0:
196,183,86068,1,2,3:2:0:0:
32,324,86237,2,0,P|39:281|46:231,1,90,10|2,0:2|0:0,0:0:0:0:
54,150,86489,5,8,0:0:0:0:
54,150,86574,2,0,B|85:147|116:173|116:173|124:133|168:111,1,135,6|0,3:2|0:0,0:0:0:0:
229,114,86911,1,10,0:0:0:0:
300,328,87079,1,10,0:0:0:0:
300,328,87164,1,8,0:0:0:0:
407,160,87416,5,2,3:2:0:0:
196,183,87585,1,8,0:0:0:0:
384,60,87753,1,2,0:0:0:0:
325,230,87922,6,0,L|303:94,1,135,0|0,3:2|0:0,0:0:0:0:
290,20,88259,1,8,0:0:0:0:
122,161,88428,1,8,0:0:0:0:
122,161,88512,1,8,0:0:0:0:
308,101,88680,1,8,0:0:0:0:
308,101,88765,1,0,3:2:0:0:
143,0,88933,1,10,0:0:0:0:
211,183,89102,5,8,0:0:0:0:
211,183,89186,1,8,0:0:0:0:
211,183,89270,2,0,B|252:166|276:195|276:195|297:238|346:228,1,135,6|0,3:2|0:0,0:0:0:0:
392,194,89607,1,10,0:0:0:0:
368,384,89776,1,2,0:0:0:0:
368,384,89860,1,8,0:0:0:0:
505,280,90113,1,2,3:2:0:0:
342,302,90281,2,0,P|392:294|449:284,1,90,10|2,0:0|0:0,0:0:0:0:
260,384,90619,6,0,P|220:328|152:336,1,135,2|0,3:2|0:0,0:0:0:0:
159,331,90956,2,0,P|204:305|217:252,1,90,10|0,0:0|0:0,0:0:0:0:
9,274,91293,2,0,P|17:316|24:370,1,90,2|0,0:0|3:2,0:0:0:0:
154,114,91630,1,10,0:0:0:0:
147,255,91798,5,8,0:0:0:0:
147,255,91883,1,8,0:0:0:0:
147,255,91967,2,0,B|100:273|79:226|84:228|49:172|-1:195,1,161.999995056153,6|0,3:2|0:0,0:0:0:0:
10,191,92304,2,0,L|66:182,1,45,10|0,0:0|0:0,0:0:0:0:
282,141,92473,1,6,3:2:0:0:
282,141,92810,6,0,B|311:177|300:221|300:221|258:256|278:324,1,180,6|8,3:2|0:0,0:0:0:0:
303,321,93231,1,8,0:0:0:0:
332,301,93315,1,8,0:0:0:0:
345,283,94664,6,0,B|353:220|422:215|422:215|510:180|474:89|474:89|396:88|396:144,1,377.999988464356,4|0,0:0|0:0,0:0:0:0:
196,286,96012,6,0,B|188:223|119:218|119:218|31:183|67:92|67:92|145:91|144:147,1,377.999988464356,2|0,0:0|0:0,0:0:0:0:
307,113,97360,6,0,B|317:135|355:151|355:151|297:141|271:66|271:66|243:144|185:149|185:149|220:141|233:108,1,377.999988464356,2|0,0:0|0:0,0:0:0:0:
154,74,98708,6,0,P|177:153|184:257,1,161.999995056153,2|0,0:0|0:0,0:0:0:0:
175,352,99383,1,2,0:0:0:0:
78,288,99551,1,2,0:0:0:0:
95,180,99720,1,2,0:0:0:0:
196,155,99888,1,2,0:0:0:0:
260,223,100057,6,0,P|313:206|367:205,2,107.999996704102,2|2|2,0:0|0:0|0:0,0:0:0:0:
379,311,101068,1,2,0:0:0:0:
485,288,101237,1,2,0:0:0:0:
510,162,101405,6,0,B|504:123|440:108|410:141|410:141|428:153|437:177,1,161.999995056153,2|0,0:0|0:0,0:0:0:0:
379,311,102079,2,0,P|305:303|198:300,1,161.999995056153,2|0,0:0|0:0,0:0:0:0:
176,216,102753,2,0,P|130:229|89:250,1,80.9999975280763,2|0,0:0|0:0,0:0:0:0:
100,243,103090,1,2,0:0:0:0:
107,157,103259,1,2,0:0:0:0:
0,225,103428,2,0,P|15:292|25:387,1,161.999995056153,2|0,0:0|0:0,0:0:0:0:
218,299,104102,6,0,L|278:308,1,53.9999983520508,2|0,0:0|0:0,0:0:0:0:
176,216,104439,2,0,L|236:225,1,53.9999983520508,2|0,0:0|0:0,0:0:0:0:
335,238,104776,1,2,0:0:0:0:
293,155,104944,1,2,0:0:0:0:
479,163,105113,1,2,0:0:0:0:
428,240,105281,1,2,0:0:0:0:
343,76,105450,6,0,P|282:74|234:97,1,107.999996704102,6|2,0:0|0:0,0:0:0:0:
162,39,105956,2,0,P|132:60|106:104,1,80.9999975280763,2|0,0:0|0:0,0:0:0:0:
108,96,106293,1,2,0:0:0:0:
6,141,106461,1,2,0:0:0:0:
34,56,106630,1,2,0:0:0:0:
186,207,106798,6,0,P|136:187|83:191,1,107.999996704102,2|0,0:0|0:0,0:0:0:0:
203,303,107304,2,0,P|252:282|306:286,1,107.999996704102,2|0,0:0|0:0,0:0:0:0:
343,374,107810,1,2,0:0:0:0:
479,306,107978,1,2,0:0:0:0:
382,223,108147,6,0,L|394:303,1,80.9999975280763,2|0,0:0|0:0,0:0:0:0:
394,303,108484,1,2,0:0:0:0:
478,206,108652,2,0,L|487:145,1,53.9999983520508,2|0,0:0|0:0,0:0:0:0:
398,84,108989,2,0,L|407:144,1,53.9999983520508,2|0,0:0|0:0,0:0:0:0:
512,51,109326,6,0,B|491:-18|406:-10|381:47|381:47|405:59|396:102,1,215.999993408203,2|0,0:0|0:0,0:0:0:0:
382,223,110169,1,2,0:0:0:0:
287,209,110338,1,2,0:0:0:0:
238,123,110506,1,2,0:0:0:0:
168,43,110675,1,2,0:0:0:0:
49,71,110843,6,0,P|67:116|80:190,1,107.999996704102,2|0,0:0|0:0,0:0:0:0:
107,380,111517,2,0,P|130:367|143:344,1,53.9999983520508,2|0,0:0|0:0,0:0:0:0:
61,264,111855,2,0,P|38:277|26:301,1,53.9999983520508,2|0,0:0|0:0,0:0:0:0:
179,213,112192,6,0,B|180:256|214:292|214:292|180:256|133:261,1,161.999995056153,2|0,0:0|0:0,0:0:0:0:
302,222,112866,2,0,B|335:178|383:200|383:200|381:238|352:264,1,161.999995056153,2|0,0:0|0:0,0:0:0:0:
179,213,113540,6,0,B|138:205|128:159|146:129|146:129|196:117|237:145|238:203|230:197|236:265|296:302|353:262|353:262|303:245|295:202,1,460.8,2|0,0:0|0:0,0:0:0:0:
302,223,116237,6,0,B|301:173|357:152|402:174|402:174|386:204|396:233,1,175.499991966248,6|0,3:2|0:0,0:0:0:0:
357,284,116574,2,0,L|232:264,1,116.999994644165,8|0,0:0|0:0,0:0:0:0:
206,262,116826,1,8,0:0:0:0:
206,262,116911,1,2,3:2:0:0:
314,68,117079,1,0,3:2:0:0:
470,216,117248,2,0,L|451:99,1,116.999994644165,8|0,0:0|0:0,0:0:0:0:
471,25,117501,5,8,0:0:0:0:
471,25,117585,2,0,B|420:4|386:48|392:47|366:101|304:62,1,175.499991966248,2|0,3:2|0:0,0:0:0:0:
252,20,117922,1,10,0:0:0:0:
99,133,118090,1,2,0:0:0:0:
99,133,118175,1,8,0:0:0:0:
99,133,118259,1,0,3:2:0:0:
253,177,118428,1,0,3:2:0:0:
53,303,118596,1,10,0:0:0:0:
14,115,118765,5,2,0:0:0:0:
14,115,118849,1,8,0:0:0:0:
14,115,118933,2,0,B|28:61|103:59|120:108|120:108|96:119|83:134,1,175.499991966248,6|0,3:2|0:0,0:0:0:0:
122,197,119270,2,0,L|183:187,1,58.4999973220826,10|0,0:0|0:0,0:0:0:0:
397,152,119439,2,0,B|348:127|295:167|298:219|298:219|338:228|347:272,1,202.500007724762,2|0,3:2|0:0,0:0:0:0:
420,267,119776,2,0,P|319:276|220:299,1,202.500007724762,2|0,3:2|0:0,0:0:0:0:
151,383,120113,6,0,B|163:326|220:298|220:298|167:291|130:258|130:258|143:291|140:316,1,270.000010299683,12|0,0:0|3:2,0:0:0:0:
249,384,120619,1,8,0:0:0:0:
50,305,120787,1,0,3:2:0:0:
213,200,120956,1,12,0:2:0:0:
151,383,121124,5,8,0:0:0:0:
176,324,121208,1,8,0:0:0:0:
233,299,121293,1,10,0:3:0:0:
291,310,121377,1,8,0:3:0:0:
334,345,121461,1,10,0:3:0:0:
372,374,121546,1,8,0:3:0:0:
411,370,121630,6,0,B|373:334|333:345|333:345|302:392|249:379,1,175.499991966248,6|0,3:2|0:0,0:0:0:0:
176,324,121967,1,10,0:0:0:0:
370,229,122135,1,2,0:0:0:0:
370,229,122220,1,8,0:0:0:0:
370,229,122304,1,0,3:2:0:0:
147,159,122473,1,2,3:2:0:0:
256,380,122641,1,10,0:0:0:0:
229,175,122810,5,2,0:0:0:0:
229,175,122894,1,8,0:0:0:0:
229,175,122978,2,0,B|210:232|156:245|156:245|196:236|229:260,1,175.499991966248,2|0,3:2|0:0,0:0:0:0:
176,324,123315,2,0,L|155:193,1,116.999994644165,10|0,0:0|0:0,0:0:0:0:
29,215,123568,1,8,0:0:0:0:
29,215,123652,2,0,L|50:84,1,116.999994644165,2|0,3:2|3:2,0:0:0:0:
20,348,123989,2,0,P|47:296|113:298,1,116.999994644165,10|0,0:0|0:0,0:0:0:0:
176,324,124242,5,8,0:0:0:0:
176,324,124326,2,0,L|309:302,1,116.999994644165,6|0,3:2|0:0,0:0:0:0:
206,148,124664,1,10,0:0:0:0:
429,198,124832,1,2,0:0:0:0:
429,198,124916,1,8,0:0:0:0:
429,198,125001,1,0,3:2:0:0:
252,229,125169,1,2,3:2:0:0:
395,83,125338,1,10,0:0:0:0:
299,312,125506,5,2,0:0:0:0:
299,312,125590,1,8,0:0:0:0:
299,312,125675,1,6,3:2:0:0:
218,100,125843,2,0,P|185:109|164:141,1,58.4999973220826,8|8,0:0|0:2,0:0:0:0:
17,203,126012,1,6,3:2:0:0:
17,203,126096,2,0,P|50:212|71:244,1,58.4999973220826,8|2,0:0|0:0,0:0:0:0:
149,384,126265,5,8,0:0:0:0:
105,377,126349,1,10,0:0:0:0:
83,334,126433,1,8,0:0:0:0:
107,289,126517,1,8,0:0:0:0:
244,191,126686,6,0,B|300:184|315:245|315:245|277:251|259:295,1,175.499991966248,12|0,0:0|0:0,0:0:0:0:
272,365,127023,6,0,P|255:269|243:184,1,175.499991966248,14|0,0:0|0:0,0:0:0:0:
242,116,127360,1,0,3:2:0:0:
29,261,127529,2,0,P|45:165|57:80,1,175.499991966248,12|0,0:0|0:0,0:0:0:0:
59,12,127866,1,0,3:2:0:0:
183,229,128034,2,0,B|201:202|192:172|192:172|212:192|245:192,1,116.999994644165,12|0,0:0|3:2,0:0:0:0:
246,119,128287,5,0,3:2:0:0:
246,119,128371,2,0,P|205:190|101:187,1,175.499991966248,6|0,3:2|0:0,0:0:0:0:
50,158,128708,1,2,3:2:0:0:
166,18,128877,2,0,L|294:37,1,116.999994644165,14|0,0:0|0:0,0:0:0:0:
460,69,129214,1,2,3:2:0:0:
467,53,129298,1,0,3:2:0:0:
458,39,129383,1,14,0:0:0:0:
310,137,129551,1,2,0:0:0:0:
489,257,129720,6,0,B|482:205|407:191|381:231|381:231|403:249|404:282,1,175.499991966248,14|0,3:2|0:0,0:0:0:0:
443,324,130057,1,2,3:2:0:0:
310,137,130225,2,0,P|351:196|325:300,1,175.499991966248,12|0,0:0|0:0,0:0:0:0:
265,334,130562,1,0,3:2:0:0:
140,207,130731,2,0,L|256:225,1,116.999994644165,14|0,0:0|3:2,0:0:0:0:
499,268,131068,5,14,3:2:0:0:
499,268,131152,1,8,3:3:0:0:
499,268,131237,2,0,L|489:200,1,58.4999973220826,8|8,3:3|3:3,0:0:0:0:
318,144,131405,1,10,0:0:0:0:
318,144,131489,1,8,3:3:0:0:
318,144,131574,2,0,L|328:76,1,58.4999973220826,10|8,3:3|3:3,0:0:0:0:
486,51,131742,5,8,0:0:0:0:
459,56,131826,1,8,0:0:0:0:
427,36,131910,1,8,0:0:0:0:
427,11,131994,1,8,0:0:0:0:
444,0,132079,2,0,B|479:29|469:74|469:74|422:99|432:160,1,175.499991966248,4|0,3:2|0:0,0:0:0:0:
490,210,132416,5,10,2:2:0:0:
354,16,132585,1,8,0:0:0:0:
354,16,132669,1,8,0:0:0:0:
354,16,132753,1,8,0:0:0:0:
375,215,132922,1,8,0:0:0:0:
375,215,133006,1,8,0:0:0:0:
375,215,133090,1,10,0:0:0:0:
240,92,133259,1,10,0:0:0:0:
439,159,133428,1,10,0:0:0:0:
439,159,133512,1,8,0:0:0:0:
439,159,133596,1,10,0:0:0:0:
258,262,133765,5,10,0:0:0:0:
465,356,133933,1,8,0:0:0:0:
461,336,134017,1,8,0:0:0:0:
458,317,134101,1,10,0:0:0:0:
258,262,134270,1,8,0:0:0:0:
255,281,134354,1,8,0:0:0:0:
251,301,134438,1,10,0:0:0:0:
439,159,134607,1,10,0:0:0:0:
233,53,134776,1,10,0:0:0:0:
237,73,134860,1,8,0:0:0:0:
240,92,134944,1,14,3:2:0:0:
486,34,135113,5,6,3:2:0:0:
469,22,135197,1,8,0:0:0:0:
440,19,135281,1,8,0:0:0:0:
411,30,135366,1,8,0:0:0:0:
386,68,135450,1,8,3:2:0:0:
393,125,135534,1,8,0:0:0:0:
439,159,135619,1,8,0:0:0:0:
486,197,135703,1,8,0:0:0:0:
504,258,135787,1,8,3:2:0:0:
490,321,135871,1,8,0:0:0:0:
437,359,135956,1,8,0:0:0:0:
372,363,136040,1,8,0:0:0:0:
319,326,136124,1,8,0:0:0:0:
308,263,136208,5,8,0:0:0:0:
452,89,136377,1,8,0:0:0:0:
452,89,137304,5,0,3:2:0:0:
308,263,137473,6,0,L|239:252,1,54,4|0,0:0|0:0,0:0:0:0:
183,243,137810,5,14,0:0:0:0:
367,131,137978,1,2,0:0:0:0:
415,380,138147,1,10,0:0:0:0:
210,314,138315,1,2,0:0:0:0:
451,247,138484,5,10,0:0:0:0:
234,181,138652,1,2,3:2:0:0:
448,60,138821,1,10,0:0:0:0:
296,16,138989,1,2,3:2:0:0:
373,221,139158,5,10,0:2:0:0:
238,104,139327,1,2,3:2:0:0:
108,207,139496,1,10,0:0:0:0:
20,137,139664,1,2,3:2:0:0:
217,287,139832,2,0,L|234:181,1,107.999996704102,10|0,0:0|3:2,0:0:0:0:
31,215,140169,1,10,0:0:0:0:
68,384,140338,1,2,3:2:0:0:
295,324,140506,5,14,0:0:0:0:
42,299,140675,1,2,0:0:0:0:
217,287,140843,1,10,0:0:0:0:
124,322,141012,1,2,3:2:0:0:
274,224,141180,5,10,0:0:0:0:
68,384,141349,1,2,3:2:0:0:
220,322,141517,1,10,0:0:0:0:
127,287,141686,1,2,3:2:0:0:
295,324,141855,5,10,0:0:0:0:
257,117,142023,1,2,0:0:0:0:
424,252,142192,2,0,L|403:387,1,107.999996704102,10|0,0:0|3:2,0:0:0:0:
274,224,142529,1,10,0:0:0:0:
274,224,142613,2,0,L|253:88,1,107.999996704102,8|0,0:0|3:2,0:0:0:0:
244,43,142866,2,0,P|226:98|171:106,1,108,10|0,0:0|0:0,0:0:0:0:
127,51,143203,6,0,B|171:1|241:41|241:41|264:126|358:116,1,251.999992309571,14|8,0:0|0:0,0:0:0:0:
500,27,143708,1,2,0:0:0:0:
500,27,143793,1,2,0:0:0:0:
500,27,143877,2,0,L|481:142,1,107.999996704102,10|0,0:0|3:2,0:0:0:0:
458,288,144214,1,8,0:0:0:0:
337,124,144383,5,2,3:2:0:0:
337,124,144468,1,2,0:0:0:0:
337,124,144552,2,0,L|318:239,1,107.999996704102,10|0,0:0|0:0,0:0:0:0:
290,383,144888,1,8,0:0:0:0:
199,213,145057,1,2,3:2:0:0:
199,213,145141,1,2,0:0:0:0:
199,213,145225,2,0,P|162:176|109:186,1,107.999996704102,10|0,0:0|3:2,0:0:0:0:
35,357,145562,2,0,L|17:243,1,107.999996704102,8|0,0:0|3:2,0:0:0:0:
93,68,145899,6,0,B|93:118|23:145|-7:88|-7:88|9:76|13:57,1,161.999995056153,14|0,0:0|0:0,0:0:0:0:
47,9,146237,2,0,L|169:28,1,107.999996704102,8|0,0:0|0:0,0:0:0:0:
306,151,146574,2,0,L|199:167,1,107.999996704102,8|0,0:0|3:2,0:0:0:0:
304,38,146911,1,10,0:0:0:0:
347,249,147079,1,2,3:2:0:0:
512,90,147248,5,14,0:0:0:0:
465,47,147332,1,0,3:2:0:0:
401,53,147416,1,10,0:0:0:0:
366,108,147501,1,8,0:0:0:0:
386,169,147585,1,10,0:3:0:0:
430,195,147669,1,8,0:3:0:0:
459,228,147753,1,10,0:3:0:0:
471,264,147838,1,8,0:3:0:0:
467,293,147922,1,10,3:3:0:0:
454,309,148006,1,8,3:3:0:0:
441,316,148090,6,0,P|413:320|390:310,1,53.9999983520508,12|0,0:0|0:0,0:0:0:0:
256,185,148259,2,0,B|203:161|170:212|180:211|145:269|86:245,1,188.999994232178,12|0,0:0|0:0,0:0:0:0:
25,205,148596,5,14,0:0:0:0:
41,119,148765,1,2,0:0:0:0:
239,262,148933,1,10,0:0:0:0:
250,345,149102,1,2,0:0:0:0:
6,366,149270,5,10,0:0:0:0:
106,172,149439,1,2,3:2:0:0:
250,345,149607,1,10,0:0:0:0:
315,218,149776,1,2,3:2:0:0:
124,336,149944,5,10,0:0:0:0:
43,261,150113,1,2,0:0:0:0:
106,172,150281,1,10,0:2:0:0:
189,242,150450,1,2,3:2:0:0:
26,182,150619,2,0,L|46:49,1,107.999996704102,10|0,0:0|3:2,0:0:0:0:
284,115,150956,1,10,0:0:0:0:
105,171,151124,1,2,3:2:0:0:
176,34,151293,5,14,0:0:0:0:
246,221,151461,1,2,0:0:0:0:
396,36,151630,1,10,0:0:0:0:
361,129,151798,1,2,3:2:0:0:
208,125,151967,5,10,0:0:0:0:
279,313,152135,1,2,3:2:0:0:
437,158,152304,1,10,0:0:0:0:
402,251,152472,1,2,3:2:0:0:
246,221,152641,5,10,0:0:0:0:
472,74,152810,1,2,0:0:0:0:
286,29,152978,2,0,L|307:167,1,107.999996704102,10|0,0:0|3:2,0:0:0:0:
474,313,153315,1,10,0:0:0:0:
474,313,153399,2,0,P|445:260|385:256,1,107.999996704102,8|0,0:0|3:2,0:0:0:0:
324,263,153652,6,0,B|293:294|312:331|312:331|319:306|341:301,1,108,10|0,0:0|0:0,0:0:0:0:
390,359,153989,6,0,P|302:328|208:334,1,188.999994232178,14|0,0:0|0:0,0:0:0:0:
124,349,154326,2,0,B|84:324|57:281|92:216|139:221|164:252|156:278,1,188.999994232178,8|0,0:0|0:0,0:0:0:0:
208,334,154664,5,10,0:0:0:0:
18,239,154832,1,2,3:2:0:0:
174,159,155001,2,0,L|154:282,1,107.999996704102,10|0,0:0|3:2,0:0:0:0:
98,107,155338,6,0,P|57:143|-3:143,1,107.999996704102,10|0,0:0|0:0,0:0:0:0:
280,38,155675,2,0,P|239:2|179:2,1,107.999996704102,10|0,0:0|3:2,0:0:0:0:
462,107,156012,2,0,P|421:143|361:143,1,107.999996704102,10|0,0:0|3:2,0:0:0:0:
173,158,156349,2,0,B|216:133|216:88|216:88|242:122|294:119,1,161.999995056153,10|0,0:0|0:0,0:0:0:0:
280,38,156686,6,0,P|265:104|251:220,1,161.999995056153,14|0,0:0|0:0,0:0:0:0:
242,274,157023,2,0,P|276:233|343:237,1,107.999996704102,8|0,0:0|0:0,0:0:0:0:
144,366,157360,2,0,P|110:325|45:323,1,107.999996704102,8|0,0:0|3:2,0:0:0:0:
173,158,157697,1,10,0:0:0:0:
275,358,157866,1,2,3:2:0:0:
39,220,158034,6,0,B|22:176|55:140|96:137|96:137|88:165|104:187,1,161.999995056153,14|0,0:0|0:0,0:0:0:0:
173,158,158371,1,10,0:0:0:0:
164,218,158456,1,8,0:0:0:0:
156,271,158540,1,10,3:2:0:0:
150,323,158624,1,8,3:2:0:0:
144,366,158708,6,0,L|209:355,1,53.9999983520508,2|0,3:2|0:0,0:0:0:0:
380,236,158877,2,0,L|314:225,1,53.9999983520508,2|0,3:2|0:0,0:0:0:0:
115,384,159046,2,0,L|285:356,1,161.999995056153,14|0,0:0|0:0,0:0:0:0:
375,301,159383,6,0,B|360:275|338:254|338:254|365:237|389:206|389:206|382:231|379:245,1,161.999995056153,6|0,3:2|0:0,0:0:0:0:
380,236,159720,2,0,L|254:216,1,107.999996704102,8|0,0:0|0:0,0:0:0:0:
241,217,159973,1,8,0:0:0:0:
241,217,160057,1,2,0:0:0:0:
457,153,160225,1,2,3:2:0:0:
313,0,160394,1,10,0:0:0:0:
214,138,160562,1,2,0:0:0:0:
409,76,160731,5,12,0:0:0:0:
375,301,160900,1,0,3:2:0:0:
162,77,161068,1,12,0:0:0:0:
196,302,161237,1,0,3:2:0:0:
457,153,161405,6,0,B|452:154|452:154|450:150|450:150|437:154|437:154|434:151|434:151|423:157|423:157|421:154|421:154|406:161|406:161|406:157|406:157|396:158|396:158,1,72,12|4,0:0|0:0,0:0:0:0:
119,212,170843,6,0,P|142:248|138:298,1,80.9999975280763,2|8,0:0|0:0,0:0:0:0:
136,314,171138,6,0,L|127:335,1,13.4999995880127,8|8,0:0|0:0,0:0:0:0:
263,175,171349,1,8,0:3:0:0:
24,54,171686,5,8,0:3:0:0:
300,92,172023,5,8,0:0:0:0:
300,92,172107,1,8,0:0:0:0:
300,92,172192,2,0,B|280:100|271:126|271:126|264:127|264:127|273:134|273:134|255:159|265:183,1,108,0|8,0:0|0:0,0:0:0:0:
293,246,172781,5,8,0:0:0:0:
293,246,172866,2,0,P|231:221|159:218,1,135,6|0,3:2|0:0,0:0:0:0:
87,222,173203,1,10,0:0:0:0:
204,42,173371,1,2,0:0:0:0:
204,42,173708,5,2,3:2:0:0:
0,107,173877,1,8,0:0:0:0:
224,140,174046,1,2,0:0:0:0:
98,18,174214,6,0,L|119:156,1,135,0|0,3:2|0:0,0:0:0:0:
163,217,174551,2,0,B|199:242|230:232|261:197|259:166|259:166|239:162|220:134,1,180,8|2,0:0|0:0,0:0:0:0:
87,222,175057,1,2,3:2:0:0:
204,42,175225,2,0,L|317:59,1,90,10|2,0:2|0:0,0:0:0:0:
379,74,175478,5,8,0:0:0:0:
379,74,175562,2,0,B|346:101|357:139|357:139|389:172|379:213,1,135,6|0,3:2|0:0,0:0:0:0:
346,260,175899,1,10,0:0:0:0:
489,114,176068,1,10,0:0:0:0:
489,114,176152,1,8,0:0:0:0:
453,356,176405,5,2,3:2:0:0:
304,197,176574,1,8,0:0:0:0:
501,248,176742,1,2,0:0:0:0:
312,384,176911,6,0,P|273:326|193:335,1,135,0|0,3:2|0:0,0:0:0:0:
145,350,177248,1,8,0:0:0:0:
171,149,177416,1,8,0:0:0:0:
171,149,177501,1,8,0:0:0:0:
18,231,177669,1,8,0:0:0:0:
18,231,177754,1,0,3:2:0:0:
145,350,177922,5,10,0:0:0:0:
124,324,178006,1,8,0:0:0:0:
95,320,178090,1,8,0:0:0:0:
70,345,178175,1,8,0:0:0:0:
65,373,178259,6,0,B|99:384|125:361|125:361|144:324|188:326,1,135,6|0,3:2|0:0,0:0:0:0:
248,367,178596,1,10,0:0:0:0:
340,183,178765,1,2,0:0:0:0:
340,183,178849,1,8,0:0:0:0:
149,252,179102,1,2,3:2:0:0:
320,278,179270,2,0,L|227:263,1,90,10|2,0:0|0:0,0:0:0:0:
386,384,179607,6,0,P|428:334|503:368,1,135,2|0,3:2|0:0,0:0:0:0:
489,348,179944,2,0,P|481:302|472:244,1,90,10|0,0:0|0:0,0:0:0:0:
449,98,180281,2,0,P|423:132|379:132,1,90,2|0,0:0|3:2,0:0:0:0:
247,24,180619,1,10,0:0:0:0:
219,205,180787,5,8,0:0:0:0:
219,205,180871,1,8,0:0:0:0:
219,205,180956,2,0,B|197:152|244:110|290:123|290:123|290:148|302:167,1,161.999995056153,6|0,3:2|0:0,0:0:0:0:
293,147,181293,2,0,L|235:137,1,45,10|0,0:0|0:0,0:0:0:0:
7,112,181461,1,6,3:2:0:0:
7,112,181798,6,0,P|98:90|204:80,1,180,6|8,3:2|0:0,0:0:0:0:
165,58,182220,1,8,0:0:0:0:
144,31,182304,1,8,0:0:0:0:
138,237,183652,6,0,B|128:217|106:206|106:206|117:183|87:170|87:170|104:160|73:137|73:137|148:126|182:184|182:184|180:260|252:273,1,377.999988464356,4|0,0:0|0:0,0:0:0:0:
364,315,185001,6,0,B|371:292|380:263|380:263|396:251|416:248|416:248|419:229|429:215|429:215|354:204|320:262|320:262|317:339|250:351,1,377.999988464356,2|0,0:0|0:0,0:0:0:0:
233,116,186349,6,0,B|284:103|305:57|305:57|303:109|344:141|344:141|296:153|267:199|267:199|270:147|236:123,1,377.999988464356,2|0,0:0|0:0,0:0:0:0:
159,160,187697,6,0,B|115:150|105:105|105:105|90:152|42:159,1,161.999995056153,2|0,0:0|0:0,0:0:0:0:
41,52,188371,1,2,0:0:0:0:
165,35,188540,1,2,0:0:0:0:
237,123,188708,1,2,0:0:0:0:
226,213,188877,1,2,0:0:0:0:
155,264,189046,6,0,P|105:236|37:234,2,107.999996704102,2|2|2,0:0|0:0|0:0,0:0:0:0:
45,157,190057,1,2,0:0:0:0:
65,308,190225,1,2,0:0:0:0:
226,213,190394,6,0,B|242:160|300:144|336:181|319:224|282:238,1,161.999995056153,2|0,0:0|0:0,0:0:0:0:
236,349,191068,2,0,P|316:338|397:332,1,161.999995056153,2|0,0:0|0:0,0:0:0:0:
408,235,191742,6,0,P|450:249|488:268,1,80.9999975280763,2|0,0:0|0:0,0:0:0:0:
482,265,192079,1,2,0:0:0:0:
472,174,192248,1,2,0:0:0:0:
314,246,192416,2,0,B|330:274|361:287|399:270|407:234|407:234|389:219|389:182,1,161.999995056153,2|0,0:0|0:0,0:0:0:0:
454,91,193090,6,0,L|384:101,1,53.9999983520508,2|0,0:0|0:0,0:0:0:0:
470,12,193428,2,0,L|400:22,1,53.9999983520508,2|0,0:0|0:0,0:0:0:0:
333,152,193765,1,2,0:0:0:0:
317,73,193933,1,2,0:0:0:0:
472,174,194102,1,2,0:0:0:0:
456,253,194270,1,2,0:0:0:0:
340,359,194439,6,0,P|386:330|446:336,1,107.999996704102,6|2,0:0|0:0,0:0:0:0:
300,274,194944,2,0,P|255:246|211:243,1,80.9999975280763,2|0,0:0|0:0,0:0:0:0:
228,241,195281,1,2,0:0:0:0:
168,165,195450,1,2,0:0:0:0:
274,150,195619,1,2,0:0:0:0:
187,324,195787,6,0,P|141:353|81:347,1,107.999996704102,2|0,0:0|0:0,0:0:0:0:
0,264,196293,2,0,B|1:237|-15:211|-15:211|3:235|24:240,1,107.999996704102,2|0,0:0|0:0,0:0:0:0:
154,241,196798,1,2,0:0:0:0:
208,81,196967,1,2,0:0:0:0:
49,163,197135,6,0,L|129:150,1,80.9999975280763,2|0,0:0|0:0,0:0:0:0:
129,150,197473,1,2,0:0:0:0:
4,26,197641,2,0,L|15:99,1,53.9999983520508,2|0,0:0|0:0,0:0:0:0:
133,154,197978,2,0,L|144:80,1,53.9999983520508,2|0,0:0|0:0,0:0:0:0:
3,272,198315,6,0,B|-44:237|-13:157|51:152|51:152|51:192|83:215,1,215.999993408203,2|0,0:0|0:0,0:0:0:0:
125,325,199158,1,2,0:0:0:0:
215,353,199326,1,2,0:0:0:0:
299,300,199495,1,2,0:0:0:0:
327,198,199664,1,2,0:0:0:0:
447,174,199832,6,0,P|430:229|448:293,1,107.999996704102,2|0,0:0|0:0,0:0:0:0:
299,120,200506,2,0,P|322:108|338:86,1,53.9999983520508,2|0,0:0|0:0,0:0:0:0:
257,2,200843,2,0,P|233:13|217:35,1,53.9999983520508,2|0,0:0|0:0,0:0:0:0:
87,270,201180,6,0,B|55:229|7:233|7:233|46:227|69:195,1,161.999995056153,2|0,0:0|0:0,0:0:0:0:
206,157,201855,2,0,B|239:206|213:243|213:243|173:240|148:199,1,161.999995056153,2|0,0:0|0:0,0:0:0:0:
31,126,202529,6,0,B|8:70|41:39|41:39|83:46|113:129|113:129|161:70|221:69|221:69|173:61|152:17,1,431.999986816407,2|0,0:0|0:0,0:0:0:0:
152,17,205225,6,0,P|168:98|182:210,1,175.499991966248,6|0,3:2|0:0,0:0:0:0:
172,262,205562,2,0,P|215:225|271:231,1,116.999994644165,8|0,0:0|0:0,0:0:0:0:
301,256,205815,1,8,0:0:0:0:
301,256,205899,1,2,3:2:0:0:
270,14,206068,1,0,3:2:0:0:
443,183,206237,2,0,B|480:171|492:127|492:127|476:141|450:146,1,116.999994644165,8|0,0:0|0:0,0:0:0:0:
382,131,206489,5,8,0:0:0:0:
382,131,206574,2,0,B|333:107|298:131|298:131|267:185|209:174,1,175.499991966248,2|0,3:2|0:0,0:0:0:0:
152,151,206911,1,10,0:0:0:0:
225,333,207079,1,2,0:0:0:0:
225,333,207164,1,8,0:0:0:0:
225,333,207248,1,0,3:2:0:0:
213,93,207416,1,0,3:2:0:0:
0,245,207585,1,10,0:0:0:0:
44,59,207753,5,2,0:0:0:0:
44,59,207838,1,8,0:0:0:0:
44,59,207922,2,0,B|67:114|148:93|148:37|148:37|127:34|104:21,1,175.499991966248,6|0,3:2|0:0,0:0:0:0:
121,29,208259,2,0,L|129:96,1,58.4999973220826,10|0,0:0|0:0,0:0:0:0:
175,299,208428,2,0,B|113:290|92:225|92:225|106:279|76:317,1,202.500007724762,2|0,3:2|0:0,0:0:0:0:
0,245,208765,2,0,P|100:230|218:210,1,202.500007724762,2|0,3:2|0:0,0:0:0:0:
175,299,209102,6,0,B|105:274|83:191|126:115|212:134|235:206|187:221,1,270.000010299683,12|0,0:0|3:2,0:0:0:0:
154,384,209607,1,8,0:0:0:0:
321,150,209776,1,0,3:2:0:0:
303,372,209944,1,12,0:2:0:0:
200,213,210113,5,8,0:0:0:0:
260,200,210197,1,8,0:0:0:0:
313,229,210281,1,10,0:3:0:0:
348,277,210366,1,8,0:3:0:0:
379,320,210450,1,10,0:3:0:0:
423,338,210534,1,8,0:3:0:0:
457,328,210619,6,0,B|421:301|373:347|385:347|348:403|297:368,1,175.499991966248,6|0,3:2|0:0,0:0:0:0:
236,333,210956,1,10,0:0:0:0:
328,157,211124,1,2,0:0:0:0:
328,157,211208,1,8,0:0:0:0:
328,157,211293,1,0,3:2:0:0:
103,255,211461,1,2,3:2:0:0:
302,371,211630,1,10,0:0:0:0:
181,190,211798,5,2,0:0:0:0:
181,190,211883,1,8,0:0:0:0:
181,190,211967,2,0,B|172:237|225:274|270:256|270:256|279:217|311:205,1,175.499991966248,2|0,3:2|0:0,0:0:0:0:
348,262,212304,2,0,P|330:199|329:139,1,116.999994644165,10|0,0:0|0:0,0:0:0:0:
333,26,212557,1,8,0:0:0:0:
333,26,212641,2,0,P|292:70|228:59,1,116.999994644165,2|0,3:2|3:2,0:0:0:0:
28,14,212978,2,0,L|48:145,1,116.999994644165,10|0,0:0|0:0,0:0:0:0:
181,190,213231,5,8,0:0:0:0:
181,190,213315,2,0,L|160:321,1,116.999994644165,6|0,3:2|0:0,0:0:0:0:
60,200,213652,1,10,0:0:0:0:
35,384,213821,1,2,0:0:0:0:
35,384,213905,1,8,0:0:0:0:
35,384,213989,1,0,3:2:0:0:
250,261,214158,1,2,3:2:0:0:
45,291,214326,1,10,0:0:0:0:
189,197,214495,5,2,0:0:0:0:
189,197,214579,1,8,0:0:0:0:
189,197,214664,1,6,3:2:0:0:
310,316,214832,2,0,L|377:305,1,58.4999973220826,8|8,0:0|0:2,0:0:0:0:
502,217,215001,1,6,3:2:0:0:
502,217,215085,2,0,L|435:206,1,58.4999973220826,8|2,0:0|0:0,0:0:0:0:
253,139,215253,5,8,0:0:0:0:
302,134,215337,1,10,0:0:0:0:
342,163,215421,1,8,0:0:0:0:
356,213,215505,1,8,0:0:0:0:
470,124,215675,6,0,P|395:129|357:220,1,175.499991966248,12|0,0:0|0:0,0:0:0:0:
310,316,216012,6,0,P|219:296|122:289,1,175.499991966248,14|0,0:0|0:0,0:0:0:0:
60,302,216349,1,0,3:2:0:0:
220,138,216517,2,0,P|311:118|408:111,1,175.499991966248,12|0,0:0|0:0,0:0:0:0:
470,124,216854,1,0,3:2:0:0:
368,314,217023,2,0,B|338:302|310:318|310:318|318:283|297:255,1,116.999994644165,12|0,0:0|3:2,0:0:0:0:
234,300,217276,5,0,3:2:0:0:
234,300,217360,2,0,P|316:279|341:189,1,175.499991966248,6|0,3:2|0:0,0:0:0:0:
310,129,217697,1,2,3:2:0:0:
91,240,217866,2,0,P|100:298|110:363,1,116.999994644165,14|0,0:0|0:0,0:0:0:0:
213,181,218203,1,2,3:2:0:0:
216,159,218287,1,0,3:2:0:0:
220,138,218371,1,14,0:0:0:0:
14,209,218540,1,2,0:0:0:0:
124,37,218708,6,0,B|143:98|80:135|34:105|34:105|50:85|52:64,1,175.499991966248,14|0,3:2|0:0,0:0:0:0:
45,6,219046,1,2,3:2:0:0:
220,138,219214,2,0,P|206:217|191:318,1,175.499991966248,12|0,0:0|0:0,0:0:0:0:
177,384,219551,1,0,3:2:0:0:
373,295,219720,2,0,P|364:233|352:164,1,116.999994644165,14|0,0:0|3:2,0:0:0:0:
287,55,220057,5,14,3:2:0:0:
287,55,220141,1,8,3:3:0:0:
287,55,220225,2,0,P|310:71|345:77,1,58.4999973220826,8|8,3:3|3:3,0:0:0:0:
488,20,220394,1,10,0:0:0:0:
488,20,220478,1,8,3:3:0:0:
488,20,220562,2,0,P|462:31|439:59,1,58.4999973220826,10|8,3:3|3:3,0:0:0:0:
463,225,220731,5,8,0:0:0:0:
454,180,220815,1,8,0:0:0:0:
420,155,220899,1,8,0:0:0:0:
378,160,220984,1,8,0:0:0:0:
354,179,221068,2,0,B|315:195|274:169|274:169|241:117|193:132,1,175.499991966248,4|0,3:2|0:0,0:0:0:0:
130,166,221405,5,10,2:2:0:0:
181,378,221574,1,8,0:0:0:0:
181,378,221658,1,8,0:0:0:0:
181,378,221742,1,8,0:0:0:0:
20,288,221911,1,8,0:0:0:0:
20,288,221995,1,8,0:0:0:0:
20,288,222079,1,10,0:0:0:0:
200,211,222248,1,10,0:0:0:0:
18,115,222416,1,10,0:0:0:0:
18,115,222501,1,8,0:0:0:0:
18,115,222585,1,10,0:0:0:0:
220,44,222753,5,10,0:0:0:0:
103,212,222922,1,8,0:0:0:0:
100,190,223006,1,8,0:0:0:0:
98,168,223090,1,10,0:0:0:0:
295,255,223259,1,8,0:0:0:0:
292,277,223343,1,8,0:0:0:0:
290,299,223427,1,10,0:0:0:0:
212,129,223596,1,10,0:0:0:0:
123,351,223765,1,10,0:0:0:0:
120,329,223849,1,8,0:0:0:0:
118,307,223933,1,14,3:2:0:0:
310,172,224102,5,6,3:2:0:0:
333,168,224186,1,8,0:0:0:0:
365,174,224270,1,8,0:0:0:0:
398,202,224355,1,8,0:0:0:0:
414,251,224439,1,8,3:2:0:0:
403,304,224523,1,8,0:0:0:0:
355,347,224607,1,8,0:0:0:0:
290,354,224692,1,8,0:0:0:0:
233,325,224776,1,8,3:2:0:0:
201,270,224860,1,8,0:0:0:0:
152,229,224944,1,8,0:0:0:0:
89,232,225029,1,8,0:0:0:0:
39,271,225113,1,8,0:0:0:0:
37,334,225197,5,8,0:0:0:0:
314,266,225366,1,8,0:0:0:0:
314,266,226293,5,0,3:2:0:0:
144,153,226461,6,0,B|120:137|120:137|111:114,1,54,4|0,0:0|0:0,0:0:0:0:
122,42,226798,6,0,L|151:230,1,188.999994232178,14|0,0:0|0:0,0:0:0:0:
166,306,227135,1,8,0:0:0:0:
346,183,227304,2,0,B|291:172|291:172|245:207,1,107.999996704102,2|8,0:0|0:0,0:0:0:0:
320,363,227641,1,0,3:2:0:0:
486,257,227810,2,0,L|466:134,1,107.999996704102,10|0,0:0|3:2,0:0:0:0:
320,363,228147,6,0,L|340:240,1,107.999996704102,10|0,0:0|3:2,0:0:0:0:
502,363,228484,1,10,0:0:0:0:
346,183,228652,1,0,3:0:0:0:
502,363,228821,2,0,L|480:229,1,107.999996704102,10|0,0:0|3:2,0:0:0:0:
343,94,229158,2,0,B|287:105|287:105|266:151|266:151|208:162,1,161.999995056153,10|0,0:0|0:0,0:0:0:0:
119,115,229495,6,0,B|107:59|107:59|217:82,1,161.999995056153,14|0,3:2|0:0,0:0:0:0:
212,161,229832,1,8,0:0:0:0:
38,146,230001,2,0,L|19:28,1,107.999996704102,2|8,0:0|0:0,0:0:0:0:
123,215,230338,1,0,3:2:0:0:
9,354,230506,1,10,0:0:0:0:
35,323,230590,1,2,0:0:0:0:
62,294,230674,1,2,3:2:0:0:
101,307,230758,1,2,0:0:0:0:
139,321,230843,6,0,L|120:202,1,107.999996704102,10|0,0:0|0:0,0:0:0:0:
325,200,231180,2,0,L|344:81,1,107.999996704102,10|0,0:0|3:2,0:0:0:0:
378,338,231517,1,10,0:0:0:0:
378,338,231602,2,0,B|403:289|403:289|472:305,1,107.999996704102,0|0,3:0|3:0,0:0:0:0:
485,355,231855,2,0,L|365:336,1,107.999996704102,10|0,0:0|3:2,0:0:0:0:
123,151,232192,6,0,B|184:141|184:141|204:110|204:110|278:100,1,161.999995056153,14|0,3:2|0:0,0:0:0:0:
342,93,232529,1,8,0:0:0:0:
269,293,232697,2,0,L|249:172,1,107.999996704102,2|8,0:0|0:0,0:0:0:0:
227,17,233034,1,0,3:2:0:0:
438,110,233203,2,0,L|422:217,1,107.999996704102,10|0,0:0|3:2,0:0:0:0:
269,376,233540,6,0,B|331:360|331:360|352:322|352:322|409:308,1,161.999995056153,10|0,0:0|0:0,0:0:0:0:
492,277,233877,1,8,0:0:0:0:
337,201,234046,1,0,3:2:0:0:
476,368,234214,1,8,0:0:0:0:
438,110,234383,1,0,3:2:0:0:
269,293,234551,2,0,B|215:244|215:244|240:179|240:179|256:220,1,161.999995056153,10|0,0:0|0:0,0:0:0:0:
337,201,234888,6,0,B|258:216|258:216|239:240|239:240|155:258,1,188.999994232178,14|0,3:2|0:0,0:0:0:0:
86,272,235225,1,8,0:0:0:0:
4,67,235394,2,0,L|138:88,1,107.999996704102,2|8,0:0|0:0,0:0:0:0:
336,125,235731,1,0,3:2:0:0:
162,256,235899,2,0,L|191:67,1,161.999995056153,10|0,0:0|0:0,0:0:0:0:
259,13,236237,6,0,L|268:75,1,53.9999983520508,14|0,3:2|0:0,0:0:0:0:
303,301,236405,1,10,0:0:0:0:
344,350,236489,1,0,3:2:0:0:
407,355,236574,1,10,0:3:0:0:
462,321,236658,1,8,0:3:0:0:
478,274,236742,1,10,0:3:0:0:
476,228,236826,1,8,0:3:0:0:
456,192,236911,1,10,3:0:0:0:
424,174,236995,1,10,3:0:0:0:
396,171,237079,6,0,B|364:180|364:180|343:210,1,53.9999983520508,14|2,0:0|0:0,0:0:0:0:
233,355,237248,2,0,B|203:346|203:346|180:316,1,53.9999983520508,14|2,0:0|0:0,0:0:0:0:
35,203,237416,5,2,0:0:0:0:
35,203,237501,1,2,0:0:0:0:
35,203,237585,1,14,0:0:0:0:
63,375,237753,1,2,0:0:0:0:
196,206,237922,1,10,0:0:0:0:
6,295,238090,2,0,L|125:276,1,107.999996704102,2|8,0:0|0:0,0:0:0:0:
297,253,238428,1,2,3:2:0:0:
92,167,238596,1,10,0:0:0:0:
320,132,238765,1,2,3:2:0:0:
195,337,238933,5,14,0:0:0:0:
195,337,239017,1,2,0:0:0:0:
195,337,239102,1,2,0:0:0:0:
406,212,239270,1,10,0:0:0:0:
181,95,239439,1,2,3:2:0:0:
305,306,239607,6,0,L|296:249,1,53.9999983520508,10|0,0:0|0:0,0:0:0:0:
492,154,239776,2,0,L|483:210,1,53.9999983520508,2|0,3:2|0:0,0:0:0:0:
485,372,239944,2,0,L|424:362,1,53.9999983520508,10|0,0:0|0:0,0:0:0:0:
255,182,240113,2,0,L|315:172,1,53.9999983520508,2|0,3:2|0:0,0:0:0:0:
473,382,240281,6,0,B|403:371|403:371|380:321|380:321|305:306,1,202.500007724762,12|0,0:0|0:0,0:0:0:0:
226,296,240619,1,8,0:0:0:0:
500,161,240787,1,2,0:0:0:0:
500,161,240871,1,0,0:0:0:0:
500,161,240956,2,0,L|479:288,1,107.999996704102,8|0,0:0|3:2,0:0:0:0:
253,0,241293,2,0,L|274:127,1,107.999996704102,10|0,0:0|3:2,0:0:0:0:
304,305,241630,5,14,0:0:0:0:
173,189,241798,1,0,0:0:0:0:
36,358,241967,1,10,0:0:0:0:
177,295,242135,1,0,3:2:0:0:
3,168,242304,1,10,0:0:0:0:
3,168,242388,2,0,B|10:216|10:216|23:294,1,107.999996704102,0|0,3:0|3:0,0:0:0:0:
36,358,242641,2,0,B|102:335|102:335|112:313|112:313|185:294,1,161.999995056153,14|0,0:0|0:0,0:0:0:0:
247,241,242978,6,0,B|203:205|203:205|94:230,1,161.999995056153,12|0,0:0|0:0,0:0:0:0:
19,274,243315,1,10,0:0:0:0:
135,106,243484,1,2,0:0:0:0:
249,319,243652,2,0,B|288:312|288:312|318:282|318:282|319:323|319:323|347:357,1,161.999995056153,10|0,0:0|0:0,0:0:0:0:
425,370,243989,1,10,0:0:0:0:
247,241,244158,1,2,3:2:0:0:
512,204,244326,5,10,0:0:0:0:
392,295,244495,1,2,0:0:0:0:
295,170,244664,1,10,0:0:0:0:
425,94,244832,2,0,L|405:216,1,107.999996704102,2|8,3:2|0:0,0:0:0:0:
506,373,245169,6,0,B|504:345|504:345|480:311,1,53.9999983520508,2|0,3:2|0:0,0:0:0:0:
295,170,245338,2,0,B|271:185|271:185|254:223,1,53.9999983520508,10|0,0:0|0:0,0:0:0:0:
459,211,245506,2,0,B|433:198|433:198|392:202,1,53.9999983520508,2|0,3:2|0:0,0:0:0:0:
178,292,245675,6,0,B|229:304|229:304|252:353|252:353|324:371,1,161.999995056153,14|0,0:0|0:0,0:0:0:0:
384,376,246012,1,10,0:0:0:0:
161,185,246180,2,0,L|181:311,1,107.999996704102,2|8,0:0|0:0,0:0:0:0:
141,67,246517,1,0,3:2:0:0:
331,10,246686,2,0,L|311:136,1,107.999996704102,10|0,0:0|3:2,0:0:0:0:
284,303,247023,6,0,B|344:262|344:262|393:289|393:289|356:316,1,161.999995056153,14|0,0:0|0:0,0:0:0:0:
239,370,247360,1,10,0:3:0:0:
219,359,247444,1,8,0:3:0:0:
191,345,247529,1,8,0:3:0:0:
159,329,247613,1,8,0:3:0:0:
150,366,247697,5,10,3:0:0:0:
191,345,247781,1,10,0:3:0:0:
237,324,247866,1,10,3:0:0:0:
284,303,247950,1,10,0:3:0:0:
349,303,248034,5,14,0:0:0:0:
288,289,248119,1,10,0:0:0:0:
227,275,248203,1,10,0:0:0:0:
166,261,248287,1,10,0:0:0:0:
105,247,248371,6,0,B|168:234|168:234|185:209|185:209|267:196,1,161.999995056153,6|0,3:2|0:0,0:0:0:0:
330,187,248708,1,8,0:0:0:0:
96,128,248877,1,0,3:2:0:0:
96,128,248961,1,0,3:2:0:0:
96,128,249046,1,2,0:0:0:0:
359,25,249214,1,0,3:0:0:0:
181,170,249383,2,0,L|164:63,1,107.999996704102,8|0,0:0|0:0,0:0:0:0:
105,247,249720,5,14,0:0:0:0:
346,106,249888,1,0,3:0:0:0:
96,128,250057,1,8,0:0:0:0:
382,238,250225,1,0,3:0:0:0:
164,63,250394,6,0,L|175:134,1,72,12|0,0:0|0:0,0:0:0:0:
357,332,252416,6,0,B|419:272|401:187|401:187|441:255|509:272|509:272|459:278|439:316,1,377.999988464356,4|0,0:0|0:0,0:0:0:0:
157,332,253765,6,0,B|95:272|113:187|113:187|73:255|5:272|5:272|55:278|75:316,1,377.999988464356,2|0,0:0|0:0,0:0:0:0:
229,219,255113,6,0,B|203:211|203:211|217:239|213:263|213:263|233:279|233:279|233:315|257:351|257:351|281:315|281:279|281:279|305:263|305:263|301:239|321:211|321:211|289:219,1,377.999988464356,2|0,0:0|0:0,0:0:0:0:
216,88,256461,6,0,B|212:84|200:80|200:80|228:56|292:56|320:80|320:80|308:84|304:92,1,161.999995056153,2|0,0:0|0:0,0:0:0:0:
289,218,257135,1,2,0:0:0:0:
374,295,257304,1,2,0:0:0:0:
463,253,257473,1,2,0:0:0:0:
466,164,257641,1,2,0:0:0:0:
408,108,257810,6,0,P|359:87|305:87,2,107.999996704102,2|2|2,0:0|0:0|0:0,0:0:0:0:
253,181,258820,1,2,0:0:0:0:
195,95,258989,1,2,0:0:0:0:
117,174,259158,6,0,B|101:208|61:217|20:199|20:199|17:169|54:155,1,161.999995056153,2|0,0:0|0:0,0:0:0:0:
170,280,259832,2,0,B|186:314|226:323|267:305|267:305|270:275|233:261,1,161.999995056153,2|0,0:0|0:0,0:0:0:0:
6,288,260506,6,0,P|23:324|34:378,1,80.9999975280763,2|0,0:0|0:0,0:0:0:0:
32,363,260843,1,2,0:0:0:0:
95,279,261012,1,2,0:0:0:0:
161,360,261180,2,0,B|199:397|239:370|239:370|266:329|309:343,1,161.999995056153,2|0,0:0|0:0,0:0:0:0:
467,300,261855,6,0,L|458:353,1,53.9999983520508,2|0,0:0|0:0,0:0:0:0:
387,323,262192,2,0,L|378:376,1,53.9999983520508,2|0,0:0|0:0,0:0:0:0:
249,237,262529,1,2,0:0:0:0:
329,260,262697,1,2,0:0:0:0:
472,172,262866,1,2,0:0:0:0:
392,195,263034,1,2,0:0:0:0:
250,82,263203,6,0,P|295:115|356:105,1,107.999996704102,6|2,0:0|0:0,0:0:0:0:
162,166,263708,2,0,P|117:199|70:195,1,80.9999975280763,2|0,0:0|0:0,0:0:0:0:
93,200,264046,1,2,0:0:0:0:
93,89,264214,1,2,0:0:0:0:
0,141,264383,1,2,0:0:0:0:
69,285,264551,6,0,B|34:269|20:242|20:242|31:273|27:297,1,107.999996704102,2|0,0:0|0:0,0:0:0:0:
146,383,265057,2,0,P|202:371|272:362,1,107.999996704102,2|0,0:0|0:0,0:0:0:0:
227,242,265562,1,2,0:0:0:0:
143,296,265731,1,2,0:0:0:0:
93,200,265899,6,0,P|101:154|108:104,1,80.9999975280763,2|0,0:0|0:0,0:0:0:0:
106,120,266237,1,2,0:0:0:0:
224,147,266405,2,0,L|294:135,1,53.9999983520508,2|0,0:0|0:0,0:0:0:0:
360,53,266742,2,0,L|289:41,1,53.9999983520508,2|0,0:0|0:0,0:0:0:0:
347,188,267079,6,0,B|394:221|448:187|469:139|429:91|429:91|422:110|396:120,1,215.999993408203,2|0,0:0|0:0,0:0:0:0:
277,138,267922,1,2,0:0:0:0:
232,222,268090,1,2,0:0:0:0:
134,255,268259,1,2,0:0:0:0:
35,197,268428,1,2,0:0:0:0:
11,78,268596,6,0,P|66:93|132:90,1,107.999996704102,2|0,0:0|0:0,0:0:0:0:
277,138,269270,2,0,P|248:125|237:102,1,53.9999983520508,2|0,0:0|0:0,0:0:0:0:
321,12,269607,2,0,P|349:24|361:48,1,53.9999983520508,2|0,0:0|0:0,0:0:0:0:
384,304,269944,6,0,B|363:276|372:238|372:238|356:298|310:323,1,161.999995056153,2|0,0:0|0:0,0:0:0:0:
129,305,270619,2,0,B|150:277|141:239|141:239|157:299|203:324,1,161.999995056153,2|0,0:0|0:0,0:0:0:0:
221,129,271293,6,0,B|189:137|172:156|172:156|193:182|221:197|221:197|205:240|257:272|257:272|308:240|293:197|293:197|322:183|341:153|341:153|317:133|284:128,1,431.999986816407,2|0,0:0|0:0,0:0:0:0:
284,128,276686,6,0,B|256:164|274:231|321:249|321:249|331:217|359:202,1,188.999994232178,6|0,3:2|0:0,0:0:0:0:
388,143,277023,2,0,P|417:172|420:205,1,62.9999980773926,10|0,0:0|0:0,0:0:0:0:
366,348,277192,2,0,B|444:362|471:282|471:282|421:250|389:280,1,216,2|0,3:2|0:0,0:0:0:0:
291,328,277529,2,0,B|242:301|194:332|194:332|153:386|95:370,1,216,2|0,3:2|0:0,0:0:0:0:
35,253,277866,6,0,B|-10:239|-10:176|31:135|91:148|156:212|117:307,1,288,12|0,0:0|3:2,0:0:0:0:
0,383,278371,1,8,0:0:0:0:
206,243,278540,1,0,3:2:0:0:
0,144,278708,1,12,0:2:0:0:
94,369,278877,5,8,0:0:0:0:
150,384,278961,1,8,0:0:0:0:
208,364,279046,1,10,0:3:0:0:
249,329,279130,1,8,0:3:0:0:
297,306,279214,1,10,0:3:0:0:
341,316,279298,1,8,0:3:0:0:
366,348,279383,6,0,B|322:355|284:311|296:309|268:241|207:243,1,202.500007724762,6|0,3:2|0:0,0:0:0:0:
122,294,279720,1,10,0:0:0:0:
333,192,279888,1,2,0:0:0:0:
333,192,279973,1,8,0:0:0:0:
333,192,280057,1,0,3:2:0:0:
108,145,280225,1,2,3:2:0:0:
201,331,280394,1,10,0:0:0:0:
188,119,280562,5,2,0:0:0:0:
188,119,280647,1,8,0:0:0:0:
188,119,280731,2,0,B|208:66|274:64|305:113|305:113|275:125|270:147,1,188.999994232178,2|0,3:2|0:0,0:0:0:0:
208,211,281068,2,0,P|270:199|334:190,1,125.999996154785,10|0,0:0|0:0,0:0:0:0:
426,211,281321,1,8,0:0:0:0:
426,211,281405,2,0,P|376:175|373:110,1,125.999996154785,2|0,3:2|3:2,0:0:0:0:
506,14,281742,2,0,P|448:24|358:37,1,125.999996154785,10|0,0:0|0:0,0:0:0:0:
273,138,281995,5,8,0:0:0:0:
273,138,282079,2,0,P|215:127|125:114,1,125.999996154785,6|0,3:2|0:0,0:0:0:0:
245,0,282416,1,10,0:0:0:0:
304,267,282585,1,2,0:0:0:0:
304,267,282669,1,8,0:0:0:0:
304,267,282753,1,0,3:2:0:0:
148,116,282922,1,2,3:2:0:0:
426,211,283090,1,10,0:0:0:0:
186,352,283259,5,2,0:0:0:0:
186,352,283343,1,8,0:0:0:0:
186,352,283428,1,6,3:2:0:0:
283,199,283596,2,0,L|220:189,1,62.9999980773926,8|8,0:0|0:2,0:0:0:0:
40,295,283765,1,6,3:2:0:0:
40,295,283849,2,0,L|103:285,1,62.9999980773926,8|2,0:0|0:0,0:0:0:0:
222,94,284017,5,8,0:0:0:0:
195,51,284102,1,10,0:0:0:0:
143,34,284186,1,8,0:0:0:0:
94,53,284270,1,8,0:0:0:0:
74,212,284439,6,0,B|124:215|160:170|145:120|145:120|141:154|94:171,1,188.999994232178,12|0,0:0|0:0,0:0:0:0:
67,99,284776,6,0,L|258:129,1,188.999994232178,14|0,0:0|0:0,0:0:0:0:
332,142,285113,1,0,3:2:0:0:
209,369,285281,2,0,L|400:338,1,188.999994232178,12|0,0:0|0:0,0:0:0:0:
472,324,285618,1,0,3:2:0:0:
214,219,285787,2,0,B|174:209|141:236|141:236|169:207|168:173,1,125.999996154785,12|0,0:0|3:2,0:0:0:0:
163,106,286040,5,0,3:2:0:0:
163,106,286124,2,0,L|193:297,1,188.999994232178,6|0,3:2|0:0,0:0:0:0:
209,369,286461,1,2,3:2:0:0:
442,146,286630,2,0,P|377:125|329:161,1,125.999996154785,14|0,0:0|0:0,0:0:0:0:
395,338,286967,1,2,3:2:0:0:
428,319,287051,1,0,3:2:0:0:
432,275,287135,1,14,0:0:0:0:
294,376,287304,1,2,0:0:0:0:
214,219,287473,6,0,B|200:170|134:152|91:196|91:196|120:211|132:240,1,188.999994232178,14|0,3:2|0:0,0:0:0:0:
67,276,287810,1,2,3:2:0:0:
295,89,287978,2,0,B|309:40|375:22|418:66|418:66|389:81|377:110,1,188.999994232178,12|0,0:0|0:0,0:0:0:0:
442,146,288315,1,0,3:2:0:0:
214,219,288484,2,0,L|191:83,1,125.999996154785,14|0,0:0|3:2,0:0:0:0:
81,262,288821,5,14,3:2:0:0:
81,262,288905,1,8,3:3:0:0:
81,262,288989,2,0,B|118:267|118:267|154:300,1,58.4999973220826,8|8,3:3|3:3,0:0:0:0:
354,215,289158,5,10,0:0:0:0:
354,215,289242,1,8,3:3:0:0:
354,215,289326,2,0,B|318:227|318:227|290:267,1,58.4999973220826,10|8,3:3|3:3,0:0:0:0:
236,342,289495,5,8,0:0:0:0:
225,279,289579,1,8,0:0:0:0:
214,217,289663,1,8,0:0:0:0:
203,155,289747,1,8,0:0:0:0:
192,93,289832,6,0,B|150:151|206:199|206:199|280:217|271:293,1,229.500004377365,4|0,3:2|0:0,0:0:0:0:
236,342,290169,5,10,2:2:0:0:
282,103,290338,1,8,0:0:0:0:
282,103,290422,1,8,0:0:0:0:
282,103,290506,1,8,0:0:0:0:
107,278,290675,1,8,0:0:0:0:
107,278,290759,1,8,0:0:0:0:
107,278,290843,1,10,0:0:0:0:
342,233,291012,1,10,0:0:0:0:
130,127,291181,1,10,0:0:0:0:
130,127,291265,1,8,0:0:0:0:
130,127,291349,1,10,0:0:0:0:
236,342,291517,5,10,0:0:0:0:
354,173,291686,1,8,0:0:0:0:
348,205,291770,1,8,0:0:0:0:
342,233,291855,1,10,0:0:0:0:
119,338,292023,1,8,0:0:0:0:
113,306,292107,1,8,0:0:0:0:
107,278,292192,1,10,0:0:0:0:
282,103,292360,1,10,0:0:0:0:
39,32,292528,1,10,0:0:0:0:
45,60,292613,1,8,0:0:0:0:
51,92,292697,1,14,3:2:0:0:
33,282,292866,5,6,3:2:0:0:
36,241,292950,1,8,0:0:0:0:
68,209,293034,1,8,0:0:0:0:
110,201,293119,1,8,0:0:0:0:
156,214,293203,1,8,3:2:0:0:
198,258,293287,1,8,0:0:0:0:
222,317,293371,1,8,0:0:0:0:
279,352,293456,1,8,0:0:0:0:
346,351,293540,1,8,3:2:0:0:
402,314,293624,1,8,0:0:0:0:
423,246,293708,1,8,0:0:0:0:
401,179,293793,1,8,0:0:0:0:
341,144,293877,1,8,0:0:0:0:
267,152,293961,5,8,0:0:0:0:
476,369,294130,1,8,0:0:0:0:
476,369,295057,5,0,3:2:0:0:
333,215,295225,6,0,P|323:243|333:269,1,54,4|0,0:0|0:0,0:0:0:0:
423,246,295562,6,0,B|374:229|333:262|333:262|301:315|253:305,1,188.999994232178,14|0,0:0|0:0,0:0:0:0:
175,282,295899,1,8,0:0:0:0:
227,110,296068,1,0,0:0:0:0:
0,168,296237,1,8,0:0:0:0:
52,340,296406,1,0,3:2:0:0:
202,195,296574,2,0,L|76:175,1,125.999996154785,10|0,0:0|3:2,0:0:0:0:
206,384,296911,6,0,L|331:364,1,125.999996154785,14|0,0:0|0:0,0:0:0:0:
510,281,297248,1,8,0:0:0:0:
285,254,297416,1,0,3:2:0:0:
512,96,297585,1,8,0:0:0:0:
353,50,297753,1,0,3:0:0:0:
386,260,297922,2,0,L|407:396,1,125.999996154785,10|0,0:0|3:2,0:0:0:0:
259,175,298259,6,0,B|313:173|364:126|364:126|338:157|343:204,1,188.999994232178,14|0,0:0|0:0,0:0:0:0:
285,254,298596,1,8,0:0:0:0:
238,21,298765,1,0,0:0:0:0:
77,261,298933,2,0,L|216:238,1,125.999996154785,10|0,0:0|3:2,0:0:0:0:
54,380,299270,1,8,0:0:0:0:
101,147,299439,1,0,3:0:0:0:
262,365,299607,6,0,B|230:342|226:313|226:313|212:336|173:345,1,125.999996154785,10|0,0:0|0:0,0:0:0:0:
426,278,299944,2,0,B|458:255|462:226|462:226|476:249|515:258,1,125.999996154785,10|0,0:0|3:2,0:0:0:0:
262,191,300281,1,10,0:0:0:0:
262,191,300366,2,0,B|230:168|226:139|226:139|212:162|173:171,1,125.999996154785,0|0,3:2|3:0,0:0:0:0:
101,147,300619,6,0,L|114:232,1,80.9999975280763,8|0,0:0|0:0,0:0:0:0:
103,291,300956,6,0,B|70:227|108:180|115:198|151:132|109:78,1,216,14|0,0:0|0:0,0:0:0:0:
73,22,301293,1,8,0:0:0:0:
307,127,301461,1,0,0:0:0:0:
287,3,301630,1,8,0:0:0:0:
51,136,301798,1,0,3:2:0:0:
173,0,301967,2,0,L|192:132,1,125.999996154785,10|0,0:0|3:2,0:0:0:0:
381,262,302304,6,0,L|400:129,1,125.999996154785,10|0,0:0|0:0,0:0:0:0:
307,380,302641,1,8,0:0:0:0:
271,193,302810,1,0,3:2:0:0:
476,379,302978,1,8,0:0:0:0:
505,193,303147,1,0,3:2:0:0:
505,193,303231,1,0,3:2:0:0:
505,193,303315,2,0,P|444:197|410:257,1,125.999996154785,10|0,0:0|3:2,0:0:0:0:
230,381,303652,6,0,B|180:401|141:341|161:340|122:281|57:320,1,188.999994232178,12|0,0:0|0:0,0:0:0:0:
14,369,303989,1,8,0:0:0:0:
223,301,304158,1,0,0:0:0:0:
70,104,304326,1,8,0:0:0:0:
0,293,304495,1,0,3:0:0:0:
209,210,304664,2,0,L|185:62,1,125.999996154785,8|0,0:0|3:2,0:0:0:0:
411,0,305001,6,0,L|399:70,1,62.9999980773926,14|0,0:0|0:0,0:0:0:0:
362,279,305169,1,8,0:0:0:0:
313,322,305253,1,8,0:0:0:0:
249,330,305338,1,8,0:3:0:0:
188,311,305422,1,8,0:3:0:0:
157,270,305506,1,8,0:3:0:0:
131,244,305590,1,8,0:3:0:0:
92,237,305675,1,8,3:3:0:0:
61,246,305759,1,8,3:3:0:0:
43,264,305843,6,0,P|64:294|110:298,1,62.9999980773926,4|0,0:0|0:0,0:0:0:0:
341,208,306012,6,0,B|351:198|351:198|370:200|370:200|355:212|355:212|341:209,1,67.5,6|0,0:0|0:0,0:0:0:0:
279,218,306349,6,0,L|357:205,1,62.9999980773926,12|0,0:0|0:0,0:0:0:0:
512,87,306517,2,0,L|433:74,1,62.9999980773926,12|0,0:0|0:0,0:0:0:0:
215,36,306686,1,12,0:0:0:0:
225,81,306770,1,0,3:2:0:0:
261,93,306855,1,0,3:2:0:0:
292,88,306939,1,0,3:2:0:0:
303,71,307023,6,0,L|291:141,1,62.9999980773926,12|0,0:0|0:0,0:0:0:0:
157,270,307192,2,0,L|145:200,1,62.9999980773926,12|0,0:0|0:0,0:0:0:0:
116,51,307360,1,12,0:0:0:0:
89,92,307444,1,0,3:2:0:0:
49,97,307529,1,0,3:2:0:0:
23,79,307613,1,0,3:2:0:0:
16,54,307697,6,0,P|50:68|74:98,1,62.9999980773926,12|0,0:0|0:0,0:0:0:0:
157,270,307866,2,0,P|191:256|215:226,1,62.9999980773926,12|0,0:0|0:0,0:0:0:0:
303,71,308034,1,12,0:0:0:0:
340,37,308119,1,0,3:2:0:0:
392,32,308203,1,0,3:2:0:0:
436,50,308287,1,0,3:2:0:0:
456,87,308371,2,0,P|433:108|430:150,1,62.9999980773926,12|0,0:0|0:0,0:0:0:0:
448,350,308540,5,0,3:2:0:0:
484,318,308624,1,0,3:2:0:0:
485,270,308708,1,8,3:0:0:0:
453,234,308793,1,8,3:0:0:0:
401,230,308877,1,8,3:0:0:0:
365,267,308961,1,8,3:0:0:0:
337,310,309046,6,0,P|304:324|264:320,1,62.9999980773926,12|0,0:0|0:0,0:0:0:0:
139,218,309214,2,0,P|170:218|198:231,1,62.9999980773926,12|0,0:0|0:0,0:0:0:0:
121,376,309383,1,12,0:0:0:0:
65,346,309467,1,0,3:0:0:0:
51,284,309551,1,0,3:2:0:0:
87,230,309635,1,0,3:2:0:0:
139,218,309720,6,0,P|170:218|198:231,1,62.9999980773926,12|0,0:0|0:0,0:0:0:0:
337,310,309888,2,0,P|308:323|277:323,1,62.9999980773926,12|0,0:0|0:0,0:0:0:0:
167,375,310056,2,0,L|154:294,1,62.9999980773926,12|0,0:0|0:0,0:0:0:0:
306,168,310225,2,0,L|293:248,1,62.9999980773926,12|0,0:0|0:0,0:0:0:0:
141,193,310394,6,0,P|172:193|200:206,1,62.9999980773926,12|0,0:0|0:0,0:0:0:0:
285,358,310562,2,0,P|316:357|344:344,1,62.9999980773926,12|0,0:0|0:0,0:0:0:0:
491,215,310731,1,8,0:0:0:0:
439,197,310815,1,8,3:3:0:0:
390,227,310899,1,8,3:3:0:0:
389,281,310984,1,8,3:3:0:0:
426,316,311068,2,0,L|436:247,1,62.9999980773926,12|0,0:0|0:0,0:0:0:0:
451,38,311237,1,0,3:2:0:0:
451,38,311321,1,0,3:2:0:0:
451,38,311405,2,0,B|403:39|403:39|394:51|394:51|320:23|320:23|311:32|311:32|260:33,1,188.999994232178,6|0,0:0|0:0,0:0:0:0:
200,15,311742,6,0,L|211:85,1,62.9999980773926,12|0,0:0|0:0,0:0:0:0:
116,234,311911,2,0,L|171:189,1,62.9999980773926,8|0,0:0|0:0,0:0:0:0:
348,198,312079,2,0,L|281:172,1,62.9999980773926,8|0,0:0|0:0,0:0:0:0:
96,101,312248,5,8,0:0:0:0:
96,101,312332,1,0,3:0:0:0:
96,101,312416,2,0,L|154:123,1,62.9999980773926,8|0,0:0|0:0,0:0:0:0:
328,64,312585,2,0,L|278:102,1,62.9999980773926,8|0,0:0|0:0,0:0:0:0:
243,283,312753,2,0,L|232:220,1,62.9999980773926,8|0,0:0|0:0,0:0:0:0:
200,15,312922,5,8,0:0:0:0:
200,15,313006,1,0,3:2:0:0:
200,15,313090,2,0,L|211:85,1,62.9999980773926,12|0,0:0|0:0,0:0:0:0:
348,198,313259,2,0,L|281:172,1,62.9999980773926,8|0,0:0|0:0,0:0:0:0:
116,234,313428,1,8,0:0:0:0:
116,234,313512,1,0,3:2:0:0:
116,234,313596,2,0,L|171:189,1,62.9999980773926,8|0,0:0|0:0,0:0:0:0:
328,64,313765,6,0,L|278:102,1,62.9999980773926,8|0,0:0|0:0,0:0:0:0:
250,291,313933,1,8,0:0:0:0:
250,291,314017,1,0,3:2:0:0:
250,291,314102,2,0,B|272:256|319:268|319:268|306:275|306:275|370:295|356:373,1,188.999994232178,6|0,0:0|0:0,0:0:0:0:
288,384,314439,6,0,B|264:382|264:382|253:373|253:373|225:369,1,62.9999980773926,12|8,0:0|0:2,0:0:0:0:
22,332,314607,1,8,0:2:0:0:
28,349,314692,1,8,0:2:0:0:
44,361,314776,1,8,3:2:0:0:
73,362,314860,1,8,0:2:0:0:
108,347,314944,1,8,0:2:0:0:
129,311,315029,1,8,0:2:0:0:
123,261,315113,5,8,3:2:0:0:
81,233,315197,1,8,0:2:0:0:
34,208,315281,1,8,0:2:0:0:
11,161,315366,1,8,0:2:0:0:
20,110,315450,1,8,3:2:0:0:
56,72,315534,1,8,0:2:0:0:
109,63,315619,1,8,0:2:0:0:
161,85,315703,1,8,0:2:0:0:
180,135,315787,5,8,3:2:0:0:
225,163,315871,1,8,0:2:0:0:
278,165,315956,1,8,0:2:0:0:
321,134,316040,1,8,0:2:0:0:
342,83,316124,1,8,3:2:0:0:
385,46,316208,1,8,0:2:0:0:
440,46,316293,1,8,0:2:0:0:
489,72,316377,1,8,0:2:0:0:
507,125,316461,1,8,3:2:0:0:
494,182,316546,1,8,0:2:0:0:
447,210,316630,1,8,0:2:0:0:
390,214,316714,1,8,0:2:0:0:
342,184,316798,1,8,0:2:0:0:
321,134,316883,5,8,0:0:0:0:
486,372,317051,1,8,0:0:0:0:
486,372,317473,6,0,B|486:365|486:365|475:366|475:366|476:357|476:357|467:358|467:358|467:352|467:352|457:354|457:354|456:347|456:347|448:350|448:350|442:343|442:343|436:352|436:352|413:340|413:340|391:355|391:355|371:333|368:314|368:314|359:331|338:335|338:335|308:317|312:285|312:285|403:301|451:219|451:219|461:217|461:217|455:207|455:207|448:188|460:175|460:175|441:164|436:144|417:145|417:145|428:125|428:125|419:108|419:108|388:90|348:93|320:111|316:160,1,720
321,135,319242,6,0,B|289:175|238:193|158:151|156:106|178:99|181:106|204:7|96:-37|13:-8|-72:66|-3:200|52:203|117:184|117:184|118:101|177:66|243:54|243:54|245:64|256:66|256:66|253:76|264:76|264:76|259:88|271:88|271:88|264:98|275:101|275:101|266:109|278:114|278:114|270:121|280:127|280:127|271:132|280:139|280:139|271:145|278:152|278:152|270:154|276:163|276:163|267:169|274:175|274:175|262:183|272:187|272:187|263:191|267:199|267:199|258:199|259:209|259:209|251:210|254:219|254:219|238:242|212:260|167:259,1,1080
186,258,321939,6,0,P|182:249|181:240,9,13.4999995880127
