osu file format v14

[General]
AudioFilename: audio.mp3
AudioLeadIn: 0
PreviewTime:42071
Countdown: 0
SampleSet: Soft
StackLeniency: 0.4
Mode: 0
LetterboxInBreaks: 0
WidescreenStoryboard: 1

[Editor]
DistanceSpacing: 0.2
BeatDivisor: 4
GridSize: 32
TimelineZoom: 2.2

[Metadata]
Title:Tensai Rock
TitleUnicode:天才ロック
Artist:SymaG
ArtistUnicode:島爺
Creator:Nevo
Version:Habi's Hard
Source:
Tags:cute anime boy in spacesuit カラスヤサボウ Karasuya Sabou Sanzunokawa 三途ノ川 Genius japanese jrock j-rock rock killian habiholic tachibana_ Firiiu
BeatmapID:4324201
BeatmapSetID:2061858

[Difficulty]
HPDrainRate:5
CircleSize:3.7
OverallDifficulty:7
ApproachRate:8
SliderMultiplier:1.5
SliderTickRate:1

[Events]
//Background and Video events
0,0,"111214067_p0.jpg",0,0
//Break Periods
2,62409,71255
2,121185,130030
2,143015,149622
//Storyboard Layer 0 (Background)
//Storyboard Layer 1 (Fail)
//Storyboard Layer 2 (Pass)
//Storyboard Layer 3 (Foreground)
//Storyboard Layer 4 (Overlay)
//Storyboard Sound Samples

[TimingPoints]
-239,306.122448979592,4,2,1,60,1,0
985,-133.333333333333,4,2,1,60,0,0
10168,-100,4,2,1,60,0,0
10780,-100,4,2,1,80,0,0
10790,-100,4,2,1,80,0,0
13229,-100,4,2,1,75,0,0
13239,-100,4,2,1,75,0,0
23025,-133.333333333333,4,2,1,70,0,0
23035,-133.333333333333,4,2,1,70,0,0
32821,-100,4,2,1,70,0,0
42618,-100,4,2,1,85,0,1
42627,-100,4,2,1,85,0,1
61291,-100,4,2,1,70,0,1
61301,-100,4,2,1,70,0,1
62209,-100,4,2,1,75,0,0
62219,-100,4,2,1,75,0,0
72005,-133.333333333333,4,2,1,75,0,0
81189,-100,4,2,1,75,0,0
81801,-100,4,2,1,70,0,0
81811,-100,4,2,1,70,0,0
101393,-100,4,2,1,85,0,1
101403,-100,4,2,1,85,0,1
120066,-100,4,2,1,70,0,1
120076,-100,4,2,1,70,0,1
121062,-100,4,2,1,60,0,0
121071,-100,4,2,1,60,0,0
130780,-133.333333333333,4,2,1,65,0,0
130790,-133.333333333333,4,2,1,65,0,0
135678,-100,4,2,1,70,0,0
135688,-100,4,2,1,70,0,0
143025,-100,4,2,1,55,0,0
143035,-100,4,2,1,55,0,0
152821,-133.333333333333,4,2,1,65,0,0
152831,-133.333333333333,4,2,1,65,0,0
161699,-133.333333333333,4,2,1,70,0,0
161709,-133.333333333333,4,2,1,70,0,0
162311,-100,4,2,1,70,0,0
162618,-100,4,2,1,90,0,1
162627,-100,4,2,1,90,0,1
182209,-100,4,2,1,90,0,0
187107,-100,4,2,1,80,0,0
187117,-100,4,2,1,80,0,0
192005,-100,4,2,1,75,0,0
192015,-100,4,2,1,75,0,0

[Colours]
Combo1 : 255,191,191
Combo2 : 192,192,192
Combo3 : 222,240,254

[HitObjects]
123,125,985,6,0,P|104:74|54:51,2,112.500004291535,6|2|0,3:2|3:2|3:2,0:0:0:0:
59,189,1750,1,2,0:0:0:0:
144,213,1903,2,0,L|204:201,1,56.2500021457673,0|2,3:2|0:0,0:0:0:0:
271,143,2209,6,0,B|297:159|309:184|309:184|331:170|373:172,1,112.500004291535,2|2,3:2|3:2,0:0:0:0:
439,132,2668,1,2,0:0:0:0:
493,203,2821,2,0,L|479:268,1,56.2500021457673,2|2,3:2|3:2,0:0:0:0:
481,257,3051,1,0,3:2:0:0:
481,257,3127,1,0,3:2:0:0:
403,317,3280,6,0,P|363:278|308:275,1,112.500004291535,2|2,3:2|0:0,0:0:0:0:
236,330,3740,2,0,L|178:316,1,56.2500021457673,2|2,3:2|0:0,0:0:0:0:
97,354,4046,2,0,L|71:241,1,112.500004291535,2|2,3:2|3:2,0:0:0:0:
71,244,4505,1,2,0:0:0:0:
128,167,4658,6,0,P|170:201|225:196,1,112.500004291535,2|2,3:2|3:2,0:0:0:0:
289,136,5117,2,0,L|263:20,1,112.500004291535,2|10,0:0|0:2,0:0:0:0:
264,26,5500,1,10,0:2:0:0:
264,26,5576,1,2,3:2:0:0:
362,54,5729,1,10,0:2:0:0:
461,26,5882,6,0,L|436:135,1,112.500004291535,6|2,3:2|3:2,0:0:0:0:
488,212,6342,2,0,L|463:321,2,112.500004291535,2|2|2,0:0|0:0|0:0,0:0:0:0:
397,214,7107,2,0,P|376:197|349:191,1,56.2500021457673,2|2,3:2|0:0,0:0:0:0:
318,112,7413,2,0,P|291:121|273:142,1,56.2500021457673,2|2,3:2|0:0,0:0:0:0:
261,229,7719,1,2,3:2:0:0:
186,169,7872,2,0,L|174:134,2,28.1250010728836,2|0|0,3:2|3:2|3:2,0:0:0:0:
173,258,8178,6,0,P|139:302|138:357,1,112.500004291535,2|0,3:2|0:0,0:0:0:0:
224,332,8638,1,2,3:2:0:0:
224,332,8791,1,2,0:0:0:0:
305,280,8944,2,0,P|329:293|357:295,1,56.2500021457673,2|2,3:2|0:0,0:0:0:0:
396,368,9250,2,0,P|420:353|435:330,1,56.2500021457673,2|2,3:2|0:0,0:0:0:0:
504,281,9556,6,0,P|497:227|456:190,1,112.500004291535,2|6,3:2|3:2,0:0:0:0:
377,224,10015,1,0,0:0:0:0:
281,125,10168,6,0,L|245:134,3,37.5,10|8|8|8,0:2|0:2|0:2|0:2,0:0:0:0:
208,159,10474,2,0,L|172:150,3,37.5,10|8|8|8,0:2|0:2|0:2|0:2,0:0:0:0:
124,125,10780,6,0,P|154:193|146:267,1,150,6|2,3:2|3:2,0:0:0:0:
72,324,11240,1,2,3:2:0:0:
165,363,11393,1,2,3:2:0:0:
234,295,11546,1,2,3:2:0:0:
311,360,11699,2,0,L|389:343,1,75,2|2,3:2|3:2,0:0:0:0:
489,266,12005,6,0,B|407:262|436:217|350:218,1,150,6|6,3:2|3:2,0:0:0:0:
275,265,12464,1,0,0:0:0:0:
192,220,12617,2,0,L|159:72,1,150,6|2,3:2|3:2,0:0:0:0:
361,24,13229,6,0,P|434:23|483:77,1,150,6|14,3:2|0:2,0:0:0:0:
467,168,13689,1,2,0:0:0:0:
380,180,13842,2,0,P|381:142|400:105,2,75,6|0|12,3:2|3:2|0:2,0:0:0:0:
429,261,14301,6,0,P|373:213|300:219,1,150,2|2,3:2|3:2,0:0:0:0:
228,272,14760,1,14,0:2:0:0:
228,272,14913,1,2,0:0:0:0:
149,211,15066,2,0,L|69:230,1,75,6|2,3:2|3:2,0:0:0:0:
56,139,15372,2,0,L|129:122,1,75,14|0,0:2|3:2,0:0:0:0:
194,54,15678,6,0,B|265:79|265:79|298:56|339:63,1,150,6|14,3:2|0:2,0:0:0:0:
405,114,16138,1,2,0:0:0:0:
495,96,16291,2,0,L|472:180,1,75,6|0,3:2|3:2,0:0:0:0:
500,258,16597,1,12,0:2:0:0:
409,289,16750,6,0,P|359:235|286:238,1,150,2|2,3:2|3:2,0:0:0:0:
220,301,17209,1,14,0:2:0:0:
220,301,17362,1,2,0:0:0:0:
144,243,17515,2,0,P|137:207|146:171,1,75,6|10,3:2|0:2,0:0:0:0:
146,171,17745,1,8,0:2:0:0:
146,171,17822,1,12,0:2:0:0:
217,102,17974,1,10,0:2:0:0:
280,176,18127,6,0,B|320:181|348:206|348:206|362:174|397:151,1,150,6|14,3:2|0:2,0:0:0:0:
480,195,18587,1,2,0:0:0:0:
488,295,18740,2,0,L|416:271,2,75,6|0|14,3:2|3:2|0:2,0:0:0:0:
420,365,19199,6,0,L|268:313,1,150,2|2,3:2|3:2,0:0:0:0:
197,355,19658,1,14,0:2:0:0:
197,355,19811,1,2,0:0:0:0:
121,302,19964,2,0,L|103:227,1,75,6|2,3:2|3:2,0:0:0:0:
195,225,20270,2,0,L|177:152,1,75,14|2,0:2|3:2,0:0:0:0:
241,83,20576,6,0,B|315:108|315:108|346:86|388:91,1,150,6|14,3:2|0:2,0:0:0:0:
462,142,21036,1,2,3:2:0:0:
383,183,21189,2,0,L|401:255,1,75,6|0,3:2|3:2,0:0:0:0:
467,329,21495,1,14,0:2:0:0:
380,353,21648,6,0,P|320:310|248:322,1,150,2|2,3:2|3:2,0:0:0:0:
166,364,22107,1,14,0:2:0:0:
166,364,22260,1,2,0:0:0:0:
90,310,22413,2,0,P|82:273|89:237,1,75,6|10,3:2|0:2,0:0:0:0:
89,237,22643,1,8,0:2:0:0:
89,237,22719,1,10,0:2:0:0:
160,168,22872,1,10,0:2:0:0:
231,237,23025,6,0,L|342:220,1,112.500004291535,6|2,3:2|3:2,0:0:0:0:
320,311,23485,2,0,L|431:294,1,112.500004291535,2|2,0:0|0:0,0:0:0:0:
431,293,23944,1,0,3:2:0:0:
494,224,24097,6,0,P|495:168|460:126,1,112.500004291535,2|2,0:0|0:0,0:0:0:0:
386,172,24556,1,2,3:2:0:0:
386,172,24709,1,2,0:0:0:0:
306,121,24862,2,0,L|249:131,1,56.2500021457673,2|0,3:2|3:2,0:0:0:0:
250,130,25092,1,0,3:2:0:0:
250,130,25168,1,0,3:2:0:0:
173,90,25321,6,0,P|201:137|200:193,1,112.500004291535,2|2,3:2|0:0,0:0:0:0:
135,251,25780,1,2,3:2:0:0:
135,251,25933,1,2,3:2:0:0:
217,279,26087,2,0,L|282:266,1,56.2500021457673,2|2,3:2|0:0,0:0:0:0:
232,360,26393,2,0,L|288:349,1,56.2500021457673,2|2,3:2|0:0,0:0:0:0:
356,290,26699,6,0,L|474:318,1,112.500004291535,2|2,3:2|3:2,0:0:0:0:
487,230,27158,2,0,L|378:205,1,112.500004291535,2|10,0:0|0:2,0:0:0:0:
378,205,27541,1,8,0:2:0:0:
378,205,27617,1,2,3:2:0:0:
314,140,27770,1,10,0:2:0:0:
249,206,27923,6,0,P|275:254|273:310,1,112.500004291535,6|2,3:2|3:2,0:0:0:0:
186,330,28382,2,0,P|159:281|161:225,1,112.500004291535,2|2,0:0|0:0,0:0:0:0:
187,144,28842,1,2,3:2:0:0:
187,144,28995,1,2,0:0:0:0:
249,206,29148,6,0,L|306:219,1,56.2500021457673,2|2,3:2|0:0,0:0:0:0:
316,222,29377,1,2,0:0:0:0:
316,222,29454,1,2,3:2:0:0:
378,294,29607,1,2,0:0:0:0:
455,235,29760,2,0,L|472:172,1,56.2500021457673,2|0,3:2|3:2,0:0:0:0:
469,180,29990,1,0,3:2:0:0:
469,180,30066,1,0,3:2:0:0:
410,103,30219,6,0,P|364:132|309:126,1,112.500004291535,2|2,3:2|0:0,0:0:0:0:
245,67,30678,1,2,3:2:0:0:
245,67,30831,1,0,0:0:0:0:
180,133,30985,2,0,P|205:182|205:238,1,112.500004291535,2|2,3:2|3:2,0:0:0:0:
138,296,31444,1,2,0:0:0:0:
208,356,31597,6,0,L|321:338,1,112.500004291535,2|2,3:2|3:2,0:0:0:0:
319,338,32056,1,0,0:0:0:0:
412,364,32209,2,0,P|425:309|410:256,1,112.500004291535,2|2,3:2|3:2,0:0:0:0:
311,118,32821,6,0,L|231:135,1,75,6|0,3:2|0:0,0:0:0:0:
148,144,33127,2,0,L|159:184,3,37.5,8|8|8|8,0:2|0:2|0:2|0:2,0:0:0:0:
191,205,33433,2,0,L|180:245,3,37.5,8|8|8|8,0:2|0:2|0:2|0:2,0:0:0:0:
155,273,33740,1,8,0:2:0:0:
217,351,33893,1,8,0:2:0:0:
282,273,34046,6,0,L|357:294,1,75,6|0,3:2|0:0,0:0:0:0:
442,243,34352,2,0,L|452:207,3,37.5,8|8|8|8,0:2|0:2|0:2|0:2,0:0:0:0:
408,179,34658,2,0,L|398:143,3,37.5,8|8|8|8,0:2|0:2|0:2|0:2,0:0:0:0:
431,112,34964,2,0,L|441:76,3,37.5,8|8|8|8,0:2|0:2|0:2|0:2,0:0:0:0:
423,33,35270,5,10,0:2:0:0:
292,148,35576,1,8,0:2:0:0:
156,50,35882,1,8,0:2:0:0:
101,120,36036,1,8,0:2:0:0:
28,70,36189,1,8,0:2:0:0:
27,331,36495,6,0,P|81:281|154:289,1,150,8|8,0:2|0:2,0:0:0:0:
221,345,36954,1,8,0:2:0:0:
343,257,37260,1,8,0:2:0:0:
429,295,37413,2,0,L|457:174,1,112.5,14|0,0:2|0:0,0:0:0:0:
457,155,37719,6,0,B|384:137|384:137|355:163|308:157,1,150,6|8,3:2|0:2,0:0:0:0:
245,96,38178,1,0,3:2:0:0:
245,96,38255,1,0,3:2:0:0:
245,96,38331,2,0,L|266:13,1,75,0|0,3:2|3:2,0:0:0:0:
173,1,38638,2,0,L|155:74,1,75,8|0,0:2|3:2,0:0:0:0:
138,165,38944,6,0,B|220:153|196:215|281:200,1,150,2|8,3:2|0:2,0:0:0:0:
354,149,39403,1,0,3:2:0:0:
424,211,39556,2,0,P|411:245|411:283,1,75,0|0,3:2|3:2,0:0:0:0:
477,351,39862,1,8,0:2:0:0:
385,373,40015,6,0,L|237:342,1,150,6|2,3:2|3:2,0:0:0:0:
155,369,40474,1,8,0:2:0:0:
101,293,40627,1,2,3:2:0:0:
169,215,40780,1,8,0:2:0:0:
97,144,40933,2,0,L|15:162,1,75,2|8,3:2|0:2,0:0:0:0:
169,69,41240,6,0,L|242:90,1,75,6|0,3:2|0:0,0:0:0:0:
316,151,41546,1,8,0:2:0:0:
316,151,41622,1,8,0:2:0:0:
316,151,41699,2,0,L|356:141,3,37.5,8|8|8|8,0:2|0:2|0:2|0:2,0:0:0:0:
379,134,42005,1,8,0:2:0:0:
489,352,42618,6,0,P|462:305|409:292,1,112.5,6|0,3:2|0:0,0:0:0:0:
386,278,42923,2,0,P|334:329|262:320,1,150,10|0,0:2|3:2,0:0:0:0:
184,284,43382,1,2,3:2:0:0:
110,331,43536,2,0,L|87:248,1,75,10|2,0:2|0:0,0:0:0:0:
134,178,43842,6,0,P|188:186|233:155,1,112.5,2|0,3:2|0:0,0:0:0:0:
247,130,44148,2,0,L|280:282,1,150,10|0,0:2|3:2,0:0:0:0:
343,349,44607,1,2,3:2:0:0:
408,277,44760,2,0,L|489:294,1,75,10|0,0:2|0:0,0:0:0:0:
499,203,45066,6,0,L|426:188,1,75,6|2,3:2|0:0,0:0:0:0:
339,213,45372,1,10,0:2:0:0:
339,213,45525,1,2,0:0:0:0:
269,149,45678,2,0,P|270:112|284:78,1,75,6|2,3:2|0:0,0:0:0:0:
363,31,45985,2,0,L|436:47,1,75,10|2,0:2|0:0,0:0:0:0:
494,153,46291,6,0,L|421:137,1,75,6|2,3:2|0:0,0:0:0:0:
355,186,46597,1,8,0:2:0:0:
272,158,46750,2,0,P|305:223|298:297,1,150,2|0,3:2|3:2,0:0:0:0:
226,350,47209,1,10,0:2:0:0:
226,350,47515,6,0,L|73:330,1,150,6|10,3:2|0:2,0:0:0:0:
50,234,47974,2,0,L|198:253,1,150,2|2,3:2|3:2,0:0:0:0:
283,301,48433,1,8,0:2:0:0:
357,247,48587,6,0,P|358:173|312:115,1,150,2|0,3:2|3:2,0:0:0:0:
237,164,49046,2,0,L|151:149,1,75,10|0,0:2|3:2,0:0:0:0:
32,214,49352,2,0,L|105:226,1,75,2|0,3:2|3:2,0:0:0:0:
224,325,49658,2,0,L|138:310,1,75,10|0,0:2|3:2,0:0:0:0:
64,361,49964,6,0,L|31:206,1,150,2|10,3:2|0:2,0:0:0:0:
95,146,50423,2,0,B|175:132|159:186|241:177,1,150,2|2,3:2|0:0,0:0:0:0:
306,119,50882,1,8,0:2:0:0:
375,176,51036,6,0,B|410:221|410:221|371:311,1,150,6|10,3:2|0:2,0:0:0:0:
298,357,51495,1,10,0:2:0:0:
219,308,51648,1,10,0:2:0:0:
138,358,51801,2,0,L|59:344,1,75,10|8,0:2|0:2,0:0:0:0:
64,344,52030,1,8,0:2:0:0:
64,344,52107,1,14,0:2:0:0:
7,197,52413,6,0,P|48:159|103:163,1,112.5,6|0,3:2|0:0,0:0:0:0:
130,143,52719,2,0,P|164:208|235:223,1,150,10|0,0:2|3:2,0:0:0:0:
315,183,53178,1,2,3:2:0:0:
391,240,53331,2,0,L|412:165,1,75,10|0,0:2|0:0,0:0:0:0:
373,79,53638,6,0,P|319:90|275:57,1,112.5,2|0,3:2|0:0,0:0:0:0:
262,38,53944,2,0,B|187:58|187:58|156:38|118:40,1,150,10|0,0:2|3:2,0:0:0:0:
46,98,54403,1,2,3:2:0:0:
125,149,54556,2,0,L|144:229,1,75,10|2,0:2|3:2,0:0:0:0:
76,292,54862,5,6,3:2:0:0:
76,292,55015,1,2,0:0:0:0:
149,352,55168,2,0,P|177:343|225:356,1,75,10|2,0:2|3:2,0:0:0:0:
304,317,55474,2,0,L|321:244,1,75,6|2,3:2|0:0,0:0:0:0:
238,205,55780,2,0,L|255:132,1,75,10|2,0:2|3:2,0:0:0:0:
200,58,56087,5,6,3:2:0:0:
285,18,56240,2,0,P|320:29|356:21,1,75,2|8,0:0|0:2,0:0:0:0:
432,80,56546,2,0,L|401:227,1,150,2|0,3:2|3:2,0:0:0:0:
453,308,57005,1,8,0:2:0:0:
303,246,57311,6,0,B|245:259|245:259|221:282|221:282|162:292,1,150,6|10,3:2|0:2,0:0:0:0:
87,246,57770,1,8,0:2:0:0:
139,170,57923,2,0,L|148:132,3,37.5,10|8|8|8,0:2|0:2|0:2|0:2,0:0:0:0:
102,106,58229,2,0,L|93:69,3,37.5,10|8|8|8,0:2|0:2|0:2|0:2,0:0:0:0:
120,30,58536,5,6,3:2:0:0:
254,118,58842,1,10,0:2:0:0:
405,28,59148,2,0,L|396:67,3,37.5,10|8|8|8,0:2|0:2|0:2|0:2,0:0:0:0:
354,89,59454,2,0,L|363:128,3,37.5,10|8|8|8,0:2|0:2|0:2|0:2,0:0:0:0:
394,156,59760,6,0,L|234:128,1,150,6|10,3:2|0:2,0:0:0:0:
168,174,60219,1,8,0:2:0:0:
72,147,60372,2,0,L|87:220,1,75,10|8,0:2|0:2,0:0:0:0:
42,304,60678,1,10,0:2:0:0:
126,343,60831,1,8,0:2:0:0:
169,261,60985,5,2,3:2:0:0:
410,355,61903,2,0,L|435:236,1,112.5,2|0,3:2|0:0,0:0:0:0:
437,224,62209,5,6,3:2:0:0:
478,276,72005,6,0,L|367:259,1,112.500004291535,6|2,3:2|3:2,0:0:0:0:
389,350,72465,2,0,L|278:333,1,112.500004291535,2|2,0:0|0:0,0:0:0:0:
278,332,72924,1,0,3:2:0:0:
236,251,73077,6,0,P|237:195|211:144,1,112.500004291535,2|2,0:0|0:0,0:0:0:0:
155,215,73536,1,2,3:2:0:0:
155,215,73689,1,2,0:0:0:0:
74,165,73842,2,0,L|64:108,1,56.2500021457673,2|0,3:2|3:2,0:0:0:0:
65,109,74072,1,0,3:2:0:0:
65,109,74148,1,2,3:2:0:0:
131,50,74301,6,0,P|186:48|231:83,1,112.500004291535,2|2,0:0|0:0,0:0:0:0:
294,148,74760,1,2,3:2:0:0:
294,148,74913,1,2,0:0:0:0:
375,111,75067,2,0,L|394:42,1,56.2500021457673,2|8,3:2|0:2,0:0:0:0:
468,79,75372,2,0,L|454:134,1,56.2500021457673,2|0,3:2|0:0,0:0:0:0:
486,229,75679,6,0,L|377:204,1,112.500004291535,2|2,3:2|3:2,0:0:0:0:
367,293,76138,2,0,L|258:268,1,112.500004291535,10|10,0:2|0:2,0:0:0:0:
258,268,76521,1,8,0:2:0:0:
258,268,76597,1,2,3:2:0:0:
199,192,76750,1,8,0:2:0:0:
142,263,76903,6,0,P|168:311|166:367,1,112.500004291535,6|2,3:2|3:2,0:0:0:0:
78,384,77362,2,0,P|51:335|53:280,1,112.500004291535,2|2,0:0|0:0,0:0:0:0:
77,200,77822,1,2,3:2:0:0:
77,200,77975,1,2,0:0:0:0:
142,263,78128,6,0,L|199:276,1,56.2500021457673,2|2,3:2|0:0,0:0:0:0:
209,279,78357,1,0,0:0:0:0:
209,279,78434,1,2,3:2:0:0:
282,231,78587,1,2,0:0:0:0:
359,270,78740,2,0,L|376:207,1,56.2500021457673,2|0,3:2|3:2,0:0:0:0:
373,215,78970,1,0,3:2:0:0:
373,215,79046,1,0,3:2:0:0:
306,153,79199,6,0,P|260:182|205:176,1,112.500004291535,2|0,3:2|0:0,0:0:0:0:
140,119,79658,1,2,3:2:0:0:
140,119,79811,1,2,0:0:0:0:
73,181,79965,2,0,P|98:230|98:286,1,112.500004291535,2|2,3:2|3:2,0:0:0:0:
97,286,80424,1,2,0:0:0:0:
154,349,80577,6,0,L|266:332,1,112.500004291535,2|6,3:2|3:2,0:0:0:0:
266,332,81036,1,2,0:0:0:0:
339,273,81189,6,0,L|347:235,3,37.5,10|8|8|8,0:2|0:2|0:2|0:2,0:0:0:0:
298,212,81495,2,0,L|290:174,3,37.5,10|8|8|8,0:2|0:2|0:2|0:2,0:0:0:0:
316,135,81801,6,0,L|469:173,1,150,6|8,3:2|0:2,0:0:0:0:
484,81,82260,2,0,L|339:45,1,150,2|2,0:0|3:2,0:0:0:0:
251,75,82719,1,8,0:2:0:0:
163,42,82872,2,0,P|202:105|191:178,1,150,2|2,3:2|3:2,0:0:0:0:
120,233,83331,1,8,0:2:0:0:
191,286,83485,1,2,0:0:0:0:
267,227,83638,2,0,L|342:246,1,75,2|2,3:2|3:2,0:0:0:0:
394,174,83944,1,8,0:2:0:0:
467,226,84097,6,0,P|431:291|437:365,1,150,6|2,3:2|3:2,0:0:0:0:
346,343,84556,1,10,0:2:0:0:
346,343,84709,1,0,0:0:0:0:
266,298,84862,2,0,B|191:316|191:316|161:297|122:300,1,150,2|10,3:2|0:2,0:0:0:0:
54,232,85321,1,2,3:2:0:0:
116,159,85474,6,0,B|199:143|177:202|263:193,1,150,2|10,3:2|0:2,0:0:0:0:
333,141,85933,1,2,0:0:0:0:
402,203,86087,2,0,L|386:279,1,75,2|10,3:2|0:2,0:0:0:0:
386,276,86316,1,8,0:2:0:0:
386,276,86392,1,10,0:2:0:0:
316,348,86546,1,10,0:2:0:0:
246,275,86699,6,0,B|187:290|187:290|165:312|165:312|105:329,1,150,6|8,3:2|0:2,0:0:0:0:
57,252,87158,2,0,B|113:237|113:237|135:215|135:215|194:200,1,150,2|2,0:0|3:2,0:0:0:0:
264,261,87617,1,10,0:2:0:0:
343,211,87770,6,0,P|365:140|337:72,1,150,2|2,3:2|3:2,0:0:0:0:
255,32,88229,2,0,P|219:21|183:31,1,75,8|2,0:2|0:0,0:0:0:0:
116,77,88536,1,6,3:2:0:0:
27,59,88689,2,0,L|45:139,1,75,2|8,3:2|0:2,0:0:0:0:
106,197,88995,6,0,B|189:182|172:237|256:225,1,150,6|2,3:2|0:0,0:0:0:0:
327,177,89454,1,8,0:2:0:0:
327,177,89607,1,0,3:0:0:0:
393,250,89760,2,0,L|469:232,1,75,6|2,3:2|3:2,0:0:0:0:
485,321,90066,2,0,L|413:339,1,75,10|2,0:2|3:2,0:0:0:0:
313,307,90372,6,0,L|270:156,1,150,6|10,3:2|0:2,0:0:0:0:
453,19,90985,2,0,L|437:97,1,75,6|0,3:2|3:2,0:0:0:0:
489,171,91291,1,14,0:2:0:0:
489,171,91368,1,8,0:0:0:0:
489,171,91444,1,0,3:2:0:0:
390,179,91597,6,0,P|348:144|293:145,1,112.5,6|0,3:2|0:0,0:0:0:0:
276,151,91903,2,0,P|238:152|206:134,1,75,8|0,0:2|3:2,0:0:0:0:
125,94,92209,1,8,0:2:0:0:
40,134,92362,1,0,3:2:0:0:
115,188,92515,2,0,L|98:261,1,75,8|0,0:2|3:2,0:0:0:0:
161,350,92821,6,0,B|192:342|206:320|206:320|233:336|261:328,1,112.5,10|0,0:2|0:0,0:0:0:0:
287,320,93127,2,0,L|308:248,1,75,8|0,0:2|3:2,0:0:0:0:
235,189,93433,1,8,0:2:0:0:
299,124,93587,1,0,3:2:0:0:
230,57,93740,2,0,L|190:65,3,37.5,10|8|8|8,0:2|0:2|0:2|0:2,0:0:0:0:
169,66,94046,5,2,3:2:0:0:
56,201,94352,1,10,0:2:0:0:
162,338,94658,1,10,0:2:0:0:
236,286,94811,1,10,0:2:0:0:
306,342,94964,1,10,0:2:0:0:
483,171,95270,6,0,B|452:136|410:152|410:152|388:183|350:183,1,150,10|10,0:2|0:2,0:0:0:0:
285,123,95729,1,10,0:2:0:0:
145,211,96036,1,10,0:2:0:0:
63,164,96189,2,0,L|38:51,1,112.5,6|0,3:2|0:0,0:0:0:0:
52,33,96495,6,0,P|85:50|122:50,1,75,6|0,3:2|0:0,0:0:0:0:
218,28,96801,2,0,L|259:35,3,37.5,10|8|8|8,0:2|0:2|0:2|0:2,0:0:0:0:
276,65,97107,2,0,L|315:60,3,37.5,10|8|8|8,0:2|0:2|0:2|0:2,0:0:0:0:
343,30,97413,2,0,L|417:46,1,75,10|8,0:2|0:2,0:0:0:0:
482,148,97719,6,0,L|408:132,1,75,2|8,3:2|0:2,0:0:0:0:
333,181,98025,2,0,L|292:173,3,37.5,10|8|8|8,0:2|0:2|0:2|0:2,0:0:0:0:
271,146,98331,2,0,L|231:155,3,37.5,10|8|8|8,0:2|0:2|0:2|0:2,0:0:0:0:
197,178,98638,1,10,0:2:0:0:
113,126,98791,6,0,B|71:161|71:161|108:256,1,150,6|2,3:2|3:2,0:0:0:0:
156,328,99250,1,10,0:2:0:0:
235,272,99403,1,2,3:2:0:0:
303,340,99556,2,0,L|379:324,1,75,10|2,0:2|3:2,0:0:0:0:
464,364,99862,1,10,0:2:0:0:
505,280,100015,6,0,P|471:217|399:206,1,150,6|10,3:2|0:2,0:0:0:0:
318,250,100474,2,0,L|275:241,3,37.5,10|8|10|8,0:2|0:2|0:2|0:2,0:0:0:0:
251,234,100780,1,10,0:2:0:0:
87,358,101393,6,0,P|92:303|66:254,1,112.5,6|0,3:2|0:0,0:0:0:0:
50,242,101699,2,0,L|213:280,1,150,10|0,0:2|3:2,0:0:0:0:
270,340,102158,1,2,3:2:0:0:
343,285,102311,2,0,P|350:251|338:211,1,75,10|2,0:2|0:0,0:0:0:0:
274,144,102617,6,0,L|156:172,1,112.5,2|0,3:2|0:0,0:0:0:0:
133,168,102923,2,0,P|172:230|166:304,1,150,10|0,0:2|3:2,0:0:0:0:
240,363,103382,1,2,3:2:0:0:
317,305,103536,2,0,L|389:326,1,75,10|2,0:2|0:0,0:0:0:0:
462,273,103842,5,6,3:2:0:0:
462,273,103995,1,2,0:0:0:0:
393,201,104148,2,0,P|395:163|382:128,1,75,10|2,0:2|0:0,0:0:0:0:
312,73,104454,2,0,L|233:89,1,75,6|0,3:2|3:2,0:0:0:0:
169,140,104760,1,10,0:2:0:0:
90,94,104913,1,2,0:0:0:0:
25,163,105066,6,0,P|38:197|39:234,1,75,6|2,3:2|0:0,0:0:0:0:
104,299,105372,1,8,0:2:0:0:
173,239,105525,2,0,B|247:264|247:264|280:239|321:246,1,150,2|2,3:2|3:2,0:0:0:0:
385,304,105985,1,10,0:2:0:0:
486,133,106291,6,0,P|457:67|387:49,1,150,6|10,3:2|0:2,0:0:0:0:
316,132,106750,2,0,P|344:198|414:216,1,150,2|2,3:2|3:2,0:0:0:0:
401,134,107209,1,8,0:2:0:0:
303,42,107362,6,0,L|148:66,1,150,2|0,3:2|3:2,0:0:0:0:
29,151,107821,2,0,L|107:139,1,75,10|0,0:2|3:2,0:0:0:0:
237,197,108127,2,0,L|163:209,1,75,2|0,3:2|3:2,0:0:0:0:
44,300,108433,2,0,L|119:289,1,75,10|0,0:2|3:2,0:0:0:0:
196,357,108740,6,0,P|257:315|329:327,1,150,2|10,3:2|0:2,0:0:0:0:
419,362,109199,2,0,L|454:212,1,150,2|2,3:2|3:2,0:0:0:0:
401,134,109658,1,8,0:2:0:0:
332,201,109811,6,0,B|249:187|268:241|180:227,1,150,6|10,3:2|0:2,0:0:0:0:
117,174,110270,1,10,0:2:0:0:
41,225,110423,1,10,0:2:0:0:
16,135,110576,2,0,L|0:57,1,75,10|10,0:2|0:2,0:0:0:0:
0,61,110806,1,2,3:2:0:0:
0,61,110882,1,14,0:2:0:0:
217,12,111189,6,0,L|242:123,1,112.5,6|0,3:2|0:0,0:0:0:0:
237,140,111495,2,0,P|303:112|359:156,1,150,10|0,0:2|3:2,0:0:0:0:
409,231,111954,1,2,3:2:0:0:
489,174,112107,2,0,P|496:137|486:98,1,75,10|2,0:2|0:0,0:0:0:0:
420,32,112413,6,0,L|299:54,1,112.5,2|0,3:2|0:0,0:0:0:0:
282,81,112719,2,0,B|200:59|200:59|177:85|134:87,1,150,10|0,0:2|3:2,0:0:0:0:
63,39,113178,1,2,3:2:0:0:
0,113,113331,2,0,L|19:191,1,75,10|0,0:2|0:0,0:0:0:0:
88,244,113638,6,0,B|168:226|151:283|231:269,1,150,6|10,3:2|0:2,0:0:0:0:
302,210,114097,1,0,3:2:0:0:
380,268,114250,2,0,P|388:300|380:343,2,75,6|2|10,3:2|3:2|0:2,0:0:0:0:
302,210,114709,1,2,0:0:0:0:
383,148,114862,6,0,L|457:166,1,75,6|2,3:2|0:0,0:0:0:0:
510,91,115168,1,8,0:2:0:0:
435,42,115321,2,0,L|282:72,1,150,2|2,3:2|3:2,0:0:0:0:
209,24,115780,1,10,0:2:0:0:
60,187,116087,6,0,B|118:200|118:200|142:223|142:223|201:233,1,150,6|10,3:2|0:2,0:0:0:0:
285,205,116546,1,8,0:2:0:0:
220,145,116699,2,0,L|211:107,3,37.5,10|8|8|8,0:2|0:2|0:2|0:2,0:0:0:0:
251,98,117005,2,0,L|260:61,3,37.5,10|8|8|8,0:2|0:2|0:2|0:2,0:0:0:0:
239,34,117312,5,6,3:2:0:0:
359,117,117618,1,10,0:2:0:0:
461,29,117924,2,0,L|470:68,3,37.5,10|8|8|8,0:2|0:2|0:2|0:2,0:0:0:0:
504,96,118230,2,0,L|495:135,3,37.5,10|8|8|8,0:2|0:2|0:2|0:2,0:0:0:0:
507,165,118536,6,0,L|347:137,1,150,6|10,3:2|0:2,0:0:0:0:
285,183,118995,1,8,0:2:0:0:
188,151,119148,2,0,L|203:224,1,75,10|8,0:2|0:2,0:0:0:0:
138,286,119454,1,10,0:2:0:0:
226,324,119607,1,8,0:2:0:0:
290,253,119761,5,6,3:2:0:0:
493,168,120678,6,0,P|450:135|396:142,1,112.5,2|0,3:2|0:0,0:0:0:0:
382,155,120985,5,6,3:2:0:0:
96,110,130780,6,0,P|75:60|24:39,2,112.500004291535,6|2|2,3:2|3:2|3:2,0:0:0:0:
40,238,131699,1,2,3:2:0:0:
212,183,132005,6,0,L|233:68,2,112.500004291535,2|2|2,3:2|3:2|3:2,0:0:0:0:
248,335,132923,1,2,3:2:0:0:
362,207,133229,6,0,P|408:236|463:231,2,112.500004291535,2|2|2,3:2|3:2|3:2,0:0:0:0:
191,252,134148,1,2,3:2:0:0:
304,134,134454,6,0,L|324:18,2,112.500004291535,2|2|2,3:2|3:2|3:2,0:0:0:0:
149,170,135372,1,2,3:2:0:0:
265,309,135678,6,0,L|340:296,1,75,6|0,3:2|0:0,0:0:0:0:
442,321,135985,2,0,L|452:284,3,37.5,10|8|10|8,0:2|0:2|0:2|0:2,0:0:0:0:
418,245,136291,2,0,L|408:208,3,37.5,8|8|8|8,0:2|0:2|0:2|0:2,0:0:0:0:
439,174,136597,2,0,L|454:100,1,75,10|8,0:2|0:2,0:0:0:0:
385,34,136903,6,0,P|349:24|311:34,1,75,6|0,3:2|0:0,0:0:0:0:
235,89,137209,2,0,L|247:129,3,37.5,8|8|10|8,0:2|0:2|0:2|0:2,0:0:0:0:
285,141,137515,2,0,L|273:181,3,37.5,8|8|8|8,0:2|0:2|0:2|0:2,0:0:0:0:
230,204,137821,2,0,L|251:277,1,75,10|10,0:2|0:2,0:0:0:0:
201,354,138127,5,8,0:2:0:0:
120,192,138433,1,10,0:2:0:0:
222,47,138740,1,10,0:2:0:0:
294,107,138893,1,10,0:2:0:0:
362,46,139046,1,10,0:2:0:0:
487,235,139352,6,0,P|444:176|372:177,1,150,10|10,0:2|0:2,0:0:0:0:
300,229,139811,1,10,0:2:0:0:
157,172,140117,5,10,0:2:0:0:
72,135,140270,1,10,0:2:0:0:
16,207,140423,2,0,L|42:321,1,112.5,6|0,3:2|0:0,0:0:0:0:
54,350,140729,1,8,0:2:0:0:
54,350,140806,1,8,0:2:0:0:
54,350,140882,2,0,L|97:338,3,37.5,8|8|8|8,0:2|0:2|0:2|0:2,0:0:0:0:
117,305,141189,2,0,L|153:315,3,37.5,8|8|8|8,0:2|0:2|0:2|0:2,0:0:0:0:
187,341,141495,2,0,L|224:331,3,37.5,8|8|8|8,0:2|0:2|0:2|0:2,0:0:0:0:
247,309,141801,6,0,L|328:329,1,75,8|10,0:2|0:2,0:0:0:0:
402,284,142107,2,0,L|410:243,3,37.5,10|10|10|10,0:2|0:2|0:2|0:2,0:0:0:0:
416,221,142413,1,10,0:2:0:0:
256,192,150372,12,2,152515,0:0:0:0:
116,106,152821,6,0,P|88:59|36:42,2,112.500004291535,6|10|10,3:2|3:2|0:2,0:0:0:0:
69,180,153587,1,10,0:2:0:0:
157,186,153740,2,0,L|216:172,1,56.2500021457673,10|10,0:2|0:2,0:0:0:0:
282,111,154046,6,0,P|327:141|382:133,2,112.500004291535,2|10|0,3:2|0:2|3:2,0:0:0:0:
226,46,154811,1,2,3:2:0:0:
226,46,154888,1,0,3:2:0:0:
226,46,154964,2,0,L|168:57,1,56.2500021457673,10|2,0:2|3:2,0:0:0:0:
93,25,155270,6,0,P|121:72|119:127,1,112.500004291535,10|10,0:2|0:2,0:0:0:0:
50,186,155729,1,2,0:0:0:0:
132,220,155882,2,0,L|251:200,1,112.500004291535,10|2,0:2|3:2,0:0:0:0:
319,249,156342,1,2,0:0:0:0:
381,188,156495,6,0,L|438:204,1,56.2500021457673,2|2,3:2|0:0,0:0:0:0:
437,113,156801,1,0,3:2:0:0:
375,37,156954,2,0,L|256:62,1,112.500004291535,10|10,0:0|0:2,0:0:0:0:
264,60,157337,1,8,0:2:0:0:
264,60,157413,1,0,0:2:0:0:
191,23,157566,1,10,0:2:0:0:
123,76,157719,6,0,P|68:73|31:32,2,112.500004291535,6|2|10,3:2|3:2|0:2,0:0:0:0:
191,133,158485,1,8,0:2:0:0:
105,165,158638,2,0,L|122:224,1,56.2500021457673,2|2,3:2|0:0,0:0:0:0:
145,298,158944,6,0,P|104:263|49:268,2,112.500004291535,2|10|2,3:2|0:2|3:2,0:0:0:0:
218,246,159709,1,0,3:2:0:0:
218,246,159786,1,0,3:2:0:0:
218,246,159862,2,0,L|272:263,1,56.2500021457673,10|0,0:2|3:2,0:0:0:0:
342,227,160168,6,0,P|311:273|311:328,1,112.500004291535,2|2,3:2|3:2,0:0:0:0:
397,297,160627,1,2,0:0:0:0:
469,348,160780,2,0,P|481:322|483:294,1,56.2500021457673,2|10,3:2|0:0,0:0:0:0:
442,215,161087,1,2,3:2:0:0:
442,215,161240,1,2,0:0:0:0:
480,134,161393,5,10,0:2:0:0:
335,34,162311,5,8,0:2:0:0:
335,34,162618,6,0,P|289:63|234:57,1,112.5,6|0,3:2|0:0,0:0:0:0:
233,56,162923,6,0,L|265:203,1,150,8|0,0:2|3:2,0:0:0:0:
334,266,163382,1,2,3:2:0:0:
249,313,163536,2,0,L|174:294,1,75,10|2,0:2|3:2,0:0:0:0:
88,324,163842,6,0,L|66:206,1,112.5,2|0,3:2|0:0,0:0:0:0:
66,183,164148,6,0,B|140:205|140:205|171:184|210:189,1,150,10|0,0:2|3:2,0:0:0:0:
282,252,164607,1,2,3:2:0:0:
356,196,164760,2,0,P|363:160|352:125,1,75,10|2,0:2|3:2,0:0:0:0:
285,42,165066,5,6,3:2:0:0:
285,42,165219,1,2,0:0:0:0:
202,95,165372,2,0,L|126:80,1,75,10|2,0:2|3:2,0:0:0:0:
0,140,165678,2,0,L|73:154,1,75,6|2,3:2|3:2,0:0:0:0:
185,255,165985,2,0,L|109:240,1,75,8|2,0:2|0:0,0:0:0:0:
20,273,166291,5,6,3:2:0:0:
94,337,166444,2,0,L|167:351,1,75,2|8,0:0|0:2,0:0:0:0:
284,323,166750,2,0,P|262:251|289:179,1,150,0|2,3:0|3:2,0:0:0:0:
356,118,167209,1,10,0:2:0:0:
215,43,167515,6,0,B|154:58|154:58|134:76|134:76|73:93,1,150,6|10,3:2|0:2,0:0:0:0:
116,172,167974,2,0,B|174:155|174:155|194:137|194:137|255:122,1,150,2|2,0:0|3:2,0:0:0:0:
331,172,168433,1,8,0:2:0:0:
403,112,168587,6,0,B|437:157|437:157|400:250,1,150,0|0,3:2|3:2,0:0:0:0:
330,296,169046,2,0,L|249:278,1,75,10|0,0:2|3:2,0:0:0:0:
180,332,169352,2,0,L|145:187,1,150,2|10,3:2|0:2,0:0:0:0:
208,125,169811,1,0,3:2:0:0:
278,188,169964,6,0,B|358:176|344:222|422:215,1,150,2|10,3:2|0:2,0:0:0:0:
407,315,170423,2,0,B|329:322|343:276|263:288,1,150,0|2,3:2|3:2,0:0:0:0:
186,347,170882,1,8,0:2:0:0:
108,284,171036,6,0,P|89:212|106:139,1,150,6|10,3:2|0:2,0:0:0:0:
187,74,171495,1,10,0:2:0:0:
262,140,171648,1,10,0:2:0:0:
349,92,171801,2,0,L|362:52,3,37.5,10|8|8|8,0:2|0:2|0:2|0:2,0:0:0:0:
369,33,172107,1,14,0:2:0:0:
503,228,172413,6,0,P|470:186|416:185,1,112.5,6|0,3:2|0:0,0:0:0:0:
390,199,172719,2,0,B|359:165|318:189|318:189|298:220|261:226,1,150,10|0,0:2|3:2,0:0:0:0:
177,179,173178,1,2,3:2:0:0:
91,226,173331,2,0,L|71:151,1,75,8|0,0:2|3:2,0:0:0:0:
138,76,173638,6,0,P|191:86|237:56,1,112.5,2|0,3:2|0:0,0:0:0:0:
248,31,173944,2,0,L|282:181,1,150,10|0,0:2|3:2,0:0:0:0:
210,249,174403,1,2,3:2:0:0:
289,313,174556,2,0,P|324:302|359:313,1,75,8|2,0:2|0:0,0:0:0:0:
449,265,174862,6,0,L|468:188,1,75,6|0,3:2|0:0,0:0:0:0:
401,117,175168,1,8,0:2:0:0:
401,117,175321,1,2,3:2:0:0:
325,184,175474,2,0,L|250:169,1,75,6|0,3:2|3:2,0:0:0:0:
234,265,175780,2,0,L|307:279,1,75,10|2,0:2|0:0,0:0:0:0:
384,346,176087,5,6,3:2:0:0:
452,273,176240,2,0,P|460:237|451:201,1,75,2|8,0:0|0:2,0:0:0:0:
392,130,176546,2,0,B|320:151|320:151|291:127|248:127,1,150,2|2,3:2|3:2,0:0:0:0:
175,174,177005,1,8,0:2:0:0:
27,349,177311,6,0,P|84:303|154:323,1,150,6|10,3:2|0:2,0:0:0:0:
238,366,177770,1,8,0:2:0:0:
309,306,177923,2,0,L|320:266,3,37.5,10|8|8|8,0:2|0:2|0:2|0:2,0:0:0:0:
279,243,178229,2,0,L|268:203,3,37.5,10|8|8|8,0:2|0:2|0:2|0:2,0:0:0:0:
287,169,178536,5,6,3:2:0:0:
138,103,178842,1,10,0:2:0:0:
28,239,179148,2,0,L|71:231,3,37.5,10|8|8|8,0:2|0:2|0:2|0:2,0:0:0:0:
96,259,179454,2,0,L|139:251,3,37.5,10|8|8|8,0:2|0:2|0:2|0:2,0:0:0:0:
162,219,179760,5,6,3:2:0:0:
348,309,180066,2,0,L|357:271,3,37.5,10|8|8|8,0:2|0:2|0:2|0:2,0:0:0:0:
311,241,180372,2,0,L|302:203,3,37.5,10|8|8|8,0:2|0:2|0:2|0:2,0:0:0:0:
339,172,180678,2,0,L|348:134,3,37.5,10|8|8|8,0:2|0:2|0:2|0:2,0:0:0:0:
323,97,180985,5,6,3:2:0:0:
148,31,181291,1,2,3:2:0:0:
44,203,181597,2,0,L|122:188,1,75,2|2,3:2|3:2,0:0:0:0:
189,246,181903,1,2,3:2:0:0:
383,135,182209,6,0,P|410:68|480:50,2,150,6|2|2,3:2|3:2|3:2,0:0:0:0:
450,207,182974,1,2,3:2:0:0:
360,227,183127,2,0,L|281:209,1,75,2|2,3:2|3:2,0:0:0:0:
212,263,183433,5,10,0:2:0:0:
139,194,183587,1,10,0:2:0:0:
199,114,183740,2,0,L|178:38,1,75,10|10,0:2|0:2,0:0:0:0:
265,21,184046,2,0,L|285:94,1,75,10|10,0:2|0:2,0:0:0:0:
308,180,184352,1,10,0:2:0:0:
308,180,184505,1,10,0:2:0:0:
371,108,184658,5,10,0:2:0:0:
476,244,184964,1,10,0:2:0:0:
362,353,185270,1,10,0:2:0:0:
287,303,185423,1,10,0:2:0:0:
216,356,185576,1,10,0:2:0:0:
45,258,185882,6,0,P|29:205|45:152,1,112.5,10|0,0:2|0:0,0:0:0:0:
59,135,186189,2,0,P|66:99|57:63,1,75,10|0,0:2|0:0,0:0:0:0:
142,24,186495,2,0,L|183:35,3,37.5,10|8|8|8,0:2|0:2|0:2|0:2,0:0:0:0:
203,60,186801,2,0,L|242:51,3,37.5,10|8|8|8,0:2|0:2|0:2|0:2,0:0:0:0:
280,71,187107,6,0,P|318:23|403:27,2,150,6|8|2,3:2|0:2|3:2,0:0:0:0:
337,146,187872,1,2,3:2:0:0:
337,146,188025,1,8,0:2:0:0:
263,207,188178,6,0,L|108:177,1,150,6|2,3:2|3:2,0:0:0:0:
45,241,188638,1,8,0:2:0:0:
166,354,188944,1,2,3:2:0:0:
166,354,189097,1,2,3:2:0:0:
241,300,189250,2,0,L|316:323,1,75,8|0,0:2|3:0,0:0:0:0:
399,360,189556,6,0,P|418:288|393:218,2,150,6|8|2,3:2|0:2|3:2,0:0:0:0:
312,319,190321,1,2,3:2:0:0:
229,361,190474,1,8,0:2:0:0:
141,320,190627,6,0,L|103:167,1,150,2|2,3:2|3:2,0:0:0:0:
162,102,191087,1,10,0:2:0:0:
292,185,191393,1,2,3:2:0:0:
292,185,191546,1,8,0:2:0:0:
371,129,191699,2,0,L|414:144,3,37.5,10|8|8|8,0:2|0:2|0:2|0:0,0:0:0:0:
452,113,192005,6,0,B|488:154|488:154|458:245,2,150,6|6|6,3:2|3:2|3:2,0:0:0:0:
405,37,192770,1,0,3:2:0:0:
328,94,192923,2,0,L|249:80,1,75,6|0,3:2|3:2,0:0:0:0:
180,32,193229,6,0,P|214:99|211:173,1,150,6|6,3:2|3:2,0:0:0:0:
104,307,193842,1,6,3:2:0:0:
104,307,193995,1,0,3:2:0:0:
190,359,194148,2,0,L|264:343,1,75,6|0,3:2|3:0,0:0:0:0:
339,281,194454,6,0,P|398:323|470:312,2,150,6|6|6,3:2|3:2|3:2,0:0:0:0:
272,220,195219,1,0,3:2:0:0:
185,258,195372,2,0,L|166:181,1,75,6|2,3:2|3:2,0:0:0:0:
231,99,195678,6,0,P|276:130|331:126,1,112.5,2|2,3:2|3:2,0:0:0:0:
347,113,195985,1,6,3:2:0:0:
437,72,196138,2,0,L|482:83,2,37.5,2|2|10,3:2|3:2|0:2,0:0:0:0:
365,14,196444,1,10,0:2:0:0:
282,53,196597,1,10,0:2:0:0:
192,16,196750,5,10,0:2:0:0:
