osu file format v14

[General]
AudioFilename: audio.mp3
AudioLeadIn: 0
PreviewTime: 42071
Countdown: 0
SampleSet: Soft
StackLeniency: 0.4
Mode: 0
LetterboxInBreaks: 0
WidescreenStoryboard: 0

[Editor]
DistanceSpacing: 1
BeatDivisor: 4
GridSize: 16
TimelineZoom: 2.1

[Metadata]
Title:Tensai Rock
TitleUnicode:天才ロック
Artist:SymaG
ArtistUnicode:島爺
Creator:Nevo
Version:Escapism
Source:
Tags:cute anime boy in spacesuit カラスヤサボウ Karasuya Sabou Sanzunokawa 三途ノ川 Genius japanese jrock j-rock rock killian habiholic tachibana_ Firiiu
BeatmapID:4310522
BeatmapSetID:2061858

[Difficulty]
HPDrainRate:6
CircleSize:4
OverallDifficulty:9
ApproachRate:9.3
SliderMultiplier:1.7
SliderTickRate:1

[Events]
//Background and Video events
0,0,"111214067_p0.jpg",0,0
//Break Periods
2,62409,70992
//Storyboard Layer 0 (Background)
//Storyboard Layer 1 (Fail)
//Storyboard Layer 2 (Pass)
//Storyboard Layer 3 (Foreground)
//Storyboard Layer 4 (Overlay)
//Storyboard Sound Samples

[TimingPoints]
-239,306.122448979592,4,2,1,60,1,0
985,-83.3333333333333,4,2,1,60,0,0
1291,-100,4,2,1,60,0,0
10780,-100,4,2,1,80,0,0
12923,-83.3333333333333,4,2,1,80,0,0
13229,-83.3333333333333,4,2,1,75,0,0
18127,-76.9230769230769,4,2,1,75,0,0
23025,-100,4,2,1,70,0,0
32515,-83.3333333333333,4,2,1,70,0,0
32821,-100,4,2,1,70,0,0
42618,-83.3333333333333,4,2,1,85,0,1
42923,-71.4285714285714,4,2,1,85,0,1
43229,-83.3333333333333,4,2,1,85,0,1
44148,-71.4285714285714,4,2,1,85,0,1
44454,-83.3333333333333,4,2,1,85,0,1
47515,-90.9090909090909,4,2,1,85,0,1
51036,-83.3333333333333,4,2,1,85,0,1
52413,-83.3333333333333,4,2,1,85,0,1
52719,-71.4285714285714,4,2,1,85,0,1
53025,-83.3333333333333,4,2,1,85,0,1
53638,-90.9090909090909,4,2,1,85,0,1
53944,-76.9230769230769,4,2,1,85,0,1
60985,-76.9230769230769,4,2,1,85,0,0
61291,-76.9230769230769,4,2,1,70,0,0
61597,-83.3333333333333,4,2,1,70,0,0
61903,-90.9090909090909,4,2,1,70,0,0
62209,-100,4,2,1,75,0,0
81801,-86.9565217391304,4,2,1,70,0,0
86699,-83.3333333333333,4,2,1,70,0,0
96189,-90.9090909090909,4,2,1,70,0,0
96495,-83.3333333333333,4,2,1,70,0,0
98791,-83.3333333333333,4,2,1,70,0,0
101393,-71.4285714285714,4,2,1,85,0,1
101699,-83.3333333333333,4,2,1,85,0,1
102617,-71.4285714285714,4,2,1,85,0,1
102923,-83.3333333333333,4,2,1,85,0,1
106291,-90.9090909090909,4,2,1,85,0,1
111189,-71.4285714285714,4,2,1,85,0,1
111495,-80,4,2,1,85,0,1
112719,-71.4285714285714,4,2,1,85,0,1
113025,-83.3333333333333,4,2,1,85,0,1
119761,-80,4,2,1,85,0,0
120066,-86.9565217391304,4,2,1,70,0,0
120678,-95.2380952380952,4,2,1,70,0,0
121061,-95.2380952380952,4,2,1,60,0,0
128331,-181.818181818182,4,2,1,60,0,0
128944,-153.846153846154,4,2,1,60,0,0
129556,-95.2380952380952,4,2,1,60,0,0
129760,-153.846153846154,4,2,1,60,0,0
130168,-95.2380952380952,4,2,1,60,0,0
130780,-142.857142857143,4,2,1,65,0,0
135678,-100,4,2,1,70,0,0
143025,-133.333333333333,4,2,1,55,0,0
152821,-100,4,2,1,65,0,0
161699,-66.6666666666667,4,2,1,70,0,0
162311,-100,4,2,1,70,0,0
162618,-71.4285714285714,4,2,1,90,0,1
162923,-83.3333333333333,4,2,1,90,0,1
163842,-71.4285714285714,4,2,1,90,0,1
164148,-83.3333333333333,4,2,1,90,0,1
172413,-66.6666666666667,4,2,1,90,0,1
172719,-76.9230769230769,4,2,1,90,0,1
173638,-66.6666666666667,4,2,1,90,0,1
173944,-76.9230769230769,4,2,1,90,0,1
187107,-76.9230769230769,4,2,1,80,0,0
188178,-83.3333333333333,4,2,1,80,0,0
192005,-83.3333333333333,4,2,1,75,0,0

[Colours]
Combo1 : 255,191,191
Combo2 : 192,192,192
Combo3 : 222,240,254

[HitObjects]
126,228,525,6,0,L|192:251,1,42.5,2|0,0:2|0:0,0:0:0:0:
376,280,678,2,0,L|335:293,1,42.5,2|0,0:2|0:0,0:0:0:0:
257,351,831,5,2,0:2:0:0:
257,351,908,1,2,0:2:0:0:
257,351,985,2,0,B|247:285|247:285|256:252|256:252|245:195,1,152.999995330811,6|0,3:2|0:0,0:0:0:0:
187,145,1291,1,2,3:2:0:0:
337,59,1444,2,0,L|322:142,1,85,2|0,0:2|3:2,0:0:0:0:
499,162,1750,2,0,P|443:156|374:241,1,170,2|2,0:0|0:0,0:0:0:0:
499,314,2209,5,2,3:2:0:0:
462,244,2362,1,2,0:0:0:0:
363,384,2515,1,2,3:2:0:0:
399,312,2668,1,2,0:0:0:0:
251,241,2821,1,2,3:2:0:0:
292,319,2974,1,2,3:2:0:0:
292,319,3051,1,0,3:2:0:0:
292,319,3127,1,0,3:2:0:0:
14,227,3280,6,0,P|82:239|176:179,1,170,2|2,3:2|0:0,0:0:0:0:
47,66,3740,2,0,P|57:120|92:150,1,85,2|2,3:2|0:0,0:0:0:0:
221,89,4046,2,0,L|123:71,1,85,2|0,3:2|0:0,0:0:0:0:
255,173,4352,1,2,3:2:0:0:
325,86,4505,1,2,0:0:0:0:
376,252,4658,6,0,L|484:237,1,85,2|0,3:2|0:0,0:0:0:0:
331,377,4964,1,2,3:2:0:0:
182,317,5117,2,0,L|85:309,1,85,2|0,0:0|3:2,0:0:0:0:
285,260,5423,5,10,0:2:0:0:
285,260,5500,1,10,0:2:0:0:
285,260,5576,2,0,P|284:286|275:308,1,42.5,2|0,3:2|0:0,0:0:0:0:
159,208,5729,5,10,0:2:0:0:
159,208,5806,1,10,0:2:0:0:
159,208,5882,2,0,L|144:103,1,85,6|2,3:2|0:0,0:0:0:0:
271,7,6189,1,2,3:2:0:0:
318,84,6342,2,0,P|300:144|266:167,1,85,2|0,0:0|3:2,0:0:0:0:
67,71,6648,2,0,L|255:92,1,170,2|2,0:0|0:0,0:0:0:0:
381,173,7107,5,2,3:2:0:0:
433,103,7260,1,2,0:0:0:0:
438,242,7413,1,2,3:2:0:0:
299,211,7566,1,2,0:0:0:0:
295,356,7719,1,2,3:2:0:0:
353,288,7872,1,2,3:2:0:0:
353,288,7949,1,0,3:2:0:0:
353,288,8025,1,0,3:2:0:0:
199,114,8178,6,0,L|222:301,1,170,2|0,3:2|0:0,0:0:0:0:
32,131,8638,2,0,L|48:39,1,85,2|2,3:2|0:0,0:0:0:0:
102,196,8944,2,0,P|63:221|15:225,1,85,2|2,3:2|0:0,0:0:0:0:
42,328,9250,1,2,3:2:0:0:
153,288,9403,1,2,0:0:0:0:
297,384,9556,6,0,L|185:364,1,85,2|0,3:2|0:0,0:0:0:0:
348,214,9862,2,0,L|460:194,1,85,6|0,3:2|0:0,0:0:0:0:
266,286,10168,5,10,0:2:0:0:
261,260,10244,1,8,0:2:0:0:
256,235,10321,1,8,0:2:0:0:
251,210,10397,1,8,0:2:0:0:
231,177,10474,5,10,0:2:0:0:
238,135,10550,1,8,0:2:0:0:
246,93,10627,1,8,0:2:0:0:
254,51,10703,1,8,0:2:0:0:
298,18,10780,6,0,L|139:35,1,127.5,6|0,3:2|0:0,0:0:0:0:
73,111,11087,1,2,3:2:0:0:
357,107,11240,1,2,3:2:0:0:
106,208,11393,1,2,3:2:0:0:
331,220,11546,1,2,3:2:0:0:
41,310,11699,1,2,3:2:0:0:
283,294,11852,1,2,3:2:0:0:
101,370,12005,6,0,L|78:223,1,127.5,6|0,3:2|0:0,0:0:0:0:
61,127,12311,1,6,3:2:0:0:
184,222,12464,1,0,0:0:0:0:
274,46,12617,2,0,P|230:40|173:63,1,85,6|0,3:2|0:0,0:0:0:0:
397,192,12923,2,0,P|466:183|412:125,1,152.999995330811,2|0,3:2|0:0,0:0:0:0:
319,126,13229,6,0,L|299:241,1,101.999996887207,6|2,3:2|0:0,0:0:0:0:
466,291,13536,1,14,0:2:0:0:
326,362,13689,1,2,0:0:0:0:
326,362,13765,1,8,0:0:0:0:
326,362,13842,2,0,L|167:338,1,152.999995330811,6|0,3:2|0:0,0:0:0:0:
61,382,14148,1,12,0:2:0:0:
0,259,14301,6,0,P|59:287|143:190,1,203.999993774414,2|2,3:2|3:2,0:0:0:0:
2,67,14760,2,0,L|122:90,1,101.999996887207,14|2,0:2|0:0,0:0:0:0:
102,86,14990,1,8,0:0:0:0:
102,86,15066,1,6,3:2:0:0:
351,107,15219,1,2,3:2:0:0:
185,38,15372,1,14,0:2:0:0:
200,271,15525,5,0,3:2:0:0:
200,271,15602,1,0,3:2:0:0:
200,271,15678,2,0,P|245:261|290:217,1,101.999996887207,6|2,3:2|0:0,0:0:0:0:
251,101,15985,1,14,0:2:0:0:
448,188,16138,1,2,0:0:0:0:
448,188,16214,1,0,3:2:0:0:
448,188,16291,2,0,P|471:237|422:326,1,152.999995330811,6|0,3:2|0:0,0:0:0:0:
366,375,16597,1,12,0:2:0:0:
118,384,16750,6,0,L|76:171,1,203.999993774414,2|2,3:2|3:2,0:0:0:0:
309,117,17209,2,0,L|290:226,1,101.999996887207,14|2,0:2|0:0,0:0:0:0:
291,217,17439,1,0,3:0:0:0:
291,217,17515,1,6,3:2:0:0:
46,84,17668,1,10,0:2:0:0:
75,113,17744,1,8,0:2:0:0:
114,129,17821,1,12,0:2:0:0:
157,128,17897,1,8,0:2:0:0:
195,111,17974,1,10,0:2:0:0:
225,81,18050,1,8,0:2:0:0:
244,39,18127,6,0,P|286:15|356:21,1,110.499994941712,6|2,3:2|0:0,0:0:0:0:
510,84,18433,1,14,0:2:0:0:
307,128,18587,1,2,0:0:0:0:
400,295,18740,2,0,L|426:125,1,165.749992412568,6|0,3:2|0:0,0:0:0:0:
384,45,19046,1,14,0:2:0:0:
492,287,19199,6,0,P|462:370|341:357,1,220.999989883423,2|2,3:2|3:2,0:0:0:0:
191,225,19658,1,14,0:2:0:0:
97,326,19811,1,2,0:0:0:0:
130,156,19964,1,6,3:2:0:0:
281,251,20117,1,2,3:2:0:0:
170,82,20270,1,14,0:2:0:0:
0,263,20423,5,2,3:2:0:0:
0,263,20500,1,0,3:2:0:0:
0,263,20576,2,0,L|145:230,1,110.499994941712,6|2,3:2|0:0,0:0:0:0:
298,158,20882,1,14,0:2:0:0:
250,337,21036,1,2,3:2:0:0:
441,290,21189,2,0,L|280:250,1,165.749992412568,6|0,3:2|0:0,0:0:0:0:
188,269,21495,1,14,0:2:0:0:
473,378,21648,6,0,P|534:318|474:203,1,220.999989883423,2|2,3:2|3:2,0:0:0:0:
285,119,22107,1,14,0:2:0:0:
441,290,22260,1,2,0:0:0:0:
441,47,22413,1,6,3:2:0:0:
226,197,22566,2,0,L|166:174,1,55.2499974708558,10|8,0:2|0:2,0:0:0:0:
70,80,22719,1,10,0:2:0:0:
70,80,22796,1,8,0:2:0:0:
70,80,22872,2,0,L|125:104,1,55.2499974708558,10|8,0:2|0:2,0:0:0:0:
57,271,23025,6,0,P|66:215|102:161,1,85,6|0,3:2|0:0,0:0:0:0:
270,330,23331,1,2,3:2:0:0:
184,354,23485,2,0,P|150:308|138:244,1,85,2|0,0:0|3:2,0:0:0:0:
340,272,23791,2,0,P|373:226|385:162,1,85,2|0,0:0|3:2,0:0:0:0:
255,98,24097,6,0,L|349:117,1,85,2|2,0:0|3:2,0:0:0:0:
495,62,24403,1,2,0:0:0:0:
410,45,24556,1,2,3:2:0:0:
506,71,24709,1,2,0:0:0:0:
436,132,24862,1,2,3:2:0:0:
494,229,25015,1,0,3:2:0:0:
494,229,25092,1,0,3:2:0:0:
494,229,25168,1,0,3:2:0:0:
381,199,25321,1,2,3:2:0:0:
446,376,25474,6,0,L|429:292,1,85,2|2,3:2|0:0,0:0:0:0:
270,326,25780,2,0,L|353:346,1,85,2|2,3:2|3:2,0:0:0:0:
289,238,26087,1,2,3:2:0:0:
184,278,26240,1,2,0:0:0:0:
115,204,26393,2,0,L|197:184,1,85,2|2,3:2|0:0,0:0:0:0:
24,67,26699,6,0,P|28:108|51:144,1,85,2|0,3:2|0:0,0:0:0:0:
123,73,27005,1,2,3:2:0:0:
24,229,27158,2,0,P|46:264|51:306,1,85,2|0,0:0|3:2,0:0:0:0:
236,367,27464,1,10,0:2:0:0:
236,367,27541,1,8,0:2:0:0:
236,367,27617,2,0,L|298:345,1,42.5,2|8,3:2|0:2,0:0:0:0:
189,258,27770,2,0,L|127:236,1,42.5,10|8,0:2|0:2,0:0:0:0:
308,125,27923,6,0,L|296:230,1,85,6|0,3:2|0:0,0:0:0:0:
319,28,28229,1,2,3:2:0:0:
413,127,28382,2,0,L|478:209,1,85,2|0,0:0|3:2,0:0:0:0:
450,343,28689,1,2,0:0:0:0:
384,254,28842,1,2,3:2:0:0:
462,353,28995,1,2,0:0:0:0:
297,365,29148,6,0,P|256:353|191:351,1,85,2|2,3:2|0:0,0:0:0:0:
214,349,29377,1,2,0:0:0:0:
214,349,29454,1,2,3:2:0:0:
59,383,29607,1,2,0:0:0:0:
127,310,29760,1,2,3:2:0:0:
19,282,29913,1,0,3:2:0:0:
19,282,29990,1,0,3:2:0:0:
19,282,30066,1,0,3:2:0:0:
166,137,30219,6,0,L|142:245,1,85,2|2,3:2|3:2,0:0:0:0:
96,60,30525,1,2,0:0:0:0:
260,103,30678,2,0,P|310:100|352:77,1,85,2|0,3:2|0:0,0:0:0:0:
499,92,30985,2,0,P|449:95|407:118,1,85,2|0,3:2|0:0,0:0:0:0:
381,267,31291,2,0,L|357:159,1,85,2|2,3:2|0:0,0:0:0:0:
476,329,31597,5,2,3:2:0:0:
274,288,31750,1,0,0:0:0:0:
359,352,31903,1,2,3:2:0:0:
230,384,32056,1,0,0:0:0:0:
490,332,32209,5,2,3:2:0:0:
265,278,32362,1,0,0:0:0:0:
487,185,32515,2,0,P|486:115|419:73,1,152.999995330811,2|0,3:2|0:0,0:0:0:0:
325,105,32821,6,0,L|203:88,1,85,6|0,3:2|0:0,0:0:0:0:
31,192,33127,1,8,0:2:0:0:
4,224,33203,1,8,0:2:0:0:
7,267,33280,1,8,0:2:0:0:
38,295,33356,1,8,0:2:0:0:
81,295,33433,1,8,0:2:0:0:
116,268,33511,1,8,0:2:0:0:
157,253,33586,1,8,0:2:0:0:
200,251,33664,1,8,0:2:0:0:
242,263,33740,1,8,0:2:0:0:
281,283,33816,1,8,0:2:0:0:
324,287,33893,1,8,0:2:0:0:
365,272,33969,1,8,0:2:0:0:
398,243,34046,6,0,L|415:145,1,85,6|0,3:2|0:0,0:0:0:0:
159,0,34352,5,8,0:0:0:0:
164,33,34428,1,8,0:0:0:0:
171,67,34505,1,8,0:0:0:0:
177,101,34581,1,8,0:0:0:0:
206,135,34658,5,8,0:0:0:0:
200,164,34734,1,8,0:0:0:0:
194,193,34811,1,8,0:0:0:0:
189,223,34887,1,8,0:0:0:0:
157,253,34964,5,8,0:0:0:0:
161,277,35040,1,8,0:0:0:0:
166,302,35117,1,8,0:0:0:0:
170,326,35193,1,8,0:0:0:0:
177,350,35270,5,10,0:0:0:0:
78,161,35576,1,8,0:2:0:0:
68,171,35882,5,8,0:2:0:0:
326,287,36036,1,8,0:2:0:0:
320,55,36189,1,8,0:2:0:0:
330,45,36495,5,8,0:2:0:0:
340,36,36801,5,8,0:2:0:0:
95,301,36954,1,8,0:2:0:0:
84,312,37260,6,0,L|68:252,1,42.5,8|0,0:2|0:0,0:0:0:0:
276,380,37414,2,0,L|318:221,1,127.5,14|0,0:2|0:0,0:0:0:0:
324,173,37719,6,0,B|283:163|250:192|250:192|212:223|165:211,1,170,6|8,3:2|0:2,0:0:0:0:
380,246,38178,1,0,3:2:0:0:
380,246,38255,1,0,3:2:0:0:
380,246,38331,2,0,P|425:243|476:194,1,85,0|0,3:2|3:2,0:0:0:0:
322,49,38638,2,0,P|277:40|215:74,1,85,8|0,0:2|3:2,0:0:0:0:
148,101,38867,5,0,3:2:0:0:
148,101,38944,2,0,L|179:283,1,170,2|8,3:2|0:2,0:0:0:0:
80,376,39403,1,0,3:2:0:0:
80,376,39479,1,0,3:2:0:0:
80,376,39556,2,0,L|99:283,1,85,0|0,3:2|3:2,0:0:0:0:
30,215,39862,1,8,0:2:0:0:
182,354,40015,6,0,P|223:345|254:317,1,85,6|0,3:2|0:0,0:0:0:0:
361,200,40321,1,2,3:2:0:0:
201,84,40474,5,8,0:2:0:0:
342,287,40627,1,2,3:2:0:0:
283,16,40780,5,8,0:2:0:0:
248,227,40933,1,2,3:2:0:0:
107,37,41087,5,8,0:2:0:0:
392,67,41240,1,6,3:2:0:0:
58,326,41546,5,8,0:2:0:0:
68,285,41622,1,8,0:2:0:0:
91,249,41699,1,8,0:2:0:0:
125,224,41775,1,8,0:2:0:0:
166,211,41852,1,8,0:2:0:0:
208,212,41928,1,8,0:2:0:0:
248,227,42005,1,8,0:2:0:0:
360,366,42158,6,0,L|406:358,1,42.5,2|0,0:0|0:0,0:0:0:0:
474,314,42311,2,0,P|492:264|478:182,1,127.5,2|0,0:0|0:0,0:0:0:0:
353,82,42618,6,0,P|400:21|506:52,1,152.999995330811,6|0,3:2|0:0,0:0:0:0:
374,165,42923,2,0,P|328:165|272:101,1,118.999996368408,10|0,0:2|3:0,0:0:0:0:
276,117,43153,1,0,3:0:0:0:
276,117,43229,1,0,3:2:0:0:
287,291,43382,5,2,3:2:0:0:
189,90,43536,1,10,0:2:0:0:
152,302,43689,1,2,0:0:0:0:
3,138,43842,6,0,P|18:65|86:36,1,152.999995330811,2|0,3:2|0:0,0:0:0:0:
66,223,44148,2,0,L|44:346,1,118.999996368408,10|0,0:2|3:0,0:0:0:0:
45,340,44377,1,0,3:0:0:0:
45,340,44454,1,0,3:2:0:0:
90,124,44607,5,2,3:2:0:0:
173,223,44760,1,10,0:2:0:0:
189,58,44913,1,0,0:0:0:0:
336,210,45066,5,6,3:2:0:0:
212,146,45219,1,2,0:0:0:0:
413,155,45372,1,10,0:2:0:0:
273,277,45525,1,2,0:0:0:0:
439,66,45678,5,6,3:2:0:0:
427,256,45831,1,2,0:0:0:0:
337,87,45985,1,10,0:2:0:0:
512,179,46138,1,2,0:0:0:0:
179,255,46291,5,6,3:2:0:0:
336,210,46444,2,0,L|315:325,1,101.999996887207,2|8,0:0|0:2,0:0:0:0:
43,282,46750,1,2,3:2:0:0:
43,282,46826,1,0,3:2:0:0:
43,282,46903,2,0,P|50:224|77:172,1,101.999996887207,2|0,3:2|3:2,0:0:0:0:
225,55,47209,2,0,P|242:111|259:165,1,101.999996887207,10|0,0:2|3:2,0:0:0:0:
512,291,47515,6,0,P|450:262|347:333,1,187.000005706787,6|10,3:2|0:2,0:0:0:0:
194,231,47974,2,0,L|305:251,1,93.5000028533936,2|2,3:2|3:2,0:0:0:0:
447,158,48280,2,0,L|336:178,1,93.5000028533936,2|8,3:2|0:2,0:0:0:0:
107,38,48587,6,0,P|168:39|221:140,1,187.000005706787,2|0,3:2|3:2,0:0:0:0:
91,291,49046,2,0,P|37:290|-5:264,1,93.5000028533936,10|0,0:2|3:2,0:0:0:0:
129,127,49352,2,0,P|88:162|72:209,1,93.5000028533936,2|0,3:2|3:2,0:0:0:0:
254,230,49658,2,0,P|207:230|165:210,1,93.5000028533936,10|0,0:2|3:2,0:0:0:0:
398,172,49964,6,0,L|423:288,1,93.5000028533936,2|0,3:2|3:2,0:0:0:0:
309,144,50270,1,10,0:2:0:0:
512,97,50423,2,0,L|492:188,1,93.5000028533936,2|2,3:2|3:2,0:0:0:0:
278,44,50729,2,0,L|297:135,1,93.5000028533936,2|8,0:0|0:2,0:0:0:0:
79,296,51036,6,0,B|128:283|128:283|164:292|164:292|241:274,1,152.999995330811,6|0,3:2|0:0,0:0:0:0:
351,321,51342,1,10,0:2:0:0:
82,202,51495,1,10,0:2:0:0:
403,167,51648,1,10,0:2:0:0:
194,28,51801,5,10,0:2:0:0:
201,72,51877,1,8,0:2:0:0:
210,119,51954,1,8,0:2:0:0:
219,166,52030,1,8,0:2:0:0:
248,208,52107,6,0,L|231:261,1,50.9999984436036,14|0,0:2|0:0,0:0:0:0:
224,366,52413,6,0,P|239:309|301:223,1,152.999995330811,6|0,3:2|0:0,0:0:0:0:
474,170,52719,6,0,P|463:139|377:96,1,118.999996368408,10|0,0:2|3:0,0:0:0:0:
392,95,52949,1,0,3:0:0:0:
392,95,53025,1,0,3:2:0:0:
334,359,53178,5,2,3:2:0:0:
385,194,53331,1,10,0:2:0:0:
180,275,53485,1,0,0:0:0:0:
424,317,53638,6,0,P|358:276|275:286,1,140.25000428009,2|0,3:2|0:0,0:0:0:0:
95,370,53944,6,0,P|37:353|15:303,1,110.499994941712,10|0,0:2|3:0,0:0:0:0:
15,311,54173,1,0,3:0:0:0:
15,311,54250,1,0,3:2:0:0:
188,170,54403,5,2,3:2:0:0:
98,286,54556,1,10,0:2:0:0:
38,96,54709,1,2,3:2:0:0:
264,244,54862,5,6,3:2:0:0:
80,195,55015,1,2,0:0:0:0:
363,182,55168,1,10,0:2:0:0:
318,352,55321,1,2,3:2:0:0:
271,124,55474,5,6,3:2:0:0:
463,213,55627,1,2,0:0:0:0:
184,289,55780,1,10,0:2:0:0:
237,32,55933,1,2,3:2:0:0:
401,305,56087,5,6,3:2:0:0:
163,191,56240,1,2,0:0:0:0:
358,102,56393,1,8,0:2:0:0:
284,364,56546,1,2,3:2:0:0:
284,364,56622,1,0,3:0:0:0:
284,364,56699,2,0,L|267:249,1,110.499994941712,0|0,3:2|3:2,0:0:0:0:
347,17,57005,2,0,P|418:35|436:135,1,165.749992412568,8|0,0:2|0:0,0:0:0:0:
414,195,57311,6,0,B|301:179,1,110.499994941712,6|0,3:2|0:0,0:0:0:0:
168,293,57617,5,10,0:2:0:0:
133,309,57693,1,8,0:2:0:0:
94,309,57770,1,8,0:2:0:0:
59,293,57846,1,8,0:2:0:0:
32,263,57923,1,10,0:2:0:0:
21,226,57999,1,8,0:2:0:0:
25,188,58076,1,8,0:2:0:0:
45,155,58152,1,8,0:2:0:0:
57,110,58230,5,10,0:2:0:0:
102,115,58305,1,8,0:2:0:0:
151,124,58382,1,8,0:2:0:0:
199,135,58458,1,8,0:2:0:0:
235,173,58536,6,0,L|366:149,1,110.499994941712,6|0,3:2|0:0,0:0:0:0:
470,59,58842,5,10,0:2:0:0:
464,94,58918,1,8,0:2:0:0:
459,129,58995,1,8,0:2:0:0:
454,165,59071,1,8,0:2:0:0:
447,201,59148,1,10,0:2:0:0:
441,236,59224,1,8,0:2:0:0:
436,272,59301,1,8,0:2:0:0:
431,308,59377,1,8,0:2:0:0:
399,349,59454,5,10,0:2:0:0:
349,374,59530,1,8,0:2:0:0:
294,384,59607,1,8,0:2:0:0:
241,374,59683,1,8,0:2:0:0:
193,350,59760,6,0,L|41:369,1,110.499994941712,6|0,3:2|0:0,0:0:0:0:
24,212,60066,5,10,0:2:0:0:
61,186,60142,1,8,0:2:0:0:
109,172,60219,1,8,0:2:0:0:
155,187,60295,1,8,0:2:0:0:
184,223,60372,1,10,0:2:0:0:
224,243,60448,1,8,0:2:0:0:
270,240,60525,1,8,0:2:0:0:
308,215,60601,1,8,0:2:0:0:
335,178,60678,5,10,0:2:0:0:
341,131,60754,1,8,0:2:0:0:
346,86,60831,1,8,0:2:0:0:
351,41,60907,1,8,0:2:0:0:
322,2,60984,5,2,3:2:0:0:
159,357,61291,6,0,P|195:316|211:263,1,110.499994941712,2|0,0:0|0:0,0:0:0:0:
426,264,61597,2,0,P|381:236|350:196,1,101.999996887207,2|0,0:0|0:0,0:0:0:0:
224,44,61903,2,0,L|257:193,1,140.25000428009,2|0,3:2|0:0,0:0:0:0:
298,327,62209,5,6,3:2:0:0:
437,329,71546,6,0,L|376:318,1,42.5,10|8,0:2|0:2,0:0:0:0:
298,233,71699,2,0,L|237:244,1,42.5,14|8,0:2|0:2,0:0:0:0:
133,347,71852,2,0,L|72:336,1,42.5,10|8,0:2|0:2,0:0:0:0:
4,185,72005,6,0,P|96:199|129:280,1,170,6|2,3:2|3:2,0:0:0:0:
152,129,72464,2,0,P|208:104|252:111,1,85,2|0,0:0|3:2,0:0:0:0:
349,19,72770,2,0,P|406:40|432:76,1,85,2|0,0:0|3:2,0:0:0:0:
454,161,73076,1,2,0:0:0:0:
344,115,73229,5,2,3:2:0:0:
401,242,73382,1,2,0:0:0:0:
349,103,73536,1,2,3:2:0:0:
309,221,73689,1,2,0:0:0:0:
228,173,73842,1,2,3:2:0:0:
302,319,73995,1,0,3:2:0:0:
302,319,74071,1,0,3:2:0:0:
302,319,74148,1,2,3:2:0:0:
146,276,74301,6,0,L|251:259,1,85,2|2,0:0|3:2,0:0:0:0:
122,356,74607,1,2,0:0:0:0:
82,220,74760,1,2,3:2:0:0:
58,301,74913,1,2,0:0:0:0:
165,191,75066,2,0,P|172:149|153:112,1,85,2|8,3:2|0:2,0:0:0:0:
7,87,75372,2,0,P|30:121|70:134,1,85,2|0,3:2|0:0,0:0:0:0:
187,11,75678,5,2,3:2:0:0:
91,46,75831,1,2,0:0:0:0:
266,60,75985,1,2,3:2:0:0:
153,112,76138,2,0,P|219:94|308:77,1,127.5,10|0,0:2|0:0,0:0:0:0:
340,139,76444,2,0,L|329:193,2,42.5,10|8|2,0:2|0:2|3:2,0:0:0:0:
439,69,76750,2,0,L|427:29,1,42.5,8|0,0:2|0:0,0:0:0:0:
504,195,76903,6,0,L|477:362,1,170,6|2,3:2|3:2,0:0:0:0:
334,365,77362,2,0,P|288:339|240:332,1,85,2|0,0:0|3:2,0:0:0:0:
177,261,77668,2,0,P|223:235|271:228,1,85,2|2,0:0|3:2,0:0:0:0:
362,263,77974,1,2,0:0:0:0:
332,129,78127,5,2,3:2:0:0:
193,156,78280,1,2,0:0:0:0:
345,137,78433,1,2,3:2:0:0:
259,61,78587,1,2,0:0:0:0:
388,55,78740,1,2,3:2:0:0:
281,196,78893,1,0,3:2:0:0:
281,196,78969,1,0,3:2:0:0:
281,196,79046,1,0,3:2:0:0:
458,281,79199,6,0,P|492:228|492:189,1,85,2|2,3:2|3:2,0:0:0:0:
362,263,79505,1,0,0:0:0:0:
362,263,79581,1,0,0:0:0:0:
362,263,79658,2,0,L|382:358,1,85,2|2,3:2|0:0,0:0:0:0:
258,281,79964,2,0,L|238:376,1,85,2|2,3:2|0:0,0:0:0:0:
73,336,80270,1,2,3:2:0:0:
166,296,80423,1,2,0:0:0:0:
80,138,80576,6,0,P|21:117|-10:112,1,85,2|0,3:2|0:0,0:0:0:0:
129,210,80882,1,6,3:2:0:0:
202,89,81036,2,0,P|261:68|292:63,1,85,2|10,0:0|0:2,0:0:0:0:
295,58,81265,1,8,0:2:0:0:
289,87,81341,1,8,0:2:0:0:
283,116,81418,1,8,0:2:0:0:
278,145,81494,1,10,0:2:0:0:
272,174,81571,1,8,0:2:0:0:
266,204,81647,1,8,0:2:0:0:
261,233,81724,1,8,0:2:0:0:
268,277,81801,6,0,P|345:294|406:195,1,195.500003728867,6|8,3:2|0:2,0:0:0:0:
122,253,82260,2,0,L|142:371,1,97.7500018644333,2|2,0:0|3:2,0:0:0:0:
18,143,82566,1,2,3:2:0:0:
184,173,82719,1,8,0:2:0:0:
83,18,82872,6,0,B|42:230,1,195.500003728867,2|2,3:2|3:2,0:0:0:0:
325,153,83331,2,0,P|385:133|436:134,1,97.7500018644333,8|2,0:2|0:0,0:0:0:0:
276,258,83638,1,2,3:2:0:0:
235,82,83791,2,0,P|175:62|124:63,1,97.7500018644333,2|8,3:2|0:2,0:0:0:0:
393,238,84097,6,0,L|381:361,1,97.7500018644333,6|0,3:2|0:0,0:0:0:0:
216,187,84403,1,2,3:2:0:0:
177,384,84556,2,0,L|167:286,1,97.7500018644333,10|0,0:2|0:0,0:0:0:0:
11,148,84862,2,0,L|108:157,1,97.7500018644333,2|0,3:2|3:2,0:0:0:0:
276,14,85168,2,0,L|285:111,1,97.7500018644333,10|2,0:2|3:2,0:0:0:0:
341,190,85398,5,2,3:2:0:0:
341,190,85474,2,0,P|399:205|453:184,1,97.7500018644333,2|2,3:2|3:2,0:0:0:0:
512,110,85780,1,10,0:2:0:0:
356,306,85933,2,0,P|298:291|244:312,1,97.7500018644333,2|2,0:0|3:2,0:0:0:0:
72,357,86240,1,10,0:2:0:0:
72,357,86316,1,8,0:2:0:0:
72,357,86393,2,0,L|52:296,1,48.8750009322167,10|8,0:2|0:2,0:0:0:0:
175,214,86546,2,0,L|155:275,1,48.8750009322167,10|8,0:2|0:2,0:0:0:0:
0,103,86699,6,0,P|69:126|164:33,1,203.999993774414,6|8,3:2|0:2,0:0:0:0:
340,230,87158,2,0,P|290:204|269:161,1,101.999996887207,2|6,0:0|3:2,0:0:0:0:
409,28,87464,1,2,3:2:0:0:
250,78,87617,1,10,0:2:0:0:
437,264,87770,6,0,L|414:131,1,101.999996887207,2|6,3:2|3:2,0:0:0:0:
359,325,88076,1,2,3:2:0:0:
499,356,88229,1,8,0:2:0:0:
353,314,88382,1,2,0:0:0:0:
252,384,88536,1,6,3:2:0:0:
110,279,88689,2,0,P|79:223|83:148,1,101.999996887207,2|8,3:2|0:2,0:0:0:0:
281,10,88995,6,0,L|59:36,1,203.999993774414,6|2,3:2|0:0,0:0:0:0:
197,104,89454,2,0,L|165:220,1,101.999996887207,8|0,0:2|3:0,0:0:0:0:
427,96,89760,1,6,3:2:0:0:
272,166,89913,1,2,3:2:0:0:
494,175,90066,1,10,0:2:0:0:
380,7,90219,1,2,3:2:0:0:
344,280,90372,6,0,P|374:222|379:175,1,101.999996887207,6|0,3:2|3:2,0:0:0:0:
175,309,90678,2,0,P|145:251|140:204,1,101.999996887207,10|0,0:2|0:0,0:0:0:0:
393,356,90985,1,6,3:2:0:0:
105,382,91138,1,0,3:2:0:0:
79,349,91214,1,8,0:2:0:0:
60,313,91291,1,14,0:2:0:0:
48,274,91367,1,8,0:0:0:0:
44,234,91444,1,0,3:2:0:0:
163,79,91597,5,6,3:2:0:0:
144,166,91750,1,0,3:2:0:0:
251,74,91903,1,8,0:2:0:0:
243,171,92056,1,0,3:2:0:0:
339,54,92209,1,8,0:2:0:0:
357,175,92362,1,0,3:2:0:0:
409,3,92515,1,8,0:2:0:0:
462,182,92668,1,0,3:2:0:0:
165,308,92821,5,10,0:2:0:0:
146,221,92974,1,8,0:2:0:0:
253,313,93127,1,8,0:2:0:0:
245,216,93280,1,0,3:2:0:0:
341,333,93433,1,8,0:2:0:0:
359,212,93586,1,0,3:2:0:0:
411,384,93740,2,0,L|427:329,1,50.9999984436036,10|8,0:2|0:2,0:0:0:0:
464,205,93893,2,0,L|448:260,1,50.9999984436036,8|8,0:2|0:2,0:0:0:0:
71,181,94046,5,2,3:2:0:0:
454,117,94352,1,10,0:2:0:0:
468,126,94658,5,10,0:2:0:0:
125,251,94811,1,10,0:2:0:0:
429,306,94964,1,10,0:2:0:0:
436,320,95270,5,10,0:2:0:0:
443,332,95576,5,10,0:2:0:0:
296,92,95729,1,10,0:2:0:0:
284,79,96036,6,0,L|272:25,1,50.9999984436036,10|0,0:2|0:0,0:0:0:0:
88,130,96189,2,0,L|60:275,1,140.25000428009,6|0,3:2|0:0,0:0:0:0:
89,351,96495,6,0,P|133:332|194:321,1,101.999996887207,6|0,3:2|0:0,0:0:0:0:
341,348,96801,1,10,0:2:0:0:
381,359,96877,1,8,0:2:0:0:
422,350,96954,1,8,0:2:0:0:
455,323,97030,1,8,0:2:0:0:
471,284,97107,1,10,0:2:0:0:
467,242,97183,1,8,0:2:0:0:
444,206,97260,1,8,0:2:0:0:
408,185,97336,1,8,0:2:0:0:
371,164,97413,1,10,0:2:0:0:
348,128,97490,1,8,0:2:0:0:
345,86,97566,1,8,0:2:0:0:
361,47,97643,1,8,0:2:0:0:
393,20,97719,5,2,3:2:0:0:
399,62,97795,1,8,0:2:0:0:
392,104,97872,1,8,0:2:0:0:
372,141,97948,1,8,0:2:0:0:
342,170,98025,1,10,0:2:0:0:
303,188,98101,1,8,0:2:0:0:
261,193,98178,1,8,0:2:0:0:
220,185,98254,1,8,0:2:0:0:
183,164,98331,1,10,0:2:0:0:
145,146,98407,1,8,0:2:0:0:
103,147,98484,1,8,0:2:0:0:
67,168,98562,1,8,0:2:0:0:
44,203,98638,2,0,L|63:271,1,50.9999984436036,10|0,0:2|0:0,0:0:0:0:
270,384,98791,6,0,L|290:270,1,101.999996887207,6|0,3:2|0:0,0:0:0:0:
273,37,99097,1,2,3:2:0:0:
160,265,99250,1,10,0:2:0:0:
497,210,99403,1,2,3:2:0:0:
150,110,99556,1,10,0:2:0:0:
439,53,99709,1,2,3:2:0:0:
346,317,99862,1,10,0:2:0:0:
272,23,100015,1,6,3:2:0:0:
283,36,100321,5,10,0:2:0:0:
275,81,100397,1,8,0:2:0:0:
267,126,100474,1,10,0:2:0:0:
259,171,100550,1,8,0:2:0:0:
251,216,100627,1,10,0:2:0:0:
243,262,100703,1,8,0:2:0:0:
235,307,100780,1,10,0:2:0:0:
138,376,100933,6,0,P|111:363|76:363,1,50.9999984436036,2|0,0:0|0:0,0:0:0:0:
5,336,101087,2,0,P|80:329|134:247,1,152.999995330811,2|0,0:0|0:0,0:0:0:0:
0,90,101393,6,0,B|-12:142|-12:142|16:166|16:166|41:259,1,178.499994552612,6|0,3:2|0:0,0:0:0:0:
183,87,101699,2,0,L|84:112,1,101.999996887207,10|0,0:2|3:0,0:0:0:0:
84,112,101928,1,0,3:0:0:0:
84,112,102005,1,0,3:2:0:0:
233,188,102158,5,2,3:2:0:0:
304,19,102311,1,10,0:2:0:0:
322,238,102464,1,2,0:0:0:0:
512,122,102617,6,0,B|524:174|524:174|496:198|496:198|471:291,1,178.499994552612,2|0,3:2|0:0,0:0:0:0:
329,119,102923,2,0,L|428:144,1,101.999996887207,10|0,0:2|3:2,0:0:0:0:
427,143,103152,1,0,3:2:0:0:
427,143,103229,1,0,3:2:0:0:
263,295,103382,5,2,3:2:0:0:
192,85,103536,1,10,0:2:0:0:
124,344,103689,1,2,0:0:0:0:
35,116,103842,5,6,3:2:0:0:
276,196,103995,1,2,0:0:0:0:
145,220,104148,1,10,0:2:0:0:
208,0,104301,1,2,0:0:0:0:
47,207,104454,5,6,3:2:0:0:
357,139,104607,1,0,3:2:0:0:
228,297,104760,1,10,0:2:0:0:
183,87,104913,1,2,0:0:0:0:
386,294,105066,5,6,3:2:0:0:
154,185,105219,2,0,L|263:200,1,101.999996887207,2|8,0:0|0:2,0:0:0:0:
376,39,105525,1,2,3:2:0:0:
376,39,105602,1,2,3:2:0:0:
376,39,105678,2,0,P|316:47|262:93,1,101.999996887207,2|2,3:2|3:2,0:0:0:0:
133,326,105985,2,0,P|193:318|247:272,1,101.999996887207,10|0,0:2|3:2,0:0:0:0:
60,116,106291,6,0,L|29:322,1,187.000005706787,6|10,3:2|0:2,0:0:0:0:
186,115,106750,2,0,L|171:-7,1,93.5000028533936,2|2,3:2|3:2,0:0:0:0:
373,150,107056,2,0,L|361:242,1,93.5000028533936,2|8,3:2|0:2,0:0:0:0:
334,56,107362,6,0,B|383:38|430:66|430:66|481:97|523:72,1,187.000005706787,2|0,3:2|3:2,0:0:0:0:
289,140,107821,2,0,P|250:175|227:214,1,93.5000028533936,10|0,0:2|3:2,0:0:0:0:
288,293,108051,1,0,3:2:0:0:
288,293,108127,2,0,P|237:304|197:326,1,93.5000028533936,2|0,3:2|3:2,0:0:0:0:
77,214,108433,2,0,P|121:228|160:254,1,93.5000028533936,10|0,0:2|3:2,0:0:0:0:
15,317,108740,6,0,L|47:122,1,187.000005706787,2|10,3:2|0:2,0:0:0:0:
121,48,109199,1,2,3:2:0:0:
121,48,109275,1,0,3:2:0:0:
121,48,109352,1,0,3:2:0:0:
217,138,109505,2,0,P|275:125|315:92,1,93.5000028533936,2|8,3:2|0:2,0:0:0:0:
448,9,109811,6,0,B|439:54|439:54|429:73|429:73|414:173,1,140.25000428009,6|0,3:2|0:0,0:0:0:0:
339,283,110117,1,10,0:2:0:0:
235,45,110270,1,10,0:2:0:0:
185,338,110423,1,10,0:2:0:0:
33,132,110576,5,10,0:2:0:0:
77,125,110652,1,10,0:2:0:0:
124,116,110729,1,10,0:2:0:0:
171,107,110805,1,2,3:2:0:0:
219,133,110882,6,0,L|272:150,1,46.7500014266968,14|0,0:2|0:0,0:0:0:0:
445,358,111189,6,0,P|362:295|277:300,1,178.499994552612,6|0,3:2|0:0,0:0:0:0:
427,215,111495,2,0,P|446:166|439:114,1,106.25,10|0,0:2|3:2,0:0:0:0:
438,113,111724,1,0,3:2:0:0:
438,113,111801,1,0,3:2:0:0:
203,225,111954,5,2,3:2:0:0:
257,50,112107,1,10,0:2:0:0:
291,295,112260,1,2,0:0:0:0:
37,61,112413,6,0,P|120:124|202:112,1,159.375,2|0,3:2|0:0,0:0:0:0:
55,198,112719,2,0,P|28:260|35:312,1,118.999996368408,10|0,0:2|3:2,0:0:0:0:
34,309,112948,1,0,3:2:0:0:
34,309,113025,1,0,3:2:0:0:
295,171,113178,5,2,3:2:0:0:
144,29,113331,1,10,0:2:0:0:
144,263,113485,1,0,0:0:0:0:
426,133,113638,5,6,3:2:0:0:
240,89,113791,1,2,0:0:0:0:
510,57,113944,1,10,0:2:0:0:
339,242,114097,1,0,3:2:0:0:
311,19,114250,5,6,3:2:0:0:
437,293,114403,1,2,3:2:0:0:
220,192,114556,1,10,0:2:0:0:
492,203,114709,1,2,0:0:0:0:
237,358,114862,5,6,3:2:0:0:
144,116,115016,2,0,L|254:95,1,101.999996887207,2|8,0:0|0:2,0:0:0:0:
132,302,115321,1,2,3:2:0:0:
132,302,115398,1,0,3:2:0:0:
132,302,115475,2,0,L|22:281,1,101.999996887207,2|2,3:2|3:2,0:0:0:0:
301,24,115781,2,0,P|336:86|325:139,1,101.999996887207,10|0,0:2|3:2,0:0:0:0:
204,378,116087,6,0,L|312:355,1,101.999996887207,6|0,3:2|0:0,0:0:0:0:
471,161,116393,5,10,0:2:0:0:
441,139,116469,1,8,0:2:0:0:
407,125,116546,1,8,0:2:0:0:
370,117,116622,1,8,0:2:0:0:
333,118,116699,1,10,0:2:0:0:
297,127,116775,1,8,0:2:0:0:
264,144,116852,1,8,0:2:0:0:
235,168,116928,1,8,0:2:0:0:
194,202,117005,5,10,0:2:0:0:
184,149,117081,1,8,0:2:0:0:
179,97,117158,1,8,0:2:0:0:
174,47,117234,1,8,0:2:0:0:
164,0,117312,6,0,L|137:130,1,101.999996887207,6|0,3:2|0:0,0:0:0:0:
20,370,117617,5,10,0:2:0:0:
53,362,117693,1,8,0:2:0:0:
89,356,117770,1,8,0:2:0:0:
123,348,117846,1,8,0:2:0:0:
158,340,117923,1,10,0:2:0:0:
192,334,117999,1,8,0:2:0:0:
227,327,118076,1,8,0:2:0:0:
262,321,118152,1,8,0:2:0:0:
305,293,118229,5,10,0:2:0:0:
355,313,118305,1,8,0:2:0:0:
401,330,118382,1,8,0:2:0:0:
448,347,118458,1,8,0:2:0:0:
496,366,118536,6,0,P|510:306|481:258,1,101.999996887207,6|0,3:2|0:0,0:0:0:0:
157,62,118842,5,10,0:2:0:0:
150,106,118918,1,8,0:2:0:0:
163,149,118995,1,8,0:2:0:0:
193,182,119071,1,8,0:2:0:0:
234,199,119148,1,10,0:2:0:0:
278,198,119224,1,8,0:2:0:0:
318,177,119301,1,8,0:2:0:0:
345,142,119377,1,8,0:2:0:0:
368,92,119454,5,10,0:2:0:0:
360,143,119530,1,8,0:2:0:0:
354,196,119607,1,8,0:2:0:0:
344,247,119683,1,8,0:2:0:0:
336,299,119760,5,6,3:2:0:0:
38,194,120066,6,0,L|25:96,1,97.7500018644333,2|0,0:0|0:0,0:0:0:0:
111,263,120372,2,0,L|18:304,1,97.7500018644333,2|0,0:0|0:0,0:0:0:0:
131,165,120678,2,0,L|292:194,1,133.874995914459,2|0,3:2|0:0,0:0:0:0:
262,188,120985,5,6,3:2:0:0:
51,51,122821,5,2,3:2:0:0:
134,104,123025,1,2,3:2:0:0:
91,195,123229,1,2,3:2:0:0:
114,276,123433,5,6,3:2:0:0:
419,344,125270,5,2,3:2:0:0:
326,242,125474,6,0,L|311:287,1,29.7499990921021,10|0,0:2|0:0,0:0:0:0:
489,183,125678,6,0,L|476:128,1,29.7499990921021,10|0,0:2|0:0,0:0:0:0:
451,37,125882,5,6,3:2:0:0:
444,51,127107,5,2,0:0:0:0:
321,165,127719,6,0,L|272:157,1,29.7499990921021,10|0,0:2|0:0,0:0:0:0:
206,95,127923,1,2,3:2:0:0:
221,247,128127,1,2,3:2:0:0:
72,338,128331,6,0,P|76:259|63:182,1,140.25000428009,6|0,3:2|0:0,0:0:0:0:
150,170,128944,2,0,P|167:90|207:16,1,165.749992412568,2|0,0:0|3:2,0:0:0:0:
276,92,129556,6,0,L|285:123,1,29.7499990921021,10|0,0:2|0:0,0:0:0:0:
352,183,129760,1,2,3:2:0:0:
437,89,129964,1,2,3:2:0:0:
486,199,130168,2,0,P|478:229|464:257,1,59.4999981842042,2|0,3:2|0:0,0:0:0:0:
352,292,130372,6,0,L|311:284,1,29.7499990921021,10|0,0:2|0:0,0:0:0:0:
286,379,130576,6,0,L|326:368,1,29.7499990921021,10|0,0:2|0:0,0:0:0:0:
196,279,130780,6,0,L|207:362,1,59.4999981842042,6|0,3:2|0:0,0:0:0:0:
112,268,131087,2,0,L|123:351,1,59.4999981842042,2|0,3:2|0:0,0:0:0:0:
268,227,131393,2,0,L|279:310,1,59.4999981842042,2|0,3:2|0:0,0:0:0:0:
146,185,131699,2,0,L|205:173,1,59.4999981842042,2|0,3:2|0:0,0:0:0:0:
392,124,132005,6,0,P|421:126|449:136,1,59.4999981842042,2|0,3:2|0:0,0:0:0:0:
323,60,132311,2,0,P|325:30|335:2,1,59.4999981842042,2|0,3:2|0:0,0:0:0:0:
396,214,132617,2,0,P|423:224|448:241,1,59.4999981842042,2|0,3:2|0:0,0:0:0:0:
240,91,132923,2,0,P|234:61|237:32,1,59.4999981842042,2|0,3:2|0:0,0:0:0:0:
301,162,133229,6,0,P|250:183|173:161,2,118.999996368408,2|2|2,3:2|3:2|3:2,0:0:0:0:
112,51,134148,2,0,L|131:126,1,59.4999981842042,2|0,3:2|0:0,0:0:0:0:
21,170,134454,6,0,L|40:95,1,59.4999981842042,2|0,3:2|0:0,0:0:0:0:
204,228,134760,2,0,L|183:151,1,59.4999981842042,2|0,3:2|0:0,0:0:0:0:
43,327,135066,2,0,L|62:252,1,59.4999981842042,2|0,3:2|0:0,0:0:0:0:
152,375,135372,2,0,L|137:317,1,59.4999981842042,2|0,3:2|0:0,0:0:0:0:
369,92,135678,6,0,P|324:140|272:140,1,85,6|0,3:2|0:0,0:0:0:0:
19,115,135985,5,10,0:2:0:0:
52,83,136061,1,8,0:2:0:0:
96,69,136138,1,10,0:2:0:0:
142,78,136214,1,8,0:2:0:0:
179,106,136291,1,8,0:2:0:0:
198,147,136367,1,8,0:2:0:0:
196,194,136444,1,8,0:2:0:0:
174,234,136520,1,8,0:2:0:0:
135,260,136597,6,0,L|122:202,3,42.5,10|8|8|8,0:2|0:2|0:2|0:2,0:0:0:0:
201,350,136903,6,0,P|261:325|310:316,1,85,6|0,3:2|0:0,0:0:0:0:
510,320,137209,1,8,0:2:0:0:
480,350,137285,1,8,0:2:0:0:
441,365,137362,1,10,0:2:0:0:
399,361,137438,1,8,0:2:0:0:
362,341,137515,1,8,0:2:0:0:
338,306,137591,1,8,0:2:0:0:
331,265,137668,1,8,0:2:0:0:
342,224,137744,1,8,0:2:0:0:
369,192,137821,5,10,0:2:0:0:
360,146,137897,1,8,0:2:0:0:
351,100,137974,1,10,0:2:0:0:
343,54,138050,1,10,0:2:0:0:
365,4,138127,5,8,0:2:0:0:
427,268,138433,1,10,0:2:0:0:
436,280,138740,5,10,0:2:0:0:
121,188,138893,1,10,0:2:0:0:
476,114,139046,1,10,0:2:0:0:
486,125,139352,5,10,0:2:0:0:
497,134,139658,5,10,0:2:0:0:
60,94,139811,1,10,0:2:0:0:
47,106,140117,5,10,0:2:0:0:
415,46,140270,1,10,0:2:0:0:
175,269,140423,6,0,L|192:153,1,85,6|0,3:2|0:0,0:0:0:0:
223,2,140729,1,8,0:2:0:0:
223,2,140805,1,8,0:2:0:0:
223,2,140882,1,8,0:2:0:0:
437,144,141036,5,8,0:2:0:0:
437,144,141112,1,8,0:2:0:0:
437,144,141189,1,8,0:2:0:0:
400,177,141265,1,8,0:2:0:0:
352,189,141342,1,8,0:2:0:0:
304,177,141418,1,8,0:2:0:0:
268,144,141495,1,8,0:2:0:0:
230,109,141571,1,8,0:2:0:0:
183,98,141648,1,8,0:2:0:0:
135,109,141724,1,8,0:2:0:0:
98,142,141801,5,8,0:2:0:0:
101,171,141877,1,8,0:2:0:0:
105,201,141954,1,10,0:2:0:0:
109,230,142030,1,10,0:2:0:0:
143,266,142107,5,10,0:2:0:0:
141,280,142183,1,10,0:2:0:0:
139,295,142260,1,10,0:2:0:0:
136,310,142336,1,10,0:2:0:0:
135,324,142413,1,10,0:2:0:0:
217,384,142566,6,0,L|261:370,1,42.5,2|0,0:0|0:0,0:0:0:0:
312,306,142719,2,0,L|447:326,1,127.5,2|0,0:0|0:0,0:0:0:0:
438,324,143025,6,0,P|461:287|461:245,1,63.7500024318696,2|0,0:0|0:0,0:0:0:0:
363,113,143331,2,0,P|357:163|394:245,1,127.500004863739,2|0,0:0|0:0,0:0:0:0:
508,173,143791,2,0,L|431:159,2,63.7500024318696,2|2|2,0:0|0:0|0:0,0:0:0:0:
384,233,144250,6,0,P|353:224|327:207,1,63.7500024318696,2|0,0:0|0:0,0:0:0:0:
133,259,144556,2,0,P|196:261|252:292,1,127.500004863739,2|0,0:0|0:0,0:0:0:0:
41,346,145015,2,0,L|25:275,2,63.7500024318696,2|2|2,0:0|0:0|0:0,0:0:0:0:
86,197,145474,5,2,0:0:0:0:
5,172,145627,1,2,0:0:0:0:
53,53,145780,2,0,L|72:123,1,63.7500024318696,2|2,0:0|0:0,0:0:0:0:
163,228,146087,5,2,0:0:0:0:
244,203,146240,1,2,0:0:0:0:
196,84,146393,2,0,L|177:154,1,63.7500024318696,2|2,0:0|0:0,0:0:0:0:
99,291,146699,5,2,0:0:0:0:
136,370,146852,2,0,P|173:333|182:308,1,63.7500024318696,2|0,0:0|0:0,0:0:0:0:
309,300,147158,2,0,P|270:277|245:194,1,127.500004863739,2|2,0:0|0:0,0:0:0:0:
303,131,147617,1,2,0:0:0:0:
485,254,147923,6,0,L|453:389,1,127.500004863739,2|2,0:0|0:0,0:0:0:0:
379,210,148382,2,0,L|393:281,1,63.7500024318696,2|0,0:0|0:0,0:0:0:0:
486,114,148689,2,0,L|424:127,1,63.7500024318696,2|0,0:0|0:0,0:0:0:0:
248,21,148995,6,0,P|311:24|367:54,1,127.500004863739,2|0,0:0|0:0,0:0:0:0:
156,129,149454,2,0,P|187:125|224:104,1,63.7500024318696,2|0,0:0|0:0,0:0:0:0:
113,0,149760,2,0,P|141:14|169:46,1,63.7500024318696,2|0,0:0|0:0,0:0:0:0:
24,105,150066,2,0,P|55:98|90:74,1,63.7500024318696,2|0,0:0|0:0,0:0:0:0:
150,239,150372,6,0,P|110:201|36:194,1,127.500004863739,2|2,0:0|0:0,0:0:0:0:
2,294,150831,2,0,L|74:279,1,63.7500024318696,2|0,0:0|0:0,0:0:0:0:
194,345,151138,2,0,L|122:330,1,63.7500024318696,2|0,0:0|0:0,0:0:0:0:
234,206,151444,6,0,P|247:252|244:273,1,63.7500024318696,2|2,0:0|0:0,0:0:0:0:
163,157,151750,1,2,0:0:0:0:
239,121,151903,1,2,0:0:0:0:
79,135,152056,1,2,0:0:0:0:
310,170,152209,5,2,0:0:0:0:
33,59,152515,1,2,0:0:0:0:
438,324,152821,6,0,P|464:275|460:213,1,85,6|0,3:2|0:0,0:0:0:0:
375,73,153127,2,0,P|370:117|410:216,1,127.5,10|0,3:2|0:0,0:0:0:0:
471,174,153433,5,10,0:2:0:0:
457,98,153587,1,10,0:2:0:0:
283,95,153740,5,10,0:2:0:0:
297,19,153894,1,10,0:2:0:0:
304,187,154046,6,0,P|251:183|212:162,1,85,2|0,3:2|0:0,0:0:0:0:
151,107,154352,1,10,0:2:0:0:
207,283,154505,2,0,P|166:270|124:270,1,85,8|0,0:2|3:2,0:0:0:0:
37,324,154811,1,2,3:2:0:0:
37,324,154888,1,0,3:2:0:0:
37,324,154964,1,10,0:2:0:0:
261,360,155117,1,2,3:2:0:0:
77,194,155270,5,10,0:2:0:0:
124,270,155423,1,2,0:0:0:0:
156,139,155576,1,10,0:2:0:0:
177,215,155729,1,2,0:0:0:0:
247,127,155882,1,10,0:2:0:0:
244,174,156036,1,10,0:2:0:0:
333,142,156189,1,2,3:2:0:0:
323,165,156342,1,2,0:0:0:0:
405,186,156495,5,2,3:2:0:0:
260,299,156648,2,0,P|313:258|365:241,1,85,2|0,0:0|3:2,0:0:0:0:
493,144,156954,2,0,P|440:103|388:86,1,85,10|2,0:0|3:2,0:0:0:0:
284,31,157260,1,10,0:2:0:0:
284,31,157337,1,8,0:2:0:0:
284,31,157413,1,0,0:2:0:0:
323,165,157566,1,10,0:2:0:0:
123,136,157719,6,0,L|225:121,1,85,6|0,3:2|0:0,0:0:0:0:
76,225,158025,2,0,L|91:327,1,85,2|0,3:2|0:0,0:0:0:0:
32,144,158331,5,10,0:2:0:0:
165,216,158485,1,8,0:2:0:0:
268,364,158638,5,2,3:2:0:0:
401,292,158792,1,2,0:0:0:0:
296,114,158944,6,0,P|276:176|281:219,1,85,2|0,3:2|0:0,0:0:0:0:
389,88,159250,1,10,0:2:0:0:
233,41,159403,1,8,0:2:0:0:
445,25,159556,1,2,3:2:0:0:
370,184,159709,1,0,3:2:0:0:
370,184,159786,1,0,3:2:0:0:
370,184,159862,1,10,0:2:0:0:
324,25,160015,1,0,3:2:0:0:
171,139,160168,6,0,L|311:110,1,127.5,2|0,3:2|0:0,0:0:0:0:
295,113,160474,1,2,3:2:0:0:
262,209,160627,1,2,0:0:0:0:
202,46,160780,1,2,3:2:0:0:
130,215,160933,1,10,0:0:0:0:
351,193,161087,1,2,3:2:0:0:
90,96,161240,1,2,0:0:0:0:
452,229,161393,5,10,0:2:0:0:
203,379,161699,6,0,P|153:325|240:305,1,191.250007295609,2|0,0:0|0:0,0:0:0:0:
384,361,162005,2,0,P|454:332|437:216,1,191.250007295609,2|0,0:0|0:0,0:0:0:0:
343,172,162311,2,0,B|384:161|384:161|397:150|397:150|495:124,1,127.5,8|0,0:2|0:0,0:0:0:0:
376,276,162618,6,0,B|319:266|319:266|291:277|291:277|198:258,1,178.499994552612,6|0,3:2|0:0,0:0:0:0:
217,87,162923,6,0,L|358:64,1,101.999996887207,8|0,0:2|3:0,0:0:0:0:
317,70,163153,1,0,3:0:0:0:
317,70,163229,1,0,3:2:0:0:
177,335,163382,5,2,3:2:0:0:
130,123,163536,1,10,0:2:0:0:
347,206,163689,1,2,3:2:0:0:
65,264,163842,6,0,B|52:210|52:210|31:185|31:185|12:90,1,178.499994552612,2|0,3:2|0:0,0:0:0:0:
190,234,164148,6,0,L|172:377,1,101.999996887207,10|0,0:2|3:2,0:0:0:0:
177,335,164377,1,0,3:2:0:0:
177,335,164454,1,0,3:2:0:0:
464,189,164607,5,2,3:2:0:0:
257,139,164760,1,10,0:2:0:0:
465,285,164913,1,2,3:2:0:0:
451,96,165066,5,6,3:2:0:0:
382,323,165219,1,2,0:0:0:0:
303,66,165372,1,10,0:2:0:0:
274,295,165525,1,2,3:2:0:0:
388,31,165678,5,6,3:2:0:0:
344,241,165831,1,2,3:2:0:0:
222,89,165985,1,8,0:2:0:0:
512,154,166138,1,2,0:0:0:0:
305,377,166291,5,6,3:2:0:0:
320,159,166444,2,0,P|378:160|422:203,1,101.999996887207,2|8,0:0|0:2,0:0:0:0:
212,356,166750,1,0,3:0:0:0:
212,356,166826,1,0,3:0:0:0:
212,356,166903,2,0,P|160:349|109:314,1,101.999996887207,2|2,3:2|3:2,0:0:0:0:
225,161,167209,2,0,L|191:273,1,101.999996887207,10|0,0:2|3:2,0:0:0:0:
85,68,167515,6,0,B|146:59|146:59|176:68|176:68|243:55,1,152.999995330811,6|0,3:2|0:0,0:0:0:0:
234,56,167821,1,10,0:2:0:0:
14,12,167974,2,0,P|-9:75|9:121,1,101.999996887207,2|0,0:0|3:2,0:0:0:0:
34,288,168280,2,0,P|63:247|110:231,1,101.999996887207,2|8,3:2|0:2,0:0:0:0:
319,337,168587,5,0,3:2:0:0:
319,337,168663,1,0,3:2:0:0:
319,337,168740,2,0,L|428:319,1,101.999996887207,2|0,3:2|3:2,0:0:0:0:
439,83,169046,2,0,L|400:209,1,101.999996887207,10|0,0:2|3:2,0:0:0:0:
347,239,169275,1,0,3:2:0:0:
347,239,169352,2,0,P|286:205|234:201,1,101.999996887207,2|0,3:2|3:2,0:0:0:0:
224,42,169658,2,0,P|157:60|118:94,1,101.999996887207,10|0,0:2|3:2,0:0:0:0:
68,137,169888,5,0,3:2:0:0:
68,137,169964,2,0,L|86:246,1,101.999996887207,2|0,3:2|3:2,0:0:0:0:
204,358,170270,1,10,0:2:0:0:
164,209,170423,1,0,3:2:0:0:
164,209,170500,1,0,3:2:0:0:
164,209,170576,1,0,3:2:0:0:
54,324,170729,2,0,P|103:324|158:281,1,101.999996887207,2|8,3:2|0:2,0:0:0:0:
434,367,171036,6,0,L|313:349,1,101.999996887207,6|0,3:2|0:0,0:0:0:0:
471,233,171342,1,10,0:2:0:0:
230,272,171495,1,10,0:2:0:0:
495,251,171648,1,10,0:2:0:0:
194,172,171801,5,10,0:2:0:0:
176,124,171877,1,8,0:2:0:0:
179,74,171954,1,8,0:2:0:0:
204,30,172030,1,8,0:2:0:0:
246,1,172107,6,0,L|312:11,1,50.9999984436036,14|0,0:2|0:0,0:0:0:0:
451,126,172413,6,0,P|401:158|376:287,1,191.250007295609,6|0,3:2|0:0,0:0:0:0:
254,381,172719,2,0,L|231:273,1,110.499994941712,10|0,0:2|3:0,0:0:0:0:
230,272,172949,1,0,3:0:0:0:
230,272,173025,1,0,3:2:0:0:
85,117,173178,5,2,3:2:0:0:
294,196,173331,1,8,0:2:0:0:
52,255,173485,1,0,3:2:0:0:
89,8,173638,6,0,P|155:31|186:153,1,191.250007295609,2|0,3:2|0:0,0:0:0:0:
308,255,173944,2,0,L|331:147,1,110.499994941712,10|0,0:2|3:0,0:0:0:0:
331,146,174174,1,0,3:0:0:0:
331,146,174250,1,0,3:2:0:0:
227,331,174403,5,2,3:2:0:0:
121,155,174556,1,8,0:2:0:0:
110,384,174709,1,2,0:0:0:0:
511,245,174862,6,0,L|356:219,1,110.499994941712,6|0,3:2|0:0,0:0:0:0:
87,261,175168,1,8,0:2:0:0:
432,347,175321,1,2,3:2:0:0:
12,173,175474,2,0,L|167:147,1,110.499994941712,6|0,3:2|3:2,0:0:0:0:
410,110,175780,1,10,0:2:0:0:
270,296,175933,1,2,0:0:0:0:
233,65,176087,5,6,3:2:0:0:
341,346,176240,1,2,0:0:0:0:
449,195,176393,1,8,0:2:0:0:
160,260,176546,1,2,3:2:0:0:
373,254,176699,5,6,3:2:0:0:
209,171,176852,1,2,3:2:0:0:
428,86,177005,2,0,L|452:210,1,110.499994941712,8|0,0:2|0:0,0:0:0:0:
173,361,177311,6,0,P|98:344|57:289,1,110.499994941712,6|0,3:2|0:0,0:0:0:0:
237,69,177617,1,10,0:2:0:0:
280,84,177693,1,8,0:2:0:0:
313,117,177770,1,8,0:2:0:0:
328,161,177846,1,8,0:2:0:0:
324,208,177923,1,10,0:2:0:0:
301,248,177999,1,8,0:2:0:0:
263,275,178076,1,8,0:2:0:0:
218,285,178152,1,8,0:2:0:0:
174,274,178229,5,10,0:2:0:0:
227,258,178305,1,8,0:2:0:0:
280,242,178382,1,8,0:2:0:0:
333,226,178458,1,8,0:2:0:0:
386,210,178536,6,0,L|368:336,1,110.499994941712,6|0,3:2|0:0,0:0:0:0:
214,376,178842,5,10,0:2:0:0:
166,384,178918,1,8,0:2:0:0:
119,370,178994,1,8,0:2:0:0:
84,334,179071,1,8,0:2:0:0:
71,287,179147,1,10,0:2:0:0:
82,239,179224,1,8,0:2:0:0:
113,201,179300,1,8,0:2:0:0:
159,175,179377,1,8,0:2:0:0:
210,173,179453,5,10,0:2:0:0:
158,158,179530,1,8,0:2:0:0:
105,149,179606,1,8,0:2:0:0:
51,141,179683,1,8,0:2:0:0:
0,127,179760,6,0,L|117:111,1,110.499994941712,6|0,3:2|0:0,0:0:0:0:
180,285,180066,5,10,0:2:0:0:
231,285,180142,1,8,0:2:0:0:
276,261,180219,1,8,0:2:0:0:
301,214,180295,1,8,0:2:0:0:
326,167,180372,1,10,0:2:0:0:
373,142,180449,1,8,0:2:0:0:
424,144,180525,1,8,0:2:0:0:
468,170,180601,1,8,0:2:0:0:
497,215,180678,5,10,0:2:0:0:
484,162,180754,1,8,0:2:0:0:
472,108,180831,1,8,0:2:0:0:
458,54,180907,1,8,0:2:0:0:
446,0,180985,6,0,L|315:29,1,110.499994941712,6|0,3:2|0:0,0:0:0:0:
0,163,181291,2,0,L|134:180,1,110.499994941712,2|0,3:2|0:0,0:0:0:0:
109,176,181520,1,8,0:0:0:0:
109,176,181597,1,2,3:2:0:0:
164,349,181750,1,2,3:2:0:0:
293,117,181903,2,0,P|335:115|405:153,1,110.499994941712,2|0,3:2|0:0,0:0:0:0:
217,195,182209,6,0,L|193:66,1,110.499994941712,6|0,3:2|0:0,0:0:0:0:
319,211,182515,5,2,3:2:0:0:
55,150,182668,1,2,3:2:0:0:
288,291,182821,1,2,3:2:0:0:
18,248,182974,1,2,3:2:0:0:
317,368,183127,1,2,3:2:0:0:
17,361,183280,1,2,3:2:0:0:
258,118,183433,5,10,0:2:0:0:
144,321,183587,1,10,0:2:0:0:
196,56,183740,1,10,0:2:0:0:
228,342,183893,1,10,0:2:0:0:
116,33,184046,1,10,0:2:0:0:
316,322,184199,1,10,0:2:0:0:
32,42,184352,1,10,0:2:0:0:
386,268,184505,1,10,0:2:0:0:
19,237,184658,5,10,0:2:0:0:
466,168,184964,1,10,0:2:0:0:
477,180,185270,5,10,0:2:0:0:
108,155,185423,1,10,0:2:0:0:
451,58,185576,1,10,0:2:0:0:
462,72,185882,6,0,L|309:50,1,110.499994941712,10|0,0:2|0:0,0:0:0:0:
15,121,186189,2,0,P|15:199|49:239,1,110.499994941712,10|0,0:2|0:0,0:0:0:0:
361,256,186495,1,10,0:2:0:0:
329,225,186571,1,8,0:2:0:0:
290,204,186648,1,8,0:2:0:0:
247,196,186724,1,8,0:2:0:0:
203,199,186801,1,10,0:2:0:0:
162,215,186877,1,8,0:2:0:0:
127,242,186954,1,8,0:2:0:0:
101,278,187030,1,8,0:2:0:0:
86,320,187107,6,0,L|63:199,1,110.499994941712,6|0,3:2|0:0,0:0:0:0:
279,52,187413,1,8,0:2:0:0:
225,311,187566,1,2,3:2:0:0:
1,133,187719,2,0,B|72:116|72:116|127:133|127:133|220:113,1,220.999989883423,2|8,3:2|0:2,0:0:0:0:
406,9,188178,6,0,L|386:109,1,101.999996887207,6|0,3:2|0:0,0:0:0:0:
346,276,188485,1,2,3:2:0:0:
293,168,188638,1,8,0:2:0:0:
464,205,188791,1,2,3:2:0:0:
464,205,188867,1,0,3:2:0:0:
464,205,188944,2,0,L|483:305,1,101.999996887207,2|2,3:2|3:2,0:0:0:0:
225,384,189250,2,0,L|244:283,1,101.999996887207,8|0,0:2|3:0,0:0:0:0:
20,220,189556,6,0,P|79:242|172:175,1,152.999995330811,6|0,3:2|0:0,0:0:0:0:
156,205,189862,1,8,0:2:0:0:
73,113,190015,1,2,3:2:0:0:
245,216,190168,1,2,3:2:0:0:
82,329,190321,1,2,3:2:0:0:
331,228,190474,1,8,0:2:0:0:
189,36,190627,6,0,L|206:149,1,101.999996887207,2|0,3:2|0:0,0:0:0:0:
276,301,190933,1,2,3:2:0:0:
300,138,191087,1,10,0:2:0:0:
190,290,191240,1,0,3:0:0:0:
367,318,191393,2,0,P|409:286|423:225,1,101.999996887207,2|8,3:2|0:2,0:0:0:0:
434,232,191622,5,8,0:2:0:0:
426,191,191698,1,10,0:2:0:0:
419,151,191775,1,8,0:2:0:0:
412,111,191851,1,8,0:2:0:0:
405,71,191928,1,8,0:0:0:0:
360,41,192005,6,0,L|245:26,1,101.999996887207,6|0,3:2|0:0,0:0:0:0:
323,237,192311,2,0,L|299:134,1,101.999996887207,6|0,3:2|0:0,0:0:0:0:
70,121,192617,2,0,L|185:106,1,101.999996887207,6|0,3:2|3:2,0:0:0:0:
107,317,192923,2,0,L|131:214,1,101.999996887207,6|0,3:2|3:2,0:0:0:0:
282,381,193229,5,6,3:2:0:0:
227,255,193382,1,0,3:2:0:0:
8,349,193536,1,6,3:2:0:0:
197,339,193689,1,0,3:0:0:0:
55,194,193842,1,6,3:2:0:0:
107,317,193995,1,0,3:2:0:0:
173,168,194148,1,6,3:2:0:0:
10,107,194301,5,0,3:0:0:0:
10,107,194377,1,0,3:0:0:0:
10,107,194454,2,0,L|121:82,1,101.999996887207,6|0,3:2|0:0,0:0:0:0:
294,16,194760,2,0,L|269:127,1,101.999996887207,6|0,3:2|0:0,0:0:0:0:
457,259,195066,2,0,L|346:234,1,101.999996887207,6|0,3:2|3:2,0:0:0:0:
173,168,195372,2,0,L|198:279,1,101.999996887207,6|2,3:2|3:2,0:0:0:0:
229,348,195602,5,2,3:2:0:0:
229,348,195678,2,0,P|283:316|329:316,1,101.999996887207,2|2,3:2|3:2,0:0:0:0:
268,195,195908,5,2,3:2:0:0:
268,195,195984,2,0,P|328:210|361:243,1,101.999996887207,6|2,3:2|3:2,0:0:0:0:
403,114,196215,5,2,3:2:0:0:
403,114,196291,1,10,0:2:0:0:
406,318,196444,1,10,0:2:0:0:
154,224,196597,1,10,0:2:0:0:
490,54,196750,5,10,0:2:0:0:
