osu file format v14

[General]
AudioFilename: audio.mp3
AudioLeadIn: 0
PreviewTime: 31445
Countdown: 0
SampleSet: Soft
StackLeniency: 0.6
Mode: 0
LetterboxInBreaks: 0
WidescreenStoryboard: 0

[Editor]
Bookmarks: 7926,12731,15644,24673,31518,32246,44770,51469,61882,68872,73023,78629,101566,108921,110887,118314,119260,129673,141324,142780,147440,148751,150207
DistanceSpacing: 1
BeatDivisor: 4
GridSize: 8
TimelineZoom: 1.3

[Metadata]
Title:Nannimonai
TitleUnicode:なんにもない
Artist:SymaG
ArtistUnicode:SymaG
Creator:Testo
Version:Normal
Source:
Tags:Mirash Wajinshu Kasane Teto 重音テト Usushio Shisuu 薄塩指数 vocaloid cover Nothing At All
BeatmapID:1437849
BeatmapSetID:679965

[Difficulty]
HPDrainRate:3.5
CircleSize:3
OverallDifficulty:4
ApproachRate:6
SliderMultiplier:1.1
SliderTickRate:1

[Events]
//Background and Video events
0,0,"NannimoBG.jpg",0,0
//Break Periods
2,101421,109541
//Storyboard Layer 0 (Background)
//Storyboard Layer 1 (Fail)
//Storyboard Layer 2 (Pass)
//Storyboard Layer 3 (Foreground)
//Storyboard Sound Samples

[TimingPoints]
1227,291.26213592233,4,2,2,25,1,0
2392,-100,4,2,3,35,0,0
3557,-100,4,2,1,55,0,0
12877,-100,4,2,1,45,0,0
31518,-100,4,2,1,60,0,0
33411,-100,4,2,1,60,0,0
33848,-100,4,2,1,50,0,0
36178,-100,4,2,1,60,0,0
38071,-100,4,2,1,60,0,0
38508,-100,4,2,1,50,0,0
39527,-100,4,2,1,60,0,0
40547,-100,4,2,1,20,0,0
40838,-100,4,2,1,65,0,1
51906,-100,4,2,1,60,0,0
52489,-100,4,2,1,55,0,0
61809,-100,4,2,1,45,0,0
68799,-100,4,2,1,55,0,0
71129,-100,4,2,1,55,0,0
80450,-100,4,2,1,60,0,0
82343,-100,4,2,1,60,0,0
82780,-100,4,2,1,50,0,0
85110,-100,4,2,1,60,0,0
87003,-100,4,2,1,60,0,0
87440,-100,4,2,1,50,0,0
88460,-100,4,2,1,60,0,0
89479,-100,4,2,1,20,0,0
89770,-100,4,2,1,65,0,1
100838,-100,4,2,1,60,0,0
101421,-100,4,2,1,55,0,0
108411,-100,4,2,1,50,0,0
110741,-100,4,2,1,55,0,0
119770,-100,4,2,1,35,0,0
120061,-100,4,2,1,65,0,1
131129,-100,4,2,1,60,0,0
131712,-100,4,2,1,65,0,1
148023,-100,4,2,1,50,0,1
148605,-100,4,2,1,50,0,0
149188,-100,4,2,1,60,0,0

[Colours]
Combo1 : 0,204,204
Combo2 : 190,190,190
Combo3 : 221,221,0
Combo4 : 0,217,0
Combo5 : 255,153,0
Combo6 : 221,0,45

[HitObjects]
32,112,3557,6,0,L|144:104,1,110,6|8,0:0|0:0,0:0:0:0:
193,86,3993,2,0,L|393:99,1,165,2|8,0:0|0:0,0:0:0:0:
468,99,4722,2,0,P|460:153|468:219,1,110,2|8,0:0|0:0,0:0:0:0:
426,247,5159,2,0,P|372:238|282:309,1,165,2|8,0:0|0:0,0:0:0:0:
185,342,5887,6,0,P|126:333|73:343,1,110,2|8,0:0|0:0,0:0:0:0:
33,307,6324,2,0,P|77:200|29:80,1,220,2|0,0:0|1:0,0:0:0:0:
15,60,7052,1,2,0:0:0:0:
121,34,7343,1,8,0:0:0:0:
121,34,7489,2,0,P|194:25|267:43,1,110,2|2,0:0|0:0,0:0:0:0:
281,48,7926,1,8,0:0:0:0:
353,130,8217,6,0,L|361:250,1,110,6|8,0:0|0:0,0:0:0:0:
347,293,8654,2,0,L|179:281,1,165,2|8,0:0|0:0,0:0:0:0:
77,248,9382,2,0,P|69:200|77:136,1,110,2|8,0:0|0:0,0:0:0:0:
110,96,9819,2,0,P|191:78|299:109,1,165,2|8,0:0|0:0,0:0:0:0:
369,142,10547,6,0,P|385:198|369:254,1,110,2|8,0:0|0:0,0:0:0:0:
375,302,10984,2,0,B|404:352|404:352|472:277|471:200,1,220,2|0,0:0|1:0,0:0:0:0:
467,152,11712,1,2,0:0:0:0:
372,95,12003,1,8,0:0:0:0:
372,95,12149,2,0,P|296:74|223:126,1,165,2|0,0:0|3:0,0:0:0:0:
141,186,12877,6,0,L|126:72,2,110,4|8|0,0:0|0:0|0:0,0:0:0:0:
213,270,13751,1,8,0:0:0:0:
213,270,13896,2,0,P|152:248|50:285,1,165,0|8,0:0|0:0,0:0:0:0:
10,177,14625,2,0,P|18:124|7:70,1,110,0|8,3:0|0:0,0:0:0:0:
116,70,15207,6,0,P|108:123|119:177,2,110,0|8|0,3:0|0:0|3:0,0:0:0:0:
215,22,16081,1,8,0:0:0:0:
215,22,16226,2,0,L|391:13,1,165,0|8,1:0|0:0,0:0:0:0:
385,124,16955,2,0,L|259:117,1,110,0|8,3:0|0:0,0:0:0:0:
168,96,17537,6,0,P|158:142|181:210,2,110,4|8|0,0:0|0:0|3:0,0:0:0:0:
261,37,18411,1,8,0:0:0:0:
261,37,18557,2,0,P|347:61|450:19,1,165,0|8,3:0|0:0,0:0:0:0:
491,124,19285,2,0,P|498:182|488:253,1,110,0|8,3:0|0:0,0:0:0:0:
410,306,19867,6,0,L|282:317,2,110,0|8|0,0:0|0:0|3:0,0:0:0:0:
377,200,20741,1,8,0:0:0:0:
377,200,20887,2,0,L|159:218,1,165,0|8,1:0|0:0,0:0:0:0:
139,131,21615,2,0,L|248:121,1,110,0|8,3:0|0:0,0:0:0:0:
358,112,22197,5,4,0:0:0:0:
412,207,22489,2,0,P|426:258|414:326,1,110,8|0,0:0|3:0,0:0:0:0:
320,362,23071,1,8,0:0:0:0:
210,366,23362,2,0,L|153:374,2,55,0|0|8,0:0|0:0|0:0,0:0:0:0:
241,320,23799,1,0,0:0:0:0:
225,210,24091,1,0,0:0:0:0:
225,210,24236,1,8,0:0:0:0:
333,191,24527,6,0,L|387:183,1,55,0|0,0:0|0:0,0:0:0:0:
345,81,24964,1,0,0:0:0:0:
345,81,25110,2,0,L|290:72,1,55,0|0,3:0|0:0,0:0:0:0:
180,75,25547,2,0,L|96:87,2,55,0|0|0,1:0|0:0|0:0,0:0:0:0:
156,182,26129,2,0,B|174:214|173:260|173:260|220:281|268:337,1,165,0|8,0:0|0:0,0:0:0:0:
351,320,26858,6,0,P|366:262|350:188,1,110,4|8,0:0|0:0,0:0:0:0:
318,110,27440,2,0,P|263:115|210:100,1,110,0|8,3:0|0:0,0:0:0:0:
155,104,27877,2,0,P|139:156|145:211,1,110,0|0,0:0|0:0,0:0:0:0:
169,259,28314,1,8,0:0:0:0:
230,350,28605,2,0,P|282:365|337:359,1,110,0|8,3:0|0:0,0:0:0:0:
396,266,29188,6,0,P|440:267|514:252,2,110,0|8|0,0:0|0:0|3:0,0:0:0:0:
291,230,30061,1,8,0:0:0:0:
291,230,30207,1,0,1:0:0:0:
291,230,30353,2,0,P|240:224|178:235,1,110,0|8,0:0|0:0,0:0:0:0:
84,283,30935,2,0,P|86:243|81:200,1,55,8|8,0:0|0:0,0:0:0:0:
97,174,31226,2,0,P|94:146|95:119,1,55,8|8,0:0|0:0,0:0:0:0:
130,76,31518,6,0,P|188:86|240:70,2,110,4|8|8,0:0|0:0|0:0,0:0:0:0:
23,46,32392,1,8,0:0:0:0:
23,46,32537,2,0,L|32:241,1,165,6|8,0:0|0:0,0:0:0:0:
71,313,33265,1,8,0:0:0:0:
71,313,33411,2,0,P|123:321|175:303,1,110,6|2,0:0|0:0,0:0:0:0:
226,280,33848,6,0,L|338:272,1,110,4|8,0:0|0:0,0:0:0:0:
445,265,34430,1,0,3:0:0:0:
500,169,34722,1,8,0:0:0:0:
395,133,35013,2,0,L|275:141,1,110,0|8,3:0|0:0,0:0:0:0:
248,244,35595,2,0,L|83:236,1,165,8|0,3:0|3:0,0:0:0:0:
34,210,36178,6,0,L|18:98,1,110,4|8,0:0|0:0,0:0:0:0:
124,71,36761,2,0,P|176:82|244:67,1,110,8|0,0:0|0:0,0:0:0:0:
284,60,37197,2,0,P|364:43|466:73,1,165,6|8,0:0|0:0,0:0:0:0:
473,167,37926,1,8,0:0:0:0:
473,167,38071,2,0,L|465:279,1,110,6|2,0:0|0:0,0:0:0:0:
428,318,38508,6,0,L|305:309,1,110,4|8,0:0|0:0,0:0:0:0:
270,210,39091,2,0,L|379:217,1,110,0|8,3:0|0:0,0:0:0:0:
434,219,39527,2,0,B|446:134|446:134|392:48,1,165,6|8,0:0|3:0,0:0:0:0:
366,26,40110,1,8,3:0:0:0:
366,26,40256,1,8,3:0:0:0:
149,62,40838,6,0,P|139:103|150:171,1,110,6|8,0:0|0:0,0:0:0:0:
200,193,41275,2,0,P|220:252|193:365,1,165,10|8,3:0|0:0,0:0:0:0:
311,351,42003,2,0,L|378:345,1,55,2|2,0:0|0:0,0:0:0:0:
418,330,42294,1,0,0:0:0:0:
418,330,42440,2,0,P|398:242|432:153,1,165,10|10,3:0|0:0,0:0:0:0:
473,76,43168,6,0,P|425:60|358:86,1,110,2|8,0:0|0:0,0:0:0:0:
328,113,43605,2,0,P|270:125|190:101,1,110,8|0,3:0|0:0,0:0:0:0:
171,91,44042,1,8,0:0:0:0:
62,115,44333,2,0,L|46:199,1,55,2|2,0:0|0:0,0:0:0:0:
42,223,44625,1,8,0:0:0:0:
42,223,44770,2,0,P|111:235|156:273,1,110,10|2,3:0|0:0,0:0:0:0:
178,299,45207,1,8,0:0:0:0:
282,265,45498,6,0,P|271:204|283:146,1,110,6|8,0:0|0:0,0:0:0:0:
310,111,45935,2,0,L|482:120,1,165,10|8,3:0|0:0,0:0:0:0:
492,232,46663,2,0,P|501:270|502:330,1,55,2|2,0:0|0:0,0:0:0:0:
497,341,46955,1,8,0:0:0:0:
497,341,47100,2,0,P|426:318|327:351,1,165,10|10,3:0|0:0,0:0:0:0:
230,338,47828,6,0,L|246:226,1,110,2|8,0:0|0:0,0:0:0:0:
266,178,48265,2,0,L|249:59,1,110,10|0,3:0|0:0,0:0:0:0:
242,14,48702,1,8,0:0:0:0:
134,33,48993,2,0,L|121:128,1,55,2|2,0:0|0:0,0:0:0:0:
122,142,49285,1,8,0:0:0:0:
122,142,49430,2,0,L|140:275,1,110,10|0,3:0|0:0,0:0:0:0:
147,305,49867,1,10,0:0:0:0:
251,339,50159,6,0,P|308:348|371:331,1,110,6|8,0:0|0:0,0:0:0:0:
370,283,50595,1,6,0:0:0:0:
370,283,50741,2,0,P|379:226|362:163,1,110,0|8,0:0|3:0,0:0:0:0:
330,134,51178,2,0,B|248:154|202:98|202:98|159:156|48:137,1,275,6|10,0:0|3:0,0:0:0:0:
16,351,52489,6,0,P|71:361|129:350,1,110,6|8,0:0|0:0,0:0:0:0:
173,328,52926,2,0,P|248:306|363:348,1,165,2|8,0:0|0:0,0:0:0:0:
420,260,53654,2,0,P|430:205|419:147,1,110,2|8,0:0|0:0,0:0:0:0:
370,129,54091,2,0,P|293:150|207:122,1,165,2|8,0:0|0:0,0:0:0:0:
103,139,54819,6,0,L|109:271,1,110,2|8,0:0|0:0,0:0:0:0:
118,302,55256,2,0,L|346:290,1,220,2|0,0:0|1:0,0:0:0:0:
392,284,55984,1,2,0:0:0:0:
467,204,56275,1,8,0:0:0:0:
467,204,56421,2,0,P|458:150|482:76,1,110,2|2,0:0|0:0,0:0:0:0:
491,45,56858,1,8,0:0:0:0:
381,36,57149,6,0,L|265:27,1,110,6|8,0:0|0:0,0:0:0:0:
223,54,57586,2,0,L|236:229,1,165,2|8,0:0|0:0,0:0:0:0:
273,322,58314,2,0,P|335:309|394:326,1,110,2|8,0:0|0:0,0:0:0:0:
433,330,58751,2,0,P|412:250|455:156,1,165,2|8,0:0|0:0,0:0:0:0:
348,111,59479,6,0,L|204:100,1,110,2|8,0:0|0:0,0:0:0:0:
183,101,59916,2,0,B|127:118|50:113|50:113|79:165|76:212,1,220,2|0,0:0|1:0,0:0:0:0:
95,245,60644,1,2,0:0:0:0:
126,350,60935,1,8,0:0:0:0:
126,350,61081,2,0,L|290:338,1,165,2|0,0:0|3:0,0:0:0:0:
332,236,61809,6,0,P|336:185|314:123,2,110,4|8|0,0:0|0:0|0:0,0:0:0:0:
379,342,62683,1,8,0:0:0:0:
379,342,62828,2,0,P|457:302|463:211,1,165,0|8,0:0|0:0,0:0:0:0:
437,125,63557,1,0,0:0:0:0:
361,44,63848,1,8,0:0:0:0:
339,151,64139,6,0,P|288:139|215:155,1,110,0|8,1:0|0:0,0:0:0:0:
195,189,64576,1,0,0:0:0:0:
195,189,64722,2,0,P|206:254|259:302,1,110,0|8,0:0|0:0,0:0:0:0:
325,347,65304,2,0,L|96:334,1,220,0|0,0:0|0:0,0:0:0:0:
27,256,66178,1,8,0:0:0:0:
32,146,66469,6,0,L|39:8,1,110,0|8,1:0|0:0,0:0:0:0:
147,49,67052,2,0,P|199:57|259:49,1,110,0|8,0:0|0:0,0:0:0:0:
361,80,67634,2,0,P|353:132|361:192,1,110,0|8,0:0|0:0,0:0:0:0:
404,289,68217,1,0,0:0:0:0:
329,370,68508,1,8,0:0:0:0:
244,299,68799,5,6,0:0:0:0:
435,24,69964,6,0,L|216:48,1,220,10|8,3:0|3:0,0:0:0:0:
13,135,71129,6,0,P|14:193|26:247,1,110,6|8,0:0|0:0,0:0:0:0:
121,296,71712,2,0,P|179:295|233:283,1,110,0|8,3:0|0:0,0:0:0:0:
336,260,72294,1,0,0:0:0:0:
422,191,72586,2,0,L|407:63,1,110,8|0,0:0|3:0,0:0:0:0:
303,51,73168,2,0,L|226:60,1,55,10|2,0:0|0:0,0:0:0:0:
200,84,73460,6,0,P|214:141|211:203,1,110,2|8,0:0|0:0,0:0:0:0:
181,297,74042,1,0,3:0:0:0:
74,324,74333,1,8,0:0:0:0:
74,324,74479,2,0,P|60:267|83:143,2,165,0|8|0,1:0|0:0|0:0,0:0:0:0:
114,360,75498,1,8,0:0:0:0:
224,360,75790,6,0,P|291:358|336:339,1,110,4|8,0:0|0:0,0:0:0:0:
419,277,76372,2,0,P|417:210|398:165,1,110,0|8,3:0|0:0,0:0:0:0:
304,117,76955,2,0,L|183:108,1,110,0|8,3:0|0:0,0:0:0:0:
195,218,77537,2,0,L|304:209,1,110,0|8,3:0|0:0,0:0:0:0:
414,213,78120,6,0,P|424:283|412:339,2,110,0|8|0,0:0|0:0|3:0,0:0:0:0:
371,111,78993,1,8,0:0:0:0:
371,111,79139,2,0,L|195:124,1,165,0|8,1:0|0:0,0:0:0:0:
118,189,79867,2,0,P|124:226|117:262,1,55,8|8,0:0|0:0,0:0:0:0:
140,295,80159,2,0,P|134:321|135:349,1,55,8|8,0:0|0:0,0:0:0:0:
185,373,80450,6,0,P|242:376|295:367,2,110,4|8|8,0:0|0:0|0:0,0:0:0:0:
85,325,81324,1,8,0:0:0:0:
85,325,81469,2,0,L|77:160,1,165,6|8,0:0|0:0,0:0:0:0:
132,64,82197,1,8,0:0:0:0:
132,64,82343,2,0,P|184:72|263:54,1,110,6|2,0:0|0:0,0:0:0:0:
293,75,82780,6,0,L|301:187,1,110,4|8,0:0|0:0,0:0:0:0:
310,294,83362,1,0,3:0:0:0:
200,302,83654,1,8,0:0:0:0:
193,192,83945,2,0,L|185:80,1,110,0|8,3:0|0:0,0:0:0:0:
286,40,84527,2,0,P|367:19|460:45,1,165,8|0,3:0|3:0,0:0:0:0:
458,90,85110,6,0,L|442:202,1,110,4|8,0:0|0:0,0:0:0:0:
372,284,85693,2,0,P|320:295|254:275,1,110,8|0,0:0|0:0,0:0:0:0:
224,246,86129,2,0,P|244:168|219:74,1,165,6|8,0:0|0:0,0:0:0:0:
115,77,86858,1,8,0:0:0:0:
115,77,87003,2,0,L|107:189,1,110,6|2,0:0|0:0,0:0:0:0:
116,241,87440,6,0,P|179:235|238:252,1,110,4|8,0:0|0:0,0:0:0:0:
323,198,88023,2,0,P|376:209|430:202,1,110,0|8,3:0|0:0,0:0:0:0:
484,186,88460,6,0,B|475:91|475:91|417:41,1,165,6|8,0:0|3:0,0:0:0:0:
373,19,89042,1,8,3:0:0:0:
373,19,89188,1,8,3:0:0:0:
153,10,89770,6,2,P|155:71|165:123,1,110,6|8,0:0|0:0,0:0:0:0:
202,158,90207,2,2,P|283:158|387:177,1,165,10|8,3:0|0:0,0:0:0:0:
460,228,90935,2,0,L|450:316,1,55,2|2,0:0|0:0,0:0:0:0:
415,321,91226,1,8,0:0:0:0:
415,321,91372,2,0,L|221:301,1,165,10|10,3:0|0:0,0:0:0:0:
144,276,92100,6,0,P|159:220|152:151,1,110,2|8,0:0|0:0,0:0:0:0:
170,115,92537,1,10,3:0:0:0:
170,115,92683,2,0,P|224:117|277:102,1,110,0|8,0:0|0:0,0:0:0:0:
344,189,93265,2,0,L|352:275,1,55,2|2,0:0|0:0,0:0:0:0:
355,298,93557,1,8,0:0:0:0:
355,298,93702,2,0,L|216:284,1,110,10|2,3:0|0:0,0:0:0:0:
190,279,94139,1,8,0:0:0:0:
87,239,94430,6,0,P|83:178|99:118,1,110,6|8,0:0|0:0,0:0:0:0:
138,98,94867,2,0,P|223:89|306:113,1,165,10|8,3:0|0:0,0:0:0:0:
382,180,95595,2,0,P|384:210|376:240,1,55,2|2,0:0|0:0,0:0:0:0:
363,287,95887,1,8,0:0:0:0:
363,287,96032,2,0,P|278:278|195:302,1,165,10|10,3:0|0:0,0:0:0:0:
99,272,96760,6,0,L|108:153,1,110,2|8,0:0|0:0,0:0:0:0:
128,111,97197,1,10,3:0:0:0:
128,111,97343,2,0,L|256:120,1,110,0|8,0:0|0:0,0:0:0:0:
334,171,97926,2,0,L|410:164,1,55,2|2,0:0|0:0,0:0:0:0:
443,162,98217,1,8,0:0:0:0:
443,162,98362,2,0,P|471:217|418:332,1,165,10|10,3:0|0:0,0:0:0:0:
344,362,99091,6,0,L|224:371,1,110,6|8,0:0|0:0,0:0:0:0:
181,357,99527,1,6,0:0:0:0:
181,357,99673,2,0,P|184:291|169:216,1,110,0|8,0:0|0:0,0:0:0:0:
192,195,100110,2,0,B|242:175|294:192|294:192|359:140|359:140|403:164|456:161,1,275,6|10,0:0|3:0,0:0:0:0:
264,132,110741,6,0,B|195:121|147:172|147:172|92:178|45:140,2,220,12|2|2,0:0|0:0|0:0,0:0:0:0:
364,176,112197,1,10,0:0:0:0:
364,176,112343,2,0,B|359:296,1,110,10|0,0:0|0:0,0:0:0:0:
356,340,112780,1,8,0:0:0:0:
246,328,113071,6,0,B|166:286|93:354|93:354|73:329|23:323,2,220,0|2|2,3:0|0:0|0:0,0:0:0:0:
352,299,114527,2,0,P|379:294|406:292,1,55,10|8,0:0|0:0,0:0:0:0:
456,194,114964,2,0,P|460:166|462:139,1,55,0|0,3:0|0:0,0:0:0:0:
394,53,115401,6,0,B|330:-16|260:16|260:16|255:53|224:81,2,220,4|2|2,0:0|0:0|0:0,0:0:0:0:
419,160,116858,1,10,0:0:0:0:
419,160,117003,2,0,P|355:153|286:177,1,110,10|0,0:0|0:0,0:0:0:0:
261,188,117440,1,8,0:0:0:0:
227,292,117731,5,8,3:0:0:0:
293,342,119770,1,0,3:0:0:0:
188,307,120061,6,0,P|178:245|191:165,1,110,6|8,0:0|0:0,0:0:0:0:
220,158,120498,2,0,P|293:187|402:137,1,165,10|8,3:0|0:0,0:0:0:0:
460,232,121226,2,0,L|456:300,1,55,2|2,0:0|0:0,0:0:0:0:
452,342,121518,1,8,0:0:0:0:
452,342,121663,2,0,P|382:323|272:355,1,165,10|10,3:0|0:0,0:0:0:0:
185,367,122392,6,0,L|179:257,1,110,2|8,0:0|0:0,0:0:0:0:
218,219,122828,2,0,L|224:87,1,110,10|0,3:0|0:0,0:0:0:0:
226,54,123265,1,8,0:0:0:0:
335,39,123557,2,0,P|371:41|426:32,1,55,2|2,0:0|0:0,0:0:0:0:
444,38,123848,1,8,0:0:0:0:
444,38,123993,2,0,P|439:98|450:181,1,110,10|0,3:0|0:0,0:0:0:0:
457,200,124430,1,8,0:0:0:0:
396,292,124722,6,0,B|260:286,1,110,6|8,0:0|0:0,0:0:0:0:
240,317,125159,2,0,P|162:297|80:337,1,165,10|8,3:0|0:0,0:0:0:0:
29,236,125887,2,0,L|35:164,1,55,2|2,0:0|0:0,0:0:0:0:
37,126,126178,1,8,0:0:0:0:
37,126,126324,2,0,P|118:155|199:126,1,165,10|10,3:0|0:0,0:0:0:0:
300,129,127052,6,0,P|291:192|300:261,1,110,2|8,0:0|0:0,0:0:0:0:
275,289,127489,2,0,P|216:277|141:296,1,110,10|0,3:0|0:0,0:0:0:0:
116,305,127926,1,8,0:0:0:0:
70,204,128217,2,0,L|80:137,1,55,2|2,0:0|0:0,0:0:0:0:
95,97,128508,1,8,0:0:0:0:
95,97,128654,2,0,P|151:87|211:88,1,110,10|0,3:0|0:0,0:0:0:0:
259,88,129091,1,8,0:0:0:0:
340,161,129382,6,0,P|398:170|465:153,1,110,6|8,0:0|0:0,0:0:0:0:
483,202,129819,1,6,0:0:0:0:
483,202,129964,2,0,P|492:256|483:310,1,110,0|8,0:0|0:0,0:0:0:0:
429,324,130401,2,0,B|356:291|291:329|291:329|221:340|154:312,1,275,6|8,0:0|3:0,0:0:0:0:
84,236,131421,1,0,3:0:0:0:
98,127,131712,6,0,P|145:111|211:123,1,110,6|8,0:0|0:0,0:0:0:0:
254,140,132149,2,0,P|332:159|421:109,1,165,10|8,3:0|0:0,0:0:0:0:
476,210,132877,2,0,L|480:271,1,55,2|2,0:0|0:0,0:0:0:0:
477,319,133168,1,8,0:0:0:0:
477,319,133314,2,0,B|439:320|406:347|406:347|369:318|308:298,1,165,10|10,3:0|0:0,0:0:0:0:
270,212,134042,6,0,L|135:229,1,110,2|8,0:0|0:0,0:0:0:0:
105,225,134479,1,10,3:0:0:0:
105,225,134625,2,0,P|115:170|102:96,1,110,0|8,0:0|0:0,0:0:0:0:
193,46,135207,2,0,L|249:42,1,55,2|2,0:0|0:0,0:0:0:0:
302,46,135498,1,8,0:0:0:0:
302,46,135644,2,0,L|293:170,1,110,10|0,3:0|0:0,0:0:0:0:
291,210,136081,1,8,0:0:0:0:
276,318,136372,6,0,P|222:305|165:316,1,110,6|8,0:0|0:0,0:0:0:0:
118,292,136809,2,0,P|129:249|97:117,1,165,10|8,3:0|0:0,0:0:0:0:
201,76,137537,2,0,P|238:78|281:69,1,55,2|2,0:0|0:0,0:0:0:0:
309,62,137828,1,8,0:0:0:0:
309,62,137974,2,0,B|349:43|395:55|395:55|400:95|442:138,1,165,10|8,3:0|0:0,0:0:0:0:
366,214,138702,6,0,P|320:216|276:222,1,55,2|0,0:0|0:0,0:0:0:0:
259,197,138993,2,0,P|232:197|205:195,1,55,8|10,0:0|3:0,0:0:0:0:
148,194,139285,2,0,P|160:253|130:341,1,110,2|8,0:0|0:0,0:0:0:0:
144,356,139722,2,0,P|194:345|259:359,1,110,2|2,0:0|0:0,0:0:0:0:
353,314,140304,2,0,P|364:238|339:141,1,165,10|10,3:0|0:0,0:0:0:0:
267,74,141032,6,0,P|209:87|158:75,1,110,6|8,0:0|0:0,0:0:0:0:
108,94,141469,1,6,0:0:0:0:
108,94,141615,2,0,P|121:152|109:203,1,110,0|8,0:0|0:0,0:0:0:0:
74,243,142052,2,0,B|35:319|57:379|57:379|133:351|215:379,1,275,6|8,0:0|3:0,0:0:0:0:
408,367,143362,6,0,L|396:249,1,110,6|8,0:0|0:0,0:0:0:0:
386,203,143799,1,6,0:0:0:0:
386,203,143945,2,0,L|276:191,1,110,0|8,0:0|0:0,0:0:0:0:
247,144,144382,2,0,B|182:143|143:120|143:120|103:169|103:169|53:137|-9:144,1,275,6|8,0:0|0:0,0:0:0:0:
36,360,145693,6,0,P|100:360|173:349,1,110,6|8,0:0|0:0,0:0:0:0:
198,339,146129,1,6,0:0:0:0:
198,339,146275,2,0,P|262:339|335:350,1,110,0|8,0:0|0:0,0:0:0:0:
359,363,146712,2,0,B|384:272|312:211|312:211|355:160|355:160|286:104|336:17,1,385,6|8,0:0|3:0,0:0:0:0:
439,9,148023,5,12,3:0:0:0:
465,227,148605,1,14,0:0:0:0:
245,211,149188,6,0,P|160:244|268:329,1,275,8|8,3:0|0:0,0:0:0:0:
337,269,150207,1,4,0:0:0:0:
